osu file format v14

[General]
AudioFilename: audio.mp3
AudioLeadIn: 0
PreviewTime: 77228
Countdown: 0
SampleSet: Normal
StackLeniency: 0.7
Mode: 1
LetterboxInBreaks: 0
WidescreenStoryboard: 1

[Editor]
DistanceSpacing: 1.2
BeatDivisor: 4
GridSize: 32
TimelineZoom: 1.4

[Metadata]
Title:Wings of Courage -Sora o Koete-
TitleUnicode:Wings of Courage -空を超えて-
Artist:Kawada Mami
ArtistUnicode:川田まみ
Creator:ler1211
Version:Oni
Source:蒼の彼方のフォーリズム
Tags:sprite ao no kanata no four rhythm visual novel vn videogame video game firmament Aokana: Four Rhythm Across the Blue japanese j-pop jpop female vocals solo kurashina asuka tobisawa misaki arisaka mashiro ichinose rika C85 SPR002C85 Tomoyuki Nakazawa 中沢 伴行 Takeshi Ozaki 尾崎 武士
BeatmapID:2937027
BeatmapSetID:1426251

[Difficulty]
HPDrainRate:5
CircleSize:5
OverallDifficulty:5
ApproachRate:9
SliderMultiplier:1.4
SliderTickRate:1

[Events]
//Background and Video events
0,0,"aokana bg.jpg",0,0
//Break Periods
2,177179,188380
//Storyboard Layer 0 (Background)
//Storyboard Layer 1 (Fail)
//Storyboard Layer 2 (Pass)
//Storyboard Layer 3 (Foreground)
//Storyboard Layer 4 (Overlay)
//Storyboard Sound Samples

[TimingPoints]
1479,375,4,1,0,40,1,0
1479,-166.666666666667,4,1,0,40,0,0
8604,-125,4,1,0,40,0,0
14791,-125,4,1,0,60,0,0
14979,-100,4,1,0,60,0,0
38885,-100,4,1,0,55,0,0
44885,-100,4,1,0,70,0,0
50885,-100,4,1,0,55,0,0
56885,-100,4,1,0,70,0,0
61947,-100,4,1,0,55,0,0
62885,-100,4,1,0,65,0,0
70854,-98.0392156862745,4,1,0,65,0,0
71041,-97.0873786407767,4,1,0,65,0,0
71229,-96.1538461538461,4,1,0,65,0,0
71416,-95.2380952380952,4,1,0,65,0,0
71604,-94.3396226415094,4,1,0,65,0,0
73666,-90.9090909090909,4,1,0,65,0,0
76104,-90.9090909090909,4,1,0,80,0,0
76291,-74.0740740740741,4,1,0,80,0,0
77041,-74.0740740740741,4,1,0,70,0,0
77229,-90.9090909090909,4,1,0,70,0,0
77979,-90.9090909090909,4,1,0,70,0,1
98978,-92.5925925925926,4,1,0,70,0,1
99072,-93.4579439252336,4,1,0,70,0,1
99166,-94.3396226415094,4,1,0,70,0,1
99353,-96.1538461538461,4,1,0,70,0,1
99447,-97.0873786407767,4,1,0,70,0,1
99541,-98.0392156862745,4,1,0,70,0,1
99634,-99.009900990099,4,1,0,70,0,1
99728,-100,4,1,0,70,0,1
99916,-80,4,1,0,70,0,1
100479,-95.2380952380952,4,1,0,70,0,1
100854,-97.0873786407767,4,1,0,70,0,1
101041,-98.0392156862745,4,1,0,70,0,1
101416,-100,4,1,0,70,0,1
101885,-100,4,1,0,60,0,1
101979,-100,4,1,0,60,0,0
113885,-100,4,1,0,55,0,0
119885,-100,4,1,0,70,0,0
125885,-100,4,1,0,55,0,0
131885,-100,4,1,0,70,0,0
136947,-100,4,1,0,55,0,0
137885,-100,4,1,0,65,0,0
145853,-98.0392156862745,4,1,0,65,0,0
146041,-97.0873786407767,4,1,0,65,0,0
146228,-96.1538461538461,4,1,0,65,0,0
146416,-95.2380952380952,4,1,0,65,0,0
146603,-94.3396226415094,4,1,0,65,0,0
148666,-90.9090909090909,4,1,0,65,0,0
151104,-90.9090909090909,4,1,0,80,0,0
151291,-74.0740740740741,4,1,0,80,0,0
152041,-74.0740740740741,4,1,0,70,0,0
152229,-90.9090909090909,4,1,0,70,0,0
152979,-90.9090909090909,4,1,0,70,0,1
173978,-92.5925925925926,4,1,0,70,0,1
174072,-93.4579439252336,4,1,0,70,0,1
174166,-94.3396226415094,4,1,0,70,0,1
174353,-96.1538461538461,4,1,0,70,0,1
174447,-97.0873786407767,4,1,0,70,0,1
174541,-98.0392156862745,4,1,0,70,0,1
174634,-99.009900990099,4,1,0,70,0,1
174728,-100,4,1,0,70,0,1
174916,-80,4,1,0,70,0,1
175479,-90.9090909090909,4,1,0,70,0,1
176979,-100,4,1,0,60,0,0
188791,-100,4,1,0,40,0,0
188979,-125,4,1,0,40,0,0
200791,-111.111111111111,4,1,0,55,0,0
200979,-100,4,1,0,55,0,0
218885,-100,4,1,0,65,0,0
219354,-98.0392156862745,4,1,0,65,0,0
221229,-96.1538461538461,4,1,0,65,0,0
224041,-94.3396226415094,4,1,0,65,0,0
224135,-93.4579439252336,4,1,0,75,0,0
224229,-92.5925925925926,4,1,0,75,0,0
224322,-91.743119266055,4,1,0,75,0,0
224416,-90.9090909090909,4,1,0,75,0,0
224510,-90.0900900900901,4,1,0,75,0,0
224604,-89.2857142857143,4,1,0,75,0,0
227791,-89.2857142857143,4,1,0,65,0,0
227979,-83.3333333333333,4,1,0,65,0,0
230041,-83.3333333333333,4,1,0,40,0,0
230229,-133.333333333333,4,1,0,40,0,0
235854,-125,4,1,0,40,0,0
236604,-111.111111111111,4,1,0,40,0,0
236791,-105.263157894737,4,1,0,40,0,0
236885,-105.263157894737,4,1,0,65,0,0
236979,-100,4,1,0,65,0,1
251978,-102.040816326531,4,1,0,65,0,1
252072,-103.092783505155,4,1,0,65,0,1
252166,-104.166666666667,4,1,0,65,0,1
252353,-106.382978723404,4,1,0,65,0,1
252447,-107.52688172043,4,1,0,65,0,1
252541,-108.695652173913,4,1,0,65,0,1
252634,-109.89010989011,4,1,0,65,0,1
252728,-111.111111111111,4,1,0,65,0,1
252916,-80,4,1,0,65,0,1
253479,-90.9090909090909,4,1,0,65,0,1
253854,-93.4579439252336,4,1,0,65,0,1
254416,-97.0873786407767,4,1,0,65,0,1
254604,-98.0392156862745,4,1,0,65,0,1
254791,-99.009900990099,4,1,0,65,0,1
254885,-99.009900990099,4,1,0,60,0,1
254979,-100,4,1,0,60,0,0
266041,-100,4,1,0,50,0,0
278791,-100,4,1,0,40,0,0
279729,-100,4,1,0,30,0,0
280479,-100,4,1,0,20,0,0
281229,-100,4,1,0,10,0,0
281979,-100,4,1,0,5,0,0
284979,-100,4,1,0,60,0,0

[HitObjects]
255,192,2980,5,2,0:0:0:0:
255,192,5980,1,0,0:0:0:0:
257,190,8604,1,2,0:0:0:0:
257,190,8979,1,0,0:0:0:0:
257,190,9354,1,2,0:0:0:0:
257,190,9542,1,0,0:0:0:0:
257,190,9917,1,2,0:0:0:0:
257,190,10104,1,0,0:0:0:0:
257,190,10292,1,0,0:0:0:0:
257,190,10479,1,2,0:0:0:0:
257,190,10854,1,0,0:0:0:0:
257,190,11042,1,2,0:0:0:0:
257,190,11417,1,0,0:0:0:0:
257,190,11604,1,0,0:0:0:0:
257,190,11792,1,2,0:0:0:0:
257,190,11980,1,2,0:0:0:0:
257,190,12355,1,0,0:0:0:0:
257,190,12542,1,0,0:0:0:0:
257,190,12917,1,4,0:0:0:0:
257,190,13479,1,6,0:0:0:0:
254,189,14979,1,4,0:0:0:0:
254,189,15166,1,0,0:0:0:0:
254,189,15354,1,2,0:0:0:0:
254,189,15542,1,2,0:0:0:0:
254,189,15729,1,0,0:0:0:0:
254,189,15823,1,0,0:0:0:0:
254,189,15917,1,2,0:0:0:0:
254,189,16104,1,0,0:0:0:0:
254,189,16292,1,2,0:0:0:0:
254,189,16479,1,0,0:0:0:0:
254,189,16573,1,0,0:0:0:0:
254,189,16667,1,2,0:0:0:0:
254,189,16760,1,0,0:0:0:0:
254,189,16854,1,2,0:0:0:0:
254,189,17042,1,0,0:0:0:0:
254,189,17229,1,0,0:0:0:0:
254,189,17417,1,0,0:0:0:0:
254,189,17604,1,2,0:0:0:0:
254,189,17979,1,2,0:0:0:0:
254,189,18167,1,0,0:0:0:0:
254,189,18354,1,2,0:0:0:0:
254,189,18542,1,2,0:0:0:0:
254,189,18729,1,0,0:0:0:0:
254,189,18823,1,0,0:0:0:0:
254,189,18917,1,2,0:0:0:0:
254,189,19104,1,0,0:0:0:0:
254,189,19292,1,2,0:0:0:0:
254,189,19666,1,2,0:0:0:0:
254,189,19855,1,2,0:0:0:0:
254,189,20042,1,0,0:0:0:0:
254,189,20135,1,0,0:0:0:0:
254,189,20229,1,2,0:0:0:0:
254,189,20417,1,0,0:0:0:0:
254,189,20604,1,2,0:0:0:0:
254,189,20979,1,4,0:0:0:0:
254,189,21166,1,0,0:0:0:0:
254,189,21354,1,2,0:0:0:0:
254,189,21542,1,2,0:0:0:0:
254,189,21729,1,0,0:0:0:0:
254,189,21823,1,0,0:0:0:0:
254,189,21917,1,2,0:0:0:0:
254,189,22104,1,0,0:0:0:0:
254,189,22292,1,2,0:0:0:0:
254,189,22479,1,0,0:0:0:0:
254,189,22573,1,0,0:0:0:0:
254,189,22667,1,2,0:0:0:0:
254,189,22760,1,0,0:0:0:0:
254,189,22854,1,2,0:0:0:0:
254,189,23042,1,0,0:0:0:0:
254,189,23229,1,0,0:0:0:0:
254,189,23417,1,0,0:0:0:0:
254,189,23604,1,2,0:0:0:0:
254,189,23979,1,2,0:0:0:0:
254,189,24167,1,0,0:0:0:0:
254,189,24354,1,2,0:0:0:0:
254,189,24447,1,0,0:0:0:0:
254,189,24542,1,2,0:0:0:0:
254,189,24729,1,0,0:0:0:0:
254,189,24917,1,2,0:0:0:0:
254,189,25104,1,0,0:0:0:0:
254,189,25197,1,0,0:0:0:0:
254,189,25292,1,2,0:0:0:0:
254,189,25666,1,2,0:0:0:0:
254,189,25855,1,0,0:0:0:0:
259,187,25947,1,2,0:0:0:0:
254,189,26042,1,0,0:0:0:0:
254,189,26229,1,2,0:0:0:0:
254,189,26417,1,0,0:0:0:0:
254,189,26604,1,2,0:0:0:0:
254,189,26979,1,4,0:0:0:0:
254,189,27166,1,0,0:0:0:0:
254,189,27354,1,2,0:0:0:0:
254,189,27542,1,2,0:0:0:0:
254,189,27729,1,0,0:0:0:0:
254,189,27823,1,0,0:0:0:0:
254,189,27917,1,2,0:0:0:0:
254,189,28104,1,0,0:0:0:0:
254,189,28292,1,2,0:0:0:0:
254,189,28479,1,0,0:0:0:0:
254,189,28573,1,0,0:0:0:0:
254,189,28667,1,2,0:0:0:0:
254,189,28760,1,0,0:0:0:0:
254,189,28854,1,2,0:0:0:0:
254,189,29042,1,0,0:0:0:0:
254,189,29229,1,0,0:0:0:0:
254,189,29417,1,0,0:0:0:0:
254,189,29604,1,2,0:0:0:0:
254,189,29979,1,2,0:0:0:0:
254,189,30167,1,0,0:0:0:0:
254,189,30354,1,2,0:0:0:0:
254,189,30542,1,2,0:0:0:0:
254,189,30729,1,0,0:0:0:0:
254,189,30823,1,0,0:0:0:0:
254,189,30917,1,2,0:0:0:0:
254,189,31104,1,0,0:0:0:0:
254,189,31292,1,2,0:0:0:0:
254,189,31666,1,2,0:0:0:0:
254,189,31855,1,2,0:0:0:0:
254,189,32042,1,0,0:0:0:0:
254,189,32135,1,0,0:0:0:0:
254,189,32229,1,2,0:0:0:0:
254,189,32417,1,0,0:0:0:0:
254,189,32604,1,2,0:0:0:0:
254,189,32979,1,4,0:0:0:0:
254,189,33166,1,0,0:0:0:0:
254,189,33354,1,2,0:0:0:0:
254,189,33542,1,2,0:0:0:0:
254,189,33729,1,0,0:0:0:0:
254,189,33823,1,0,0:0:0:0:
254,189,33917,1,2,0:0:0:0:
254,189,34104,1,0,0:0:0:0:
254,189,34291,1,2,0:0:0:0:
254,189,34666,1,0,0:0:0:0:
254,189,34854,1,2,0:0:0:0:
254,189,35042,1,0,0:0:0:0:
254,189,35135,1,0,0:0:0:0:
254,189,35229,1,2,0:0:0:0:
254,189,35416,1,0,0:0:0:0:
254,189,35604,1,0,0:0:0:0:
254,189,35791,1,6,0:0:0:0:
254,189,36167,1,0,0:0:0:0:
254,189,36354,1,2,0:0:0:0:
254,189,36729,1,0,0:0:0:0:
254,189,36917,1,0,0:0:0:0:
254,189,37104,1,2,0:0:0:0:
254,189,37666,1,0,0:0:0:0:
254,189,37760,1,0,0:0:0:0:
254,189,37854,1,2,0:0:0:0:
254,189,38041,1,2,0:0:0:0:
254,189,38229,1,0,0:0:0:0:
254,189,38416,1,0,0:0:0:0:
254,189,38604,1,6,0:0:0:0:
254,189,38980,1,2,0:0:0:0:
254,189,39167,1,0,0:0:0:0:
254,189,39542,1,2,0:0:0:0:
254,189,39917,1,0,0:0:0:0:
254,189,40105,1,2,0:0:0:0:
254,189,40292,1,2,0:0:0:0:
254,189,40480,1,0,0:0:0:0:
254,189,40667,1,0,0:0:0:0:
254,189,40855,1,2,0:0:0:0:
254,189,41042,1,0,0:0:0:0:
254,189,41230,1,2,0:0:0:0:
254,189,41323,1,2,0:0:0:0:
254,189,41417,1,0,0:0:0:0:
254,189,41605,1,2,0:0:0:0:
254,189,41792,1,2,0:0:0:0:
254,189,42167,1,0,0:0:0:0:
254,189,42355,1,0,0:0:0:0:
254,189,42542,1,2,0:0:0:0:
254,189,42917,1,0,0:0:0:0:
254,189,43104,1,0,0:0:0:0:
254,189,43292,1,2,0:0:0:0:
254,189,43479,1,0,0:0:0:0:
254,189,43667,1,0,0:0:0:0:
254,189,43854,1,2,0:0:0:0:
254,189,44042,1,2,0:0:0:0:
254,189,44417,1,0,0:0:0:0:
254,189,44604,1,2,0:0:0:0:
254,189,44791,1,2,0:0:0:0:
254,189,44979,1,0,0:0:0:0:
254,189,45167,1,0,0:0:0:0:
254,189,45354,1,2,0:0:0:0:
254,189,45635,1,0,0:0:0:0:
254,189,45729,1,2,0:0:0:0:
254,189,45916,1,2,0:0:0:0:
254,189,46104,1,0,0:0:0:0:
254,189,46291,1,2,0:0:0:0:
254,189,46667,1,0,0:0:0:0:
254,189,46854,1,0,0:0:0:0:
254,189,47042,1,2,0:0:0:0:
254,189,47417,1,4,0:0:0:0:
254,189,47604,1,6,0:0:0:0:
254,189,47979,1,0,0:0:0:0:
254,189,48166,1,0,0:0:0:0:
254,189,48354,1,2,0:0:0:0:
254,189,48636,1,2,0:0:0:0:
254,189,48730,1,0,0:0:0:0:
254,189,48917,1,0,0:0:0:0:
254,189,49105,1,2,0:0:0:0:
254,189,49292,1,0,0:0:0:0:
254,189,49667,1,0,0:0:0:0:
254,189,49854,1,0,0:0:0:0:
254,189,50042,1,2,0:0:0:0:
254,189,50417,1,4,0:0:0:0:
254,189,50604,1,6,0:0:0:0:
254,189,50979,1,2,0:0:0:0:
254,189,51166,1,0,0:0:0:0:
254,189,51541,1,2,0:0:0:0:
254,189,51916,1,0,0:0:0:0:
254,189,52104,1,2,0:0:0:0:
254,189,52291,1,2,0:0:0:0:
254,189,52479,1,0,0:0:0:0:
254,189,52666,1,0,0:0:0:0:
254,189,52854,1,2,0:0:0:0:
254,189,53041,1,0,0:0:0:0:
254,189,53229,1,2,0:0:0:0:
254,189,53322,1,2,0:0:0:0:
254,189,53416,1,0,0:0:0:0:
254,189,53604,1,2,0:0:0:0:
254,189,53791,1,2,0:0:0:0:
254,189,54166,1,0,0:0:0:0:
254,189,54354,1,2,0:0:0:0:
254,189,54541,1,2,0:0:0:0:
254,189,54916,1,0,0:0:0:0:
254,189,55103,1,0,0:0:0:0:
254,189,55291,1,2,0:0:0:0:
254,189,55478,1,0,0:0:0:0:
254,189,55666,1,0,0:0:0:0:
254,189,55853,1,2,0:0:0:0:
254,189,56041,1,2,0:0:0:0:
254,189,56416,1,0,0:0:0:0:
254,189,56603,1,2,0:0:0:0:
254,189,56790,1,2,0:0:0:0:
254,189,56978,1,0,0:0:0:0:
254,189,57166,1,0,0:0:0:0:
254,189,57353,1,2,0:0:0:0:
254,189,57634,1,0,0:0:0:0:
254,189,57728,1,2,0:0:0:0:
254,189,57915,1,2,0:0:0:0:
254,189,58103,1,0,0:0:0:0:
254,189,58290,1,2,0:0:0:0:
254,189,58666,1,0,0:0:0:0:
254,189,58853,1,0,0:0:0:0:
254,189,59041,1,2,0:0:0:0:
254,189,59416,1,4,0:0:0:0:
254,189,59603,1,6,0:0:0:0:
254,189,59978,1,0,0:0:0:0:
254,189,60165,1,0,0:0:0:0:
254,189,60353,1,2,0:0:0:0:
254,189,60635,1,2,0:0:0:0:
254,189,60729,1,0,0:0:0:0:
254,189,60916,1,0,0:0:0:0:
254,189,61104,1,2,0:0:0:0:
254,189,61291,1,0,0:0:0:0:
254,189,61666,1,0,0:0:0:0:
254,189,61853,1,0,0:0:0:0:
254,189,62041,1,2,0:0:0:0:
254,189,62229,1,2,0:0:0:0:
254,189,62417,1,0,0:0:0:0:
254,189,62603,1,2,0:0:0:0:
254,189,62697,1,2,0:0:0:0:
254,189,62791,1,2,0:0:0:0:
254,189,62979,1,0,0:0:0:0:
254,189,63354,1,0,0:0:0:0:
254,189,63729,1,2,0:0:0:0:
254,189,64104,1,0,0:0:0:0:
254,189,64479,1,2,0:0:0:0:
254,189,64854,1,2,0:0:0:0:
254,189,65229,1,0,0:0:0:0:
254,189,65604,1,2,0:0:0:0:
254,189,65980,1,2,0:0:0:0:
254,189,66167,1,0,0:0:0:0:
254,189,66355,1,0,0:0:0:0:
254,189,66542,1,2,0:0:0:0:
254,189,66730,1,0,0:0:0:0:
254,189,67104,1,2,0:0:0:0:
254,189,67292,1,2,0:0:0:0:
254,189,67667,1,0,0:0:0:0:
254,189,67854,1,2,0:0:0:0:
254,189,68042,1,0,0:0:0:0:
254,189,68229,1,2,0:0:0:0:
254,189,68417,1,2,0:0:0:0:
254,189,68604,1,0,0:0:0:0:
254,189,68980,1,2,0:0:0:0:
254,189,69354,1,0,0:0:0:0:
254,189,69541,1,2,0:0:0:0:
254,189,69729,1,2,0:0:0:0:
254,189,69917,1,0,0:0:0:0:
254,189,70104,1,0,0:0:0:0:
254,189,70292,1,2,0:0:0:0:
254,189,70479,1,0,0:0:0:0:
254,189,70854,1,0,0:0:0:0:
254,189,71041,1,0,0:0:0:0:
254,189,71229,1,2,0:0:0:0:
254,189,71604,1,2,0:0:0:0:
254,189,71792,1,0,0:0:0:0:
254,189,71979,1,2,0:0:0:0:
254,189,72167,1,2,0:0:0:0:
254,189,72260,1,2,0:0:0:0:
254,189,72354,1,0,0:0:0:0:
254,189,72542,1,0,0:0:0:0:
254,189,72729,1,2,0:0:0:0:
254,189,73104,1,2,0:0:0:0:
254,189,73292,1,2,0:0:0:0:
254,189,73479,1,0,0:0:0:0:
254,189,73760,1,0,0:0:0:0:
254,189,73854,1,2,0:0:0:0:
254,189,74041,1,0,0:0:0:0:
254,189,74229,1,0,0:0:0:0:
254,189,74510,1,0,0:0:0:0:
254,189,74604,1,2,0:0:0:0:
254,189,74792,1,0,0:0:0:0:
254,189,74979,1,2,0:0:0:0:
254,189,75167,1,0,0:0:0:0:
254,189,75260,1,0,0:0:0:0:
254,189,75354,1,2,0:0:0:0:
254,189,75542,1,2,0:0:0:0:
254,189,75730,1,0,0:0:0:0:
254,189,75917,1,2,0:0:0:0:
254,189,76292,1,6,0:0:0:0:
254,189,76667,1,4,0:0:0:0:
254,189,76854,1,4,0:0:0:0:
254,189,77229,1,0,0:0:0:0:
254,189,77417,1,0,0:0:0:0:
254,189,77604,1,2,0:0:0:0:
254,189,77698,1,2,0:0:0:0:
254,189,77792,1,0,0:0:0:0:
254,189,77979,1,6,0:0:0:0:
254,189,78354,1,0,0:0:0:0:
254,189,78541,1,0,0:0:0:0:
254,189,78729,1,2,0:0:0:0:
254,189,78823,1,2,0:0:0:0:
254,189,78917,1,0,0:0:0:0:
254,189,79010,1,0,0:0:0:0:
254,189,79104,1,2,0:0:0:0:
254,189,79292,1,2,0:0:0:0:
254,189,79480,1,0,0:0:0:0:
254,189,79854,1,2,0:0:0:0:
254,189,80041,1,2,0:0:0:0:
254,189,80229,1,0,0:0:0:0:
254,189,80417,1,0,0:0:0:0:
254,189,80604,1,2,0:0:0:0:
254,189,80792,1,0,0:0:0:0:
254,189,80979,1,2,0:0:0:0:
254,189,81073,1,2,0:0:0:0:
254,189,81167,1,0,0:0:0:0:
254,189,81354,1,2,0:0:0:0:
254,189,81542,1,0,0:0:0:0:
254,189,81636,1,0,0:0:0:0:
254,189,81729,1,2,0:0:0:0:
254,189,81823,1,2,0:0:0:0:
254,189,81917,1,0,0:0:0:0:
254,189,82104,1,2,0:0:0:0:
254,189,82292,1,2,0:0:0:0:
254,189,82479,1,0,0:0:0:0:
254,189,82855,1,2,0:0:0:0:
254,189,83041,1,2,0:0:0:0:
254,189,83230,1,0,0:0:0:0:
254,189,83416,1,0,0:0:0:0:
254,189,83604,1,2,0:0:0:0:
254,189,83979,1,2,0:0:0:0:
254,189,84167,1,0,0:0:0:0:
254,189,84260,1,0,0:0:0:0:
254,189,84354,1,2,0:0:0:0:
254,189,84542,1,0,0:0:0:0:
254,189,84917,1,0,0:0:0:0:
254,189,85104,1,2,0:0:0:0:
254,189,85292,1,0,0:0:0:0:
254,189,85480,1,2,0:0:0:0:
254,189,85573,1,2,0:0:0:0:
254,189,85667,1,0,0:0:0:0:
254,189,85855,1,2,0:0:0:0:
254,189,86042,1,2,0:0:0:0:
254,189,86417,1,0,0:0:0:0:
254,189,86604,1,2,0:0:0:0:
254,189,86792,1,0,0:0:0:0:
254,189,86885,1,0,0:0:0:0:
254,189,86979,1,2,0:0:0:0:
254,189,87167,1,0,0:0:0:0:
254,189,87354,1,2,0:0:0:0:
254,189,87541,1,0,0:0:0:0:
254,189,87635,1,0,0:0:0:0:
254,189,87730,1,2,0:0:0:0:
254,189,87917,1,0,0:0:0:0:
254,189,88104,1,2,0:0:0:0:
254,189,88198,1,2,0:0:0:0:
254,189,88292,1,0,0:0:0:0:
254,189,88385,1,0,0:0:0:0:
254,189,88479,1,2,0:0:0:0:
254,189,88666,1,0,0:0:0:0:
254,189,88854,1,2,0:0:0:0:
254,189,89229,1,0,0:0:0:0:
254,189,89417,1,2,0:0:0:0:
254,189,89604,1,0,0:0:0:0:
254,189,89697,1,0,0:0:0:0:
254,189,89792,1,0,0:0:0:0:
254,189,89885,1,0,0:0:0:0:
254,189,89979,1,2,0:0:0:0:
254,189,90354,1,0,0:0:0:0:
254,189,90541,1,2,0:0:0:0:
254,189,90730,1,0,0:0:0:0:
254,189,90823,1,2,0:0:0:0:
254,189,90917,1,0,0:0:0:0:
254,189,91010,1,0,0:0:0:0:
254,189,91104,1,2,0:0:0:0:
254,189,91292,1,2,0:0:0:0:
254,189,91480,1,0,0:0:0:0:
254,189,91854,1,2,0:0:0:0:
254,189,92042,1,0,0:0:0:0:
254,189,92135,1,0,0:0:0:0:
254,189,92229,1,2,0:0:0:0:
254,189,92417,1,2,0:0:0:0:
254,189,92604,1,0,0:0:0:0:
254,189,92792,1,0,0:0:0:0:
254,189,92979,1,6,0:0:0:0:
254,189,93354,1,2,0:0:0:0:
254,189,93542,1,0,0:0:0:0:
254,189,93635,1,0,0:0:0:0:
254,189,93729,1,0,0:0:0:0:
254,189,93823,1,0,0:0:0:0:
254,189,93917,1,2,0:0:0:0:
254,189,94104,1,0,0:0:0:0:
254,189,94292,1,6,0:0:0:0:
254,189,94666,1,0,0:0:0:0:
254,189,94854,1,0,0:0:0:0:
254,189,95041,1,2,0:0:0:0:
254,189,95229,1,0,0:0:0:0:
254,189,95604,1,0,0:0:0:0:
254,189,95792,1,2,0:0:0:0:
254,189,95885,1,0,0:0:0:0:
254,189,95979,1,2,0:0:0:0:
254,189,96167,1,0,0:0:0:0:
254,189,96354,1,2,0:0:0:0:
254,189,96542,1,0,0:0:0:0:
254,189,96635,1,0,0:0:0:0:
254,189,96729,1,2,0:0:0:0:
254,189,96917,1,0,0:0:0:0:
254,189,97104,1,2,0:0:0:0:
254,189,97292,1,2,0:0:0:0:
254,189,97480,1,0,0:0:0:0:
254,189,97854,1,0,0:0:0:0:
254,189,98041,1,0,0:0:0:0:
254,189,98229,1,2,0:0:0:0:
254,189,98416,1,0,0:0:0:0:
254,189,98604,1,2,0:0:0:0:
254,189,98791,1,2,0:0:0:0:
254,189,98979,1,0,0:0:0:0:
254,189,99072,1,0,0:0:0:0:
254,189,99166,1,2,0:0:0:0:
254,189,99354,1,0,0:0:0:0:
254,189,99447,1,0,0:0:0:0:
254,189,99541,1,2,0:0:0:0:
254,189,99635,1,2,0:0:0:0:
254,189,99729,1,0,0:0:0:0:
254,189,99917,1,4,0:0:0:0:
254,189,100105,1,4,0:0:0:0:
254,189,100479,1,6,0:0:0:0:
254,189,100854,1,0,0:0:0:0:
254,189,101042,1,6,0:0:0:0:
254,189,101417,1,6,0:0:0:0:
254,189,101604,1,0,0:0:0:0:
254,189,101792,1,2,0:0:0:0:
254,189,101979,1,4,0:0:0:0:
254,189,102354,1,2,0:0:0:0:
254,189,102542,1,2,0:0:0:0:
254,189,102729,1,0,0:0:0:0:
254,189,102823,1,0,0:0:0:0:
254,189,102917,1,2,0:0:0:0:
254,189,103104,1,0,0:0:0:0:
254,189,103292,1,2,0:0:0:0:
254,189,103479,1,0,0:0:0:0:
254,189,103573,1,0,0:0:0:0:
254,189,103667,1,2,0:0:0:0:
254,189,103760,1,0,0:0:0:0:
254,189,103854,1,2,0:0:0:0:
254,189,104042,1,0,0:0:0:0:
254,189,104229,1,0,0:0:0:0:
254,189,104417,1,0,0:0:0:0:
254,189,104604,1,2,0:0:0:0:
254,189,104979,1,2,0:0:0:0:
254,189,105167,1,0,0:0:0:0:
254,189,105354,1,2,0:0:0:0:
254,189,105542,1,2,0:0:0:0:
254,189,105729,1,0,0:0:0:0:
254,189,105823,1,0,0:0:0:0:
254,189,105917,1,2,0:0:0:0:
254,189,106104,1,0,0:0:0:0:
254,189,106292,1,2,0:0:0:0:
254,189,106666,1,2,0:0:0:0:
254,189,106855,1,2,0:0:0:0:
254,189,107042,1,0,0:0:0:0:
254,189,107135,1,0,0:0:0:0:
254,189,107229,1,2,0:0:0:0:
254,189,107417,1,0,0:0:0:0:
254,189,107604,1,2,0:0:0:0:
254,189,107979,1,4,0:0:0:0:
254,189,108166,1,0,0:0:0:0:
254,189,108354,1,2,0:0:0:0:
254,189,108542,1,2,0:0:0:0:
254,189,108729,1,0,0:0:0:0:
254,189,108823,1,0,0:0:0:0:
254,189,108917,1,2,0:0:0:0:
254,189,109104,1,0,0:0:0:0:
254,189,109292,1,2,0:0:0:0:
254,189,109479,1,0,0:0:0:0:
254,189,109573,1,0,0:0:0:0:
254,189,109667,1,2,0:0:0:0:
254,189,109760,1,0,0:0:0:0:
254,189,109854,1,2,0:0:0:0:
254,189,110042,1,0,0:0:0:0:
254,189,110229,1,0,0:0:0:0:
254,189,110417,1,0,0:0:0:0:
254,189,110604,1,2,0:0:0:0:
254,189,110979,1,2,0:0:0:0:
254,189,111167,1,0,0:0:0:0:
254,189,111354,1,2,0:0:0:0:
254,189,111447,1,0,0:0:0:0:
254,189,111542,1,2,0:0:0:0:
254,189,111729,1,0,0:0:0:0:
254,189,111917,1,2,0:0:0:0:
254,189,112104,1,0,0:0:0:0:
254,189,112197,1,0,0:0:0:0:
254,189,112292,1,2,0:0:0:0:
254,189,112666,1,2,0:0:0:0:
254,189,112855,1,0,0:0:0:0:
259,187,112947,1,2,0:0:0:0:
254,189,113042,1,0,0:0:0:0:
254,189,113229,1,2,0:0:0:0:
254,189,113417,1,0,0:0:0:0:
254,189,113604,1,0,0:0:0:0:
254,189,113979,1,2,0:0:0:0:
254,189,114166,1,0,0:0:0:0:
254,189,114541,1,2,0:0:0:0:
254,189,114916,1,0,0:0:0:0:
254,189,115104,1,2,0:0:0:0:
254,189,115291,1,2,0:0:0:0:
254,189,115479,1,0,0:0:0:0:
254,189,115666,1,0,0:0:0:0:
254,189,115854,1,2,0:0:0:0:
254,189,116041,1,0,0:0:0:0:
254,189,116229,1,2,0:0:0:0:
254,189,116322,1,2,0:0:0:0:
254,189,116416,1,0,0:0:0:0:
254,189,116604,1,2,0:0:0:0:
254,189,116791,1,2,0:0:0:0:
254,189,117166,1,0,0:0:0:0:
254,189,117354,1,0,0:0:0:0:
254,189,117541,1,2,0:0:0:0:
254,189,117916,1,0,0:0:0:0:
254,189,118103,1,0,0:0:0:0:
254,189,118291,1,2,0:0:0:0:
254,189,118478,1,0,0:0:0:0:
254,189,118666,1,0,0:0:0:0:
254,189,118853,1,2,0:0:0:0:
254,189,119041,1,2,0:0:0:0:
254,189,119416,1,0,0:0:0:0:
254,189,119603,1,2,0:0:0:0:
254,189,119790,1,2,0:0:0:0:
254,189,119978,1,0,0:0:0:0:
254,189,120166,1,0,0:0:0:0:
254,189,120353,1,2,0:0:0:0:
254,189,120634,1,0,0:0:0:0:
254,189,120728,1,2,0:0:0:0:
254,189,120915,1,2,0:0:0:0:
254,189,121103,1,0,0:0:0:0:
254,189,121290,1,2,0:0:0:0:
254,189,121666,1,0,0:0:0:0:
254,189,121853,1,0,0:0:0:0:
254,189,122041,1,2,0:0:0:0:
254,189,122416,1,4,0:0:0:0:
254,189,122603,1,6,0:0:0:0:
254,189,122978,1,0,0:0:0:0:
254,189,123165,1,0,0:0:0:0:
254,189,123353,1,2,0:0:0:0:
254,189,123635,1,2,0:0:0:0:
254,189,123729,1,0,0:0:0:0:
254,189,123916,1,0,0:0:0:0:
254,189,124104,1,2,0:0:0:0:
254,189,124291,1,0,0:0:0:0:
254,189,124666,1,0,0:0:0:0:
254,189,124853,1,0,0:0:0:0:
254,189,125041,1,2,0:0:0:0:
254,189,125416,1,4,0:0:0:0:
254,189,125603,1,6,0:0:0:0:
254,189,125979,1,2,0:0:0:0:
254,189,126166,1,0,0:0:0:0:
254,189,126541,1,2,0:0:0:0:
254,189,126916,1,0,0:0:0:0:
254,189,127104,1,2,0:0:0:0:
254,189,127291,1,2,0:0:0:0:
254,189,127479,1,0,0:0:0:0:
254,189,127666,1,0,0:0:0:0:
254,189,127854,1,2,0:0:0:0:
254,189,128041,1,0,0:0:0:0:
254,189,128229,1,2,0:0:0:0:
254,189,128322,1,2,0:0:0:0:
254,189,128416,1,0,0:0:0:0:
254,189,128604,1,2,0:0:0:0:
254,189,128791,1,2,0:0:0:0:
254,189,129166,1,0,0:0:0:0:
254,189,129354,1,0,0:0:0:0:
254,189,129541,1,2,0:0:0:0:
254,189,129916,1,0,0:0:0:0:
254,189,130103,1,0,0:0:0:0:
254,189,130291,1,2,0:0:0:0:
254,189,130478,1,0,0:0:0:0:
254,189,130666,1,0,0:0:0:0:
254,189,130853,1,2,0:0:0:0:
254,189,131041,1,2,0:0:0:0:
254,189,131229,1,0,0:0:0:0:
259,189,131322,1,0,0:0:0:0:
254,189,131416,1,0,0:0:0:0:
254,189,131603,1,2,0:0:0:0:
254,189,131790,1,2,0:0:0:0:
254,189,131978,1,0,0:0:0:0:
254,189,132166,1,0,0:0:0:0:
254,189,132353,1,2,0:0:0:0:
254,189,132634,1,0,0:0:0:0:
254,189,132728,1,2,0:0:0:0:
254,189,132915,1,2,0:0:0:0:
254,189,133103,1,0,0:0:0:0:
254,189,133290,1,2,0:0:0:0:
254,189,133666,1,0,0:0:0:0:
254,189,133853,1,0,0:0:0:0:
254,189,134041,1,2,0:0:0:0:
254,189,134416,1,4,0:0:0:0:
254,189,134603,1,6,0:0:0:0:
254,189,134978,1,0,0:0:0:0:
254,189,135165,1,0,0:0:0:0:
254,189,135353,1,2,0:0:0:0:
254,189,135635,1,2,0:0:0:0:
254,189,135729,1,0,0:0:0:0:
254,189,135916,1,0,0:0:0:0:
254,189,136104,1,2,0:0:0:0:
254,189,136291,1,0,0:0:0:0:
254,189,136666,1,0,0:0:0:0:
254,189,136853,1,0,0:0:0:0:
254,189,137041,1,2,0:0:0:0:
254,189,137228,1,2,0:0:0:0:
254,189,137416,1,0,0:0:0:0:
254,189,137603,1,2,0:0:0:0:
254,189,137696,1,2,0:0:0:0:
254,189,137790,1,2,0:0:0:0:
254,189,137978,1,0,0:0:0:0:
254,189,138353,1,0,0:0:0:0:
254,189,138728,1,2,0:0:0:0:
254,189,139103,1,0,0:0:0:0:
254,189,139478,1,2,0:0:0:0:
254,189,139853,1,2,0:0:0:0:
254,189,140228,1,0,0:0:0:0:
254,189,140603,1,2,0:0:0:0:
254,189,140979,1,2,0:0:0:0:
254,189,141166,1,0,0:0:0:0:
254,189,141354,1,0,0:0:0:0:
254,189,141541,1,2,0:0:0:0:
254,189,141729,1,0,0:0:0:0:
254,189,142103,1,2,0:0:0:0:
254,189,142291,1,2,0:0:0:0:
254,189,142666,1,0,0:0:0:0:
254,189,142853,1,2,0:0:0:0:
254,189,143041,1,0,0:0:0:0:
254,189,143228,1,2,0:0:0:0:
254,189,143416,1,2,0:0:0:0:
254,189,143603,1,0,0:0:0:0:
254,189,143979,1,2,0:0:0:0:
254,189,144353,1,0,0:0:0:0:
254,189,144540,1,2,0:0:0:0:
254,189,144728,1,2,0:0:0:0:
254,189,144916,1,0,0:0:0:0:
254,189,145103,1,0,0:0:0:0:
254,189,145291,1,2,0:0:0:0:
254,189,145478,1,0,0:0:0:0:
254,189,145853,1,0,0:0:0:0:
258,190,146041,1,0,0:0:0:0:
254,189,146228,1,2,0:0:0:0:
254,189,146603,1,2,0:0:0:0:
254,189,146791,1,0,0:0:0:0:
254,189,146978,1,2,0:0:0:0:
254,189,147166,1,2,0:0:0:0:
254,189,147259,1,2,0:0:0:0:
254,189,147353,1,0,0:0:0:0:
254,189,147541,1,0,0:0:0:0:
254,189,147728,1,2,0:0:0:0:
254,189,148103,1,2,0:0:0:0:
254,189,148291,1,2,0:0:0:0:
254,189,148479,1,0,0:0:0:0:
254,189,148760,1,0,0:0:0:0:
254,189,148854,1,2,0:0:0:0:
254,189,149041,1,0,0:0:0:0:
254,189,149228,1,0,0:0:0:0:
254,189,149510,1,0,0:0:0:0:
254,189,149603,1,2,0:0:0:0:
254,189,149791,1,0,0:0:0:0:
254,189,149978,1,2,0:0:0:0:
254,189,150166,1,0,0:0:0:0:
254,189,150260,1,0,0:0:0:0:
254,189,150353,1,2,0:0:0:0:
254,189,150541,1,2,0:0:0:0:
254,189,150729,1,0,0:0:0:0:
254,189,150916,1,2,0:0:0:0:
254,189,151291,1,6,0:0:0:0:
254,189,151666,1,4,0:0:0:0:
254,189,151853,1,4,0:0:0:0:
254,189,152229,1,0,0:0:0:0:
254,189,152417,1,0,0:0:0:0:
254,189,152604,1,2,0:0:0:0:
254,189,152698,1,2,0:0:0:0:
254,189,152792,1,0,0:0:0:0:
254,189,152979,1,6,0:0:0:0:
254,189,153354,1,0,0:0:0:0:
254,189,153541,1,0,0:0:0:0:
254,189,153729,1,2,0:0:0:0:
254,189,153823,1,2,0:0:0:0:
254,189,153917,1,0,0:0:0:0:
254,189,154010,1,0,0:0:0:0:
254,189,154104,1,2,0:0:0:0:
254,189,154292,1,2,0:0:0:0:
254,189,154480,1,0,0:0:0:0:
254,189,154854,1,2,0:0:0:0:
254,189,155229,1,0,0:0:0:0:
254,189,155417,1,0,0:0:0:0:
254,189,155604,1,2,0:0:0:0:
254,189,155792,1,0,0:0:0:0:
254,189,155979,1,2,0:0:0:0:
254,189,156073,1,2,0:0:0:0:
254,189,156167,1,0,0:0:0:0:
254,189,156354,1,2,0:0:0:0:
254,189,156542,1,0,0:0:0:0:
254,189,156636,1,0,0:0:0:0:
254,189,156729,1,2,0:0:0:0:
254,189,156823,1,2,0:0:0:0:
254,189,156917,1,0,0:0:0:0:
254,189,157104,1,2,0:0:0:0:
254,189,157292,1,2,0:0:0:0:
254,189,157479,1,0,0:0:0:0:
254,189,157855,1,2,0:0:0:0:
254,189,158041,1,2,0:0:0:0:
254,189,158230,1,0,0:0:0:0:
254,189,158416,1,0,0:0:0:0:
254,189,158604,1,2,0:0:0:0:
254,189,158979,1,2,0:0:0:0:
254,189,159167,1,0,0:0:0:0:
254,189,159260,1,0,0:0:0:0:
254,189,159354,1,2,0:0:0:0:
254,189,159542,1,0,0:0:0:0:
254,189,159917,1,0,0:0:0:0:
254,189,160104,1,2,0:0:0:0:
254,189,160292,1,0,0:0:0:0:
254,189,160480,1,2,0:0:0:0:
254,189,160573,1,2,0:0:0:0:
254,189,160667,1,0,0:0:0:0:
254,189,160855,1,2,0:0:0:0:
254,189,161042,1,2,0:0:0:0:
254,189,161417,1,0,0:0:0:0:
254,189,161604,1,2,0:0:0:0:
254,189,161792,1,0,0:0:0:0:
254,189,161885,1,0,0:0:0:0:
254,189,161979,1,2,0:0:0:0:
254,189,162167,1,0,0:0:0:0:
254,189,162354,1,2,0:0:0:0:
254,189,162541,1,0,0:0:0:0:
254,189,162635,1,0,0:0:0:0:
254,189,162730,1,2,0:0:0:0:
254,189,162917,1,0,0:0:0:0:
254,189,163104,1,2,0:0:0:0:
254,189,163198,1,2,0:0:0:0:
254,189,163292,1,0,0:0:0:0:
254,189,163385,1,0,0:0:0:0:
254,189,163479,1,2,0:0:0:0:
254,189,163854,1,2,0:0:0:0:
254,189,164041,1,2,0:0:0:0:
254,189,164229,1,0,0:0:0:0:
254,189,164417,1,2,0:0:0:0:
254,189,164604,1,0,0:0:0:0:
254,189,164697,1,0,0:0:0:0:
254,189,164792,1,0,0:0:0:0:
254,189,164885,1,0,0:0:0:0:
254,189,164979,1,2,0:0:0:0:
254,189,165354,1,0,0:0:0:0:
254,189,165541,1,2,0:0:0:0:
254,189,165730,1,0,0:0:0:0:
254,189,165823,1,2,0:0:0:0:
254,189,165917,1,0,0:0:0:0:
254,189,166010,1,0,0:0:0:0:
254,189,166104,1,2,0:0:0:0:
254,189,166292,1,2,0:0:0:0:
254,189,166480,1,0,0:0:0:0:
254,189,166854,1,2,0:0:0:0:
254,189,167042,1,0,0:0:0:0:
254,189,167135,1,0,0:0:0:0:
254,189,167229,1,2,0:0:0:0:
254,189,167417,1,2,0:0:0:0:
254,189,167604,1,0,0:0:0:0:
254,189,167792,1,0,0:0:0:0:
254,189,167979,1,6,0:0:0:0:
254,189,168354,1,2,0:0:0:0:
254,189,168542,1,0,0:0:0:0:
254,189,168635,1,0,0:0:0:0:
254,189,168729,1,0,0:0:0:0:
254,189,168823,1,0,0:0:0:0:
254,189,168917,1,2,0:0:0:0:
254,189,169104,1,0,0:0:0:0:
254,189,169292,1,6,0:0:0:0:
254,189,169666,1,0,0:0:0:0:
254,189,169854,1,0,0:0:0:0:
254,189,170041,1,2,0:0:0:0:
254,189,170229,1,0,0:0:0:0:
254,189,170604,1,0,0:0:0:0:
254,189,170792,1,2,0:0:0:0:
254,189,170885,1,0,0:0:0:0:
254,189,170979,1,2,0:0:0:0:
254,189,171167,1,0,0:0:0:0:
254,189,171354,1,2,0:0:0:0:
254,189,171542,1,0,0:0:0:0:
254,189,171635,1,0,0:0:0:0:
254,189,171729,1,2,0:0:0:0:
254,189,171917,1,0,0:0:0:0:
254,189,172104,1,2,0:0:0:0:
254,189,172292,1,2,0:0:0:0:
254,189,172480,1,0,0:0:0:0:
254,189,172854,1,0,0:0:0:0:
254,189,173041,1,0,0:0:0:0:
254,189,173229,1,2,0:0:0:0:
254,189,173416,1,0,0:0:0:0:
254,189,173604,1,2,0:0:0:0:
254,189,173791,1,2,0:0:0:0:
254,189,173979,1,0,0:0:0:0:
254,189,174072,1,0,0:0:0:0:
254,189,174166,1,2,0:0:0:0:
254,189,174354,1,0,0:0:0:0:
254,189,174447,1,0,0:0:0:0:
254,189,174541,1,2,0:0:0:0:
254,189,174635,1,2,0:0:0:0:
254,189,174729,1,0,0:0:0:0:
254,189,174917,1,4,0:0:0:0:
254,189,175105,1,4,0:0:0:0:
254,189,175479,1,6,0:0:0:0:
254,189,176042,1,6,0:0:0:0:
254,189,176417,1,6,0:0:0:0:
254,189,176979,1,4,0:0:0:0:
254,189,188980,5,0,0:0:0:0:
254,189,189167,1,0,0:0:0:0:
254,189,189354,1,2,0:0:0:0:
254,189,189542,1,0,0:0:0:0:
254,189,189917,1,2,0:0:0:0:
254,189,190292,1,2,0:0:0:0:
254,189,190667,1,0,0:0:0:0:
254,189,191041,1,0,0:0:0:0:
254,189,191229,1,2,0:0:0:0:
254,189,191417,1,0,0:0:0:0:
254,189,191604,1,2,0:0:0:0:
254,189,191979,1,0,0:0:0:0:
254,189,192166,1,2,0:0:0:0:
254,189,192354,1,2,0:0:0:0:
254,189,192541,1,0,0:0:0:0:
254,189,192917,1,2,0:0:0:0:
254,189,193292,1,0,0:0:0:0:
254,189,193667,1,0,0:0:0:0:
254,189,193854,1,2,0:0:0:0:
254,189,194042,1,2,0:0:0:0:
254,189,194416,1,0,0:0:0:0:
254,189,194605,1,2,0:0:0:0:
254,189,194979,1,2,0:0:0:0:
254,189,195167,1,2,0:0:0:0:
254,189,195354,1,0,0:0:0:0:
254,189,195542,1,2,0:0:0:0:
254,189,195917,1,0,0:0:0:0:
254,189,196292,1,2,0:0:0:0:
254,189,196667,1,0,0:0:0:0:
254,189,197042,1,0,0:0:0:0:
254,189,197417,1,2,0:0:0:0:
254,189,197604,1,0,0:0:0:0:
254,189,197792,1,2,0:0:0:0:
256,192,197979,12,0,200604,0:0:0:0:
254,189,200980,5,0,0:0:0:0:
254,189,201167,1,0,0:0:0:0:
254,189,201354,1,2,0:0:0:0:
254,189,201729,1,0,0:0:0:0:
254,189,201916,1,2,0:0:0:0:
254,189,202104,1,0,0:0:0:0:
254,189,202291,1,0,0:0:0:0:
254,189,202479,1,2,0:0:0:0:
254,189,202854,1,0,0:0:0:0:
254,189,203042,1,0,0:0:0:0:
254,189,203229,1,2,0:0:0:0:
254,189,203417,1,2,0:0:0:0:
254,189,203604,1,0,0:0:0:0:
254,189,203698,1,0,0:0:0:0:
254,189,203792,1,2,0:0:0:0:
254,189,203979,1,0,0:0:0:0:
254,189,204167,1,2,0:0:0:0:
254,189,204354,1,2,0:0:0:0:
254,189,204729,1,0,0:0:0:0:
254,189,204917,1,0,0:0:0:0:
254,189,205104,1,2,0:0:0:0:
254,189,205292,1,0,0:0:0:0:
254,189,205385,1,0,0:0:0:0:
254,189,205479,1,0,0:0:0:0:
254,189,205667,1,2,0:0:0:0:
254,189,205854,1,0,0:0:0:0:
254,189,206042,1,2,0:0:0:0:
254,189,206229,1,0,0:0:0:0:
254,189,206417,1,0,0:0:0:0:
254,189,206510,1,0,0:0:0:0:
254,189,206604,1,2,0:0:0:0:
254,189,206792,1,2,0:0:0:0:
254,189,206979,1,0,0:0:0:0:
254,189,207354,1,0,0:0:0:0:
254,189,207542,1,2,0:0:0:0:
254,189,207729,1,0,0:0:0:0:
254,189,207917,1,0,0:0:0:0:
254,189,208010,1,0,0:0:0:0:
254,189,208104,1,2,0:0:0:0:
254,189,208292,1,2,0:0:0:0:
254,189,208479,1,0,0:0:0:0:
254,189,208854,1,2,0:0:0:0:
254,189,209042,1,0,0:0:0:0:
254,189,209229,1,2,0:0:0:0:
254,189,209323,1,2,0:0:0:0:
254,189,209417,1,0,0:0:0:0:
254,189,209604,1,2,0:0:0:0:
254,189,209792,1,2,0:0:0:0:
254,189,209886,1,2,0:0:0:0:
254,189,209980,1,0,0:0:0:0:
254,189,210167,1,2,0:0:0:0:
254,189,210354,1,0,0:0:0:0:
254,189,210729,1,2,0:0:0:0:
254,189,211104,1,0,0:0:0:0:
254,189,211292,1,2,0:0:0:0:
254,189,211479,1,0,0:0:0:0:
254,189,211667,1,2,0:0:0:0:
254,189,211854,1,0,0:0:0:0:
254,189,212041,1,2,0:0:0:0:
254,189,212135,1,2,0:0:0:0:
254,189,212229,1,0,0:0:0:0:
254,189,212416,1,0,0:0:0:0:
254,189,212604,1,2,0:0:0:0:
254,189,212979,1,0,0:0:0:0:
254,189,213167,1,0,0:0:0:0:
254,189,213354,1,2,0:0:0:0:
254,189,213730,1,0,0:0:0:0:
254,189,213916,1,2,0:0:0:0:
254,189,214104,1,0,0:0:0:0:
254,189,214291,1,0,0:0:0:0:
254,189,214479,1,2,0:0:0:0:
254,189,214854,1,0,0:0:0:0:
254,189,215042,1,0,0:0:0:0:
254,189,215229,1,2,0:0:0:0:
254,189,215417,1,0,0:0:0:0:
254,189,215604,1,2,0:0:0:0:
254,189,215792,1,0,0:0:0:0:
254,189,215885,1,0,0:0:0:0:
254,189,215979,1,2,0:0:0:0:
254,189,216167,1,2,0:0:0:0:
254,189,216354,1,0,0:0:0:0:
254,189,216729,1,2,0:0:0:0:
254,189,216917,1,2,0:0:0:0:
254,189,217010,1,2,0:0:0:0:
254,189,217104,1,0,0:0:0:0:
254,189,217292,1,2,0:0:0:0:
254,189,217479,1,0,0:0:0:0:
254,189,217666,1,2,0:0:0:0:
254,189,217760,1,2,0:0:0:0:
254,189,217854,1,0,0:0:0:0:
254,189,218041,1,0,0:0:0:0:
254,189,218229,1,2,0:0:0:0:
254,189,218417,1,2,0:0:0:0:
254,189,218604,1,0,0:0:0:0:
254,189,218698,1,0,0:0:0:0:
254,189,218792,1,0,0:0:0:0:
254,189,218979,1,2,0:0:0:0:
254,189,219354,1,0,0:0:0:0:
254,189,219542,1,0,0:0:0:0:
254,189,219729,1,2,0:0:0:0:
254,189,219917,1,2,0:0:0:0:
254,189,220104,1,0,0:0:0:0:
254,189,220292,1,2,0:0:0:0:
254,189,220479,1,0,0:0:0:0:
254,189,220573,1,0,0:0:0:0:
254,189,220667,1,2,0:0:0:0:
254,189,220854,1,0,0:0:0:0:
254,189,221229,1,2,0:0:0:0:
254,189,221417,1,0,0:0:0:0:
254,189,221604,1,2,0:0:0:0:
254,189,221792,1,0,0:0:0:0:
254,189,221885,1,2,0:0:0:0:
254,189,221979,1,0,0:0:0:0:
254,189,222167,1,2,0:0:0:0:
254,189,222354,1,0,0:0:0:0:
254,189,222448,1,0,0:0:0:0:
254,189,222542,1,2,0:0:0:0:
254,189,222729,1,2,0:0:0:0:
254,189,222823,1,2,0:0:0:0:
254,189,222917,1,0,0:0:0:0:
254,189,223010,1,0,0:0:0:0:
254,189,223104,1,2,0:0:0:0:
254,189,223479,1,0,0:0:0:0:
254,189,223666,1,0,0:0:0:0:
254,189,223854,1,2,0:0:0:0:
254,189,224042,1,2,0:0:0:0:
254,189,224229,1,0,0:0:0:0:
254,189,224323,1,0,0:0:0:0:
254,189,224417,1,2,0:0:0:0:
254,189,224510,1,2,0:0:0:0:
254,189,224604,1,0,0:0:0:0:
254,189,224792,1,2,0:0:0:0:
254,189,224980,1,0,0:0:0:0:
254,189,225073,1,0,0:0:0:0:
254,189,225167,1,2,0:0:0:0:
254,189,225355,1,0,0:0:0:0:
254,189,225542,1,2,0:0:0:0:
254,189,225636,1,2,0:0:0:0:
254,189,225730,1,0,0:0:0:0:
254,189,225917,1,2,0:0:0:0:
254,189,226105,1,0,0:0:0:0:
254,189,226198,1,0,0:0:0:0:
254,189,226292,1,2,0:0:0:0:
254,189,226386,1,0,0:0:0:0:
254,189,226480,1,2,0:0:0:0:
254,189,226666,1,0,0:0:0:0:
254,189,226855,1,2,0:0:0:0:
254,189,227042,1,0,0:0:0:0:
254,189,227135,1,0,0:0:0:0:
254,189,227230,1,2,0:0:0:0:
254,189,227417,1,2,0:0:0:0:
254,189,227605,1,0,0:0:0:0:
257,191,227979,1,6,0:0:0:0:
257,191,228167,1,4,0:0:0:0:
257,191,228542,1,4,0:0:0:0:
257,191,228917,1,6,0:0:0:0:
257,191,229292,1,4,0:0:0:0:
257,190,230229,1,0,0:0:0:0:
257,190,230417,1,2,0:0:0:0:
257,190,230604,1,2,0:0:0:0:
257,190,230792,1,0,0:0:0:0:
257,190,230980,1,6,0:0:0:0:
257,190,231355,1,0,0:0:0:0:
257,190,231542,1,2,0:0:0:0:
257,190,231729,1,2,0:0:0:0:
257,190,232104,1,2,0:0:0:0:
257,190,232291,1,2,0:0:0:0:
257,190,232854,1,0,0:0:0:0:
257,190,233229,1,2,0:0:0:0:
257,190,233417,1,2,0:0:0:0:
257,190,233604,1,0,0:0:0:0:
257,190,233792,1,2,0:0:0:0:
257,190,233980,1,0,0:0:0:0:
257,190,234355,1,2,0:0:0:0:
257,190,235104,1,2,0:0:0:0:
257,190,235292,1,0,0:0:0:0:
257,190,235854,1,0,0:0:0:0:
257,190,236042,1,0,0:0:0:0:
257,190,236230,1,2,0:0:0:0:
254,189,236604,1,0,0:0:0:0:
257,190,236792,1,0,0:0:0:0:
257,190,236980,1,6,0:0:0:0:
254,189,237167,1,0,0:0:0:0:
254,189,237260,1,0,0:0:0:0:
254,189,237354,1,2,0:0:0:0:
254,189,237542,1,0,0:0:0:0:
254,189,237917,1,0,0:0:0:0:
254,189,238104,1,2,0:0:0:0:
254,189,238292,1,0,0:0:0:0:
254,189,238480,1,2,0:0:0:0:
254,189,238573,1,2,0:0:0:0:
254,189,238667,1,0,0:0:0:0:
254,189,238855,1,2,0:0:0:0:
254,189,239042,1,2,0:0:0:0:
254,189,239417,1,0,0:0:0:0:
254,189,239604,1,2,0:0:0:0:
254,189,239792,1,0,0:0:0:0:
254,189,239885,1,0,0:0:0:0:
254,189,239979,1,2,0:0:0:0:
254,189,240167,1,0,0:0:0:0:
254,189,240354,1,2,0:0:0:0:
254,189,240541,1,0,0:0:0:0:
254,189,240635,1,0,0:0:0:0:
254,189,240730,1,2,0:0:0:0:
254,189,240917,1,0,0:0:0:0:
254,189,241104,1,2,0:0:0:0:
254,189,241198,1,2,0:0:0:0:
254,189,241292,1,0,0:0:0:0:
254,189,241385,1,0,0:0:0:0:
254,189,241479,1,2,0:0:0:0:
254,189,241666,1,0,0:0:0:0:
254,189,241854,1,2,0:0:0:0:
254,189,242229,1,0,0:0:0:0:
254,189,242417,1,2,0:0:0:0:
254,189,242604,1,0,0:0:0:0:
254,189,242697,1,0,0:0:0:0:
254,189,242792,1,0,0:0:0:0:
254,189,242885,1,0,0:0:0:0:
254,189,242979,1,2,0:0:0:0:
254,189,243354,1,0,0:0:0:0:
254,189,243541,1,2,0:0:0:0:
254,189,243730,1,0,0:0:0:0:
254,189,243823,1,2,0:0:0:0:
254,189,243917,1,0,0:0:0:0:
254,189,244010,1,0,0:0:0:0:
254,189,244104,1,2,0:0:0:0:
254,189,244292,1,2,0:0:0:0:
254,189,244480,1,0,0:0:0:0:
254,189,244854,1,2,0:0:0:0:
254,189,245042,1,0,0:0:0:0:
254,189,245135,1,0,0:0:0:0:
254,189,245229,1,2,0:0:0:0:
254,189,245417,1,2,0:0:0:0:
254,189,245604,1,0,0:0:0:0:
254,189,245792,1,0,0:0:0:0:
254,189,245979,1,6,0:0:0:0:
254,189,246354,1,2,0:0:0:0:
254,189,246542,1,0,0:0:0:0:
254,189,246635,1,0,0:0:0:0:
254,189,246729,1,0,0:0:0:0:
254,189,246823,1,0,0:0:0:0:
254,189,246917,1,2,0:0:0:0:
254,189,247104,1,0,0:0:0:0:
254,189,247292,1,6,0:0:0:0:
254,189,247666,1,0,0:0:0:0:
254,189,247854,1,0,0:0:0:0:
254,189,248041,1,2,0:0:0:0:
254,189,248229,1,0,0:0:0:0:
254,189,248604,1,0,0:0:0:0:
254,189,248792,1,2,0:0:0:0:
254,189,248885,1,0,0:0:0:0:
254,189,248979,1,2,0:0:0:0:
254,189,249167,1,0,0:0:0:0:
254,189,249354,1,2,0:0:0:0:
254,189,249542,1,0,0:0:0:0:
254,189,249635,1,0,0:0:0:0:
254,189,249729,1,2,0:0:0:0:
254,189,249917,1,0,0:0:0:0:
254,189,250104,1,2,0:0:0:0:
254,189,250292,1,2,0:0:0:0:
254,189,250480,1,0,0:0:0:0:
254,189,250854,1,0,0:0:0:0:
254,189,251041,1,0,0:0:0:0:
254,189,251229,1,2,0:0:0:0:
254,189,251416,1,0,0:0:0:0:
254,189,251604,1,2,0:0:0:0:
254,189,251791,1,2,0:0:0:0:
254,189,251979,1,0,0:0:0:0:
254,189,252072,1,0,0:0:0:0:
254,189,252166,1,2,0:0:0:0:
254,189,252354,1,0,0:0:0:0:
254,189,252447,1,0,0:0:0:0:
254,189,252541,1,2,0:0:0:0:
254,189,252635,1,2,0:0:0:0:
254,189,252729,1,0,0:0:0:0:
254,189,252917,1,4,0:0:0:0:
254,189,253105,1,4,0:0:0:0:
254,189,253479,1,6,0:0:0:0:
254,189,253854,1,0,0:0:0:0:
254,189,254042,1,6,0:0:0:0:
254,189,254417,1,6,0:0:0:0:
254,189,254604,1,0,0:0:0:0:
254,189,254792,1,2,0:0:0:0:
254,189,254979,1,4,0:0:0:0:
254,189,255354,1,2,0:0:0:0:
254,189,255542,1,0,0:0:0:0:
254,189,255917,1,0,0:0:0:0:
254,189,256010,1,0,0:0:0:0:
254,189,256105,1,2,0:0:0:0:
254,189,256292,1,0,0:0:0:0:
254,189,256480,1,2,0:0:0:0:
254,189,256854,1,2,0:0:0:0:
254,189,257042,1,0,0:0:0:0:
254,189,257229,1,2,0:0:0:0:
254,189,257322,1,2,0:0:0:0:
254,189,257417,1,0,0:0:0:0:
254,189,257510,1,0,0:0:0:0:
254,189,257604,1,2,0:0:0:0:
254,189,257792,1,0,0:0:0:0:
254,189,257979,1,2,0:0:0:0:
254,189,258354,1,2,0:0:0:0:
254,189,258542,1,0,0:0:0:0:
254,189,258635,1,0,0:0:0:0:
254,189,258729,1,2,0:0:0:0:
254,189,258917,1,0,0:0:0:0:
254,189,259104,1,2,0:0:0:0:
254,189,259292,1,2,0:0:0:0:
254,189,259667,1,0,0:0:0:0:
254,189,259855,1,2,0:0:0:0:
254,189,260229,1,2,0:0:0:0:
254,189,260417,1,0,0:0:0:0:
254,189,260604,1,2,0:0:0:0:
254,189,260792,1,0,0:0:0:0:
254,189,260979,1,2,0:0:0:0:
254,189,261072,1,2,0:0:0:0:
254,189,261167,1,0,0:0:0:0:
254,189,261260,1,0,0:0:0:0:
254,189,261354,1,2,0:0:0:0:
254,189,261542,1,0,0:0:0:0:
254,189,261729,1,0,0:0:0:0:
254,189,261917,1,2,0:0:0:0:
254,189,262010,1,2,0:0:0:0:
254,189,262104,1,2,0:0:0:0:
254,189,262292,1,0,0:0:0:0:
254,189,262479,1,2,0:0:0:0:
254,189,262854,1,2,0:0:0:0:
258,190,263041,1,0,0:0:0:0:
261,190,263135,1,0,0:0:0:0:
254,189,263229,1,2,0:0:0:0:
254,189,263416,1,0,0:0:0:0:
254,189,263604,1,2,0:0:0:0:
254,189,263979,1,2,0:0:0:0:
254,189,264167,1,0,0:0:0:0:
254,189,264354,1,2,0:0:0:0:
254,189,264635,1,2,0:0:0:0:
254,189,264729,1,0,0:0:0:0:
254,189,264917,1,0,0:0:0:0:
254,189,265104,1,2,0:0:0:0:
254,189,265291,1,2,0:0:0:0:
254,189,265385,1,0,0:0:0:0:
254,189,265479,1,2,0:0:0:0:
254,189,265667,1,0,0:0:0:0:
254,189,265855,1,2,0:0:0:0:
257,190,266229,1,2,0:0:0:0:
257,190,266417,1,0,0:0:0:0:
257,190,266604,1,2,0:0:0:0:
257,190,266697,1,2,0:0:0:0:
257,190,266792,1,0,0:0:0:0:
257,190,266885,1,0,0:0:0:0:
257,190,266980,1,2,0:0:0:0:
257,190,267355,1,2,0:0:0:0:
257,190,267542,1,0,0:0:0:0:
257,190,267729,1,2,0:0:0:0:
257,190,267917,1,0,0:0:0:0:
257,190,268010,1,0,0:0:0:0:
257,190,268104,1,2,0:0:0:0:
257,190,268292,1,2,0:0:0:0:
257,190,268480,1,0,0:0:0:0:
257,190,268855,1,2,0:0:0:0:
257,190,269229,1,2,0:0:0:0:
257,190,269417,1,2,0:0:0:0:
257,190,269604,1,0,0:0:0:0:
257,190,269792,1,2,0:0:0:0:
257,190,269980,1,0,0:0:0:0:
257,190,270073,1,0,0:0:0:0:
257,190,270167,1,2,0:0:0:0:
257,190,270355,1,2,0:0:0:0:
257,190,270541,1,0,0:0:0:0:
257,190,270916,1,0,0:0:0:0:
257,190,271104,1,2,0:0:0:0:
257,190,271197,1,0,0:0:0:0:
257,190,271292,1,2,0:0:0:0:
261,191,271479,1,0,0:0:0:0:
257,190,271854,1,2,0:0:0:0:
257,190,272041,1,0,0:0:0:0:
257,190,272229,1,0,0:0:0:0:
257,190,272322,1,0,0:0:0:0:
261,191,272416,1,0,0:0:0:0:
257,190,272604,1,2,0:0:0:0:
257,190,272979,1,2,0:0:0:0:
257,190,273166,1,0,0:0:0:0:
257,190,273354,1,2,0:0:0:0:
255,191,273729,1,0,0:0:0:0:
255,191,273917,1,0,0:0:0:0:
255,191,274104,1,2,0:0:0:0:
255,191,274292,1,0,0:0:0:0:
255,191,274667,1,0,0:0:0:0:
255,191,274854,1,2,0:0:0:0:
255,191,274947,1,2,0:0:0:0:
255,191,275041,1,0,0:0:0:0:
255,191,275229,1,2,0:0:0:0:
255,191,275604,1,2,0:0:0:0:
255,191,275979,1,0,0:0:0:0:
255,191,276167,1,0,0:0:0:0:
255,191,276354,1,2,0:0:0:0:
255,191,276542,1,0,0:0:0:0:
255,191,276635,1,0,0:0:0:0:
255,191,276729,1,2,0:0:0:0:
255,191,276917,1,0,0:0:0:0:
255,191,277010,1,0,0:0:0:0:
255,191,277104,1,2,0:0:0:0:
255,191,277198,1,2,0:0:0:0:
255,191,277292,1,0,0:0:0:0:
255,191,277479,1,6,0:0:0:0:
255,191,278042,1,6,0:0:0:0:
255,191,278417,1,6,0:0:0:0:
259,188,278979,1,4,0:0:0:0:
256,192,279166,12,0,284791,0:0:0:0:
257,191,284979,5,6,0:0:0:0:
