osu file format v14

[General]
AudioFilename: audio.mp3
AudioLeadIn: 0
PreviewTime: 208977
Countdown: 0
SampleSet: Soft
StackLeniency: 0.7
Mode: 0
LetterboxInBreaks: 0
WidescreenStoryboard: 1

[Editor]
Bookmarks: 1377,12348,23319,34291,45262,56234,69948,80919,91891,102862,113834,124805,138519,149491,160462,171434,182405,193377,204348,215319,231777,266062
DistanceSpacing: 1.1
BeatDivisor: 4
GridSize: 32
TimelineZoom: 0.9999999

[Metadata]
Title:Wings of Courage -Sora o Koete- (K@keru Dnb Remix)
TitleUnicode:Wings of Courage -空を超えて- (K@keru Dnb Remix)
Artist:Kawada Mami
ArtistUnicode:川田まみ
Creator:Akitoshi
Version:Easy
Source:蒼の彼方のフォーリズム
Tags:Corinn -Laura- Kakeru sprite eroge Ao no Kanata no Four Rhythm Shudaika opening Beyond the sky into the firmament Video Game Japanese
BeatmapID:2424474
BeatmapSetID:1143951

[Difficulty]
HPDrainRate:2
CircleSize:2.8
OverallDifficulty:2
ApproachRate:4
SliderMultiplier:0.799999999999999
SliderTickRate:0.5

[Events]
//Background and Video events
0,0,"asuka2.jpg",0,0
//Break Periods
2,1577,2799
2,4319,5542
2,92091,101542
2,160662,170114
2,210034,213999
//Storyboard Layer 0 (Background)
//Storyboard Layer 1 (Fail)
//Storyboard Layer 2 (Pass)
//Storyboard Layer 3 (Foreground)
//Storyboard Layer 4 (Overlay)
//Storyboard Sound Samples

[TimingPoints]
1377,342.857142857143,4,2,2,40,1,0
1377,-100,4,2,2,40,0,0
6862,-100,4,2,1,40,0,0
8234,-100,4,2,1,55,0,0
9605,-100,4,2,1,60,0,0
10977,-100,4,2,1,40,0,0
12348,-100,4,2,1,70,0,0
31719,-100,4,2,1,60,0,0
32919,-100,4,2,1,40,0,0
33948,-100,4,2,1,60,0,0
34291,-100,4,2,1,50,0,0
39777,-100,4,2,1,60,0,0
42177,-100,4,2,1,60,0,0
42434,-100,4,2,1,5,0,0
42519,-100,4,2,1,60,0,0
44919,-100,4,2,1,60,0,0
45177,-100,4,2,1,5,0,0
45262,-100,4,2,1,50,0,0
50748,-100,4,2,1,60,0,0
53148,-100,4,2,1,60,0,0
53405,-100,4,2,1,5,0,0
53491,-100,4,2,1,60,0,0
56234,-100,4,2,1,50,0,0
61634,-100,4,2,1,5,0,0
61719,-100,4,2,1,50,0,0
64462,-100,4,2,1,50,0,0
65834,-100,4,2,1,60,0,0
66005,-100,4,2,1,5,0,0
66091,-100,4,2,1,60,0,0
66262,-100,4,2,1,5,0,0
66348,-100,4,2,1,60,0,0
66434,-100,4,2,1,5,0,0
66519,-100,4,2,1,60,0,0
68662,-100,4,2,1,5,0,0
68748,-100,4,2,1,60,0,0
69262,-100,4,2,1,50,0,0
69948,-100,4,2,1,80,0,1
71577,-100,4,2,1,5,0,1
71662,-100,4,2,1,80,0,1
75348,-100,4,2,1,5,0,1
75434,-100,4,2,1,80,0,1
77577,-100,4,2,1,5,0,1
77662,-100,4,2,1,80,0,1
80234,-100,4,2,1,80,0,0
80919,-100,4,2,1,80,0,1
82548,-100,4,2,1,5,0,1
82634,-100,4,2,1,80,0,1
83662,-100,4,2,1,80,0,1
84177,-100,4,2,1,80,0,1
84862,-100,4,2,1,80,0,1
85377,-100,4,2,1,80,0,1
86405,-100,4,2,1,80,0,1
87777,-100,4,2,1,80,0,1
89148,-100,4,2,1,80,0,1
91891,-100,4,2,1,70,0,0
102862,-100,4,2,1,50,0,0
108348,-100,4,2,1,60,0,0
110748,-100,4,2,1,60,0,0
111005,-100,4,2,1,5,0,0
111091,-100,4,2,1,60,0,0
113491,-100,4,2,1,60,0,0
113748,-100,4,2,1,5,0,0
113834,-100,4,2,1,50,0,0
119319,-100,4,2,1,60,0,0
121719,-100,4,2,1,60,0,0
121977,-100,4,2,1,5,0,0
122062,-100,4,2,1,60,0,0
124805,-100,4,2,1,50,0,0
130205,-100,4,2,1,5,0,0
130291,-100,4,2,1,50,0,0
133034,-100,4,2,1,50,0,0
134405,-100,4,2,1,60,0,0
134577,-100,4,2,1,5,0,0
134662,-100,4,2,1,60,0,0
134834,-100,4,2,1,5,0,0
134919,-100,4,2,1,60,0,0
135005,-100,4,2,1,5,0,0
135091,-100,4,2,1,60,0,0
137234,-100,4,2,1,5,0,0
137319,-100,4,2,1,60,0,0
137834,-100,4,2,1,50,0,0
138862,-100,4,2,1,80,0,1
139119,-100,4,2,1,5,0,1
139205,-100,4,2,1,80,0,1
140148,-100,4,2,1,5,0,1
140234,-100,4,2,1,80,0,1
143919,-100,4,2,1,5,0,1
144005,-100,4,2,1,80,0,1
146148,-100,4,2,1,5,0,1
146234,-100,4,2,1,80,0,1
148805,-100,4,2,1,80,0,0
149491,-100,4,2,1,80,0,1
151119,-100,4,2,1,5,0,1
151205,-100,4,2,1,80,0,1
152234,-100,4,2,1,80,0,1
152748,-100,4,2,1,80,0,1
153434,-100,4,2,1,80,0,1
153948,-100,4,2,1,80,0,1
154977,-100,4,2,1,80,0,1
156348,-100,4,2,1,80,0,1
157719,-100,4,2,1,80,0,1
160462,-100,4,2,1,80,0,0
171434,-100,4,2,1,60,0,0
174177,-100,4,2,1,65,0,0
176919,-100,4,2,1,70,0,0
179662,-100,4,2,1,75,0,0
181034,-100,4,2,1,50,0,0
182405,-100,4,2,1,60,0,0
187805,-100,4,2,1,5,0,0
187891,-100,4,2,1,60,0,0
198777,-100,4,2,1,5,0,0
198862,-100,4,2,1,60,0,0
204348,-100,4,2,1,60,0,0
207091,-100,4,2,1,60,0,0
208805,-100,4,2,1,40,0,0
209834,-100,4,2,1,60,0,0
210177,-100,4,2,1,40,0,0
213605,-100,4,2,1,50,0,0
214291,-100,4,2,1,60,0,0
214805,-100,4,2,1,60,0,0
214977,-100,4,2,1,70,0,0
215319,-100,4,2,1,80,0,1
217462,-100,4,2,1,5,0,1
217548,-100,4,2,1,80,0,1
220119,-100,4,2,1,80,0,0
220805,-100,4,2,1,80,0,1
222434,-100,4,2,1,5,0,1
222519,-100,4,2,1,80,0,1
223548,-100,4,2,1,80,0,1
224062,-100,4,2,1,80,0,1
224748,-100,4,2,1,80,0,1
225262,-100,4,2,1,80,0,1
226291,-100,4,2,1,80,0,1
227662,-100,4,2,1,80,0,1
229034,-100,4,2,1,80,0,1
230405,-100,4,2,1,80,0,0
231777,-100,4,2,1,80,0,1
232034,-100,4,2,1,5,0,1
232119,-100,4,2,1,80,0,1
234777,-100,4,2,1,5,0,1
234862,-100,4,2,1,80,0,1
237519,-100,4,2,1,5,0,1
237605,-100,4,2,1,80,0,1
242062,-100,4,2,1,80,0,0
242748,-100,4,2,1,80,0,1
244377,-100,4,2,1,5,0,1
244462,-100,4,2,1,80,0,1
248234,-100,4,2,1,80,0,1
249605,-100,4,2,1,80,0,1
250977,-100,4,2,1,80,0,1
252348,-100,4,2,1,60,0,1
253719,-100,4,2,1,50,0,0
259205,-100,4,2,2,60,0,0
261948,-100,4,2,2,40,0,0
263319,-100,4,2,2,20,0,0
264691,-100,4,2,2,10,0,0
266062,-100,4,2,2,5,0,0

[Colours]
Combo1 : 255,218,106
Combo2 : 255,128,192
Combo3 : 255,128,64
Combo4 : 242,26,58

[HitObjects]
256,192,1377,5,6,0:0:0:0:
256,192,4119,5,2,0:0:0:0:
256,192,6862,6,0,P|226:166|110:179,1,160,0|0,3:0|3:0,0:0:0:0:
66,250,7891,1,0,3:0:0:0:
106,328,8234,2,0,B|187:318|175:369|261:351,1,160,0|0,3:0|3:0,0:0:0:0:
346,330,9262,1,0,3:0:0:0:
421,284,9605,6,0,P|415:225|405:149,1,120,0|0,3:0|3:0,0:0:0:0:
331,119,10462,2,0,P|282:141|203:123,1,120,0|0,3:0|3:0,0:0:0:0:
136,98,11319,2,0,P|141:61|148:12,2,79.9999999999999,2|2|2,0:0|0:0|1:2,0:0:0:0:
120,184,12348,6,0,B|43:167|43:167|-6:193,2,120,6|2|8,3:2|0:0|0:0,0:0:0:0:
187,240,13719,1,0,3:0:0:0:
211,324,14062,2,0,P|282:347|361:305,1,160,8|8,0:0|0:0,0:0:0:0:
392,231,15091,6,0,B|466:244|442:239|510:251,2,120,0|2|8,3:0|0:0|0:0,0:0:0:0:
305,215,16462,1,0,3:0:0:0:
254,143,16805,2,0,P|269:107|270:60,2,79.9999999999999,8|2|8,0:0|0:0|0:0,0:0:0:0:
185,199,17834,6,0,P|125:188|66:181,2,120,6|2|8,3:2|0:0|0:0,0:0:0:0:
236,270,19205,1,0,3:0:0:0:
177,335,19548,2,0,P|106:362|36:318,1,160,8|8,0:0|0:0,0:0:0:0:
2,241,20577,5,6,3:2:0:0:
66,181,20919,2,0,P|61:140|56:87,2,79.9999999999999,8|2|8,0:0|0:0|0:0,0:0:0:0:
138,232,21948,1,0,3:0:0:0:
212,185,22291,2,0,B|259:214|259:214|375:187,1,160,8|8,0:0|0:0,0:0:0:0:
424,128,23319,6,0,P|399:63|410:14,2,120,6|2|8,3:2|0:0|0:0,0:0:0:0:
488,188,24691,1,0,3:0:0:0:
459,271,25034,2,0,B|370:284|387:281|300:295,1,160,8|8,0:0|0:0,0:0:0:0:
214,313,26062,6,0,P|165:342|94:343,2,120,0|2|8,3:0|0:0|0:0,0:0:0:0:
237,227,27434,1,0,3:0:0:0:
184,156,27777,2,0,P|188:116|192:69,2,79.9999999999999,8|2|8,0:0|0:0|0:0,0:0:0:0:
139,232,28805,6,0,P|84:240|51:230,1,79.9999999999999,6|8,3:2|0:0,0:0:0:0:
9,162,29491,2,0,P|0:123|6:83,1,79.9999999999999,8|8,0:0|0:0,0:0:0:0:
70,22,30177,1,8,0:0:0:0:
157,22,30519,1,8,0:0:0:0:
228,73,30862,2,0,B|210:148|210:148|234:190,1,120,8|12,0:0|0:0,0:0:0:0:
283,255,31719,5,0,3:0:0:0:
392,180,32234,2,0,B|426:219|426:219|409:268|398:333,1,160,0|2,3:0|0:0,0:0:0:0:
316,351,33262,1,8,0:0:0:0:
240,307,33605,2,0,P|190:319|156:313,1,79.9999999999999,2|6,0:0|1:2,0:0:0:0:
84,273,34291,6,0,B|92:197|91:204|102:100,1,160,6|2,3:2|0:0,0:0:0:0:
163,51,35319,1,8,0:2:0:0:
248,28,35662,2,0,P|295:96|294:178,1,160,0|2,3:0|0:0,0:0:0:0:
265,253,36691,1,8,0:0:0:0:
288,337,37034,6,0,P|364:354|441:323,1,160,0|2,3:0|0:0,0:0:0:0:
459,239,38062,1,8,0:0:0:0:
416,162,38405,2,0,P|339:144|262:175,1,160,0|2,3:0|0:0,0:0:0:0:
189,217,39434,1,8,0:0:0:0:
110,257,39777,6,0,P|67:258|29:242,1,79.9999999999999,6|0,3:2|1:0,0:0:0:0:
9,159,40462,1,2,0:0:0:0:
59,86,40805,2,0,P|125:80|228:68,2,160,8|0|8,0:0|1:0|0:0,0:0:0:0:
9,159,42519,6,0,P|26:200|28:244,1,79.9999999999999,6|0,3:2|1:0,0:0:0:0:
10,321,43205,1,2,0:0:0:0:
89,358,43548,2,0,P|162:372|235:327,2,160,0|0|8,1:0|1:0|0:0,0:0:0:0:
10,321,45262,6,0,P|20:248|37:150,1,160,6|2,3:2|0:0,0:0:0:0:
93,97,46291,1,8,0:0:0:0:
180,104,46634,2,0,P|229:162|239:255,1,160,0|2,3:0|0:0,0:0:0:0:
233,331,47662,1,8,0:0:0:0:
318,351,48005,6,0,P|390:329|473:317,1,160,0|2,3:0|0:0,0:0:0:0:
512,238,49034,1,8,0:0:0:0:
512,149,49377,2,0,P|432:137|356:114,1,160,0|2,3:0|0:0,0:0:0:0:
275,79,50405,1,8,0:0:0:0:
187,85,50748,6,0,P|174:127|175:165,1,79.9999999999999,6|0,3:2|1:0,0:0:0:0:
219,239,51434,1,2,0:0:0:0:
301,208,51777,2,0,P|382:204|446:253,2,160,8|0|8,0:0|1:0|0:0,0:0:0:0:
219,239,53491,6,0,P|212:279|206:329,1,79.9999999999999,6|0,3:2|1:0,0:0:0:0:
134,368,54177,1,2,0:0:0:0:
58,322,54519,2,0,P|36:247|68:172,2,160,0|8|0,0:0|0:0|1:0,0:0:0:0:
134,368,56234,5,6,3:2:0:0:
207,318,56577,2,0,P|288:328|378:343,1,160,8|8,0:0|0:0,0:0:0:0:
447,308,57605,1,0,3:0:0:0:
497,235,57948,2,0,P|509:154|474:75,1,160,8|8,0:0|0:0,0:0:0:0:
411,28,58977,6,0,B|316:22|348:72|241:64,1,160,0|2,3:0|0:0,0:0:0:0:
172,47,60005,1,8,0:0:0:0:
113,112,60348,2,0,P|88:99|-6:113,2,120,0|0|8,3:0|3:0|0:0,0:0:0:0:
178,170,61719,5,6,3:2:0:0:
232,239,62062,2,0,P|309:226|396:213,1,160,8|8,0:0|0:0,0:0:0:0:
476,195,63091,2,0,P|495:232|496:275,1,79.9999999999999,0|8,3:0|0:0,0:0:0:0:
453,346,63777,2,0,P|416:365|373:366,1,79.9999999999999,2|8,0:0|0:0,0:0:0:0:
301,324,64462,6,0,P|261:331|211:341,2,79.9999999999999,0|0|0,3:0|3:0|3:0,0:0:0:0:
358,257,65491,1,0,3:0:0:0:
303,187,65834,2,0,B|244:179|244:179|205:195|205:195|132:187,1,160,8|8,0:0|0:0,0:0:0:0:
59,175,66862,1,8,0:0:0:0:
46,87,67205,6,0,P|75:73|128:73,1,79.9999999999999,0|0,3:0|3:0,0:0:0:0:
207,95,67891,2,0,P|268:88|332:80,2,120,0|0|8,3:0|3:0|3:1,0:0:0:0:
168,174,69262,2,0,P|161:215|173:257,1,79.9999999999999,2|2,0:0|0:0,0:0:0:0:
215,327,69948,6,0,B|275:318|275:318|307:296|307:296|380:287,1,160,6|0,3:2|0:0,0:0:0:0:
454,276,70977,1,8,0:0:0:0:
505,204,71319,2,0,P|508:165|491:115,1,79.9999999999999,0|8,3:2|0:0,0:0:0:0:
460,45,72005,1,2,0:0:0:0:
371,45,72348,1,8,0:0:0:0:
292,85,72691,6,0,B|210:73|224:124|130:111,1,160,0|2,3:0|0:0,0:0:0:0:
53,84,73719,1,8,0:0:0:0:
13,162,74062,2,0,P|0:208|30:291,2,120,0|2|8,3:0|0:0|0:0,0:0:0:0:
53,84,75434,5,6,3:2:0:0:
138,112,75777,2,0,P|143:168|146:208,1,79.9999999999999,8|0,0:0|0:0,0:0:0:0:
152,279,76462,1,8,0:0:0:0:
228,324,76805,2,0,P|287:333|349:305,2,120,0|2|8,3:0|0:0|0:0,0:0:0:0:
152,279,78177,5,4,3:2:0:0:
181,196,78519,2,0,P|244:185|275:181,2,79.9999999999999,8|2|8,0:0|0:0|0:0,0:0:0:0:
93,209,79548,2,0,P|79:170|85:115,1,79.9999999999999,0|8,3:0|0:0,0:0:0:0:
104,46,80234,1,2,0:0:0:0:
186,14,80577,1,8,0:0:0:0:
263,55,80919,6,0,B|323:46|323:46|357:61|357:61|423:49,1,160,6|0,3:2|0:0,0:0:0:0:
495,92,81948,1,8,0:0:0:0:
441,162,82291,2,0,P|431:195|446:252,1,79.9999999999999,0|8,3:0|0:0,0:0:0:0:
471,321,82977,1,2,0:0:0:0:
399,371,83319,1,8,0:0:0:0:
319,332,83662,6,0,B|285:359|285:359|198:349,1,120,4|4,3:2|3:2,0:0:0:0:
121,336,84519,1,0,3:0:0:0:
62,269,84862,2,0,P|49:211|73:153,1,120,6|8,3:2|0:0,0:0:0:0:
136,96,85719,1,8,0:0:0:0:
224,96,86062,1,8,0:0:0:0:
298,142,86405,6,0,P|337:137|377:132,2,79.9999999999999,6|0|0,3:2|3:2|3:2,0:0:0:0:
240,208,87434,1,0,3:2:0:0:
184,276,87777,2,0,P|144:290|93:281,1,79.9999999999999,0|0,3:0|3:0,0:0:0:0:
31,242,88462,2,0,P|17:202|26:151,1,79.9999999999999,0|0,3:0|3:0,0:0:0:0:
61,86,89148,5,8,0:0:0:0:
144,59,89491,1,8,0:0:0:0:
225,91,89834,2,0,P|265:86|309:81,1,79.9999999999999,8|8,0:0|0:0,0:0:0:0:
392,72,90519,2,0,P|448:49|512:59,2,120,0|0|8,3:0|3:0|0:0,0:0:0:0:
358,153,91891,5,6,3:2:0:0:
185,186,102862,6,0,B|241:175|241:175|280:197|280:197|343:186,1,160,6|2,3:2|0:0,0:0:0:0:
423,165,103891,1,8,0:0:0:0:
439,78,104234,2,0,P|393:33|286:33,1,160,0|2,3:0|0:0,0:0:0:0:
216,54,105262,1,8,0:0:0:0:
148,110,105605,6,0,P|155:177|165:273,1,160,0|2,3:0|0:0,0:0:0:0:
238,318,106634,1,8,0:0:0:0:
313,272,106977,2,0,P|377:310|455:282,1,160,0|2,3:0|0:0,0:0:0:0:
497,207,108005,1,8,0:0:0:0:
435,143,108348,6,0,P|392:149|347:156,1,79.9999999999999,6|0,3:2|1:0,0:0:0:0:
268,168,109034,1,2,0:0:0:0:
211,235,109377,2,0,P|154:263|64:226,2,160,8|0|8,0:0|1:0|0:0,0:0:0:0:
178,153,111091,6,0,P|130:146|91:140,1,79.9999999999999,6|0,3:2|1:0,0:0:0:0:
12,160,111777,1,2,0:0:0:0:
68,231,112119,2,0,B|63:302|44:330|44:330|58:365|85:381,2,160,8|8|8,0:0|0:0|0:0,0:0:0:0:
12,160,113834,6,0,P|81:142|151:197,1,160,6|2,3:2|0:0,0:0:0:0:
171,276,114862,1,8,0:0:0:0:
171,364,115205,2,0,P|243:352|338:337,1,160,0|2,3:0|0:0,0:0:0:0:
414,317,116234,1,8,0:0:0:0:
476,254,116577,6,0,P|497:174|458:98,1,160,0|2,3:0|0:0,0:0:0:0:
391,59,117605,1,8,0:0:0:0:
324,116,117948,2,0,P|246:109|155:101,1,160,0|2,3:0|0:0,0:0:0:0:
76,96,118977,1,8,0:0:0:0:
23,166,119319,6,0,P|12:204|23:258,1,79.9999999999999,6|0,3:2|1:0,0:0:0:0:
87,296,120005,1,2,0:0:0:0:
164,254,120348,2,0,B|221:259|221:259|252:284|252:284|325:294,2,160,8|8|8,0:0|0:0|0:0,0:0:0:0:
108,185,122062,6,0,P|107:142|124:102,1,79.9999999999999,6|8,3:2|0:0,0:0:0:0:
182,45,122748,1,2,0:0:0:0:
250,100,123091,2,0,B|357:83|357:83|408:115,2,160,8|8|0,0:0|0:0|1:0,0:0:0:0:
197,170,124805,5,6,3:2:0:0:
262,229,125148,2,0,P|343:237|432:246,1,160,8|8,0:0|0:0,0:0:0:0:
483,306,126177,1,0,3:0:0:0:
411,356,126519,2,0,P|336:373|250:339,1,160,8|8,0:0|0:0,0:0:0:0:
191,290,127548,6,0,P|205:206|218:130,1,160,0|2,3:0|0:0,0:0:0:0:
238,46,128577,1,8,0:0:0:0:
318,79,128919,2,0,P|376:83|436:54,2,120,0|0|8,3:0|3:0|0:0,0:0:0:0:
238,46,130291,5,6,3:2:0:0:
152,66,130634,2,0,P|139:145|125:231,1,160,8|8,0:0|0:0,0:0:0:0:
44,256,131662,2,0,P|32:298|37:341,1,79.9999999999999,0|8,3:0|0:0,0:0:0:0:
116,367,132348,2,0,P|158:355|201:360,1,79.9999999999999,2|8,0:0|0:0,0:0:0:0:
270,314,133034,6,0,P|263:271|255:229,2,79.9999999999999,0|0|0,3:0|3:0|3:0,0:0:0:0:
347,356,134062,1,0,3:0:0:0:
431,330,134405,2,0,P|454:258|430:179,1,160,8|8,0:0|0:0,0:0:0:0:
367,117,135434,1,8,0:0:0:0:
283,143,135777,6,0,P|241:138|203:135,1,79.9999999999999,0|0,3:0|3:0,0:0:0:0:
124,96,136462,2,0,B|51:120|51:120|9:96,2,120,0|0|8,3:0|3:0|3:1,0:0:0:0:
190,37,137834,2,0,P|223:28|272:35,1,79.9999999999999,2|2,0:0|0:0,0:0:0:0:
343,78,138519,1,0,3:0:0:0:
283,143,138862,6,0,B|263:197|263:197|286:242|286:242|268:299,1,160,12|8,0:0|0:0,0:0:0:0:
307,371,139891,2,0,P|347:376|390:368,1,79.9999999999999,0|8,3:0|0:0,0:0:0:0:
469,341,140577,1,2,0:0:0:0:
480,254,140919,1,8,0:0:0:0:
419,190,141262,6,0,P|342:196|284:144,1,160,0|2,3:0|0:0,0:0:0:0:
206,100,142291,1,8,0:0:0:0:
125,136,142634,2,0,P|57:138|12:106,2,120,0|0|8,3:0|3:0|0:0,0:0:0:0:
206,100,144005,5,6,3:2:0:0:
283,143,144348,2,0,P|273:185|266:226,1,79.9999999999999,8|0,0:0|0:0,0:0:0:0:
251,308,145034,1,8,0:0:0:0:
329,347,145377,2,0,P|388:363|443:340,2,120,0|2|8,3:0|0:0|0:0,0:0:0:0:
251,308,146748,5,4,3:2:0:0:
183,250,147091,2,0,P|139:257|97:263,2,79.9999999999999,8|2|8,0:0|0:0|0:0,0:0:0:0:
266,221,148119,2,0,P|270:174|259:139,1,79.9999999999999,0|8,3:0|0:0,0:0:0:0:
212,69,148805,1,2,0:0:0:0:
126,48,149148,1,8,0:0:0:0:
63,110,149491,6,0,B|74:170|74:170|94:198|94:198|105:264,1,160,6|0,3:2|0:0,0:0:0:0:
118,348,150519,1,8,0:0:0:0:
202,371,150862,2,0,P|240:356|290:352,1,79.9999999999999,0|8,3:2|0:0,0:0:0:0:
366,364,151548,1,2,0:0:0:0:
445,328,151891,1,8,0:0:0:0:
495,255,152234,6,0,P|488:191|481:126,1,120,6|6,3:2|3:2,0:0:0:0:
471,48,153091,1,0,3:0:0:0:
387,21,153434,2,0,B|348:45|348:45|262:35,1,120,6|8,3:2|0:0,0:0:0:0:
186,29,154291,1,8,0:0:0:0:
127,94,154634,1,8,0:0:0:0:
168,171,154977,6,0,P|162:212|157:262,2,79.9999999999999,6|0|0,3:2|3:2|3:2,0:0:0:0:
236,115,156005,1,0,3:2:0:0:
307,166,156348,2,0,P|348:175|395:171,1,79.9999999999999,0|0,3:0|3:0,0:0:0:0:
472,155,157034,2,0,P|484:195|484:242,1,79.9999999999999,0|0,3:0|3:0,0:0:0:0:
463,317,157719,5,8,0:0:0:0:
383,354,158062,1,8,0:0:0:0:
303,315,158405,2,0,P|245:322|205:327,1,79.9999999999999,8|8,0:0|0:0,0:0:0:0:
136,337,159091,2,0,P|89:356|12:350,2,120,0|0|8,3:0|3:0|0:0,0:0:0:0:
168,255,160462,5,6,3:2:0:0:
170,259,171434,6,0,P|124:273|51:242,2,120,8|8|8,0:0|0:0|0:0,0:0:0:0:
253,230,172805,2,0,P|299:244|372:213,2,120,8|8|8,0:0|0:0|0:0,0:0:0:0:
185,173,174177,6,0,P|195:120|210:42,2,120,12|8|8,0:0|0:0|0:0,0:0:0:0:
170,259,175548,2,0,P|180:312|195:390,2,120,8|8|8,0:0|0:0|0:0,0:0:0:0:
94,214,176919,6,0,P|85:172|96:130,1,79.9999999999999,12|8,0:0|0:0,0:0:0:0:
129,56,177605,2,0,P|171:47|213:58,1,79.9999999999999,8|8,0:0|0:0,0:0:0:0:
283,99,178291,2,0,P|274:141|285:183,1,79.9999999999999,12|8,0:0|0:0,0:0:0:0:
363,209,178977,2,0,P|372:251|361:293,1,79.9999999999999,8|8,0:0|0:0,0:0:0:0:
328,367,179662,5,12,0:0:0:0:
415,375,180005,1,8,0:0:0:0:
494,336,180348,2,0,P|485:296|478:257,1,79.9999999999999,8|8,0:0|0:0,0:0:0:0:
445,175,181034,2,0,P|453:135|460:96,2,79.9999999999999,0|0|2,3:0|1:0|0:0,0:0:0:0:
363,209,182062,1,0,1:0:0:0:
294,153,182405,6,0,P|249:128|140:161,1,160,6|2,3:2|0:0,0:0:0:0:
95,223,183434,2,0,P|101:263|108:317,1,79.9999999999999,8|0,0:0|3:0,0:0:0:0:
177,353,184119,1,8,0:0:0:0:
252,307,184462,2,0,B|324:326|324:326|370:306,2,120,2|2|8,0:0|0:0|0:0,0:0:0:0:
181,253,185834,6,0,P|85:267|11:280,2,160,2|0|2,0:0|3:0|0:0,0:0:0:0:
254,204,187548,1,8,0:0:0:0:
325,153,187891,6,0,P|378:158|420:166,1,79.9999999999999,6|8,3:2|0:0,0:0:0:0:
472,219,188577,2,0,P|492:277|468:341,2,120,2|2|8,0:0|0:0|0:0,0:0:0:0:
404,162,189948,2,0,P|415:101|429:38,2,120,2|2|8,0:0|0:0|0:0,0:0:0:0:
376,245,191319,6,0,P|329:256|285:251,1,79.9999999999999,2|8,0:0|0:0,0:0:0:0:
211,234,192005,2,0,P|200:173|186:110,2,120,0|2|8,3:0|0:0|0:0,0:0:0:0:
231,319,193377,6,0,B|290:331|290:331|320:360|320:360|388:371,1,160,6|2,3:2|0:0,0:0:0:0:
464,377,194405,2,0,P|475:333|470:293,1,79.9999999999999,8|0,0:0|3:0,0:0:0:0:
428,221,195091,1,8,0:0:0:0:
348,183,195434,2,0,P|298:202|231:184,2,120,2|2|8,0:0|0:0|0:0,0:0:0:0:
377,100,196805,6,0,P|309:91|208:77,2,160,2|0|2,0:0|3:0|0:0,0:0:0:0:
463,116,198519,1,8,0:0:0:0:
488,200,198862,6,0,P|463:234|457:277,1,79.9999999999999,6|8,3:2|0:0,0:0:0:0:
372,296,199548,2,0,P|316:260|261:263,2,120,2|2|8,0:0|0:0|0:0,0:0:0:0:
332,374,200919,2,0,P|291:369|239:365,1,79.9999999999999,2|8,0:0|0:0,0:0:0:0:
183,311,201605,6,0,P|171:230|159:139,1,160,0|2,3:0|0:0,0:0:0:0:
150,64,202634,1,8,0:0:0:0:
233,36,202977,2,0,P|266:35|317:50,1,79.9999999999999,0|8,3:0|0:0,0:0:0:0:
377,105,203662,2,0,P|415:93|455:93,1,79.9999999999999,2|8,0:0|0:0,0:0:0:0:
504,167,204348,6,0,P|494:240|479:344,1,160,0|0,3:0|3:0,0:0:0:0:
312,373,205719,2,0,P|303:312|297:279,1,79.9999999999999,0|0,3:0|3:0,0:0:0:0:
283,207,206405,1,0,3:0:0:0:
208,160,206748,1,0,3:0:0:0:
135,209,207091,6,0,P|74:223|13:198,1,120,6|6,3:2|3:2,0:0:0:0:
4,117,207948,1,8,0:0:0:0:
69,58,208291,2,0,P|120:50|199:40,1,120,8|0,0:0|1:0,0:0:0:0:
273,21,209148,2,0,P|326:29|365:36,1,79.9999999999999,2|0,0:0|1:0,0:0:0:0:
437,54,209834,5,6,3:2:0:0:
226,237,215319,6,0,P|162:254|114:235,2,120,6|2|8,3:2|0:0|0:0,0:0:0:0:
289,175,216691,2,0,P|353:192|401:173,2,120,0|2|8,3:0|0:0|0:0,0:0:0:0:
216,124,218062,5,4,3:2:0:0:
143,74,218405,2,0,P|103:79|55:85,2,79.9999999999999,8|2|8,0:0|0:0|0:0,0:0:0:0:
220,31,219434,2,0,P|260:36|308:42,1,79.9999999999999,0|8,3:0|0:0,0:0:0:0:
385,58,220119,1,2,0:0:0:0:
418,139,220462,1,8,0:0:0:0:
376,216,220805,6,0,B|318:231|318:231|294:257|294:257|229:276,1,160,6|0,3:2|0:0,0:0:0:0:
146,296,221834,1,8,0:0:0:0:
65,261,222177,2,0,P|54:215|65:169,1,79.9999999999999,0|8,3:0|0:0,0:0:0:0:
95,102,222862,1,2,0:0:0:0:
177,70,223205,1,8,0:0:0:0:
257,105,223548,6,0,B|296:127|296:127|372:108,1,120,6|6,3:2|3:2,0:0:0:0:
452,82,224405,1,0,3:0:0:0:
511,146,224748,2,0,P|479:198|490:262,1,120,6|8,3:2|0:0,0:0:0:0:
504,340,225605,1,8,0:0:0:0:
421,371,225948,1,8,0:0:0:0:
352,315,226291,6,0,P|358:271|365:221,2,79.9999999999999,6|0|0,3:2|3:2|3:2,0:0:0:0:
277,361,227319,1,0,3:2:0:0:
200,318,227662,2,0,P|149:323|116:310,1,79.9999999999999,0|0,3:0|3:0,0:0:0:0:
63,248,228348,2,0,P|58:197|71:164,1,79.9999999999999,0|0,3:0|3:0,0:0:0:0:
118,98,229034,5,8,0:0:0:0:
204,79,229377,1,8,0:0:0:0:
275,130,229719,2,0,P|316:124|356:118,1,79.9999999999999,8|8,0:0|0:0,0:0:0:0:
441,103,230405,1,0,3:0:0:0:
441,103,231777,6,0,B|428:162|428:162|401:184|401:184|390:255,1,160,6|2,3:2|0:0,0:0:0:0:
318,297,232805,1,8,0:0:0:0:
257,232,233148,2,0,P|210:237|167:226,1,79.9999999999999,0|8,3:0|0:0,0:0:0:0:
102,184,233834,2,0,P|55:179|12:190,1,79.9999999999999,2|8,0:0|0:0,0:0:0:0:
2,271,234519,6,0,B|1:318|22:348|22:348|57:367|117:352,1,160,6|2,3:2|0:0,0:0:0:0:
185,335,235548,1,8,0:0:0:0:
250,276,235891,2,0,P|247:220|244:184,1,79.9999999999999,0|8,3:0|0:0,0:0:0:0:
193,124,236577,2,0,P|196:68|199:32,1,79.9999999999999,2|8,0:0|0:0,0:0:0:0:
282,21,237262,6,0,B|319:33|335:50|335:50|377:20|446:26,1,160,6|2,3:2|0:0,0:0:0:0:
498,79,238291,2,0,P|481:118|476:158,1,79.9999999999999,8|0,0:0|3:0,0:0:0:0:
416,220,238977,2,0,P|433:259|438:299,2,79.9999999999999,8|2|8,0:0|0:0|0:0,0:0:0:0:
358,153,240005,5,4,3:2:0:0:
284,201,240348,2,0,P|230:195|198:192,1,79.9999999999999,8|2,0:0|0:0,0:0:0:0:
137,135,241034,2,0,P|83:141|51:144,1,79.9999999999999,8|0,0:0|3:0,0:0:0:0:
9,217,241719,1,8,0:0:0:0:
36,300,242062,2,0,P|70:317|123:314,1,79.9999999999999,2|8,0:0|0:0,0:0:0:0:
196,292,242748,6,0,B|282:283|260:334|352:318,1,160,6|0,3:2|0:0,0:0:0:0:
429,280,243777,1,8,0:0:0:0:
486,213,244119,2,0,P|478:169|470:131,1,79.9999999999999,0|8,3:0|0:0,0:0:0:0:
453,47,244805,1,2,0:0:0:0:
370,17,245148,1,8,0:0:0:0:
287,48,245491,6,0,P|235:80|136:63,1,160,6|0,3:2|0:0,0:0:0:0:
67,17,246519,1,8,0:0:0:0:
15,88,246862,2,0,P|26:127|31:171,1,79.9999999999999,2|8,3:2|0:0,0:0:0:0:
114,193,247548,2,0,P|103:232|98:276,1,79.9999999999999,2|8,0:0|0:0,0:0:0:0:
91,359,248234,6,0,P|47:361|10:350,2,79.9999999999999,6|0|0,3:2|3:2|3:2,0:0:0:0:
171,323,249262,1,0,3:2:0:0:
224,253,249605,2,0,P|215:185|213:173,1,79.9999999999999,0|0,3:0|3:0,0:0:0:0:
141,122,250291,2,0,P|145:82|151:42,1,79.9999999999999,0|0,3:0|3:0,0:0:0:0:
236,18,250977,5,12,0:0:0:0:
301,76,251319,1,8,0:0:0:0:
377,33,251662,2,0,P|419:31|460:46,1,79.9999999999999,8|0,0:0|3:0,0:0:0:0:
481,127,252348,2,0,B|452:164|452:164|468:238,1,120,6|6,3:2|3:2,0:0:0:0:
485,321,253205,2,0,B|456:337|406:337|406:337|364:319,1,120,6|6,3:2|3:2,0:0:0:0:
294,277,254062,5,0,1:0:0:0:
244,204,254405,2,0,P|248:165|258:124,2,79.9999999999999,2|0|2,0:0|1:0|0:0,0:0:0:0:
174,258,255434,1,0,1:0:0:0:
91,227,255777,2,0,P|49:232|-2:221,2,79.9999999999999,2|0|2,0:0|1:0|0:0,0:0:0:0:
157,169,256805,5,0,1:0:0:0:
219,107,257148,2,0,P|259:112|301:118,2,79.9999999999999,2|0|2,0:0|1:0|0:0,0:0:0:0:
150,50,258177,1,0,1:0:0:0:
64,70,258519,2,0,P|50:109|53:151,1,79.9999999999999,2|0,0:0|1:0,0:0:0:0:
91,227,259205,5,6,0:0:0:0:
256,192,259377,12,0,266062,0:0:0:0:
