osu file format v14

[General]
AudioFilename: audio.mp3
AudioLeadIn: 0
PreviewTime: 230286
Countdown: 0
SampleSet: Soft
StackLeniency: 0.7
Mode: 0
LetterboxInBreaks: 0
WidescreenStoryboard: 0

[Editor]
Bookmarks: 76911,78036,151911,153036,229348,231036,234036,285036,291036
DistanceSpacing: 1
BeatDivisor: 4
GridSize: 32
TimelineZoom: 1.8

[Metadata]
Title:Wings of Courage -Sora o Koete-
TitleUnicode:Wings of Courage -空を超えて-
Artist:Kawada Mami
ArtistUnicode:川田まみ
Creator:-[Shady]-
Version:Eternal Sky
Source:蒼の彼方のフォーリズム
Tags:sprite opening ao no kanata no four rhythm Aokana across the blue visual novel vn eroge beyond the sky into the firmament video game japanese anime insert song
BeatmapID:2314243
BeatmapSetID:1107289

[Difficulty]
HPDrainRate:5.5
CircleSize:4
OverallDifficulty:8
ApproachRate:9
SliderMultiplier:1.8
SliderTickRate:1

[Events]
//Background and Video events
0,0,"Wings of Courage.jpg",0,0
//Break Periods
2,231236,233436
//Storyboard Layer 0 (Background)
//Storyboard Layer 1 (Fail)
//Storyboard Layer 2 (Pass)
//Storyboard Layer 3 (Foreground)
//Storyboard Layer 4 (Overlay)
//Storyboard Sound Samples

[TimingPoints]
9036,375,4,2,1,40,1,0
9036,-125,4,2,1,45,0,0
13536,-125,4,2,1,30,0,0
14379,-125,4,2,1,5,0,0
14473,-125,4,2,1,30,0,0
14567,-125,4,2,1,5,0,0
14661,-125,4,2,1,50,0,0
14707,-125,4,2,1,30,0,0
15036,-100,4,2,1,60,0,0
17379,-100,4,2,1,5,0,0
17473,-100,4,2,1,60,0,0
17567,-100,4,2,1,5,0,0
17661,-100,4,2,1,60,0,0
23379,-100,4,2,1,5,0,0
23473,-100,4,2,1,60,0,0
23567,-100,4,2,1,5,0,0
23661,-100,4,2,1,60,0,0
29379,-100,4,2,1,5,0,0
29473,-100,4,2,1,60,0,0
29567,-100,4,2,1,5,0,0
29661,-100,4,2,1,60,0,0
36129,-100,4,2,1,5,0,0
36223,-100,4,2,1,60,0,0
38707,-100,4,2,1,5,0,0
39036,-125,4,2,1,50,0,0
41379,-125,4,2,1,5,0,0
41473,-125,4,2,1,50,0,0
41567,-125,4,2,1,5,0,0
41661,-125,4,2,1,50,0,0
45036,-111.111111111111,4,2,1,60,0,0
47942,-111.111111111111,4,2,1,5,0,0
48036,-111.111111111111,4,2,1,55,0,0
50942,-111.111111111111,4,2,1,5,0,0
51036,-125,4,2,1,50,0,0
53379,-125,4,2,1,5,0,0
53473,-125,4,2,1,50,0,0
53567,-125,4,2,1,5,0,0
53661,-125,4,2,1,50,0,0
57036,-111.111111111111,4,2,1,60,0,0
59942,-111.111111111111,4,2,1,5,0,0
60036,-111.111111111111,4,2,1,55,0,0
62379,-111.111111111111,4,2,1,5,0,0
62473,-111.111111111111,4,2,1,55,0,0
62567,-111.111111111111,4,2,1,5,0,0
62661,-111.111111111111,4,2,1,55,0,0
63036,-142.857142857143,4,2,1,50,0,0
65942,-142.857142857143,4,2,1,5,0,0
66036,-142.857142857143,4,2,1,50,0,0
69036,-125,4,2,1,55,0,0
70254,-125,4,2,1,5,0,0
70348,-125,4,2,1,55,0,0
71754,-125,4,2,1,5,0,0
71848,-125,4,2,1,55,0,0
73254,-125,4,2,1,5,0,0
73348,-125,4,2,1,55,0,0
75036,-111.111111111111,4,2,1,60,0,0
76348,-99.9999999999999,4,2,1,65,0,0
76629,-99.9999999999999,4,2,1,5,0,0
76723,-99.9999999999999,4,2,1,65,0,0
76817,-99.9999999999999,4,2,1,5,0,0
76911,-99.9999999999999,4,2,1,65,0,0
78036,-83.3333333333333,4,2,1,85,0,1
80379,-83.3333333333333,4,2,1,5,0,1
80473,-83.3333333333333,4,2,1,85,0,1
80567,-83.3333333333333,4,2,1,5,0,1
80661,-83.3333333333333,4,2,1,85,0,1
83942,-83.3333333333333,4,2,1,5,0,1
84036,-83.3333333333333,4,2,1,85,0,1
89286,-83.3333333333333,4,2,1,85,0,0
89379,-83.3333333333333,4,2,1,5,0,0
89473,-83.3333333333333,4,2,1,85,0,0
89567,-83.3333333333333,4,2,1,5,0,0
89661,-83.3333333333333,4,2,1,85,0,0
90036,-83.3333333333333,4,2,1,85,0,1
92379,-83.3333333333333,4,2,1,5,0,1
92473,-83.3333333333333,4,2,1,85,0,1
92567,-83.3333333333333,4,2,1,5,0,1
92661,-83.3333333333333,4,2,1,85,0,1
96411,-83.3333333333333,4,2,1,85,0,1
96692,-83.3333333333333,4,2,1,5,0,1
96786,-83.3333333333333,4,2,1,85,0,1
99973,-83.3333333333333,4,2,1,85,0,1
100067,-83.3333333333333,4,2,1,5,0,1
100161,-83.3333333333333,4,2,1,85,0,1
100254,-83.3333333333333,4,2,1,5,0,1
100348,-83.3333333333333,4,2,1,85,0,1
100536,-100,4,2,1,70,0,0
102036,-100,4,2,1,70,0,0
104379,-100,4,2,1,5,0,0
104473,-100,4,2,1,70,0,0
104567,-100,4,2,1,5,0,0
104661,-100,4,2,1,70,0,0
110379,-100,4,2,1,5,0,0
110473,-100,4,2,1,70,0,0
110567,-100,4,2,1,5,0,0
110661,-100,4,2,1,70,0,0
114036,-125,4,2,1,50,0,0
116379,-125,4,2,1,5,0,0
116473,-125,4,2,1,50,0,0
116567,-125,4,2,1,5,0,0
116661,-125,4,2,1,50,0,0
120036,-111.111111111111,4,2,1,60,0,0
122942,-111.111111111111,4,2,1,5,0,0
123036,-111.111111111111,4,2,1,55,0,0
125942,-111.111111111111,4,2,1,5,0,0
126036,-166.666666666667,4,2,1,50,0,0
129411,-125,4,2,1,50,0,0
130536,-111.111111111111,4,2,1,55,0,0
132036,-111.111111111111,4,2,1,60,0,0
134942,-111.111111111111,4,2,1,5,0,0
135036,-111.111111111111,4,2,1,55,0,0
137379,-111.111111111111,4,2,1,5,0,0
137473,-111.111111111111,4,2,1,55,0,0
137567,-111.111111111111,4,2,1,5,0,0
137661,-111.111111111111,4,2,1,55,0,0
138036,-142.857142857143,4,2,1,50,0,0
140942,-142.857142857143,4,2,1,5,0,0
141036,-142.857142857143,4,2,1,50,0,0
144036,-125,4,2,1,55,0,0
145254,-125,4,2,1,5,0,0
145348,-125,4,2,1,55,0,0
146754,-125,4,2,1,5,0,0
146848,-125,4,2,1,55,0,0
148254,-125,4,2,1,5,0,0
148348,-125,4,2,1,55,0,0
150036,-111.111111111111,4,2,1,60,0,0
151348,-99.9999999999999,4,2,1,65,0,0
151629,-99.9999999999999,4,2,1,5,0,0
151723,-99.9999999999999,4,2,1,65,0,0
151817,-99.9999999999999,4,2,1,5,0,0
151911,-99.9999999999999,4,2,1,65,0,0
153036,-83.3333333333333,4,2,1,85,0,1
155379,-83.3333333333333,4,2,1,5,0,1
155473,-83.3333333333333,4,2,1,85,0,1
155567,-83.3333333333333,4,2,1,5,0,1
155661,-83.3333333333333,4,2,1,85,0,1
158942,-83.3333333333333,4,2,1,5,0,1
159036,-83.3333333333333,4,2,1,85,0,1
160817,-83.3333333333333,4,2,1,5,0,1
160911,-83.3333333333333,4,2,1,85,0,1
164286,-83.3333333333333,4,2,1,85,0,0
164379,-83.3333333333333,4,2,1,5,0,0
164473,-83.3333333333333,4,2,1,85,0,0
164567,-83.3333333333333,4,2,1,5,0,0
164661,-83.3333333333333,4,2,1,85,0,0
165036,-83.3333333333333,4,2,1,85,0,1
167379,-83.3333333333333,4,2,1,5,0,1
167473,-83.3333333333333,4,2,1,85,0,1
167567,-83.3333333333333,4,2,1,5,0,1
167661,-83.3333333333333,4,2,1,85,0,1
171411,-83.3333333333333,4,2,1,85,0,1
171692,-83.3333333333333,4,2,1,5,0,1
171786,-83.3333333333333,4,2,1,85,0,1
174973,-83.3333333333333,4,2,1,85,0,1
175067,-83.3333333333333,4,2,1,5,0,1
175161,-83.3333333333333,4,2,1,85,0,1
175254,-83.3333333333333,4,2,1,5,0,1
175348,-83.3333333333333,4,2,1,85,0,1
175536,-100,4,2,1,70,0,0
177036,-166.666666666667,4,2,1,40,0,0
178629,-166.666666666667,4,2,1,5,0,0
178723,-166.666666666667,4,2,1,40,0,0
184629,-166.666666666667,4,2,1,5,0,0
184723,-166.666666666667,4,2,1,40,0,0
189036,-142.857142857143,4,2,1,50,0,0
191379,-142.857142857143,4,2,1,5,0,0
191473,-142.857142857143,4,2,1,50,0,0
191567,-142.857142857143,4,2,1,5,0,0
191661,-142.857142857143,4,2,1,50,0,0
194379,-142.857142857143,4,2,1,5,0,0
194473,-142.857142857143,4,2,1,50,0,0
194567,-142.857142857143,4,2,1,5,0,0
194661,-142.857142857143,4,2,1,50,0,0
195036,-125,4,2,1,55,0,0
200379,-125,4,2,1,5,0,0
200473,-125,4,2,1,55,0,0
200567,-125,4,2,1,5,0,0
200661,-125,4,2,1,55,0,0
201036,-99.9999999999999,4,2,1,65,0,0
225036,-83.3333333333333,4,2,1,75,0,0
228317,-83.3333333333333,4,2,1,5,0,0
228411,-83.3333333333333,4,2,1,75,0,0
231036,-166.666666666667,4,2,1,45,0,0
234786,-166.666666666667,4,2,1,50,0,0
235161,-166.666666666667,4,2,1,55,0,0
235536,-166.666666666667,4,2,1,60,0,0
235911,-166.666666666667,4,2,1,65,0,0
236286,-166.666666666667,4,2,1,70,0,0
236661,-125,4,2,1,45,0,0
237036,-83.3333333333333,4,2,1,85,0,1
242286,-83.3333333333333,4,2,1,85,0,0
242379,-83.3333333333333,4,2,1,5,0,0
242473,-83.3333333333333,4,2,1,85,0,0
242567,-83.3333333333333,4,2,1,5,0,0
242661,-83.3333333333333,4,2,1,85,0,0
243036,-83.3333333333333,4,2,1,85,0,1
245379,-83.3333333333333,4,2,1,5,0,1
245473,-83.3333333333333,4,2,1,85,0,1
245567,-83.3333333333333,4,2,1,5,0,1
245661,-83.3333333333333,4,2,1,85,0,1
249411,-83.3333333333333,4,2,1,85,0,1
249692,-83.3333333333333,4,2,1,5,0,1
249786,-83.3333333333333,4,2,1,85,0,1
252973,-83.3333333333333,4,2,1,85,0,1
253067,-83.3333333333333,4,2,1,5,0,1
253161,-83.3333333333333,4,2,1,85,0,1
253254,-83.3333333333333,4,2,1,5,0,1
253348,-83.3333333333333,4,2,1,85,0,1
253536,-100,4,2,1,70,0,0
255036,-90.9090909090909,4,2,1,80,0,0
258317,-90.9090909090909,4,2,1,5,0,0
258411,-90.9090909090909,4,2,1,80,0,0
261317,-90.9090909090909,4,2,1,5,0,0
261411,-90.9090909090909,4,2,1,80,0,0
267317,-90.9090909090909,4,2,1,5,0,0
267411,-90.9090909090909,4,2,1,80,0,0
270317,-90.9090909090909,4,2,1,5,0,0
270411,-90.9090909090909,4,2,1,80,0,0
273317,-90.9090909090909,4,2,1,5,0,0
273411,-90.9090909090909,4,2,1,80,0,0
276036,-90.9090909090909,4,2,1,60,0,0
279036,-166.666666666667,4,2,1,45,0,0
280911,-166.666666666667,4,2,1,40,0,0
282036,-166.666666666667,4,2,1,35,0,0
284661,-166.666666666667,4,2,1,40,0,0
284942,-166.666666666667,4,2,1,5,0,0
285036,-166.666666666667,4,2,1,45,0,0
286536,-166.666666666667,4,2,1,35,0,0
288036,-166.666666666667,4,2,1,25,0,0
289536,-166.666666666667,4,2,1,15,0,0
291036,-166.666666666667,4,2,1,5,0,0

[Colours]
Combo1 : 130,150,242
Combo2 : 117,255,117
Combo3 : 219,132,240

[HitObjects]
88,104,9036,6,0,L|177:90,1,72,2|4,1:2|0:3,0:0:0:0:
79,125,9411,2,0,L|168:111,1,72,0|4,1:2|0:3,0:0:0:0:
71,150,9786,2,0,L|160:136,1,72,0|4,1:2|0:3,0:0:0:0:
62,171,10161,2,0,L|151:157,1,72,0|4,1:2|0:3,0:0:0:0:
280,195,10536,6,0,L|191:181,1,72,2|4,1:2|0:3,0:0:0:0:
289,216,10911,2,0,L|200:202,1,72,0|4,1:2|0:3,0:0:0:0:
297,241,11286,2,0,L|208:227,1,72,0|4,1:2|0:3,0:0:0:0:
306,262,11661,2,0,L|217:248,1,72,0|4,1:2|0:3,0:0:0:0:
395,173,12036,6,0,L|380:250,1,72,2|4,1:2|0:3,0:0:0:0:
413,98,12411,1,0,1:0:0:0:
361,318,12598,1,0,1:0:0:0:
361,318,12973,1,0,1:0:0:0:
337,115,13348,1,4,0:3:0:0:
337,115,13442,1,4,0:3:0:0:
337,115,13536,6,0,P|294:121|259:111,1,72,0|4,1:0|0:3,0:0:0:0:
226,98,13817,1,4,0:3:0:0:
226,98,13911,2,0,P|240:142|235:185,1,72,8|4,0:0|0:3,0:0:0:0:
224,208,14192,1,4,0:3:0:0:
224,208,14286,2,0,L|182:200,1,36,4|0,0:3|0:0,0:0:0:0:
119,184,14473,2,0,L|77:176,1,36,4|0,0:3|0:0,0:0:0:0:
21,222,14661,2,0,L|14:255,6,18,0|0|0|0|0|0|0,1:0|1:0|1:0|1:0|1:0|1:0|1:0,0:0:0:0:
22,269,15036,5,6,1:2:0:0:
83,177,15223,1,6,0:3:0:0:
93,313,15411,1,10,0:0:0:0:
17,141,15598,2,0,L|25:43,1,90,6|0,0:3|1:0,0:0:0:0:
173,184,15973,2,0,L|75:176,1,90,6|8,0:3|0:0,0:0:0:0:
239,56,16348,6,0,B|232:122|232:122|254:158|254:158|245:241,1,180,2|6,1:2|0:3,0:0:0:0:
314,100,16911,2,0,L|323:0,1,90,10|6,0:0|0:3,0:0:0:0:
483,196,17286,2,0,P|455:183|435:181,1,45,2|0,1:2|0:0,0:0:0:0:
370,170,17473,2,0,P|339:172|320:181,1,45,6|0,0:3|0:0,0:0:0:0:
250,233,17661,1,10,0:0:0:0:
250,233,18036,5,2,1:2:0:0:
316,98,18223,1,6,0:3:0:0:
392,251,18411,1,10,0:0:0:0:
249,143,18598,2,0,P|202:132|148:133,1,90,6|0,0:3|1:0,0:0:0:0:
77,219,18973,2,0,P|124:208|178:209,1,90,6|8,0:3|0:0,0:0:0:0:
311,336,19348,6,0,B|199:331|246:401|104:368,1,180,2|6,1:2|0:3,0:0:0:0:
165,207,19911,2,0,P|182:262|178:306,1,90,10|6,0:0|0:3,0:0:0:0:
66,353,20286,1,2,1:2:0:0:
66,353,20473,1,6,0:3:0:0:
105,150,20661,1,10,0:0:0:0:
105,150,21036,5,6,0:0:0:0:
180,293,21223,1,6,0:3:0:0:
5,290,21411,1,10,0:0:0:0:
105,150,21598,2,0,L|86:249,1,90,6|0,0:3|1:0,0:0:0:0:
263,91,21973,2,0,L|168:124,1,90,6|8,0:3|0:0,0:0:0:0:
248,350,22348,6,0,B|240:298|240:298|262:247|262:247|245:170,1,180,2|6,1:2|0:3,0:0:0:0:
317,301,22911,2,0,L|428:279,1,90,10|6,0:0|0:3,0:0:0:0:
479,63,23286,2,0,P|455:57|435:58,1,45,2|0,1:2|0:0,0:0:0:0:
358,66,23473,2,0,P|334:72|317:83,1,45,6|0,0:3|0:0,0:0:0:0:
247,172,23661,1,10,0:0:0:0:
247,172,24036,5,2,1:2:0:0:
358,66,24223,1,6,0:3:0:0:
403,284,24411,5,8,0:0:0:0:
406,240,24504,1,8,0:0:0:0:
378,207,24598,1,8,0:0:0:0:
334,204,24692,1,8,0:0:0:0:
302,234,24786,2,0,P|243:253|199:236,1,90,0|0,1:0|0:0,0:0:0:0:
102,52,25161,5,8,0:0:0:0:
98,95,25254,1,8,0:0:0:0:
126,128,25348,1,8,0:0:0:0:
170,131,25442,1,8,0:0:0:0:
202,101,25536,2,0,P|261:82|305:99,1,90,0|0,1:0|0:0,0:0:0:0:
241,325,25911,5,8,0:0:0:0:
196,324,26004,1,8,0:0:0:0:
159,300,26098,1,8,0:0:0:0:
140,260,26192,1,8,0:0:0:0:
146,216,26286,5,0,1:0:0:0:
83,361,26473,1,8,0:0:0:0:
37,154,26661,1,0,1:0:0:0:
65,276,26848,1,8,0:0:0:0:
65,276,26942,1,8,0:0:0:0:
65,276,27036,5,6,1:2:0:0:
227,195,27223,1,6,0:3:0:0:
66,77,27411,1,10,0:0:0:0:
227,195,27598,2,0,P|281:208|324:201,1,90,6|0,0:3|1:0,0:0:0:0:
285,43,27973,2,0,P|272:97|279:140,1,90,6|8,0:3|0:0,0:0:0:0:
507,162,28348,6,0,P|462:119|349:141,1,180,2|6,1:2|0:3,0:0:0:0:
415,273,28911,2,0,P|430:221|417:178,1,90,10|6,0:0|0:3,0:0:0:0:
285,43,29286,2,0,P|255:35|237:39,1,45,2|0,1:2|0:0,0:0:0:0:
173,58,29473,2,0,P|143:66|129:78,1,45,6|0,0:3|0:0,0:0:0:0:
91,174,29661,1,10,0:0:0:0:
91,174,30036,5,2,1:2:0:0:
105,6,30223,1,6,0:3:0:0:
208,159,30411,1,10,0:0:0:0:
23,61,30598,2,0,L|9:155,1,90,6|0,0:3|1:0,0:0:0:0:
173,313,30973,2,0,L|159:219,1,90,6|8,0:3|0:0,0:0:0:0:
26,311,31348,6,0,P|82:269|177:324,1,180,2|6,1:2|0:3,0:0:0:0:
93,190,31911,2,0,P|87:141|103:101,1,90,10|6,0:0|0:3,0:0:0:0:
200,27,32286,1,2,1:2:0:0:
200,27,32473,1,6,0:3:0:0:
261,223,32661,1,2,1:2:0:0:
261,223,33036,5,6,1:2:0:0:
187,106,33223,1,6,0:3:0:0:
336,101,33411,1,10,0:0:0:0:
225,308,33598,2,0,L|337:291,1,90,6|0,0:3|1:0,0:0:0:0:
429,220,33973,2,0,L|317:203,1,90,6|8,0:3|0:0,0:0:0:0:
463,374,34348,6,0,L|482:274,1,90,2|0,1:2|1:0,0:0:0:0:
323,118,34723,2,0,L|342:218,1,90,6|8,0:3|0:0,0:0:0:0:
480,119,35098,2,0,P|430:90|377:93,1,90,6|0,0:3|1:0,0:0:0:0:
254,184,35473,1,6,0:3:0:0:
334,36,35661,1,10,0:0:0:0:
383,300,35848,6,0,B|320:289|320:289|299:293|299:293|243:284,1,135,6|0,1:2|0:0,0:0:0:0:
206,272,36223,1,0,1:0:0:0:
260,94,36411,2,0,L|253:196,1,90,8|0,0:0|0:0,0:0:0:0:
217,28,36786,1,0,1:0:0:0:
217,28,36973,1,0,1:0:0:0:
68,151,37161,1,8,0:0:0:0:
68,151,37723,6,0,L|92:154,2,22.5,0|0|0,1:0|1:0|1:0,0:0:0:0:
22,144,37911,1,8,0:0:0:0:
62,245,38098,1,0,1:0:0:0:
86,75,38286,1,0,1:0:0:0:
86,75,38473,1,0,1:0:0:0:
149,272,38661,6,0,L|146:298,1,22.5,8|0,0:3|0:0,0:0:0:0:
165,100,39036,5,6,1:2:0:0:
156,195,39223,2,0,P|199:180|230:182,1,72,0|0,0:0|1:0,0:0:0:0:
318,96,39598,2,0,P|275:111|244:109,1,72,0|0,0:0|1:0,0:0:0:0:
212,37,39973,1,4,0:3:0:0:
229,185,40161,1,0,1:2:0:0:
229,185,40348,1,4,0:3:0:0:
318,96,40536,6,0,P|361:81|392:83,1,72,0|0,1:2|0:0,0:0:0:0:
345,228,40911,2,0,P|353:183|370:157,1,72,0|0,1:2|0:0,0:0:0:0:
453,257,41286,2,0,P|435:246|418:242,1,36,2|0,1:2|0:0,0:0:0:0:
345,228,41473,2,0,P|323:227|307:232,1,36,6|0,0:3|0:0,0:0:0:0:
280,352,41661,1,6,0:3:0:0:
280,352,41754,1,4,0:3:0:0:
280,352,41848,6,0,P|249:371|149:338,1,144,6|0,1:3|0:0,0:0:0:0:
147,260,42411,2,0,L|154:184,1,72,2|0,1:2|0:0,0:0:0:0:
164,101,42786,2,0,P|130:110|94:110,1,72,0|4,1:0|0:3,0:0:0:0:
119,29,43161,1,2,1:2:0:0:
119,29,43348,1,6,0:3:0:0:
227,158,43536,5,2,1:2:0:0:
227,158,43723,1,6,0:3:0:0:
94,110,43911,1,2,1:2:0:0:
238,26,44098,2,0,P|278:21|310:27,1,72
443,93,44473,1,4,0:3:0:0:
386,27,44661,1,0,1:2:0:0:
357,105,44848,1,4,1:3:0:0:
461,16,45036,5,6,1:2:0:0:
407,171,45223,1,0,1:2:0:0:
309,27,45411,2,0,P|269:20|216:29,1,80.9999975280763,10|0,0:0|0:0,0:0:0:0:
196,48,45692,1,0,1:0:0:0:
196,48,45786,1,0,1:2:0:0:
229,182,45973,1,2,1:2:0:0:
131,0,46161,1,8,0:2:0:0:
96,139,46348,1,2,1:2:0:0:
96,139,46723,5,0,1:2:0:0:
264,101,46911,1,8,0:0:0:0:
218,263,47098,2,0,P|214:308|227:354,1,80.9999975280763,2|0,1:2|0:0,0:0:0:0:
256,363,47379,1,0,1:0:0:0:
256,363,47473,1,0,1:2:0:0:
141,233,47661,2,0,P|181:190|240:185,1,121.499996292114,10|0,0:0|0:0,0:0:0:0:
274,207,48036,5,6,1:2:0:0:
181,108,48223,1,0,1:2:0:0:
141,234,48411,2,0,P|94:253|50:243,1,80.9999975280763,10|0,0:0|0:0,0:0:0:0:
28,232,48692,1,0,1:0:0:0:
28,232,48786,1,0,1:2:0:0:
155,315,48973,1,2,1:2:0:0:
89,173,49161,1,8,0:0:0:0:
52,364,49348,1,2,1:2:0:0:
52,364,49723,5,0,1:2:0:0:
16,146,49911,1,8,0:0:0:0:
155,315,50098,2,0,P|203:324|240:320,1,80.9999975280763,2|0,1:2|0:0,0:0:0:0:
273,308,50379,1,0,1:0:0:0:
273,308,50473,1,0,1:2:0:0:
150,158,50661,2,0,P|188:138|276:162,1,121.499996292114,10|0,0:0|0:0,0:0:0:0:
286,178,51036,5,6,1:2:0:0:
283,77,51223,2,0,P|328:98|358:99,1,72,0|0,0:0|1:0,0:0:0:0:
435,194,51598,2,0,P|390:173|360:172,1,72,0|0,0:0|1:0,0:0:0:0:
332,242,51973,1,4,0:3:0:0:
368,171,52161,1,0,1:2:0:0:
368,171,52348,1,4,0:3:0:0:
450,275,52536,6,0,L|441:349,1,72,0|0,1:2|0:2,0:0:0:0:
332,242,52911,2,0,L|341:316,1,72,0|0,1:2|0:0,0:0:0:0:
421,113,53286,2,0,P|398:101|380:96,1,36,2|0,1:2|0:0,0:0:0:0:
314,86,53473,2,0,P|288:87|269:91,1,36,6|0,0:3|0:0,0:0:0:0:
240,196,53661,1,6,0:3:0:0:
240,196,53754,1,4,0:3:0:0:
240,196,53848,6,0,P|193:216|101:159,1,144,6|0,1:3|0:0,0:0:0:0:
165,289,54411,2,0,P|178:329|177:363,1,72,2|0,1:2|0:0,0:0:0:0:
55,226,54786,2,0,P|42:186|43:152,1,72,0|4,1:0|0:3,0:0:0:0:
173,95,55161,2,0,P|133:106|96:101,1,72,0|4,1:2|0:3,0:0:0:0:
32,73,55536,5,0,1:2:0:0:
32,73,55723,1,2,0:2:0:0:
42,156,55911,1,2,1:2:0:0:
137,24,56098,2,0,P|174:15|213:21,1,72,2|0,0:0|1:2,0:0:0:0:
256,83,56473,1,4,1:3:0:0:
207,19,56661,1,0,1:2:0:0:
172,90,56848,1,4,1:3:0:0:
339,71,57036,5,6,1:2:0:0:
93,94,57223,1,0,1:2:0:0:
233,279,57411,2,0,L|226:195,1,80.9999975280763,10|0,0:0|0:0,0:0:0:0:
221,157,57692,1,0,1:0:0:0:
221,157,57786,1,0,1:2:0:0:
153,286,57973,1,2,1:2:0:0:
221,157,58161,1,8,0:0:0:0:
316,275,58348,1,2,1:2:0:0:
316,275,58723,5,0,1:2:0:0:
138,199,58911,1,8,0:0:0:0:
294,67,59098,2,0,P|317:113|318:147,1,80.9999975280763,2|0,1:2|0:0,0:0:0:0:
310,181,59379,1,0,1:0:0:0:
310,181,59473,1,0,1:2:0:0:
446,106,59661,2,0,P|435:149|466:224,1,121.499996292114,10|0,0:0|0:0,0:0:0:0:
482,240,60036,5,6,1:2:0:0:
479,36,60223,1,0,1:2:0:0:
310,181,60411,2,0,P|261:184|225:171,1,80.9999975280763,10|0,0:0|0:0,0:0:0:0:
195,155,60692,1,0,1:0:0:0:
195,155,60786,1,0,1:2:0:0:
305,273,60973,1,2,1:2:0:0:
276,108,61161,1,8,0:0:0:0:
185,306,61348,6,0,L|88:288,1,80.9999975280763,2|0,1:2|0:0,0:0:0:0:
29,277,61723,1,0,1:2:0:0:
87,88,61911,2,0,P|98:139|92:176,1,80.9999975280763,8|0,0:0|0:0,0:0:0:0:
67,197,62192,1,8,0:0:0:0:
67,197,62286,2,0,P|37:199|21:197,1,40.4999987640381,8|0,0:0|0:0,0:0:0:0:
65,15,62473,2,0,P|95:13|111:15,1,40.4999987640381,0|0,1:0|0:0,0:0:0:0:
206,101,62661,1,8,0:0:0:0:
241,119,62754,1,8,0:0:0:0:
282,120,62848,1,8,0:0:0:0:
319,105,62942,1,8,0:0:0:0:
345,78,63036,6,0,P|377:66|417:69,2,62.9999980773926,6|0|0,1:2|0:0|1:0,0:0:0:0:
460,128,63598,2,0,P|428:140|388:137,2,62.9999980773926,2|0|0,0:0|1:0|0:0,0:0:0:0:
480,49,64161,1,2,1:2:0:0:
456,211,64348,2,0,L|437:338,1,125.999996154785,2|2,0:0|0:0,0:0:0:0:
313,246,64911,6,0,L|384:258,1,62.9999980773926,2|0,1:2|0:0,0:0:0:0:
293,155,65286,1,0,1:0:0:0:
293,155,65473,1,0,0:0:0:0:
255,301,65661,2,0,L|136:276,1,94.499997116089,2|0,1:2|0:0,0:0:0:0:
134,266,66036,6,0,P|144:225|140:200,1,62.9999980773926,2|0,1:2|0:0,0:0:0:0:
19,164,66411,2,0,P|58:170|91:163,1,62.9999980773926,0|0,1:0|0:0,0:0:0:0:
135,39,66786,2,0,P|125:80|129:105,1,62.9999980773926,0|0,1:0|0:0,0:0:0:0:
195,146,67161,1,2,1:2:0:0:
256,32,67348,6,0,P|266:73|262:98,1,62.9999980773926,2|0,0:0|1:0,0:0:0:0:
242,219,67723,1,2,0:0:0:0:
195,146,67911,1,2,1:2:0:0:
263,93,68098,2,0,L|336:84,1,62.9999980773926,2|0,0:0|1:0,0:0:0:0:
375,173,68473,2,0,L|302:164,1,62.9999980773926,2|0,0:0|1:0,0:0:0:0:
263,93,68848,1,4,0:3:0:0:
228,289,69036,5,6,1:2:0:0:
313,166,69223,1,0,1:0:0:0:
334,320,69411,2,0,L|323:238,1,72,2|0,1:2|0:0,0:0:0:0:
163,185,69786,2,0,L|244:174,1,72,2|0,1:2|0:0,0:0:0:0:
390,168,70161,2,0,P|392:146|388:128,1,36,10|0,0:3|0:0,0:0:0:0:
272,37,70348,6,0,P|258:84|265:121,1,72,2|0,0:0|1:0,0:0:0:0:
312,166,70723,1,0,0:0:0:0:
445,79,70911,2,0,P|406:58|377:58,1,72,2|0,1:2|0:0,0:0:0:0:
312,166,71286,2,0,P|273:187|244:187,1,72,2|0,1:2|0:0,0:0:0:0:
173,47,71661,2,0,P|181:68|181:90,1,36,10|0,0:3|0:0,0:0:0:0:
148,166,71848,1,2,0:0:0:0:
31,100,72036,6,0,L|114:89,1,72,6|0,1:2|0:0,0:0:0:0:
174,252,72411,2,0,L|91:241,1,72,0|0,1:0|0:0,0:0:0:0:
181,81,72786,2,0,L|264:70,1,72,0|0,1:0|0:0,0:0:0:0:
285,277,73161,2,0,L|244:268,1,36,8|0,0:3|0:0,0:0:0:0:
174,252,73348,1,0,1:0:0:0:
345,89,73536,6,0,P|332:130|336:173,1,72,0|0,1:0|0:0,0:0:0:0:
341,193,73817,1,0,1:0:0:0:
341,193,73911,1,2,1:2:0:0:
404,37,74098,1,0,1:0:0:0:
457,208,74286,2,0,P|470:167|466:124,1,72,2|0,1:2|0:0,0:0:0:0:
461,104,74567,1,0,1:0:0:0:
461,104,74661,1,2,1:2:0:0:
398,260,74848,1,0,1:0:0:0:
345,89,75036,5,6,1:2:0:0:
314,325,75223,1,2,1:2:0:0:
397,155,75411,1,2,1:2:0:0:
456,381,75598,2,0,L|370:368,1,80.9999975280763,2|0,1:2|0:0,0:0:0:0:
249,217,75973,2,0,L|335:204,1,80.9999975280763,2|0,1:2|0:0,0:0:0:0:
190,282,76348,6,0,P|168:236|196:146,1,135,2|0,1:2|0:0,0:0:0:0:
222,129,76723,2,0,P|224:99|221:82,1,45,2|0,1:2|0:0,0:0:0:0:
136,0,76911,1,2,1:2:0:0:
421,111,78036,6,0,L|310:86,1,107.999996704102,6|4,0:0|0:3,0:0:0:0:
212,202,78411,2,0,L|323:177,1,107.999996704102,8|6,0:0|0:3,0:0:0:0:
239,63,78786,1,2,1:2:0:0:
285,264,78973,1,6,1:3:0:0:
421,111,79161,1,10,0:0:0:0:
285,264,79348,6,0,P|268:329|391:327,1,215.999993408203,6|4,1:3|0:3,0:0:0:0:
205,249,79911,2,0,P|189:313|200:362,1,107.999996704102,8|4,0:0|0:3,0:0:0:0:
358,224,80286,6,0,P|340:204|293:183,1,53.9999983520508,2|0,1:2|0:0,0:0:0:0:
392,146,80473,2,0,P|416:133|443:128,1,53.9999983520508,6|0,0:3|0:0,0:0:0:0:
512,274,80661,2,0,P|497:239|423:214,1,107.999996704102,10|0,0:0|0:0,0:0:0:0:
274,363,81036,6,0,P|267:310|283:259,1,107.999996704102,6|4,1:2|0:3,0:0:0:0:
84,302,81411,2,0,P|137:294|188:310,1,107.999996704102,8|4,0:0|0:3,0:0:0:0:
274,363,81786,1,0,1:0:0:0:
201,173,81973,1,4,1:3:0:0:
130,368,82161,1,10,0:0:0:0:
201,173,82348,6,0,P|198:111|53:68,1,215.999993408203,6|4,1:3|0:3,0:0:0:0:
247,242,82911,2,0,L|368:224,1,107.999996704102,8|4,0:0|0:3,0:0:0:0:
119,144,83286,2,0,P|129:208|164:248,1,107.999996704102,0|4,1:0|1:3,0:0:0:0:
407,218,83661,2,0,L|243:242,1,161.999995056153,10|0,0:0|0:0,0:0:0:0:
256,318,84036,6,0,L|366:300,1,107.999996704102,6|4,1:2|0:3,0:0:0:0:
181,330,84411,1,10,0:0:0:0:
241,164,84598,2,0,P|246:107|233:57,1,107.999996704102,6|0,0:3|1:0,0:0:0:0:
153,242,84973,1,6,0:3:0:0:
188,0,85161,1,10,0:0:0:0:
331,215,85348,1,6,0:3:0:0:
167,114,85536,6,0,L|56:100,1,107.999996704102,2|4,1:2|0:3,0:0:0:0:
233,58,85911,1,10,0:0:0:0:
153,242,86098,2,0,L|260:228,1,107.999996704102,6|0,0:3|1:0,0:0:0:0:
422,156,86473,2,0,P|373:116|310:109,1,107.999996704102,6|8,0:3|0:0,0:0:0:0:
161,160,86848,1,2,0:0:0:0:
354,302,87036,6,0,L|340:194,1,107.999996704102,6|4,1:2|0:3,0:0:0:0:
67,201,87411,2,0,P|120:163|173:163,1,107.999996704102,8|4,0:0|0:3,0:0:0:0:
240,191,87692,1,0,1:0:0:0:
240,191,87786,2,0,P|302:210|347:189,1,107.999996704102,2|4,1:2|0:3,0:0:0:0:
417,52,88161,1,10,0:0:0:0:
418,261,88348,1,6,1:3:0:0:
418,261,88442,1,0,1:0:0:0:
418,261,88536,6,0,L|416:139,1,107.999996704102,2|4,1:2|0:3,0:0:0:0:
248,347,88911,2,0,L|250:225,1,107.999996704102,10|4,0:0|0:3,0:0:0:0:
330,157,89192,1,0,1:0:0:0:
330,157,89286,6,0,P|299:164|276:160,1,53.9999983520508,0|0,1:0|0:0,0:0:0:0:
394,79,89473,2,0,P|421:76|447:83,1,53.9999983520508,6|0,1:3|0:0,0:0:0:0:
250,240,89661,1,8,0:0:0:0:
212,202,89754,1,8,0:0:0:0:
203,149,89848,1,8,0:0:0:0:
225,101,89942,1,8,0:0:0:0:
271,74,90036,6,0,L|156:58,1,107.999996704102,6|4,1:2|0:3,0:0:0:0:
113,235,90411,2,0,L|129:120,1,107.999996704102,8|6,0:2|0:3,0:0:0:0:
99,313,90786,1,0,1:0:0:0:
203,149,90973,1,4,1:3:0:0:
51,131,91161,1,8,0:0:0:0:
99,313,91348,6,0,B|226:300|176:369|328:349,1,215.999993408203,6|4,1:3|0:3,0:0:0:0:
448,184,91911,1,8,0:0:0:0:
381,355,92098,1,6,0:3:0:0:
315,190,92286,6,0,P|333:170|380:149,1,53.9999983520508,2|0,1:2|0:0,0:0:0:0:
282,112,92473,2,0,P|258:99|231:94,1,53.9999983520508,6|0,0:3|0:0,0:0:0:0:
134,216,92661,2,0,P|152:196|241:179,1,107.999996704102,10|0,0:0|0:0,0:0:0:0:
380,354,93036,6,0,L|386:247,1,107.999996704102,6|4,1:2|0:3,0:0:0:0:
458,383,93411,1,8,0:0:0:0:
248,349,93598,2,0,L|253:241,1,107.999996704102,6|0,0:3|1:0,0:0:0:0:
329,5,93973,2,0,L|323:112,1,107.999996704102,6|8,0:3|0:0,0:0:0:0:
69,156,94348,6,0,P|109:90|246:126,1,215.999993408203,6|4,1:2|0:3,0:0:0:0:
10,95,94911,2,0,P|48:40|91:17,1,107.999996704102,10|4,0:0|0:3,0:0:0:0:
279,173,95286,2,0,L|268:295,1,107.999996704102,2|4,1:2|0:3,0:0:0:0:
233,106,95661,1,10,0:0:0:0:
357,230,95848,1,6,0:3:0:0:
174,375,96036,6,0,B|132:363|132:363|98:368|98:368|60:355,1,107.999996704102,6|4,1:2|0:3,0:0:0:0:
113,249,96411,2,0,B|152:243|152:243|280:284,1,161.999995056153,10|4,0:0|0:3,0:0:0:0:
288,380,96786,2,0,P|262:326|273:271,1,107.999996704102,2|4,1:2|0:3,0:0:0:0:
336,137,97161,1,10,0:0:0:0:
230,192,97348,6,0,P|250:133|115:93,1,215.999993408203,6|4,1:3|0:3,0:0:0:0:
348,210,97911,2,0,L|482:190,1,107.999996704102,10|4,0:0|0:3,0:0:0:0:
298,39,98286,2,0,P|331:94|333:157,1,107.999996704102,2|4,1:2|0:3,0:0:0:0:
289,278,98661,1,10,0:0:0:0:
248,122,98848,1,4,0:3:0:0:
71,268,99036,5,8,0:0:0:0:
104,308,99129,1,8,0:0:0:0:
157,312,99223,1,8,0:0:0:0:
196,278,99317,1,8,0:0:0:0:
199,225,99411,1,8,0:0:0:0:
166,183,99504,1,8,0:0:0:0:
148,132,99597,1,8,0:0:0:0:
160,81,99691,1,8,0:0:0:0:
198,44,99786,5,0,1:0:0:0:
392,77,99973,2,0,L|331:89,1,53.9999983520508,10|0,0:0|0:0,0:0:0:0:
199,225,100161,2,0,L|256:213,1,53.9999983520508,10|0,1:2|0:0,0:0:0:0:
397,195,100348,1,8,0:0:0:0:
397,195,100442,1,8,0:0:0:0:
397,195,100536,6,0,P|345:208|374:322,1,180,6|0,1:2|0:0,0:0:0:0:
479,211,101098,1,2,0:0:0:0:
479,211,101473,1,2,0:0:0:0:
352,313,101661,2,0,P|304:323|260:308,1,90
231,281,101942,1,0,1:0:0:0:
231,281,102036,5,6,1:2:0:0:
423,275,102223,1,6,0:3:0:0:
314,103,102411,1,10,0:2:0:0:
231,281,102598,2,0,P|221:235|230:183,1,90,6|0,0:3|1:0,0:0:0:0:
382,54,102973,2,0,P|392:100|383:152,1,90,6|8,0:3|0:0,0:0:0:0:
226,192,103348,6,0,B|165:177|165:177|116:185|116:185|48:165,1,180,6|6,1:3|0:3,0:0:0:0:
106,23,103911,2,0,P|126:70|125:124,1,90,10|6,0:0|0:3,0:0:0:0:
43,262,104286,2,0,P|72:254|88:255,1,45,2|0,1:2|0:0,0:0:0:0:
160,271,104473,2,0,P|189:278|202:287,1,45,6|0,0:3|0:0,0:0:0:0:
297,382,104661,1,10,0:0:0:0:
297,382,105036,5,2,1:2:0:0:
260,182,105223,1,6,0:3:0:0:
157,346,105411,1,10,0:0:0:0:
365,324,105598,2,0,L|463:309,1,90,6|0,0:3|1:0,0:0:0:0:
310,105,105973,2,0,L|212:90,1,90,6|8,0:3|0:0,0:0:0:0:
394,220,106348,6,0,B|381:157|381:157|396:107|396:107|379:28,1,180,6|6,1:3|0:3,0:0:0:0:
309,188,106911,2,0,L|331:280,1,90,10|6,0:0|0:3,0:0:0:0:
226,95,107286,1,2,1:2:0:0:
226,95,107473,1,6,0:3:0:0:
66,214,107661,1,8,0:0:0:0:
66,214,108036,5,6,1:2:0:0:
115,49,108223,1,6,0:3:0:0:
187,215,108411,1,10,0:0:0:0:
40,51,108598,2,0,L|30:146,1,90,6|0,0:3|1:0,0:0:0:0:
136,361,108973,2,0,L|126:266,1,90,6|8,0:3|0:0,0:0:0:0:
114,48,109348,6,0,B|208:45|174:95|296:84,1,180,6|6,1:3|0:3,0:0:0:0:
435,39,109911,2,0,P|379:20|334:27,1,90,10|6,0:0|0:3,0:0:0:0:
225,155,110286,2,0,P|223:186|233:213,1,45,2|0,1:2|0:0,0:0:0:0:
258,265,110473,2,0,P|271:292|293:311,1,45,6|0,0:3|0:0,0:0:0:0:
388,363,110661,1,10,0:0:0:0:
388,363,111036,5,6,1:2:0:0:
412,193,111223,1,6,0:3:0:0:
281,302,111411,5,8,0:0:0:0:
241,323,111504,1,8,0:0:0:0:
197,326,111598,1,8,0:0:0:0:
155,310,111692,1,8,0:0:0:0:
124,278,111786,2,0,L|132:186,1,90,0|4,1:0|0:3,0:0:0:0:
359,63,112161,5,8,0:0:0:0:
319,42,112254,1,8,0:0:0:0:
275,39,112348,1,8,0:0:0:0:
233,55,112442,1,8,0:0:0:0:
202,87,112536,2,0,L|209:179,1,90,0|4,1:0|0:3,0:0:0:0:
405,322,112911,5,8,0:0:0:0:
426,282,113004,1,8,0:0:0:0:
429,238,113098,1,8,0:0:0:0:
413,196,113192,1,8,0:0:0:0:
381,164,113286,5,0,1:0:0:0:
329,321,113473,1,8,0:2:0:0:
292,83,113661,1,0,1:0:0:0:
344,240,113848,1,8,0:0:0:0:
344,240,113942,1,8,0:0:0:0:
344,240,114036,5,6,1:2:0:0:
209,176,114223,2,0,P|252:169|285:177,1,72,0|0,0:0|1:0,0:0:0:0:
203,249,114598,2,0,P|160:256|127:248,1,72,0|0,0:0|1:0,0:0:0:0:
78,187,114973,1,4,0:3:0:0:
101,324,115161,1,0,1:2:0:0:
101,324,115348,1,4,0:3:0:0:
137,135,115536,6,0,L|125:60,1,72,0|0,1:2|0:0,0:0:0:0:
0,202,115911,2,0,L|12:127,1,72,0|0,1:2|0:0,0:0:0:0:
137,252,116286,2,0,P|161:257|177:255,1,36,2|0,1:2|0:0,0:0:0:0:
241,229,116473,2,0,P|264:221|277:211,1,36,6|0,0:3|0:0,0:0:0:0:
267,97,116661,1,6,0:3:0:0:
267,97,116754,1,4,0:3:0:0:
267,97,116848,6,0,P|299:61|398:73,1,144,6|0,1:3|0:0,0:0:0:0:
381,208,117411,2,0,L|375:297,1,72,2|0,1:2|0:0,0:0:0:0:
512,173,117786,2,0,P|475:161|439:167,1,72,0|4,1:0|0:3,0:0:0:0:
380,284,118161,1,2,1:2:0:0:
380,284,118348,1,4,0:3:0:0:
315,158,118536,5,0,1:2:0:0:
315,158,118723,1,6,0:3:0:0:
442,165,118911,1,2,1:2:0:0:
299,253,119098,2,0,P|261:253|217:231,1,72,2|0,0:0|1:2,0:0:0:0:
175,73,119473,1,4,0:3:0:0:
260,46,119661,1,0,1:2:0:0:
242,128,119848,1,4,0:3:0:0:
197,0,120036,5,6,1:2:0:0:
322,92,120223,1,0,1:2:0:0:
164,155,120411,2,0,L|82:175,1,80.9999975280763,10|0,0:0|0:0,0:0:0:0:
47,188,120692,1,0,1:0:0:0:
47,188,120786,1,0,1:2:0:0:
188,232,120973,1,2,1:2:0:0:
147,79,121161,1,8,0:0:0:0:
102,273,121348,1,2,1:2:0:0:
102,273,121723,5,0,1:2:0:0:
274,200,121911,1,8,0:0:0:0:
184,351,122098,2,0,P|175:309|180:270,1,80.9999975280763,2|0,1:2|0:0,0:0:0:0:
188,232,122379,1,0,1:0:0:0:
188,232,122473,1,0,1:2:0:0:
305,349,122661,2,0,P|320:308|298:232,1,121.499996292114,10|0,0:0|0:0,0:0:0:0:
274,200,123036,5,6,1:2:0:0:
409,295,123223,1,0,1:2:0:0:
438,137,123411,2,0,P|388:120|354:126,1,80.9999975280763,10|0,0:0|0:0,0:0:0:0:
327,146,123692,1,0,1:0:0:0:
327,146,123786,1,0,1:2:0:0:
437,51,123973,1,2,1:2:0:0:
419,218,124161,1,8,0:0:0:0:
340,47,124348,1,2,1:2:0:0:
340,47,124723,5,0,1:2:0:0:
438,137,124911,1,8,0:0:0:0:
334,231,125098,2,0,L|244:215,1,80.9999975280763,2|0,1:2|0:0,0:0:0:0:
213,211,125379,1,0,1:0:0:0:
213,211,125473,1,0,1:2:0:0:
342,327,125661,2,0,L|211:299,1,121.499996292114,10|0,0:0|0:0,0:0:0:0:
197,294,126036,5,6,1:2:0:0:
213,211,126223,2,0,P|220:174|161:110,1,107.999996704102,0|4,0:0|0:3,0:0:0:0:
183,117,126973,1,4,0:3:0:0:
138,182,127161,1,0,0:0:0:0:
108,108,127348,6,0,P|123:64|199:43,1,107.999996704102,4|0,0:3|0:0,0:0:0:0:
183,117,127911,2,0,P|210:124|245:119,1,53.9999983520508
304,61,128286,1,2,1:2:0:0:
304,61,128473,1,2,1:2:0:0:
286,185,128661,1,2,1:2:0:0:
431,153,128848,6,0,P|464:179|470:265,1,107.999996704102,6|0,1:3|1:2,0:0:0:0:
378,341,129411,2,0,L|299:322,1,72,2|0,1:2|0:0,0:0:0:0:
286,185,129786,2,0,L|267:264,1,72,0|4,1:0|0:3,0:0:0:0:
149,292,130161,1,2,1:2:0:0:
149,292,130348,1,6,0:3:0:0:
269,255,130536,5,0,1:2:0:0:
118,216,130723,1,2,1:2:0:0:
162,371,130911,1,2,1:2:0:0:
272,256,131098,1,2,1:2:0:0:
118,216,131286,1,2,1:2:0:0:
97,181,131379,1,0,1:0:0:0:
95,141,131473,1,0,1:0:0:0:
114,106,131567,1,0,1:0:0:0:
147,83,131661,2,0,L|174:92,6,20.2499993820191,0|0|0|0|0|0|0,1:0|1:0|1:0|1:0|1:0|1:0|1:0,0:0:0:0:
184,98,132036,5,6,1:2:0:0:
92,29,132223,1,0,1:2:0:0:
196,181,132411,2,0,P|237:164|275:169,1,80.9999975280763,10|0,0:0|0:0,0:0:0:0:
306,189,132692,1,0,1:0:0:0:
306,189,132786,1,0,1:2:0:0:
262,65,132973,1,2,1:2:0:0:
242,245,133161,1,8,0:0:0:0:
383,143,133348,1,2,1:2:0:0:
383,143,133723,5,0,1:2:0:0:
242,245,133911,1,8,0:0:0:0:
361,362,134098,2,0,P|366:310|347:276,1,80.9999975280763,2|0,1:2|0:0,0:0:0:0:
327,254,134379,1,0,1:0:0:0:
327,254,134473,1,0,1:2:0:0:
463,297,134661,2,0,P|439:255|464:183,1,121.499996292114,10|0,0:0|0:0,0:0:0:0:
480,159,135036,5,6,1:2:0:0:
463,297,135223,1,0,1:2:0:0:
353,179,135411,2,0,P|308:174|273:189,1,80.9999975280763,10|0,0:0|0:0,0:0:0:0:
245,213,135692,1,0,1:0:0:0:
245,213,135786,1,0,1:2:0:0:
336,77,135973,1,2,1:2:0:0:
326,253,136161,1,8,0:0:0:0:
208,58,136348,1,2,1:2:0:0:
208,58,136723,5,0,1:2:0:0:
254,295,136911,2,0,L|164:280,1,80.9999975280763,8|0,0:2|0:0,0:0:0:0:
134,273,137192,1,8,0:0:0:0:
134,273,137286,2,0,L|143:226,1,40.4999987640381,0|0,1:0|0:0,0:0:0:0:
254,295,137473,2,0,L|246:334,1,40.4999987640381,0|0,1:0|0:0,0:0:0:0:
68,206,137661,1,8,0:0:0:0:
89,172,137754,1,8,0:0:0:0:
125,153,137848,1,8,0:0:0:0:
164,156,137942,1,8,0:0:0:0:
197,178,138036,6,0,P|235:190|261:188,2,62.9999980773926,6|0|0,0:0|0:0|1:0,0:0:0:0:
312,127,138598,2,0,P|274:115|248:117,2,62.9999980773926,2|0|0,0:0|1:0|0:0,0:0:0:0:
328,210,139161,1,2,1:2:0:0:
356,62,139348,6,0,P|389:78|483:62,1,125.999996154785,2|2,0:2|0:0,0:0:0:0:
419,161,139911,2,0,P|412:200|421:230,1,62.9999980773926,2|0,1:2|0:0,0:0:0:0:
461,302,140286,1,0,1:0:0:0:
461,302,140473,1,0,1:0:0:0:
361,277,140661,2,0,P|374:315|364:371,1,94.499997116089,2|0,0:0|0:0,0:0:0:0:
334,372,141036,6,0,L|265:364,1,62.9999980773926,2|0,1:2|0:0,0:0:0:0:
218,219,141411,2,0,L|245:282,1,62.9999980773926,0|0,1:0|0:0,0:0:0:0:
139,384,141786,2,0,L|180:328,1,62.9999980773926,0|0,1:0|0:0,0:0:0:0:
271,364,142161,1,2,1:2:0:0:
139,384,142348,6,0,L|73:371,1,62.9999980773926,2|0,0:0|1:0,0:0:0:0:
114,222,142723,1,2,0:0:0:0:
94,296,142911,1,2,1:2:0:0:
51,169,143098,2,0,P|82:144|107:139,1,62.9999980773926,2|0,0:0|1:0,0:0:0:0:
232,135,143473,2,0,P|201:160|176:165,1,62.9999980773926,2|0,0:2|1:0,0:0:0:0:
161,86,143848,1,4,0:3:0:0:
194,242,144036,5,6,1:2:0:0:
305,144,144223,1,2,0:0:0:0:
161,86,144411,2,0,P|154:46|165:9,1,72,2|0,1:2|0:0,0:0:0:0:
334,2,144786,2,0,P|341:42|330:79,1,72,2|0,1:2|0:0,0:0:0:0:
275,230,145161,2,0,P|298:224|317:226,1,36,10|0,0:3|0:0,0:0:0:0:
445,279,145348,6,0,L|432:366,1,72,2|0,0:0|1:0,0:0:0:0:
405,198,145723,1,0,0:0:0:0:
350,355,145911,2,0,L|360:283,1,72,2|0,1:2|0:0,0:0:0:0:
474,193,146286,2,0,P|433:203|396:194,1,72,2|0,1:2|0:0,0:0:0:0:
183,16,146661,2,0,P|207:14|220:17,1,36,10|0,0:3|0:0,0:0:0:0:
300,53,146848,1,0,1:0:0:0:
219,159,147036,6,0,P|203:128|199:92,1,72,6|0,1:2|0:0,0:0:0:0:
360,0,147411,2,0,P|376:31|379:67,1,72,0|0,1:2|0:0,0:0:0:0:
245,239,147786,2,0,L|139:230,1,72,0|0,1:0|0:0,0:0:0:0:
147,18,148161,2,0,L|200:15,1,36,8|0,0:3|0:0,0:0:0:0:
282,46,148348,1,0,1:0:0:0:
96,221,148536,6,0,P|110:176|104:148,1,72,0|0,1:0|0:0,0:0:0:0:
89,120,148817,1,0,1:0:0:0:
89,120,148911,1,2,1:2:0:0:
173,232,149098,1,0,1:0:0:0:
63,292,149286,2,0,P|49:337|55:365,1,72,2|0,1:2|0:0,0:0:0:0:
85,384,149567,1,0,1:0:0:0:
85,384,149661,1,2,1:2:0:0:
13,232,149848,1,0,1:0:0:0:
203,302,150036,5,6,1:2:0:0:
143,125,150223,1,2,1:2:0:0:
63,292,150411,1,2,1:2:0:0:
255,235,150598,2,0,P|299:229|341:236,1,80.9999975280763,2|0,1:2|0:0,0:0:0:0:
289,63,150973,2,0,P|245:69|203:62,1,80.9999975280763,2|0,1:2|0:0,0:0:0:0:
336,2,151348,6,0,P|363:44|339:121,1,135,2|0,1:2|0:0,0:0:0:0:
305,150,151723,2,0,P|330:145|354:149,1,45,2|0,1:2|0:0,0:0:0:0:
473,227,151911,1,2,1:2:0:0:
189,321,153036,6,0,P|179:264|196:209,1,107.999996704102,6|4,0:0|0:3,0:0:0:0:
134,52,153411,2,0,P|144:109|127:164,1,107.999996704102,8|6,0:0|0:3,0:0:0:0:
52,267,153786,1,2,1:2:0:0:
197,220,153973,1,6,0:3:0:0:
63,102,154161,1,8,0:0:0:0:
197,220,154348,6,0,P|245:255|393:193,1,215.999993408203,6|4,1:3|0:3,0:0:0:0:
168,292,154911,2,0,P|222:327|285:334,1,107.999996704102,8|4,0:0|0:3,0:0:0:0:
320,146,155286,6,0,P|300:164|279:211,1,53.9999983520508,2|0,1:2|0:0,0:0:0:0:
205,140,155473,2,0,P|192:116|187:89,1,53.9999983520508,6|0,0:3|0:0,0:0:0:0:
292,0,155661,2,0,P|272:18|269:102,1,107.999996704102,10|0,0:0|0:0,0:0:0:0:
116,14,156036,6,0,L|-15:4,1,107.999996704102,6|4,1:2|0:3,0:0:0:0:
16,247,156411,2,0,L|147:237,1,107.999996704102,8|4,0:0|0:3,0:0:0:0:
288,188,156786,1,0,1:0:0:0:
170,305,156973,1,4,1:3:0:0:
147,131,157161,1,10,0:0:0:0:
170,305,157348,6,0,B|254:291|254:291|292:304|292:304|391:286,1,215.999993408203,6|4,1:3|0:3,0:0:0:0:
308,84,157911,2,0,P|285:152|288:190,1,107.999996704102,8|4,0:0|0:3,0:0:0:0:
468,167,158286,2,0,P|400:144|362:147,1,107.999996704102,0|4,1:0|0:3,0:0:0:0:
170,305,158661,2,0,B|232:295|232:295|276:305|276:305|364:292,1,161.999995056153,10|0,0:0|0:0,0:0:0:0:
235,371,159036,6,0,L|121:386,1,107.999996704102,6|4,1:2|0:3,0:0:0:0:
2,161,159411,1,10,0:0:0:0:
77,324,159598,2,0,L|60:215,1,107.999996704102,6|0,0:3|1:0,0:0:0:0:
240,199,159973,2,0,P|177:220|129:213,1,107.999996704102,6|8,0:3|0:0,0:0:0:0:
292,262,160348,1,6,0:3:0:0:
170,133,160536,6,0,P|164:77|271:46,1,161.999995056153,2|0,1:2|0:0,0:0:0:0:
313,64,160911,1,10,0:0:0:0:
116,17,161098,2,0,L|3:12,1,107.999996704102,6|0,0:3|1:0,0:0:0:0:
136,215,161473,2,0,L|249:210,1,107.999996704102,6|8,0:3|0:0,0:0:0:0:
313,64,161848,1,2,0:2:0:0:
292,262,162036,6,0,L|305:372,1,107.999996704102,6|4,1:2|0:3,0:0:0:0:
487,219,162411,2,0,L|470:99,1,107.999996704102,8|4,0:0|0:3,0:0:0:0:
421,54,162692,1,0,1:0:0:0:
421,54,162786,2,0,L|292:66,1,107.999996704102,2|4,1:2|0:3,0:0:0:0:
112,67,163161,1,10,0:0:0:0:
230,209,163348,1,4,1:3:0:0:
230,209,163442,1,0,1:0:0:0:
230,209,163536,6,0,P|239:142|225:102,1,107.999996704102,2|4,1:2|0:3,0:0:0:0:
48,15,163911,1,8,0:0:0:0:
41,217,164098,1,6,1:3:0:0:
41,217,164192,1,0,1:0:0:0:
41,217,164286,6,0,P|34:181|35:155,1,53.9999983520508,2|0,1:2|0:0,0:0:0:0:
164,252,164473,2,0,P|128:259|102:258,1,53.9999983520508,6|0,1:3|0:0,0:0:0:0:
140,71,164661,1,8,0:0:0:0:
182,38,164754,1,8,0:0:0:0:
235,31,164848,1,8,0:0:0:0:
285,50,164942,1,8,0:0:0:0:
320,91,165036,6,0,P|378:108|431:96,1,107.999996704102,6|4,1:2|0:3,0:0:0:0:
267,260,165411,2,0,P|208:242|155:254,1,107.999996704102,8|6,0:0|0:3,0:0:0:0:
330,305,165786,1,2,1:2:0:0:
247,119,165973,1,4,1:3:0:0:
208,315,166161,1,8,0:0:0:0:
369,229,166348,6,0,P|412:276|333:384,1,215.999993408203,6|4,1:3|0:3,0:0:0:0:
485,246,166911,1,8,0:0:0:0:
339,383,167098,1,6,0:3:0:0:
328,263,167286,6,0,P|346:243|393:222,1,53.9999983520508,2|0,1:2|0:0,0:0:0:0:
294,185,167473,2,0,P|270:172|243:167,1,53.9999983520508,6|0,0:3|0:0,0:0:0:0:
146,284,167661,2,0,P|164:264|245:254,1,107.999996704102,10|0,0:0|0:0,0:0:0:0:
98,346,168036,6,0,P|46:355|0:330,1,107.999996704102,6|4,1:2|0:3,0:0:0:0:
167,177,168411,1,8,0:0:0:0:
58,270,168598,2,0,L|46:157,1,107.999996704102,6|0,0:3|1:0,0:0:0:0:
261,0,168973,2,0,L|272:107,1,107.999996704102,6|8,0:3|0:0,0:0:0:0:
46,162,169348,6,0,P|61:93|190:96,1,215.999993408203,6|4,1:2|0:3,0:0:0:0:
145,373,169911,2,0,L|23:355,1,107.999996704102,10|4,0:0|0:3,0:0:0:0:
230,194,170286,2,0,L|352:176,1,107.999996704102,2|4,1:2|0:3,0:0:0:0:
222,374,170661,1,10,0:0:0:0:
240,107,170848,1,6,0:3:0:0:
362,356,171036,6,0,L|339:202,1,107.999996704102,6|4,1:2|0:3,0:0:0:0:
457,18,171411,2,0,P|388:7|334:85,1,161.999995056153,10|0,0:0|0:3,0:0:0:0:
336,178,171786,2,0,P|344:118|331:64,1,107.999996704102,2|4,1:2|0:3,0:0:0:0:
200,12,172161,1,10,0:0:0:0:
97,143,172348,6,0,P|175:87|266:145,1,215.999993408203,6|4,1:3|0:3,0:0:0:0:
96,34,172911,2,0,P|148:13|211:14,1,107.999996704102,10|4,0:0|0:3,0:0:0:0:
177,203,173286,2,0,P|125:224|62:223,1,107.999996704102,2|4,1:2|0:3,0:0:0:0:
1,49,173661,1,10,0:0:0:0:
73,225,173848,1,6,0:3:0:0:
209,85,174036,5,8,0:0:0:0:
256,62,174129,1,8,0:0:0:0:
307,76,174223,1,8,0:0:0:0:
337,119,174317,1,8,0:0:0:0:
372,160,174411,1,8,0:0:0:0:
419,183,174504,1,8,0:0:0:0:
469,167,174598,1,8,0:0:0:0:
493,121,174692,1,8,0:0:0:0:
478,70,174786,5,0,1:0:0:0:
479,295,174973,2,0,P|464:266|463:237,1,53.9999983520508,10|0,0:2|0:0,0:0:0:0:
337,119,175161,2,0,P|352:148|353:177,1,53.9999983520508,10|0,1:2|0:0,0:0:0:0:
310,335,175348,1,8,0:0:0:0:
310,335,175442,1,8,0:0:0:0:
310,335,175536,6,0,B|232:318|232:318|199:333|199:333|118:317,1,180,6|2,0:0|0:0,0:0:0:0:
21,180,176098,1,2,1:2:0:0:
21,180,176473,1,2,1:2:0:0:
136,320,176661,2,0,P|142:274|130:228,1,90,2|2,0:0|0:0,0:0:0:0:
107,196,176942,1,0,1:0:0:0:
107,196,177036,6,0,P|144:204|168:203,2,53.9999983520508,6|2|0,1:2|0:0|0:0,0:0:0:0:
74,116,177598,1,2,0:0:0:0:
84,109,177973,1,2,0:0:0:0:
94,100,178348,6,0,P|121:90|191:105,1,80.9999975280763,2|0,0:0|0:0,0:0:0:0:
192,113,178723,2,0,P|227:131|292:95,1,107.999996704102,2|2,0:0|0:0,0:0:0:0:
366,91,179286,5,2,0:0:0:0:
367,175,179473,1,2,0:0:0:0:
366,253,179661,1,2,0:0:0:0:
380,266,180036,6,0,P|409:262|437:262,2,53.9999983520508,2|2|0,0:0|0:0|0:0,0:0:0:0:
302,325,180598,1,2,0:0:0:0:
291,323,180973,1,2,0:0:0:0:
280,321,181348,6,0,P|253:275|271:211,1,107.999996704102,2|0,0:0|0:0,0:0:0:0:
319,166,181911,2,0,P|328:129|323:99,1,53.9999983520508,2|0,0:0|0:0,0:0:0:0:
291,46,182286,5,2,0:0:0:0:
215,68,182473,1,2,0:0:0:0:
147,102,182661,2,0,L|88:117,1,53.9999983520508,2|4,0:0|0:3,0:0:0:0:
94,115,182942,1,4,0:3:0:0:
94,115,183036,6,0,L|72:55,2,53.9999983520508,2|2|0,0:2|0:0|0:0,0:0:0:0:
121,199,183598,1,2,0:0:0:0:
129,205,183973,1,2,0:0:0:0:
138,217,184348,6,0,L|208:273,1,80.9999975280763,2|0,0:0|0:0,0:0:0:0:
201,267,184723,2,0,P|200:234|269:192,1,107.999996704102,2|2,0:0|0:0,0:0:0:0:
332,225,185286,5,2,0:0:0:0:
408,235,185473,1,2,0:0:0:0:
482,208,185661,1,2,0:0:0:0:
489,200,186036,5,2,0:0:0:0:
470,292,186223,2,0,L|458:351,1,53.9999983520508,2|0,0:0|0:0,0:0:0:0:
389,378,186598,1,2,0:0:0:0:
375,371,186973,1,2,0:0:0:0:
360,365,187348,6,0,P|313:348|238:362,1,107.999996704102,2|2,0:0|0:0,0:0:0:0:
181,380,187911,1,2,0:0:0:0:
185,367,188286,5,2,0:0:0:0:
196,289,188473,1,2,0:0:0:0:
124,258,188661,5,2,0:0:0:0:
113,180,188848,1,2,0:0:0:0:
223,95,189036,6,0,L|292:89,1,62.9999980773926,2|2,1:2|0:0,0:0:0:0:
359,78,189411,1,2,1:2:0:0:
286,229,189598,2,0,P|274:192|277:160,1,62.9999980773926,2|0,0:0|1:0,0:0:0:0:
359,78,189973,2,0,P|371:115|368:147,1,62.9999980773926,2|0,0:0|1:0,0:0:0:0:
363,312,190348,6,0,B|326:303|326:303|285:312|285:312|240:300,1,125.999996154785,2|2,0:0|0:0,0:0:0:0:
183,364,190911,2,0,L|249:384,1,62.9999980773926,2|2,1:2|0:0,0:0:0:0:
240,300,191286,6,0,L|197:288,1,31.4999990386963,2|0,1:2|0:0,0:0:0:0:
139,264,191473,2,0,L|96:252,1,31.4999990386963,2|0,1:2|0:0,0:0:0:0:
43,228,191661,1,2,1:2:0:0:
43,228,192036,6,0,P|49:191|47:162,1,62.9999980773926,6|2,1:2|0:0,0:0:0:0:
15,90,192411,1,2,1:2:0:0:
104,95,192598,2,0,L|171:103,1,62.9999980773926,2|0,0:0|1:0,0:0:0:0:
233,190,192973,2,0,L|166:182,1,62.9999980773926,2|0,0:0|1:0,0:0:0:0:
245,103,193348,6,0,B|294:110|294:110|315:126|315:126|369:134,1,125.999996154785,2|2,1:2|0:0,0:0:0:0:
450,64,193911,2,0,P|439:96|445:134,1,62.9999980773926,2|2,1:2|0:0,0:0:0:0:
492,239,194286,6,0,L|450:236,1,31.4999990386963,2|0,1:2|0:0,0:0:0:0:
388,231,194473,2,0,L|346:228,1,31.4999990386963,2|0,1:2|0:0,0:0:0:0:
280,223,194661,1,2,1:2:0:0:
280,223,195036,5,2,1:2:0:0:
311,295,195223,1,6,0:3:0:0:
332,157,195411,1,2,1:2:0:0:
280,223,195598,2,0,P|237:230|196:222,1,72,6|0,0:3|1:0,0:0:0:0:
241,83,195973,2,0,P|248:126|240:167,1,72,6|0,0:3|1:0,0:0:0:0:
131,306,196348,6,0,P|174:299|215:307,1,72,6|0,0:3|1:0,0:0:0:0:
134,225,196723,2,0,P|91:232|50:224,1,72,6|0,0:3|1:0,0:0:0:0:
161,85,197098,2,0,P|168:128|160:169,1,72,6|0,0:3|1:0,0:0:0:0:
134,225,197473,1,6,1:3:0:0:
101,29,197661,1,2,1:2:0:0:
243,157,197848,6,0,B|372:155|310:227|455:212,1,216,2|4,1:2|0:3,0:0:0:0:
482,112,198786,1,0,1:0:0:0:
405,28,199161,1,4,0:3:0:0:
443,213,199536,2,0,P|447:256|440:285,1,72,0|0,1:0|0:0,0:0:0:0:
416,310,199817,1,4,0:3:0:0:
416,310,199911,1,8,0:3:0:0:
272,252,200098,5,0,1:0:0:0:
272,252,200192,1,0,1:0:0:0:
272,252,200286,2,0,L|207:257,1,36,0|0,1:0|0:0,0:0:0:0:
200,259,200473,2,0,L|135:264,1,36,0|0,1:0|0:0,0:0:0:0:
127,266,200661,22,0,L|124:248,6,18,0|0|0|0|0|0|0,1:0|1:0|1:0|1:0|1:0|1:0|1:0,0:0:0:0:
165,185,201036,6,0,L|144:87,1,90,6|6,0:0|0:3,0:0:0:0:
319,104,201411,2,0,L|226:127,1,90,8|4,0:0|0:3,0:0:0:0:
359,32,201786,1,0,1:0:0:0:
386,149,201973,1,4,1:3:0:0:
232,125,202161,1,10,0:0:0:0:
319,104,202348,1,4,0:3:0:0:
212,293,202536,6,0,P|201:244|213:200,1,90,0|4,1:0|0:3,0:0:0:0:
386,149,202911,2,0,P|397:198|385:242,1,90,10|4,0:0|0:3,0:0:0:0:
212,293,203286,2,0,P|258:275|303:276,1,90,2|4,1:2|0:3,0:0:0:0:
432,345,203661,1,10,0:0:0:0:
387,235,203848,6,0,P|435:257|504:155,1,180,6|6,1:3|0:3,0:0:0:0:
328,32,204411,2,0,L|223:41,1,90,10|4,0:0|0:3,0:0:0:0:
35,62,204786,5,2,1:2:0:0:
161,49,204973,1,4,0:3:0:0:
111,206,205161,1,10,0:0:0:0:
103,115,205348,1,2,0:0:0:0:
282,300,205536,5,2,1:2:0:0:
114,315,205723,1,4,0:3:0:0:
187,158,205911,2,0,L|195:251,1,90,8|4,0:0|0:3,0:0:0:0:
355,34,206286,5,2,1:2:0:0:
165,44,206473,1,4,0:3:0:0:
285,192,206661,2,0,L|274:100,1,90,8|4,0:0|0:3,0:0:0:0:
442,120,207036,6,0,P|391:107|349:111,1,90,6|4,1:2|0:3,0:0:0:0:
113,207,207411,2,0,P|164:220|206:216,1,90,10|4,0:0|0:3,0:0:0:0:
274,102,207786,2,0,L|264:10,1,90,2|4,1:2|0:3,0:0:0:0:
166,145,208161,1,10,0:0:0:0:
273,266,208348,6,0,B|329:256|329:256|385:271|385:271|462:252,1,180,6|4,1:3|0:3,0:0:0:0:
327,340,208911,2,0,L|215:359,1,90,10|4,0:0|0:3,0:0:0:0:
379,193,209286,2,0,L|467:177,1,90,2|4,1:2|0:3,0:0:0:0:
327,340,209661,1,10,0:0:0:0:
269,187,209848,6,0,P|261:115|354:77,1,180,6|6,1:3|0:3,0:0:0:0:
202,236,210411,2,0,L|94:223,1,90,10|4,0:0|0:3,0:0:0:0:
183,30,210786,1,0,1:0:0:0:
163,152,210973,1,4,1:3:0:0:
37,35,211161,2,0,L|46:125,1,90,10|4,0:0|0:3,0:0:0:0:
66,300,211536,5,2,1:2:0:0:
163,152,211723,2,0,P|216:147|257:158,1,90,6|8,0:3|0:0,0:0:0:0:
197,322,212098,2,0,B|195:262|195:262|163:214|163:214|162:132,1,180,6|4,0:3|0:3,0:0:0:0:
272,286,212661,2,0,P|318:291|377:280,1,90,10|4,0:0|0:3,0:0:0:0:
339,67,213036,6,0,P|329:118|339:158,1,90,6|6,1:2|0:3,0:0:0:0:
426,333,213411,2,0,P|436:282|426:242,1,90,10|4,0:0|0:3,0:0:0:0:
487,127,213786,1,0,1:0:0:0:
337,154,213973,1,4,1:3:0:0:
385,4,214161,1,10,0:0:0:0:
401,97,214348,1,4,0:3:0:0:
242,72,214536,6,0,P|294:54|331:61,1,90,2|4,1:2|0:3,0:0:0:0:
427,245,214911,2,0,P|374:229|337:236,1,90,10|4,0:0|0:3,0:0:0:0:
271,370,215286,2,0,P|283:316|278:272,1,90,2|4,1:2|0:3,0:0:0:0:
113,153,215661,1,10,0:0:0:0:
107,316,215848,6,0,B|217:327|176:266|304:284,1,180,6|6,1:3|0:3,0:0:0:0:
134,239,216411,2,0,P|113:180|115:142,1,90,10|4,0:0|0:3,0:0:0:0:
271,33,216786,5,2,1:2:0:0:
145,20,216973,1,4,0:3:0:0:
193,178,217161,1,10,0:0:0:0:
199,91,217348,1,2,0:0:0:0:
14,296,217536,5,2,1:2:0:0:
186,314,217723,1,4,0:3:0:0:
113,153,217911,2,0,L|106:247,1,90,8|4,0:0|0:3,0:0:0:0:
372,194,218286,5,2,1:2:0:0:
193,178,218473,1,4,0:3:0:0:
267,359,218661,2,0,L|274:265,1,90,8|4,0:0|0:3,0:0:0:0:
311,125,219036,6,0,P|366:109|424:112,1,90,6|4,1:2|0:3,0:0:0:0:
273,269,219411,2,0,P|218:285|160:282,1,90,10|4,0:0|0:3,0:0:0:0:
115,145,219786,2,0,P|139:191|135:240,1,90,2|4,1:2|0:3,0:0:0:0:
42,120,220161,1,10,0:0:0:0:
215,163,220348,6,0,P|266:179|330:76,1,180,6|4,1:3|0:3,0:0:0:0:
295,249,220911,2,0,P|345:232|381:195,1,90,10|4,0:0|0:3,0:0:0:0:
283,334,221286,2,0,P|233:317|197:280,1,90,2|4,1:2|0:3,0:0:0:0:
261,100,221661,1,10,0:0:0:0:
414,269,221848,6,0,P|449:213|375:122,1,180,6|4,1:3|0:3,0:0:0:0:
195,204,222411,2,0,L|208:303,1,90,8|4,0:0|0:3,0:0:0:0:
133,159,222786,1,0,1:0:0:0:
272,189,222973,2,0,L|260:99,1,90,6|8,1:3|0:0,0:0:0:0:
212,35,223348,1,4,0:3:0:0:
56,75,223536,6,0,P|108:82|149:70,1,90,2|4,1:2|0:3,0:0:0:0:
347,97,223911,2,0,P|295:90|254:102,1,90,8|6,0:0|0:3,0:0:0:0:
169,237,224286,2,0,P|176:188|158:138,1,90,2|4,1:2|0:3,0:0:0:0:
97,10,224661,1,8,0:0:0:0:
61,157,224848,1,6,0:3:0:0:
259,99,225036,6,0,P|302:89|375:107,1,107.999996704102,6|4,1:2|0:3,0:0:0:0:
475,245,225411,1,10,0:0:0:0:
464,22,225598,2,0,L|450:131,1,107.999996704102,6|0,0:3|1:0,0:0:0:0:
486,320,225973,1,2,0:0:0:0:
450,129,226161,1,8,0:0:0:0:
235,208,226348,6,0,P|298:217|359:87,1,215.999993408203,6|6,1:3|0:3,0:0:0:0:
211,286,226911,2,0,P|271:301|324:292,1,107.999996704102,8|4,0:0|0:3,0:0:0:0:
450,129,227286,1,2,1:2:0:0:
391,279,227473,1,6,1:3:0:0:
286,139,227661,2,0,L|297:32,1,107.999996704102,8|4,0:0|0:3,0:0:0:0:
69,137,228036,6,0,P|133:117|210:180,1,161.999995056153,6|0,1:2|0:0,0:0:0:0:
219,220,228411,1,0,1:0:0:0:
46,62,228598,2,0,P|110:43|152:44,1,107.999996704102,10|0,0:0|0:0,0:0:0:0:
390,120,228973,2,0,P|326:139|284:138,1,107.999996704102,10|0,0:0|0:0,0:0:0:0:
9,0,229348,1,14,0:0:0:0:
255,191,231036,5,14,1:2:0:0:
256,192,234036,5,2,1:2:0:0:
256,192,234411,12,0,236473,0:0:0:0:
88,280,236661,6,0,L|111:275,6,18,2|0|0|0|0|0|0,1:2|1:0|1:0|1:0|1:0|1:0|1:0,0:0:0:0:
145,260,237036,6,0,L|137:375,1,107.999996704102,6|4,0:0|0:3,0:0:0:0:
118,182,237411,1,10,0:0:0:0:
233,307,237598,2,0,P|293:315|354:300,1,107.999996704102,6|0,0:3|1:0,0:0:0:0:
415,91,237973,1,6,0:3:0:0:
285,235,238161,1,10,0:0:0:0:
420,310,238348,1,6,0:3:0:0:
338,160,238536,6,0,P|278:152|217:167,1,107.999996704102,2|4,1:2|0:3,0:0:0:0:
139,373,238911,1,10,0:0:0:0:
140,114,239098,2,0,L|156:234,1,107.999996704102,6|0,0:3|1:0,0:0:0:0:
62,75,239473,2,0,P|102:34|165:26,1,107.999996704102,6|8,0:3|0:0,0:0:0:0:
257,99,239848,1,2,0:0:0:0:
80,278,240036,6,0,L|68:158,1,107.999996704102,6|4,1:2|0:3,0:0:0:0:
314,156,240411,2,0,P|252:178|203:162,1,107.999996704102,10|4,0:0|0:3,0:0:0:0:
142,131,240692,1,0,1:0:0:0:
142,131,240786,2,0,L|150:17,1,107.999996704102,2|4,1:2|1:3,0:0:0:0:
69,170,241161,1,10,0:0:0:0:
222,175,241348,1,6,1:3:0:0:
222,175,241442,1,0,1:0:0:0:
222,175,241536,6,0,L|215:282,1,107.999996704102,2|4,1:2|0:3,0:0:0:0:
403,294,241911,2,0,L|296:287,1,107.999996704102,8|4,0:0|0:3,0:0:0:0:
219,288,242192,1,0,1:0:0:0:
219,288,242286,6,0,P|212:325|217:345,1,53.9999983520508,2|0,1:2|0:0,0:0:0:0:
403,294,242473,2,0,P|410:257|405:237,1,53.9999983520508,6|0,1:3|0:0,0:0:0:0:
281,107,242661,1,8,0:0:0:0:
231,88,242754,1,8,0:0:0:0:
179,99,242848,1,8,0:0:0:0:
142,138,242942,1,8,0:0:0:0:
121,188,243036,6,0,P|60:208|10:197,1,107.999996704102,6|4,1:2|0:3,0:0:0:0:
17,384,243411,2,0,P|-3:323|8:273,1,107.999996704102,8|6,0:0|0:3,0:0:0:0:
63,128,243786,1,0,1:0:0:0:
85,288,243973,1,4,1:3:0:0:
7,71,244161,1,8,0:0:0:0:
134,219,244348,6,0,B|250:181|206:267|350:213,1,215.999993408203,6|4,1:3|0:3,0:0:0:0:
185,289,244911,1,8,0:0:0:0:
204,93,245098,1,6,0:3:0:0:
342,215,245286,6,0,P|362:197|383:150,1,53.9999983520508,2|0,1:2|0:0,0:0:0:0:
420,249,245473,2,0,P|433:273|438:300,1,53.9999983520508,6|0,0:3|0:0,0:0:0:0:
326,384,245661,2,0,P|346:366|352:285,1,107.999996704102,10|0,0:0|0:0,0:0:0:0:
256,74,246036,6,0,L|128:87,1,107.999996704102,6|4,1:2|0:3,0:0:0:0:
4,105,246411,1,8,0:0:0:0:
168,265,246598,2,0,P|177:204|157:149,1,107.999996704102,6|0,0:3|1:0,0:0:0:0:
0,0,246973,2,0,P|-9:61|11:116,1,107.999996704102,6|8,0:3|0:0,0:0:0:0:
253,266,247348,6,0,B|322:248|322:248|386:253|386:253|469:225,1,215.999993408203,6|4,1:2|0:3,0:0:0:0:
322,329,247911,2,0,L|206:357,1,107.999996704102,10|4,0:0|0:3,0:0:0:0:
361,174,248286,2,0,L|465:148,1,107.999996704102,2|4,1:2|1:3,0:0:0:0:
274,22,248661,1,10,0:0:0:0:
284,239,248848,1,4,0:3:0:0:
76,149,249036,6,0,B|137:182|211:152,1,107.999996704102,6|4,1:2|0:3,0:0:0:0:
283,94,249411,2,0,P|254:154|303:253,1,161.999995056153,10|0,0:0|0:3,0:0:0:0:
386,266,249786,2,0,P|334:241|260:244,1,107.999996704102,2|4,1:2|0:3,0:0:0:0:
184,353,250161,1,10,0:0:0:0:
284,238,250348,6,0,P|233:271|78:233,1,215.999993408203,6|4,1:3|0:3,0:0:0:0:
85,61,250911,2,8,P|105:127|92:175,1,107.999996704102,10|4,0:0|0:3,0:0:0:0:
100,346,251286,2,0,P|80:280|93:232,1,107.999996704102,2|4,1:2|0:3,0:0:0:0:
284,238,251661,1,10,0:0:0:0:
97,163,251848,1,2,0:0:0:0:
100,346,252036,5,8,0:0:0:0:
146,369,252129,1,8,0:0:0:0:
194,349,252223,1,8,0:0:0:0:
209,296,252317,1,8,0:0:0:0:
186,246,252411,1,8,0:0:0:0:
172,198,252504,1,8,0:0:0:0:
183,145,252598,1,8,0:0:0:0:
224,119,252692,1,8,0:0:0:0:
277,129,252786,5,0,1:0:0:0:
285,291,252973,2,0,P|280:263|284:234,1,53.9999983520508,10|0,0:0|0:0,0:0:0:0:
368,109,253161,2,0,P|373:137|369:166,1,53.9999983520508,10|0,1:2|0:0,0:0:0:0:
361,337,253348,1,4,1:3:0:0:
361,337,253442,1,0,1:0:0:0:
361,337,253536,5,6,1:2:0:0:
491,203,253723,2,0,L|432:217,1,45,0|0,0:0|1:0,0:0:0:0:
283,237,253911,1,0,1:2:0:0:
438,289,254098,1,2,0:0:0:0:
375,116,254286,1,0,1:0:0:0:
375,116,254379,1,0,1:0:0:0:
375,116,254473,2,0,B|316:122|316:122|268:101|268:101|186:112,1,180,2|0,1:2|0:0,0:0:0:0:
375,116,255036,6,0,L|385:224,1,99.0000030212403,6|4,1:2|0:3,0:0:0:0:
151,281,255411,2,0,L|159:174,1,99.0000030212403,8|4,0:0|0:3,0:0:0:0:
263,44,255786,1,2,1:2:0:0:
246,215,255973,2,0,P|300:232|347:219,1,99.0000030212403,6|8,0:3|0:0,0:0:0:0:
263,44,256348,6,0,B|143:28|195:85|67:51,1,198.000006042481,6|4,1:3|0:3,0:0:0:0:
65,200,256911,2,0,P|117:178|172:187,1,99.0000030212403,8|4,0:0|0:3,0:0:0:0:
182,358,257286,2,0,P|172:302|180:258,1,99.0000030212403,2|4,1:2|0:3,0:0:0:0:
257,217,257567,1,2,1:2:0:0:
257,217,257661,2,0,P|329:233|368:225,1,99.0000030212403,8|6,1:2|0:3,0:0:0:0:
405,35,258036,6,0,P|381:92|411:177,1,148.50000453186,6|0,1:2|0:0,0:0:0:0:
440,241,258411,2,0,P|459:290|448:345,1,99.0000030212403,10|4,0:0|0:3,0:0:0:0:
483,168,258786,1,2,1:2:0:0:
375,304,258973,2,0,P|322:318|261:302,1,99.0000030212403,6|8,0:3|0:0,0:0:0:0:
288,92,259348,6,0,P|306:143|181:198,1,198.000006042481,6|4,1:3|0:3,0:0:0:0:
368,72,259911,2,0,P|385:126|379:178,1,99.0000030212403,8|4,0:0|0:3,0:0:0:0:
204,211,260286,2,0,L|96:192,1,99.0000030212403,2|4,1:2|0:3,0:0:0:0:
32,167,260567,1,2,1:2:0:0:
32,167,260661,2,0,L|0:262,1,99.0000030212403,8|6,1:2|0:3,0:0:0:0:
204,211,261036,6,0,B|227:163|227:163|227:123|227:123|255:59,1,148.50000453186,6|0,1:2|0:0,0:0:0:0:
306,146,261411,2,0,B|308:183|308:183|279:244,1,99.0000030212403,10|4,0:0|0:3,0:0:0:0:
190,333,261786,1,2,1:2:0:0:
354,284,261973,2,0,P|300:314|250:306,1,99.0000030212403,6|8,0:3|0:0,0:0:0:0:
249,72,262348,6,0,B|363:42|331:117|465:76,1,198.000006042481,6|4,1:3|0:3,0:0:0:0:
303,147,262911,2,0,P|249:157|199:141,1,99.0000030212403,10|4,0:0|0:3,0:0:0:0:
62,213,263286,2,0,P|116:223|166:207,1,99.0000030212403,2|4,1:2|0:3,0:0:0:0:
294,286,263661,2,0,P|240:296|190:280,1,99.0000030212403,10|4,0:0|0:3,0:0:0:0:
112,139,264036,6,0,L|136:19,1,99.0000030212403,2|4,1:2|0:3,0:0:0:0:
81,310,264411,2,0,L|57:190,1,99.0000030212403,8|4,0:0|0:3,0:0:0:0:
31,142,264692,1,0,1:2:0:0:
31,142,264786,2,0,L|55:22,1,99.0000030212403,0|4,1:0|0:3,0:0:0:0:
152,211,265161,2,0,L|174:317,1,99.0000030212403,8|6,0:0|0:3,0:0:0:0:
220,373,265442,1,0,1:0:0:0:
220,373,265536,6,0,P|273:382|342:362,1,99.0000030212403,2|4,1:2|0:3,0:0:0:0:
419,152,265911,2,0,P|366:143|297:163,1,99.0000030212403,8|4,0:0|0:3,0:0:0:0:
248,299,266286,1,2,1:2:0:0:
268,91,266473,1,6,0:3:0:0:
417,238,266661,1,8,0:0:0:0:
462,221,266754,1,8,0:0:0:0:
493,183,266848,1,8,0:0:0:0:
500,134,266942,1,8,0:0:0:0:
481,89,267036,6,0,P|432:67|335:69,1,148.50000453186,6|0,0:0|0:0,0:0:0:0:
268,91,267411,2,0,P|208:101|157:88,1,99.0000030212403,8|6,0:0|0:3,0:0:0:0:
45,45,267786,1,2,1:2:0:0:
178,184,267973,2,0,P|118:174|67:187,1,99.0000030212403,6|8,0:3|0:0,0:0:0:0:
257,384,268348,6,0,P|296:331|227:213,1,198.000006042481,6|4,1:3|0:3,0:0:0:0:
368,368,268911,2,0,P|380:311|369:257,1,99.0000030212403,8|4,0:0|0:3,0:0:0:0:
277,102,269286,1,2,1:2:0:0:
345,195,269473,1,6,1:3:0:0:
424,15,269661,1,10,0:0:0:0:
356,108,269848,1,6,0:3:0:0:
243,31,270036,6,0,P|161:19|90:70,1,148.50000453186,6|0,1:2|0:0,0:0:0:0:
76,125,270411,1,8,0:0:0:0:
6,6,270598,2,0,L|-1:124,1,99.0000030212403,6|0,0:3|1:0,0:0:0:0:
162,213,270973,2,0,L|155:95,1,99.0000030212403,6|8,0:3|0:0,0:0:0:0:
45,298,271348,6,0,B|105:286|105:286|162:306|162:306|250:287,1,198.000006042481,6|4,0:2|0:3,0:0:0:0:
410,244,271911,2,0,L|292:271,1,99.0000030212403,8|4,0:0|0:3,0:0:0:0:
261,127,272286,2,0,P|272:100|294:81,1,49.5000015106202,2|0,1:2|0:0,0:0:0:0:
334,23,272473,2,0,P|357:5|385:0,1,49.5000015106202,6|0,0:3|0:0,0:0:0:0:
468,73,272661,2,0,L|465:173,1,99.0000030212403,10|4,0:0|0:3,0:0:0:0:
234,222,273036,6,0,L|71:184,1,148.50000453186,6|0,1:2|0:0,0:0:0:0:
70,263,273411,2,0,L|184:290,1,99.0000030212403,10|4,0:0|0:3,0:0:0:0:
211,140,273786,2,0,L|114:117,1,99.0000030212403,2|4,1:2|1:3,0:0:0:0:
290,164,274161,1,10,0:0:0:0:
17,97,274348,6,0,B|89:7|200:58,1,198.000006042481,6|4,1:3|0:3,0:0:0:0:
309,259,274911,2,0,P|289:198|292:151,1,99.0000030212403,10|4,0:2|0:3,0:0:0:0:
469,172,275286,2,0,P|408:192|361:189,1,99.0000030212403,2|4,1:2|0:3,0:0:0:0:
386,19,275661,2,0,P|403:64|405:114,1,99.0000030212403,10|4,0:0|0:3,0:0:0:0:
309,259,276036,5,8,0:0:0:0:
265,281,276129,1,8,0:0:0:0:
217,277,276223,1,8,0:0:0:0:
178,247,276317,1,8,0:0:0:0:
149,207,276411,1,8,0:0:0:0:
109,178,276504,1,8,0:0:0:0:
61,181,276598,1,8,0:0:0:0:
25,214,276692,1,8,0:0:0:0:
20,263,276786,1,8,0:0:0:0:
29,310,276879,1,8,0:0:0:0:
63,347,276973,1,8,0:0:0:0:
111,355,277067,1,8,0:0:0:0:
157,336,277161,1,8,0:0:0:0:
186,296,277254,1,8,0:0:0:0:
178,247,277348,2,0,P|172:221|175:187,1,49.5000015106202,8|8,0:0|0:0,0:0:0:0:
218,34,277536,5,2,1:2:0:0:
218,34,278098,1,2,1:2:0:0:
53,302,278473,2,0,P|57:242|184:204,1,198.000006042481,2|0,1:2|1:3,0:0:0:0:
218,225,278942,1,0,1:3:0:0:
218,225,279036,6,0,P|249:241|287:236,1,53.9999983520508,6|0,1:2|0:0,0:0:0:0:
332,202,279411,1,4,0:3:0:0:
370,44,280161,1,4,0:3:0:0:
351,122,280348,1,0,1:0:0:0:
139,98,280911,6,0,P|178:86|209:89,1,53.9999983520508,4|0,0:3|0:0,0:0:0:0:
213,100,281192,1,0,1:0:0:0:
213,100,281286,2,0,L|224:137,3,26.9999991760254,0|0|0|0,1:3|1:0|1:0|1:0,0:0:0:0:
226,201,281661,1,4,0:3:0:0:
144,188,281848,1,0,1:0:0:0:
171,270,282036,5,0,1:0:0:0:
171,270,282411,2,0,L|155:327,1,53.9999983520508,4|0,0:3|0:0,0:0:0:0:
131,331,282692,1,0,1:0:0:0:
131,331,282786,2,0,L|98:324,3,26.9999991760254,0|0|0|0,1:0|1:0|1:0|1:0,0:0:0:0:
78,319,283161,1,4,0:3:0:0:
73,238,283348,1,0,1:0:0:0:
297,302,283723,5,0,1:0:0:0:
297,302,283817,1,0,1:0:0:0:
297,302,283911,2,0,P|291:270|295:245,1,53.9999983520508,4|0,0:3|0:0,0:0:0:0:
303,223,284192,1,0,1:0:0:0:
303,223,284286,2,0,L|334:228,3,26.9999991760254,0|0|0|0,1:0|1:0|1:0|1:0,0:0:0:0:
355,234,284661,2,0,P|349:198|366:144,1,80.9999975280763,4|0,0:3|0:0,0:0:0:0:
378,135,285036,5,14,1:2:0:0:
256,192,285129,12,0,291036,0:0:0:0:
