osu file format v14

[General]
AudioFilename: Timeless time.mp3
AudioLeadIn: 0
PreviewTime: 78912
Countdown: 0
SampleSet: Soft
StackLeniency: 0.7
Mode: 0
LetterboxInBreaks: 1
WidescreenStoryboard: 1

[Editor]
DistanceSpacing: 0.6
BeatDivisor: 8
GridSize: 4
TimelineZoom: 2.899999

[Metadata]
Title:Timeless time
TitleUnicode:Timeless time
Artist:Kawada Mami
ArtistUnicode:川田まみ
Creator:wairo
Version:Skyline
Source:七つのふしぎの終わるとき
Tags:eroge Furely noraRcat hekivip wairin
BeatmapID:1358964
BeatmapSetID:333441

[Difficulty]
HPDrainRate:5.1
CircleSize:4
OverallDifficulty:9.1
ApproachRate:9.1
SliderMultiplier:2
SliderTickRate:1

[Events]
//Background and Video events
0,0,"Timeless.jpg",0,0
//Break Periods
//Storyboard Layer 0 (Background)
//Storyboard Layer 1 (Fail)
//Storyboard Layer 2 (Pass)
//Storyboard Layer 3 (Foreground)
//Storyboard Sound Samples

[TimingPoints]
1304,652.173913043478,4,2,22,35,1,0
9130,-100,4,2,22,55,0,0
11738,-50,4,2,22,65,0,0
32608,-100,4,2,22,65,0,0
35217,-66.6666666666667,4,2,22,65,0,0
53477,-50,4,2,22,65,0,0
79564,-47.66666,4,2,22,65,0,1
121467,-50,4,2,22,65,0,0
142499,-66.6666666666667,4,2,22,25,0,0
146086,-66.6666666666667,4,2,22,15,0,0
146738,-66.6666666666667,4,2,22,5,0,0

[HitObjects]
136,240,1304,6,0,P|112:232|80:200,2,50,6|0|0,3:2|3:2|3:2,3:2:0:0:
224,184,1793,1,0,3:2:0:0:
104,120,1956,2,0,P|88:176|104:232,1,100,0|0,3:2|3:2,3:2:0:0:
104,120,2445,2,0,P|152:144|208:152,1,100,0|0,3:2|3:2,3:2:0:0:
288,104,2934,1,0,3:2:0:0:
288,104,3097,1,0,3:2:0:0:
200,184,3260,2,0,L|184:248,2,50,0|0|0,3:2|3:2|3:2,3:2:0:0:
344,144,3912,6,0,P|349:185|344:216,2,50,2|0|0,3:2|3:2|3:2,3:2:0:0:
240,88,4401,1,0,3:2:0:0:
144,208,4564,2,0,P|208:224|256:208,1,100,0|0,3:2|3:2,3:2:0:0:
328,144,5053,2,0,L|328:264,1,100,0|0,3:2|3:2,3:2:0:0:
248,336,5543,2,0,L|192:320,1,50,0|0,3:2|3:2,3:2:0:0:
279,256,5869,2,0,L|343:240,2,50,0|0|0,3:2|3:2|3:2,3:2:0:0:
160,160,6521,6,0,L|160:224,1,50,2|0,3:2|3:2,3:2:0:0:
272,272,6847,2,0,L|272:160,1,100,0|0,3:2|3:2,3:2:0:0:
152,96,7336,2,0,P|112:120|104:128,1,50,0|0,3:2|3:2,3:2:0:0:
184,232,7662,6,0,P|232:232|288:192,1,100,0|0,3:2|3:2,3:2:0:0:
104,144,8151,2,0,P|80:192|80:256,1,100,0|0,3:2|3:2,3:2:0:0:
136,328,8640,1,0,3:2:0:0:
288,224,8803,1,8,3:2:0:0:
288,224,8885,1,8,3:2:0:0:
288,224,8967,1,8,3:2:0:0:
288,224,9048,1,8,3:2:0:0:
288,224,9130,5,10,0:2:0:0:
384,160,9293,1,0,0:2:0:0:
320,344,9456,1,0,0:2:0:0:
320,344,9782,5,2,0:2:0:0:
264,184,9945,1,0,0:2:0:0:
320,344,10108,1,0,0:2:0:0:
144,136,10271,2,0,L|128:240,2,100,0|0|0,0:2|0:2|0:2,0:2:0:0:
344,160,11086,5,2,0:2:0:0:
120,168,11249,1,0,0:2:0:0:
256,296,11412,1,2,0:2:0:0:
256,296,11494,1,2,0:2:0:0:
256,296,11575,1,2,0:2:0:0:
64,224,11738,6,0,P|144:232|192:216,1,100,6|0,0:2|0:2,0:2:0:0:
272,144,12064,1,0,0:2:0:0:
272,144,12227,1,0,0:2:0:0:
128,64,12390,6,0,P|120:128|128:176,1,100,2|0,0:2|0:2,0:2:0:0:
184,272,12717,1,0,0:2:0:0:
296,176,12880,1,0,0:2:0:0:
112,208,13043,5,0,0:2:0:0:
296,128,13206,1,2,0:2:0:0:
224,304,13369,1,0,0:2:0:0:
112,104,13532,1,0,0:2:0:0:
232,72,13695,5,2,0:2:0:0:
136,200,13858,1,0,0:2:0:0:
136,48,14021,1,2,0:2:0:0:
256,272,14184,1,0,0:2:0:0:
88,136,14347,6,0,P|64:200|64:232,1,100,6|0,0:2|0:2,0:2:0:0:
232,208,14673,2,0,L|352:192,1,100,0|0,0:2|0:2,0:2:0:0:
280,72,14999,2,0,L|168:64,2,100,0|0|0,0:2|0:2|0:2,0:2:0:0:
352,224,15488,2,0,P|303:251|248:264,1,100,2|0,0:2|0:2,0:2:0:0:
172,152,15814,1,0,0:2:0:0:
172,152,15977,1,2,0:2:0:0:
344,112,16140,1,0,0:2:0:0:
136,156,16303,5,2,0:2:0:0:
296,240,16467,1,0,0:2:0:0:
252,80,16630,1,2,0:2:0:0:
164,300,16793,1,0,0:2:0:0:
316,136,16956,6,0,L|304:240,1,100,6|0,0:2|0:2,0:2:0:0:
176,164,17282,2,0,L|60:176,1,100,0|0,0:2|0:2,0:2:0:0:
236,72,17608,5,2,0:2:0:0:
148,252,17771,1,0,0:2:0:0:
364,128,17934,2,0,P|368:212|360:244,1,100,0|0,0:2|0:2,0:2:0:0:
148,152,18260,5,2,0:2:0:0:
316,128,18423,1,0,0:2:0:0:
133,250,18586,2,0,P|136:196|153:138,1,100,0|0,0:2|0:2,0:2:0:0:
352,72,18912,5,2,0:2:0:0:
248,216,19075,1,0,0:2:0:0:
140,140,19238,2,0,P|192:120|248:116,1,100,2|0,0:2|0:2,0:2:0:0:
332,60,19564,5,14,0:2:0:0:
276,308,19727,1,0,0:2:0:0:
200,156,19890,1,0,0:2:0:0:
380,240,20053,1,0,0:2:0:0:
312,104,20217,5,10,0:2:0:0:
200,252,20380,1,0,0:2:0:0:
120,104,20543,1,8,0:2:0:0:
380,296,20706,1,8,0:2:0:0:
380,296,21032,5,2,0:2:0:0:
232,264,21195,1,0,0:2:0:0:
448,232,21358,1,0,0:2:0:0:
392,80,21521,5,10,0:2:0:0:
320,292,21684,1,8,0:2:0:0:
248,52,21847,1,8,0:2:0:0:
320,292,22010,1,0,0:2:0:0:
200,192,22173,5,6,0:2:0:0:
200,192,22336,1,0,0:2:0:0:
200,192,22499,2,0,P|264:212|328:216,1,100,0|0,0:2|0:2,0:2:0:0:
420,160,22825,1,0,0:2:0:0:
324,64,22988,2,0,P|312:124|320:172,1,100,2|0,0:2|0:2,0:2:0:0:
324,64,23314,6,0,P|248:52|208:64,1,100,2|0,0:2|0:2,0:2:0:0:
104,128,23640,1,0,0:2:0:0:
104,128,23803,2,0,P|88:196|92:244,1,100,2|0,0:2|0:2,0:2:0:0:
308,224,24130,2,0,L|448:216,1,100,2|0,0:2|0:2,0:2:0:0:
184,108,24456,2,0,L|84:100,1,100,2|0,0:2|0:2,0:2:0:0:
288,52,24782,5,6,0:2:0:0:
236,264,24945,1,0,0:2:0:0:
136,204,25108,2,0,L|96:108,1,100,2|0,0:2|0:2,0:2:0:0:
352,148,25434,1,0,0:2:0:0:
352,148,25597,2,0,P|280:156|232:148,1,100,0|0,0:2|0:2,0:2:0:0:
64,120,25923,6,0,P|52:192|60:236,1,100,0|0,0:2|0:2,0:2:0:0:
148,324,26249,1,2,0:2:0:0:
148,324,26412,1,0,0:2:0:0:
148,324,26575,1,0,0:2:0:0:
260,120,26738,5,2,0:2:0:0:
236,296,26901,1,0,0:2:0:0:
124,32,27064,1,2,0:2:0:0:
172,204,27227,1,0,0:2:0:0:
420,128,27390,5,6,0:2:0:0:
420,128,27553,1,0,0:2:0:0:
420,128,27717,2,0,P|356:148|300:144,1,100,0|0,0:2|0:2,0:2:0:0:
228,64,28043,1,10,0:2:0:0:
208,200,28206,1,0,0:2:0:0:
184,336,28369,1,0,0:2:0:0:
388,152,28532,6,0,P|304:136|208:168,1,150,2|0,0:2|0:2,0:2:0:0:
216,172,28858,1,8,0:2:0:0:
152,288,29021,1,0,0:2:0:0:
392,264,29184,1,0,0:2:0:0:
332,76,29347,5,10,0:2:0:0:
224,320,29510,1,0,0:2:0:0:
480,200,29673,2,0,P|496:165|496:93,1,100,2|0,0:2|0:2,0:2:0:0:
228,168,29999,5,6,0:2:0:0:
400,104,30162,1,8,0:2:0:0:
400,104,30244,1,0,0:2:0:0:
400,104,30325,1,0,0:2:0:0:
260,68,30488,1,0,0:2:0:0:
396,292,30651,5,2,0:2:0:0:
124,256,30814,1,8,0:2:0:0:
124,256,30896,1,0,0:2:0:0:
124,256,30977,1,0,0:2:0:0:
272,192,31140,1,8,0:2:0:0:
104,56,31303,5,8,0:2:0:0:
104,56,31385,1,0,0:2:0:0:
104,56,31467,1,0,0:2:0:0:
276,128,31630,1,8,0:2:0:0:
88,328,31793,1,0,0:2:0:0:
289,51,31956,5,8,0:2:0:0:
304,341,32119,1,0,0:2:0:0:
121,116,32282,1,8,0:2:0:0:
402,190,32445,1,0,0:2:0:0:
130,295,32608,6,0,L|68:276,3,50,2|0|0|0,3:1|1:2|1:1|1:2,3:2:0:0:
104,200,33260,2,0,L|42:181,3,50,0|0|0|0,3:2|1:2|1:2|1:2,3:2:0:0:
160,76,33912,6,0,L|150:108,7,25,0|0|0|0|0|0|0|0,3:2|3:2|3:2|3:2|3:2|3:2|3:2|3:2,3:2:0:0:
280,120,34564,6,0,L|276:136,15,12.5,0|0|0|0|0|0|0|0|0|0|0|0|0|0|0|0,3:2|3:2|3:2|3:2|3:2|3:2|3:2|3:2|3:2|3:2|3:2|3:2|3:2|3:2|3:2|3:2,3:2:0:0:
260,80,35217,6,0,P|204:140|204:228,1,150.000005722046,6|0,3:2|1:2,1:2:0:0:
304,216,35706,2,0,L|384:212,2,75.0000028610231,0|0|0,1:2|1:2|1:2,1:2:0:0:
292,120,36195,2,0,P|244:136|200:220,1,150.000005722046,0|0,1:2|1:2,1:2:0:0:
232,312,36847,6,0,P|184:304|144:280,1,75.0000028610231,2|0,1:2|1:2,1:2:0:0:
300,260,37173,2,0,P|320:312|316:348,1,75.0000028610231,0|0,1:2|1:2,1:2:0:0:
280,180,37499,2,0,P|232:212|216:244,1,75.0000028610231,0|0,1:2|1:2,1:2:0:0:
220,316,37825,5,2,0:2:0:0:
308,336,37988,1,0,1:2:0:0:
396,316,38151,2,0,P|404:268|396:224,1,75.0000028610231,0|0,1:2|1:2,1:2:0:0:
380,160,38477,5,2,0:2:0:0:
296,148,38640,1,0,1:2:0:0:
252,220,38803,2,0,P|292:232|336:220,1,75.0000028610231,0|0,1:2|1:2,1:2:0:0:
432,128,39130,5,2,0:2:0:0:
380,208,39293,2,0,P|336:216|288:204,1,75.0000028610231,0|0,1:2|1:2,1:2:0:0:
432,128,39619,1,0,1:2:0:0:
380,208,39782,6,0,P|340:184|312:144,1,75.0000028610231,2|0,0:2|1:2,1:2:0:0:
432,128,40108,2,0,P|472:152|500:192,1,75.0000028610231,0|0,0:2|1:2,1:2:0:0:
340,116,40434,5,6,0:2:0:0:
248,192,40597,2,0,P|292:200|336:192,2,75.0000028610231,0|0|0,1:2|1:2|1:2,1:2:0:0:
200,120,41086,6,0,P|168:188|204:272,1,150.000005722046,0|0,1:2|1:2,1:2:0:0:
288,296,41575,2,0,L|376:300,1,75.0000028610231,0|0,1:2|1:2,1:2:0:0:
364,200,41901,2,0,L|184:192,1,150.000005722046,0|0,1:2|1:2,1:2:0:0:
108,188,42390,5,2,0:2:0:0:
108,188,42553,1,0,1:2:0:0:
168,284,42717,1,0,0:2:0:0:
168,284,42880,1,0,1:2:0:0:
248,195,43043,6,0,P|288:188|344:200,1,75.0000028610231,2|0,0:2|1:2,1:2:0:0:
408,220,43369,1,0,1:2:0:0:
360,84,43532,2,0,P|344:124|344:156,1,75.0000028610231,0|0,0:2|1:2,1:2:0:0:
408,220,43858,2,0,P|364:248|248:248,1,150.000005722046,0|0,0:2|1:2,1:2:0:0:
204,160,44347,6,0,P|176:184|164:228,1,75.0000028610231,2|0,0:2|1:2,1:2:0:0:
292,172,44673,2,0,P|336:164|368:140,1,75.0000028610231,0|0,1:2|1:2,1:2:0:0:
252,88,44999,2,0,P|224:112|204:144,1,75.0000028610231,0|0,0:2|1:2,1:2:0:0:
292,172,45325,2,0,P|320:196|356:208,1,75.0000028610231,0|0,0:2|1:2,1:2:0:0:
440,168,45651,6,0,P|444:220|304:268,1,225.000008583069,6|0,0:2|1:2,1:2:0:0:
264,176,46303,2,0,P|232:208|224:240,1,75.0000028610231,0|0,1:2|1:2,1:2:0:0:
307,270,46630,2,0,P|359:238|355:154,1,150.000005722046,0|0,1:2|1:2,1:2:0:0:
284,104,47119,1,0,1:2:0:0:
196,124,47282,2,0,P|224:168|272:184,1,75.0000028610231,0|0,1:2|1:2,1:2:0:0:
348,140,47608,6,0,P|304:104|272:92,1,75.0000028610231,2|0,0:2|1:2,1:2:0:0:
348,140,47934,2,0,P|328:184|288:204,1,75.0000028610231,0|0,1:2|1:2,1:2:0:0:
216,156,48260,6,0,P|192:216|260:288,1,150.000005722046,2|0,0:2|1:2,1:2:0:0:
292,216,48749,2,0,L|372:204,2,75.0000028610231,0|0|0,1:2|1:2|1:2,1:2:0:0:
192,248,49238,2,0,P|150:238|112:204,1,75.0000028610231,0|0,0:2|1:2,1:2:0:0:
92,128,49564,5,2,0:2:0:0:
176,80,49727,2,0,P|184:124|176:164,1,75.0000028610231,0|0,1:2|1:2,1:2:0:0:
92,128,50053,1,0,1:2:0:0:
44,208,50217,2,0,P|92:220|128:212,1,75.0000028610231,2|0,0:2|1:2,1:2:0:0:
216,216,50543,2,0,L|216:300,1,75.0000028610231,0|0,0:2|1:2,1:2:0:0:
108,220,50869,6,0,L|108:132,1,75.0000028610231,6|0,0:2|1:2,1:2:0:0:
28,80,51195,2,0,P|4:160|28:244,1,150.000005722046,0|0,1:2|1:2,1:2:0:0:
17,223,51684,1,0,1:2:0:0:
104,168,51847,2,0,P|152:172|188:184,1,75.0000028610231,0|0,1:2|1:2,1:2:0:0:
204,288,52173,5,2,0:2:0:0:
120,272,52336,1,0,1:2:0:0:
288,276,52499,2,0,P|328:252|352:216,1,75.0000028610231,0|0,1:2|1:2,1:2:0:0:
292,152,52825,5,2,0:2:0:0:
376,136,52988,1,0,1:2:0:0:
224,104,53151,2,0,L|200:116,6,18.7500007152558,0|0|0|0|0|0|0,1:2|1:2|1:2|1:2|1:2|1:2|1:2,1:2:0:0:
284,64,53477,6,0,L|256:200,2,100,2|0|0,0:2|0:2|0:2,0:2:0:0:
408,216,53967,5,0,0:2:0:0:
408,216,54130,2,0,P|364:264|328:276,1,100,0|0,0:2|0:2,0:2:0:0:
156,244,54456,5,2,0:2:0:0:
220,120,54619,1,0,0:2:0:0:
260,220,54782,1,0,0:2:0:0:
120,80,54945,1,0,0:2:0:0:
220,264,55108,2,0,P|164:276|112:260,1,100,2|0,0:2|0:2,0:2:0:0:
172,68,55434,6,0,L|160:144,1,50,2|0,0:2|3:2,0:2:0:0:
296,200,55597,2,0,L|304:144,1,50,2|0,0:2|3:2,0:2:0:0:
392,52,55760,5,2,0:2:0:0:
152,240,55923,1,2,0:2:0:0:
152,240,56086,6,0,P|200:264|248:272,1,100,6|0,0:2|0:2,0:2:0:0:
196,88,56412,2,0,P|132:92|76:116,1,100,0|0,0:2|0:2,0:2:0:0:
260,216,56738,2,0,P|336:220|392:196,1,100,8|0,0:2|0:2,0:2:0:0:
444,136,57064,1,2,0:2:0:0:
444,136,57227,1,0,0:2:0:0:
352,64,57390,5,0,0:2:0:0:
300,192,57553,2,0,P|360:204|412:188,1,100,8|0,0:2|0:2,0:2:0:0:
448,72,57880,1,0,0:2:0:0:
264,76,58043,5,8,0:2:0:0:
240,276,58206,1,0,0:2:0:0:
264,76,58369,1,0,0:2:0:0:
240,276,58532,1,0,0:2:0:0:
128,184,58695,6,0,P|96:236|88:276,1,100,6|0,0:2|0:2,0:2:0:0:
212,240,59021,2,0,P|276:240|328:228,1,100,0|0,0:2|0:2,0:2:0:0:
248,88,59347,2,0,P|188:96|144:88,1,100,8|0,0:2|0:2,0:2:0:0:
72,200,59673,1,2,0:2:0:0:
72,200,59836,1,0,0:2:0:0:
200,140,59999,5,2,0:2:0:0:
92,84,60162,2,0,P|76:144|84:204,1,100,8|0,0:2|0:2,0:2:0:0:
124,276,60488,1,0,0:2:0:0:
376,108,60651,5,8,0:2:0:0:
152,168,60814,1,0,0:2:0:0:
376,108,60977,1,0,0:2:0:0:
152,168,61140,1,0,0:2:0:0:
276,100,61303,6,0,P|292:152|288:212,1,100,6|0,0:2|0:2,0:2:0:0:
220,312,61630,2,0,P|168:296|124:252,1,100,0|0,0:2|0:2,0:2:0:0:
328,220,61956,2,0,P|392:208|440:168,1,100,8|0,0:2|0:2,0:2:0:0:
132,128,62282,1,0,0:2:0:0:
132,128,62445,1,0,0:2:0:0:
320,104,62608,5,2,0:2:0:0:
220,232,62771,2,0,L|104:244,1,100,8|0,0:2|0:2,0:2:0:0:
320,104,63097,1,0,0:2:0:0:
168,288,63260,5,8,0:2:0:0:
204,88,63423,1,0,0:2:0:0:
168,288,63586,1,0,0:2:0:0:
204,88,63749,1,0,0:2:0:0:
88,204,63912,5,6,0:2:0:0:
304,188,64075,1,0,0:2:0:0:
164,72,64238,2,0,P|152:128|156:172,1,100,8|0,0:2|0:2,0:2:0:0:
424,172,64564,1,8,0:2:0:0:
424,172,64727,1,0,0:2:0:0:
268,72,64890,1,2,0:2:0:0:
260,320,65053,1,0,0:2:0:0:
260,320,65380,5,2,0:2:0:0:
168,208,65543,1,0,0:2:0:0:
348,252,65706,1,0,0:2:0:0:
216,88,65869,5,10,0:2:0:0:
348,252,66032,1,0,0:2:0:0:
145,197,66195,1,2,0:2:0:0:
341,122,66358,1,8,0:2:0:0:
227,298,66521,6,0,P|172:308|116:296,1,100,6|0,0:2|0:2,0:2:0:0:
304,212,66847,1,0,0:2:0:0:
224,124,67010,2,0,P|192:176|184:224,1,100,0|8,0:2|0:2,0:2:0:0:
348,244,67336,6,0,P|412:220|460:176,1,100,2|0,0:2|0:2,0:2:0:0:
256,112,67662,2,0,P|228:184|264:320,1,200,0|0,0:2|0:2,0:2:0:0:
332,220,68151,5,2,0:2:0:0:
112,236,68314,1,0,0:2:0:0:
204,80,68477,2,0,P|192:136|208:188,1,100,8|0,0:2|0:2,0:2:0:0:
360,124,68803,2,0,P|372:68|356:16,1,100,0|0,0:2|0:2,0:2:0:0:
204,80,69130,5,2,0:2:0:0:
248,180,69293,1,0,0:2:0:0:
176,260,69456,1,0,0:2:0:0:
228,356,69619,2,0,P|248:300|256:244,1,100,0|8,0:2|0:2,0:2:0:0:
212,148,69945,1,0,0:2:0:0:
112,240,70108,6,0,P|208:280|304:228,1,200,2|0,0:2|0:2,0:2:0:0:
332,128,70597,1,8,0:2:0:0:
332,128,70678,1,0,0:2:0:0:
332,128,70760,1,0,0:2:0:0:
208,200,70923,1,0,0:2:0:0:
284,56,71086,5,10,0:2:0:0:
260,284,71249,1,0,0:2:0:0:
160,192,71412,2,0,P|216:200|280:188,1,100,8|0,0:2|0:2,0:2:0:0:
392,112,71738,5,6,0:2:0:0:
392,112,71901,1,0,0:2:0:0:
256,224,72064,1,0,0:2:0:0:
416,76,72227,2,0,P|424:144|408:204,1,100,0|8,0:2|0:2,0:2:0:0:
256,224,72553,2,0,L|148:232,1,100,0|0,0:2|0:2,0:2:0:0:
32,164,72880,1,0,0:2:0:0:
200,72,73043,5,8,0:2:0:0:
200,72,73206,1,0,0:2:0:0:
96,228,73369,2,0,P|151:239|219:224,1,100,0|0,0:2|0:2,0:2:0:0:
276,96,73695,5,8,0:2:0:0:
312,240,73858,1,0,0:2:0:0:
100,60,74021,1,8,0:2:0:0:
16,204,74184,1,0,0:2:0:0:
104,248,74347,5,12,0:2:0:0:
336,56,74510,1,0,0:2:0:0:
356,356,74673,1,8,0:2:0:0:
356,356,74999,5,10,0:2:0:0:
208,240,75162,1,8,0:2:0:0:
408,144,75325,1,8,0:2:0:0:
112,112,75488,2,0,P|80:208|116:312,2,200,2|0|2,0:2|0:2|0:2,0:2:0:0:
288,76,76303,6,0,L|232:108,1,50,2|0,0:2|1:2,0:2:0:0:
320,184,76467,2,0,L|372:160,1,50,2|0,0:2|1:2,0:2:0:0:
176,184,76630,2,0,L|144:204,7,25,2|0|0|0|0|0|0|0,1:2|1:2|1:2|1:2|1:2|1:2|1:2|1:2,1:2:0:0:
200,152,76956,5,2,0:2:0:0:
304,124,77119,1,0,1:2:0:0:
280,220,77282,1,0,1:2:0:0:
200,152,77445,5,2,0:2:0:0:
304,124,77608,1,0,1:2:0:0:
280,220,77771,1,0,1:2:0:0:
124,296,77934,6,0,P|92:196|136:96,1,200,2|0,0:2|1:2,1:2:0:0:
256,180,78423,6,0,L|368:144,1,100,0|0,3:2|1:2,1:2:0:0:
236,64,78749,1,0,1:2:0:0:
188,196,78912,6,0,L|124:216,2,66.6666666666667,0|0|0,3:2|3:2|3:2,3:2:0:0:
312,168,79238,6,0,L|340:204,7,25,0|0|0|0|0|0|0|0,3:2|3:2|3:2|3:2|3:2|3:2|3:2|3:2,3:2:0:0:
256,112,79564,6,0,L|256:332,1,209.790237772246,6|0,0:1|0:2,0:2:0:0:
128,276,80053,1,0,0:2:0:0:
160,172,80217,1,8,0:2:0:0:
264,156,80380,2,0,P|280:228|268:268,1,104.895118886123,0|0,0:2|0:2,0:2:0:0:
168,240,80706,2,0,L|56:216,1,104.895118886123,0|0,0:2|0:2,0:2:0:0:
280,120,81032,5,10,0:2:0:0:
240,296,81195,1,0,0:2:0:0:
148,184,81358,1,0,0:2:0:0:
376,232,81521,1,8,0:2:0:0:
376,232,81847,5,0,0:2:0:0:
172,312,82010,1,0,0:2:0:0:
292,84,82173,5,14,0:2:0:0:
292,84,82336,1,0,0:2:0:0:
332,192,82499,2,0,P|276:204|220:188,1,104.895118886123,0|0,0:2|0:2,0:2:0:0:
156,92,82825,5,10,0:2:0:0:
300,256,82988,1,0,0:2:0:0:
352,160,83151,1,0,0:2:0:0:
184,316,83314,2,0,P|120:320|76:308,1,104.895118886123,0|0,0:2|0:2,0:2:0:0:
28,224,83640,1,8,0:2:0:0:
260,96,83803,6,0,P|280:156|284:208,1,104.895118886123,2|0,0:2|0:2,0:2:0:0:
396,180,84130,2,0,P|376:244|340:284,1,104.895118886123,8|0,0:2|0:2,0:2:0:0:
144,208,84456,2,0,P|200:228|264:228,1,104.895118886123,0|0,0:2|0:2,0:2:0:0:
324,124,84782,5,6,0:2:0:0:
300,304,84945,1,0,0:2:0:0:
144,208,85108,1,0,0:2:0:0:
144,208,85271,2,0,P|120:148|124:88,1,104.895118886123,0|8,0:2|0:2,0:2:0:0:
312,136,85597,2,0,P|376:156|412:184,1,104.895118886123,0|0,0:2|0:2,0:2:0:0:
208,300,85923,2,0,L|204:168,2,104.895118886123,0|0|0,0:2|0:2|0:2,0:2:0:0:
332,332,86412,6,0,P|392:324|444:292,1,104.895118886123,2|0,0:2|0:2,0:2:0:0:
212,144,86738,5,10,0:2:0:0:
400,252,86901,1,0,0:2:0:0:
324,64,87064,5,2,0:2:0:0:
272,336,87227,1,0,0:2:0:0:
160,208,87390,5,6,0:2:0:0:
408,132,87553,1,0,0:2:0:0:
336,376,87717,1,0,0:2:0:0:
136,324,87880,5,2,0:2:0:0:
472,232,88043,2,0,P|480:164|472:120,1,104.895118886123,8|0,0:2|0:2,0:2:0:0:
272,100,88369,1,0,0:2:0:0:
272,100,88532,2,0,P|264:160|272:208,1,104.895118886123,2|0,0:2|0:2,0:2:0:0:
436,176,88858,5,10,0:2:0:0:
256,340,89021,1,0,0:2:0:0:
192,120,89184,1,8,0:2:0:0:
192,120,89265,1,0,0:2:0:0:
192,120,89347,1,0,0:2:0:0:
24,196,89510,5,10,0:2:0:0:
336,20,89673,1,8,0:2:0:0:
288,368,89836,1,8,0:2:0:0:
160,272,89999,6,0,P|144:216|272:208,1,209.790237772246,6|0,0:2|0:2,0:2:0:0:
268,288,90488,2,0,P|332:300|380:288,1,104.895118886123,0|8,0:2|0:2,0:2:0:0:
468,200,90814,1,0,0:2:0:0:
220,92,90977,2,0,P|208:152|216:204,1,104.895118886123,2|0,0:2|0:2,0:2:0:0:
336,256,91303,1,0,0:2:0:0:
336,256,91467,1,0,0:2:0:0:
160,152,91630,6,0,P|96:172|48:196,1,104.895118886123,2|0,0:2|0:2,0:2:0:0:
160,152,91956,2,0,P|208:100|224:48,1,104.895118886123,8|0,0:2|0:2,0:2:0:0:
160,152,92282,2,0,P|204:200|216:240,1,104.895118886123,0|0,0:2|0:2,0:2:0:0:
76,280,92608,6,0,P|40:216|148:116,1,209.790237772246,6|0,0:2|0:2,0:2:0:0:
240,204,93097,1,0,0:2:0:0:
240,204,93260,2,0,L|372:192,2,104.895118886123,8|0|0,0:2|0:2|0:2,0:2:0:0:
120,216,93749,1,0,0:2:0:0:
120,216,94075,5,10,0:2:0:0:
368,192,94238,1,0,0:2:0:0:
220,336,94401,1,8,0:2:0:0:
204,72,94564,5,2,0:2:0:0:
448,144,94727,1,0,0:2:0:0:
248,296,94890,1,8,0:2:0:0:
248,296,95053,1,8,0:2:0:0:
248,296,95217,6,0,P|184:260|272:200,1,209.790237772246,14|0,0:2|0:2,0:2:0:0:
351,264,95706,2,0,L|463:264,1,104.895118886123,0|8,0:2|0:2,0:2:0:0:
455,264,96032,1,0,0:2:0:0:
356,88,96195,2,0,P|348:152|356:196,1,104.895118886123,0|0,0:2|0:2,0:2:0:0:
348,320,96521,6,0,B|312:336|312:336|240:293|240:176,1,209.790237772246,2|0,0:2|0:2,0:2:0:0:
404,216,97010,2,0,P|428:172|432:116,1,104.895118886123,0|8,0:2|0:2,0:2:0:0:
280,72,97336,1,0,0:2:0:0:
440,76,97499,5,2,0:2:0:0:
252,216,97662,1,0,0:2:0:0:
116,56,97825,5,14,0:2:0:0:
436,236,97988,1,8,0:2:0:0:
436,236,98314,5,8,0:2:0:0:
44,204,98477,1,8,0:2:0:0:
44,204,98803,5,8,0:2:0:0:
364,136,98967,1,8,0:2:0:0:
364,136,99293,5,10,0:2:0:0:
212,284,99456,1,0,0:2:0:0:
440,264,99619,1,0,0:2:0:0:
160,80,99782,5,10,0:2:0:0:
352,308,99945,1,0,0:2:0:0:
464,84,100108,5,10,0:2:0:0:
28,252,100271,1,0,0:2:0:0:
292,296,100434,6,0,P|316:184|292:88,1,209.790237772246,6|0,0:2|0:2,0:2:0:0:
148,128,100923,2,0,P|140:188|156:244,1,104.895118886123,0|8,0:2|0:2,0:2:0:0:
288,272,101249,2,0,P|344:280|392:272,1,104.895118886123,0|0,0:2|0:2,0:2:0:0:
380,120,101575,1,0,0:2:0:0:
240,72,101738,6,0,P|232:132|244:192,1,104.895118886123,2|0,0:2|0:2,0:2:0:0:
400,244,102064,2,0,P|424:200|432:116,2,104.895118886123,0|0|8,0:2|0:2|0:2,0:2:0:0:
324,344,102553,1,0,0:2:0:0:
240,164,102717,2,0,P|208:216|208:268,1,104.895118886123,0|0,0:2|0:2,0:2:0:0:
344,284,103043,6,0,P|436:232|440:132,1,209.790237772246,6|0,0:2|0:2,0:2:0:0:
328,56,103532,1,0,0:2:0:0:
228,152,103695,2,0,P|288:168|360:152,1,104.895118886123,8|0,0:2|0:2,0:2:0:0:
428,60,104021,1,2,0:2:0:0:
428,60,104184,1,0,0:2:0:0:
504,164,104347,2,0,P|512:224|500:272,1,104.895118886123,8|0,0:2|0:2,0:2:0:0:
212,216,104673,5,2,0:2:0:0:
412,164,104836,1,0,0:2:0:0:
248,108,104999,5,2,0:2:0:0:
376,280,105162,1,0,0:2:0:0:
136,140,105325,5,2,0:2:0:0:
468,252,105488,1,0,0:2:0:0:
248,108,105651,5,4,0:2:0:0:
248,108,105814,2,0,P|240:168|248:216,1,104.895118886123,0|0,0:2|0:2,0:2:0:0:
432,176,106140,2,0,P|444:236|428:288,2,104.895118886123,2|8|0,0:2|0:2|0:2,0:2:0:0:
352,68,106630,5,2,0:2:0:0:
176,240,106793,1,0,0:2:0:0:
120,120,106956,1,8,0:2:0:0:
308,232,107119,1,0,0:2:0:0:
120,120,107282,6,0,P|60:172|36:208,1,104.895118886123,2|0,0:2|0:2,0:2:0:0:
308,232,107608,2,0,P|356:192|376:152,1,104.895118886123,8|0,0:2|0:2,0:2:0:0:
204,80,107934,2,2,L|200:252,1,157.342678329185,0|0,0:2|0:2,0:2:0:0:
200,268,108260,6,0,P|256:280|316:268,1,104.895118886123,6|0,0:2|0:2,0:2:0:0:
404,196,108586,1,0,0:2:0:0:
156,148,108749,1,0,0:2:0:0:
348,84,108912,2,0,P|356:144|348:188,1,104.895118886123,8|0,0:2|0:2,0:2:0:0:
272,268,109238,1,0,0:2:0:0:
148,108,109401,2,0,P|96:152|76:196,1,104.895118886123,2|0,0:2|0:2,0:2:0:0:
268,204,109727,2,0,L|376:184,1,104.895118886123,2|0,0:2|0:2,0:2:0:0:
488,168,110053,1,0,0:2:0:0:
276,96,110217,5,10,0:2:0:0:
224,276,110380,1,0,0:2:0:0:
108,140,110543,1,2,0:2:0:0:
400,240,110706,1,0,0:2:0:0:
172,64,110869,6,0,P|144:136|140:180,1,104.895118886123,6|0,0:2|0:2,0:2:0:0:
172,268,111195,1,0,0:2:0:0:
172,64,111358,2,0,P|96:112|96:244,1,209.790237772246,2|0,0:2|0:2,0:2:0:0:
256,196,111847,2,0,L|364:184,1,104.895118886123,2|0,0:2|0:2,0:2:0:0:
120,136,112173,2,0,P|100:200|108:244,1,104.895118886123,0|0,0:2|0:2,0:2:0:0:
164,328,112499,5,2,0:2:0:0:
316,260,112662,1,0,0:2:0:0:
180,144,112825,2,0,P|164:200|172:256,1,104.895118886123,8|0,0:2|0:2,0:2:0:0:
304,288,113151,2,0,P|368:300|424:288,1,104.895118886123,0|0,0:2|0:2,0:2:0:0:
464,84,113477,6,0,L|464:256,1,157.342678329185,6|0,0:2|0:2,0:2:0:0:
492,264,113803,2,0,P|436:272|380:264,1,104.895118886123,8|0,0:2|0:2,0:2:0:0:
312,128,114130,5,8,0:2:0:0:
260,296,114293,1,0,0:2:0:0:
396,228,114456,1,8,0:2:0:0:
124,112,114619,2,0,P|116:172|124:220,1,104.895118886123,2|0,0:2|0:2,0:2:0:0:
296,204,114945,5,10,0:2:0:0:
60,260,115108,1,0,0:2:0:0:
264,72,115271,1,0,0:2:0:0:
240,344,115434,6,0,L|128:328,1,104.895118886123,10|0,0:2|0:2,0:2:0:0:
368,120,115760,1,0,0:2:0:0:
336,316,115923,1,0,0:2:0:0:
144,280,116086,6,0,P|88:264|48:232,1,104.895118886123,6|0,0:2|0:2,0:2:0:0:
248,144,116412,1,0,0:2:0:0:
248,144,116575,2,0,P|256:212|244:252,2,104.895118886123,0|8|0,0:2|0:2|0:2,0:2:0:0:
108,152,117064,5,2,0:2:0:0:
324,96,117227,1,0,0:2:0:0:
248,288,117390,1,2,0:2:0:0:
248,288,117553,1,0,0:2:0:0:
128,216,117717,2,0,P|72:168|48:116,1,104.895118886123,2|0,0:2|0:2,0:2:0:0:
268,176,118043,6,0,L|384:160,1,104.895118886123,10|0,0:2|0:2,0:2:0:0:
480,64,118369,1,0,0:2:0:0:
480,64,118532,1,0,0:2:0:0:
480,64,118695,6,0,P|488:136|480:184,1,104.895118886123,14|0,0:2|0:2,0:2:0:0:
256,128,119021,1,0,0:2:0:0:
256,128,119184,2,0,L|136:168,1,104.895118886123,0|8,0:2|0:2,0:2:0:0:
400,288,119510,1,0,0:2:0:0:
400,288,119673,2,0,L|416:172,1,104.895118886123,2|0,0:2|0:2,0:2:0:0:
428,52,119999,5,2,0:2:0:0:
40,220,120162,1,2,0:2:0:0:
40,220,120244,1,2,0:2:0:0:
40,220,120325,1,2,0:2:0:0:
272,0,120488,1,0,0:2:0:0:
260,368,120651,5,10,0:2:0:0:
24,88,120814,1,10,0:2:0:0:
424,220,120977,1,10,0:2:0:0:
28,344,121140,1,10,0:2:0:0:
272,0,121303,1,14,0:2:0:0:
272,0,121956,5,10,0:2:0:0:
144,152,122119,1,0,0:2:0:0:
264,120,122282,1,0,0:2:0:0:
64,76,122445,2,0,P|56:136|64:176,1,100,2|0,0:2|0:2,0:2:0:0:
252,184,122771,5,2,0:2:0:0:
252,184,122852,1,2,0:2:0:0:
252,184,122934,1,2,0:2:0:0:
120,256,123097,1,0,0:2:0:0:
120,256,123260,6,0,P|64:236|36:204,1,100,10|0,0:2|0:2,0:2:0:0:
252,184,123586,2,0,P|264:244|256:296,1,100,0|0,0:2|0:2,0:2:0:0:
337,141,123912,5,6,0:2:0:0:
337,141,124075,1,0,0:2:0:0:
337,141,124238,2,0,P|293:177|237:181,1,100,0|0,0:2|0:2,0:2:0:0:
136,140,124564,6,0,P|92:168|64:212,1,100,10|0,0:2|0:2,0:2:0:0:
224,232,124890,2,0,P|284:244|336:228,1,100,0|0,0:2|0:2,0:2:0:0:
404,176,125217,1,2,0:2:0:0:
280,104,125380,1,2,0:2:0:0:
280,104,125461,1,2,0:2:0:0:
280,104,125543,1,2,0:2:0:0:
256,288,125706,1,0,0:2:0:0:
164,200,125869,6,0,P|92:196|52:184,1,100,2|0,0:2|0:2,0:2:0:0:
304,120,126195,2,0,P|312:172|300:224,1,100,8|0,0:2|0:2,0:2:0:0:
136,288,126521,1,6,0:2:0:0:
136,288,126684,1,0,0:2:0:0:
136,288,126847,2,0,P|116:224|120:168,1,100,2|0,0:2|0:2,0:2:0:0:
320,180,127173,5,10,0:2:0:0:
160,100,127336,1,0,0:2:0:0:
288,56,127499,1,0,0:2:0:0:
184,224,127662,1,0,0:2:0:0:
364,180,127825,5,2,0:2:0:0:
120,164,127988,1,2,0:2:0:0:
120,164,128070,1,2,0:2:0:0:
120,164,128151,1,2,0:2:0:0:
240,312,128314,1,0,0:2:0:0:
260,120,128477,5,10,0:2:0:0:
136,268,128640,1,0,0:2:0:0:
372,232,128803,1,0,0:2:0:0:
24,176,128966,1,0,0:2:0:0:
244,40,129130,5,6,0:2:0:0:
184,352,129293,1,0,0:2:0:0:
280,200,129456,2,0,P|216:208|160:192,1,100,2|0,0:2|0:2,0:2:0:0:
340,64,129782,5,10,0:2:0:0:
264,328,129945,1,0,0:2:0:0:
36,224,130108,1,2,0:2:0:0:
356,168,130271,1,2,0:0:0:0:
328,336,130434,6,0,L|220:320,1,100,2|0,0:2|0:2,0:2:0:0:
168,164,130760,2,0,P|140:224|136:276,1,100,10|0,0:2|0:2,0:2:0:0:
372,64,131086,5,10,0:2:0:0:
328,336,131249,1,0,0:2:0:0:
420,244,131412,2,0,P|432:184|420:132,1,100,6|0,0:2|0:2,0:2:0:0:
92,140,131738,6,0,P|80:200|92:252,1,100,6|0,0:2|0:2,0:2:0:0:
336,200,132064,2,0,L|448:188,1,100,0|0,0:2|0:2,0:2:0:0:
228,276,132390,6,0,P|180:264|132:220,1,100,10|0,0:2|0:2,0:2:0:0:
316,84,132717,2,0,L|320:200,1,100,0|0,0:2|0:2,0:2:0:0:
324,328,133043,5,2,0:2:0:0:
424,180,133206,1,0,0:2:0:0:
248,220,133369,1,0,0:2:0:0:
428,316,133532,1,0,0:2:0:0:
336,0,133695,5,10,0:2:0:0:
132,272,133858,1,2,0:2:0:0:
460,164,134021,1,2,0:2:0:0:
128,88,134184,1,2,0:2:0:0:
404,384,134347,6,0,P|416:324|400:252,1,100,6|0,0:2|0:2,0:2:0:0:
408,164,134673,1,0,0:2:0:0:
72,232,134836,5,8,0:2:0:0:
72,232,134918,1,0,0:2:0:0:
72,232,134999,1,0,0:2:0:0:
232,100,135162,5,8,0:2:0:0:
232,100,135244,1,0,0:2:0:0:
232,100,135325,1,0,0:2:0:0:
160,352,135488,1,2,0:2:0:0:
248,28,135651,5,10,0:2:0:0:
372,320,135814,1,8,0:2:0:0:
112,176,135977,1,0,0:2:0:0:
416,108,136140,1,0,0:2:0:0:
200,304,136303,5,10,0:2:0:0:
360,104,136467,1,0,0:2:0:0:
128,72,136630,5,10,0:2:0:0:
344,256,136793,1,0,0:2:0:0:
212,92,136956,6,0,P|200:148|212:216,1,100,6|0,0:2|0:2,0:2:0:0:
240,304,137282,1,0,0:2:0:0:
344,136,137445,5,8,0:2:0:0:
344,136,137526,1,0,0:2:0:0:
344,136,137608,1,0,0:2:0:0:
344,136,137689,1,0,0:2:0:0:
344,136,137771,1,0,0:2:0:0:
108,104,137934,1,0,0:2:0:0:
224,76,138097,1,0,0:2:0:0:
148,200,138260,5,14,0:2:0:0:
392,304,138423,1,0,0:2:0:0:
348,56,138586,1,0,0:2:0:0:
256,292,138749,1,0,0:2:0:0:
196,64,138912,6,0,P|136:80|88:128,1,100,10|0,0:2|0:2,0:2:0:0:
292,236,139238,2,0,L|392:216,1,100,0|0,0:2|0:2,0:2:0:0:
436,100,139564,5,14,0:2:0:0:
344,340,139727,1,0,0:2:0:0:
156,144,139890,5,8,0:2:0:0:
336,236,140053,1,0,0:2:0:0:
288,64,140217,5,10,0:2:0:0:
196,348,140380,1,0,0:2:0:0:
88,212,140543,5,8,0:2:0:0:
420,172,140706,1,0,0:2:0:0:
420,172,141032,5,10,0:2:0:0:
124,92,141195,1,2,0:2:0:0:
124,92,141276,1,0,0:2:0:0:
124,92,141358,1,0,0:2:0:0:
124,92,141439,1,0,0:2:0:0:
124,92,141521,1,0,0:2:0:0:
76,240,141684,5,2,0:2:0:0:
420,172,141847,1,0,0:2:0:0:
288,16,142010,5,2,0:2:0:0:
236,376,142173,1,2,0:1:0:0:
236,376,142499,5,2,0:2:0:0:
172,188,142662,2,0,L|136:140,2,37.5000014305115,0|0|0,0:2|0:2|0:2,0:2:0:0:
244,260,142988,1,0,0:2:0:0:
244,260,143151,2,0,P|208:268|168:260,1,75.0000028610231,0|0,0:2|0:2,0:2:0:0:
148,120,143477,5,2,0:2:0:0:
148,120,143640,1,0,0:2:0:0:
148,120,143803,2,0,P|136:168|136:216,1,75.0000028610231,0|0,0:2|0:2,0:2:0:0:
296,248,144130,5,2,0:2:0:0:
188,208,144293,1,0,0:2:0:0:
296,248,144456,1,0,0:2:0:0:
188,208,144619,6,0,P|208:160|212:132,1,75.0000028610231,2|2,0:1|0:2,0:2:0:0:
72,276,144945,1,0,0:2:0:0:
168,152,145108,6,0,P|180:236|160:316,1,150.000005722046,2|0,0:1|0:2,0:2:0:0:
64,236,145597,6,0,P|116:244|148:236,1,75.0000028610231,2|0,0:1|0:2,0:2:0:0:
216,164,145923,1,0,0:2:0:0:
364,240,146086,5,2,0:2:0:0:
360,256,146249,1,0,0:2:0:0:
356,272,146412,1,0,0:2:0:0:
352,288,146575,1,0,0:2:0:0:
164,208,146738,5,2,0:2:0:0:
166,220,146901,1,0,0:2:0:0:
168,232,147064,1,0,0:2:0:0:
171,244,147227,1,4,0:2:0:0:
