osu file format v14

[General]
AudioFilename: Timeless time.mp3
AudioLeadIn: 0
PreviewTime: 78912
Countdown: 0
SampleSet: Soft
StackLeniency: 0.7
Mode: 0
LetterboxInBreaks: 1
WidescreenStoryboard: 0

[Editor]
DistanceSpacing: 0.6
BeatDivisor: 4
GridSize: 4
TimelineZoom: 2.899999

[Metadata]
Title:Timeless time
TitleUnicode:Timeless time
Artist:Kawada Mami
ArtistUnicode:川田まみ
Creator:wairo
Version:Extra
Source:七つのふしぎの終わるとき
Tags:eroge Furely noraRcat hekivip wairin
BeatmapID:737895
BeatmapSetID:333441

[Difficulty]
HPDrainRate:5
CircleSize:3.5
OverallDifficulty:8.5
ApproachRate:9
SliderMultiplier:1.5
SliderTickRate:2

[Events]
//Background and Video events
0,0,"Timeless.jpg",0,0
//Break Periods
//Storyboard Layer 0 (Background)
//Storyboard Layer 1 (Fail)
//Storyboard Layer 2 (Pass)
//Storyboard Layer 3 (Foreground)
//Storyboard Sound Samples

[TimingPoints]
1304,652.173913043478,4,2,22,55,1,0
1304,-50,4,2,22,55,0,0
32608,-50,4,2,22,20,0,0
32934,-50,4,2,22,30,0,0
33260,-50,4,2,22,40,0,0
33586,-50,4,2,22,50,0,0
33912,-50,4,2,22,60,0,0
34238,-50,4,2,22,70,0,0
34564,-50,4,2,22,55,0,0
35217,-50,4,2,22,45,0,0
53477,-50,4,2,22,55,0,0
77934,-100,4,2,22,55,0,0
78912,-50,4,2,22,55,0,0
79564,-40,4,2,22,55,0,1
121385,-50,4,2,22,55,0,0
142255,-50,4,2,22,5,0,0

[HitObjects]
200,192,1304,6,0,P|248:200|304:184,1,75,2|0,3:2|3:2,3:2:0:0:
352,112,1630,1,0,3:2:0:0:
144,48,1956,1,0,3:2:0:0:
64,264,2282,6,0,P|88:328|112:328,1,75,0|0,3:2|3:2,3:2:0:0:
192,40,2771,2,0,P|120:64|112:80,1,75,0|0,3:2|3:2,3:2:0:0:
80,232,3260,5,0,3:2:0:0:
208,152,3423,1,0,3:2:0:0:
248,288,3586,1,0,3:2:0:0:
360,64,3912,6,0,L|392:152,1,75,2|0,3:2|3:2,3:2:0:0:
360,232,4238,1,0,3:2:0:0:
136,96,4564,5,0,3:2:0:0:
168,240,4727,1,0,3:2:0:0:
232,104,4890,1,0,3:2:0:0:
96,176,5053,1,0,3:2:0:0:
248,192,5217,1,0,3:2:0:0:
184,56,5380,1,0,3:2:0:0:
160,352,5543,1,0,3:2:0:0:
352,200,5869,5,0,3:2:0:0:
408,80,6032,1,0,3:2:0:0:
224,168,6195,1,0,3:2:0:0:
152,112,6521,5,2,3:2:0:0:
288,248,6684,1,0,3:2:0:0:
264,56,6847,1,0,3:2:0:0:
168,224,7010,1,0,3:2:0:0:
352,152,7173,1,0,3:2:0:0:
360,144,7499,5,2,3:2:0:0:
160,232,7662,1,0,3:2:0:0:
136,96,7988,1,2,3:2:0:0:
304,256,8151,1,0,3:2:0:0:
256,40,8477,1,2,3:2:0:0:
184,328,8640,5,0,3:2:0:0:
196,328,8721,1,0,3:2:0:0:
209,328,8803,1,0,3:2:0:0:
221,328,8884,1,0,3:2:0:0:
234,328,8966,1,0,3:2:0:0:
246,328,9047,1,0,3:2:0:0:
259,328,9129,5,2,0:2:0:0:
384,80,9293,1,0,0:2:0:0:
408,272,9456,1,8,0:2:0:0:
256,192,9782,1,0,0:2:0:0:
128,56,10108,5,2,0:2:0:0:
104,296,10271,1,8,0:2:0:0:
384,56,10597,5,10,0:2:0:0:
408,296,10760,1,0,0:2:0:0:
256,328,11086,5,2,0:2:0:0:
256,48,11249,1,0,0:2:0:0:
256,192,11412,5,8,0:2:0:0:
256,192,11494,1,8,0:2:0:0:
256,192,11575,1,8,0:2:0:0:
256,192,11657,1,8,0:2:0:0:
256,192,11738,6,0,P|288:232|296:256,1,75,2|0,0:1|0:2,0:2:0:0:
184,336,12064,2,0,P|152:312|128:256,1,75,0|0,0:2|0:2,0:2:0:0:
72,184,12390,6,0,P|40:144|40:112,1,75,8|0,0:2|0:2,0:2:0:0:
128,48,12717,1,0,0:2:0:0:
240,40,12880,2,0,P|224:88|208:112,1,75,0|0,0:2|0:2,0:2:0:0:
136,192,13206,1,0,0:2:0:0:
80,296,13369,2,0,P|144:304|176:288,1,75,0|0,0:2|0:2,0:2:0:0:
264,264,13695,2,0,P|308:244|332:212,1,75,8|0,0:2|0:2,0:2:0:0:
416,88,14021,5,0,0:2:0:0:
360,336,14184,1,0,0:2:0:0:
200,272,14347,5,2,0:1:0:0:
96,160,14510,2,0,P|136:136|184:120,1,75,0|0,0:1|0:1,0:1:0:0:
176,120,14755,1,0,0:2:0:0:
176,120,14837,1,0,0:2:0:0:
288,72,14999,2,0,P|328:112|352:144,1,75,8|0,0:2|0:2,0:2:0:0:
344,240,15325,1,0,0:2:0:0:
240,312,15488,2,0,P|192:256|184:224,1,75,0|0,0:2|0:2,0:2:0:0:
112,168,15814,1,0,0:2:0:0:
168,48,15977,6,0,P|208:64|248:64,1,75,0|0,0:2|0:2,0:2:0:0:
432,64,16303,2,0,P|392:96|344:112,1,75,8|0,0:2|0:2,0:2:0:0:
328,200,16630,5,0,0:2:0:0:
336,232,16711,1,0,0:2:0:0:
344,264,16793,1,0,0:2:0:0:
344,296,16874,1,0,0:2:0:0:
336,328,16956,6,0,P|280:344|240:320,1,75,2|0,0:1|0:2,0:2:0:0:
152,328,17282,2,0,P|112:280|104:240,1,75,0|0,0:2|0:2,0:2:0:0:
176,48,17608,1,8,0:2:0:0:
176,48,17771,2,0,L|264:88,1,75,0|0,0:2|0:2,0:2:0:0:
336,120,18097,1,0,0:2:0:0:
92,112,18260,1,0,0:2:0:0:
176,168,18423,2,0,L|248:208,1,75,0|0,0:2|0:2,0:2:0:0:
376,296,18749,5,0,0:2:0:0:
424,88,18912,2,0,L|352:128,1,75,8|0,0:2|0:2,0:2:0:0:
192,216,19238,1,0,0:2:0:0:
224,48,19401,1,0,0:2:0:0:
56,176,19564,5,2,0:1:0:0:
56,176,19727,1,0,0:2:0:0:
240,304,19890,1,0,0:2:0:0:
240,304,20053,1,0,0:2:0:0:
296,88,20217,1,8,0:2:0:0:
296,88,20380,1,0,0:2:0:0:
88,168,20543,5,0,0:2:0:0:
280,288,20706,1,0,0:2:0:0:
88,112,21032,5,0,0:2:0:0:
224,200,21195,1,0,0:2:0:0:
348,304,21358,1,0,0:2:0:0:
136,112,21521,5,8,0:2:0:0:
336,232,21684,1,0,0:2:0:0:
256,152,21847,5,0,0:2:0:0:
248,160,21928,1,0,0:2:0:0:
240,168,22010,1,0,0:2:0:0:
232,176,22092,1,0,0:2:0:0:
224,184,22173,6,0,P|184:232|176:248,1,75,2|0,0:1|0:2,0:2:0:0:
272,352,22499,2,0,P|304:320|328:272,1,75,0|0,0:2|0:2,0:2:0:0:
456,344,22825,2,0,P|424:304|384:272,1,75,8|0,0:2|0:2,0:2:0:0:
360,224,23151,1,0,0:2:0:0:
336,136,23314,2,0,P|320:80|296:40,1,75,0|0,0:2|0:2,0:2:0:0:
240,8,23640,1,0,0:2:0:0:
152,40,23803,2,0,P|120:96|120:112,1,75,0|0,0:2|0:2,0:2:0:0:
112,208,24130,1,8,0:2:0:0:
112,208,24293,1,0,0:2:0:0:
214,280,24456,5,0,0:2:0:0:
226,265,24537,1,0,0:2:0:0:
238,251,24619,1,0,0:2:0:0:
251,237,24700,1,0,0:2:0:0:
264,224,24782,6,0,L|320:160,1,75,2|0,0:1|0:2,0:2:0:0:
376,80,25108,1,0,0:2:0:0:
256,32,25271,2,0,P|216:72|192:112,1,75,0|8,0:2|0:2,0:2:0:0:
112,208,25597,1,0,0:2:0:0:
224,304,25760,2,0,P|296:304|328:288,1,75,0|0,0:2|0:2,0:2:0:0:
416,248,26086,5,0,0:2:0:0:
320,72,26249,1,0,0:2:0:0:
216,240,26412,1,0,0:2:0:0:
216,240,26738,5,8,0:2:0:0:
320,72,26901,1,0,0:2:0:0:
416,248,27064,2,0,L|384:224,1,37.5,0|0,0:2|0:2,0:2:0:0:
384,256,27227,2,0,L|352:232,1,37.5,0|0,0:2|0:2,0:2:0:0:
352,272,27390,6,0,L|288:224,1,75,2|0,0:1|0:2,0:2:0:0:
208,136,27717,2,0,P|184:88|192:40,1,75,0|0,0:2|0:2,0:2:0:0:
208,248,28043,2,0,P|184:296|192:344,1,75,8|0,0:2|0:2,0:2:0:0:
128,192,28369,1,0,0:2:0:0:
128,192,28532,2,0,L|208:192,1,75,0|0,0:2|0:2,0:2:0:0:
432,192,28858,1,0,0:2:0:0:
432,192,29021,2,0,L|328:192,1,75,0|0,0:2|0:2,0:2:0:0:
256,40,29347,5,8,0:2:0:0:
112,248,29510,1,0,0:2:0:0:
256,48,29673,1,0,0:2:0:0:
400,248,29836,1,0,0:2:0:0:
152,264,29999,5,2,0:1:0:0:
344,120,30162,1,0,0:2:0:0:
344,128,30244,1,0,0:2:0:0:
344,136,30325,1,0,0:2:0:0:
160,136,30488,1,0,0:2:0:0:
256,272,30651,1,8,0:2:0:0:
256,72,30814,1,0,0:2:0:0:
152,264,30977,1,0,0:2:0:0:
360,264,31140,1,0,0:2:0:0:
352,112,31303,6,0,L|288:184,1,75,0|0,0:2|0:2,0:2:0:0:
160,112,31630,2,0,L|224:184,1,75,0|0,0:2|0:2,0:2:0:0:
256,296,31956,1,8,0:2:0:0:
256,296,32119,1,0,0:2:0:0:
256,48,32282,2,0,L|256:128,1,75,0|0,0:2|0:2,0:2:0:0:
256,208,32608,5,2,1:1:0:0:
136,312,32771,1,0,1:2:0:0:
48,208,32934,2,0,P|56:164|80:136,1,75,0|0,1:2|1:2,1:2:0:0:
224,104,33260,2,0,P|224:156|200:192,1,75,0|0,1:2|1:2,1:2:0:0:
136,288,33586,1,0,1:2:0:0:
256,344,33749,6,0,P|304:328|336:288,1,75,0|0,1:2|1:2,1:2:0:0:
384,176,34075,1,0,1:2:0:0:
192,104,34238,2,0,P|152:160|144:192,1,75,0|0,1:2|1:2,1:2:0:0:
248,248,34564,6,0,L|272:248,14,18.75,0|0|0|0|0|0|0|0|0|0|0|0|0|0|0,1:2|1:2|1:2|1:2|1:2|1:2|1:2|1:2|1:2|1:2|1:2|1:2|1:2|1:2|1:2,1:2:0:0:
256,224,35217,6,0,L|256:72,1,150,2|0,0:1|0:2,0:2:0:0:
152,48,35706,2,0,L|72:56,1,75,0|0,0:2|0:2,0:2:0:0:
32,160,36032,1,0,0:2:0:0:
88,280,36195,2,0,P|160:296|240:264,1,150,0|0,0:2|0:2,0:2:0:0:
408,192,36847,2,0,P|352:136|280:104,1,150,0|0,0:2|0:2,0:2:0:0:
128,72,37499,1,0,0:2:0:0:
48,184,37662,5,0,0:2:0:0:
72,208,37744,1,0,0:2:0:0:
96,224,37825,2,0,P|152:256|192:264,1,75,2|0,0:1|0:2,0:2:0:0:
216,328,38151,5,0,0:2:0:0:
240,152,38314,2,0,P|296:176|328:208,1,75,0|0,0:2|0:2,0:2:0:0:
360,272,38640,1,0,0:2:0:0:
160,192,38803,1,0,0:2:0:0:
160,192,39130,5,0,0:2:0:0:
344,136,39293,1,0,0:2:0:0:
104,32,39619,5,0,0:2:0:0:
104,64,39700,1,0,0:2:0:0:
104,96,39782,1,0,0:2:0:0:
108,200,39945,1,0,0:2:0:0:
108,304,40108,2,0,P|156:312|196:304,1,75,0|0,0:2|0:1,0:2:0:0:
352,248,40434,5,2,0:1:0:0:
352,248,40597,2,0,P|332:184|256:112,1,150,0|0,0:2|0:2,0:2:0:0:
160,176,41086,2,0,P|128:216|112:272,1,75,0|0,0:2|0:2,0:2:0:0:
136,352,41412,2,0,P|200:344|232:320,1,75,0|0,0:2|0:2,0:2:0:0:
288,280,41738,5,8,0:2:0:0:
464,232,41901,1,0,0:2:0:0:
272,64,42227,5,8,0:2:0:0:
128,160,42390,1,0,0:2:0:0:
152,48,42717,5,8,0:2:0:0:
424,304,42880,1,8,0:2:0:0:
256,192,43043,6,0,P|200:200|160:224,1,75,2|0,0:1|0:2,0:2:0:0:
104,296,43369,1,0,0:2:0:0:
104,296,43532,2,0,P|48:256|32:224,1,75,0|0,0:2|0:2,0:2:0:0:
40,128,43858,1,0,0:2:0:0:
152,48,44021,2,0,P|200:80|232:120,1,75,0|0,0:2|0:2,0:2:0:0:
288,168,44347,5,8,0:2:0:0:
104,296,44510,1,0,0:2:0:0:
80,296,44836,1,8,0:2:0:0:
312,168,44999,1,0,0:2:0:0:
56,296,45325,1,8,0:2:0:0:
56,296,45651,6,0,P|32:240|72:144,1,150,2|0,0:1|0:2,0:2:0:0:
144,72,46140,1,0,0:2:0:0:
248,248,46303,2,0,L|152:256,1,75,0|0,0:2|0:2,0:2:0:0:
264,120,46630,1,0,0:2:0:0:
16,264,46793,2,0,L|112:256,1,75,0|0,0:2|0:2,0:2:0:0:
72,168,47119,1,0,0:2:0:0:
152,104,47282,1,0,0:2:0:0:
264,120,47445,1,0,0:2:0:0:
264,120,47608,6,0,P|288:168|328:192,1,75,0|0,0:2|0:2,0:2:0:0:
360,280,47934,2,0,P|328:312|288:320,1,75,0|0,0:2|0:2,0:2:0:0:
200,312,48260,6,0,P|136:288|88:208,1,150,2|0,0:1|0:2,0:2:0:0:
64,120,48749,1,0,0:2:0:0:
160,48,48912,1,0,0:2:0:0:
264,128,49075,1,0,0:2:0:0:
168,216,49238,6,0,L|88:248,1,75,8|0,0:2|0:2,0:2:0:0:
184,232,49727,6,0,L|112:288,1,75,8|0,0:2|0:2,0:2:0:0:
200,248,50217,6,0,L|160:320,1,75,8|0,0:2|0:2,0:2:0:0:
24,336,50543,2,0,L|64:272,1,75,0|0,0:2|0:2,0:2:0:0:
96,168,50869,5,2,0:1:0:0:
200,88,51032,1,0,0:2:0:0:
320,136,51195,2,0,P|376:168|400:200,1,75,0|0,0:2|0:2,0:2:0:0:
280,312,51521,5,0,0:2:0:0:
224,216,51684,1,0,0:2:0:0:
144,128,51847,2,0,P|112:96|72:72,1,75,0|0,0:2|0:2,0:2:0:0:
16,184,52173,5,0,0:2:0:0:
120,304,52336,1,0,0:2:0:0:
248,216,52499,1,0,0:2:0:0:
160,96,52662,1,0,0:2:0:0:
24,40,52825,1,0,0:2:0:0:
16,192,52988,1,0,0:2:0:0:
144,192,53151,6,2,L|168:208,7,18.75,2|2|2|2|2|2|2|2,3:2|3:2|3:2|3:2|3:2|3:2|3:2|3:2,3:2:0:0:
152,200,53477,5,2,0:1:0:0:
408,96,53640,1,0,0:2:0:0:
408,96,53967,5,8,0:2:0:0:
88,40,54130,1,0,0:2:0:0:
88,40,54456,5,8,0:2:0:0:
192,328,54619,1,0,0:2:0:0:
192,328,54945,5,8,0:2:0:0:
408,96,55108,1,0,0:2:0:0:
408,96,55434,5,8,0:2:0:0:
176,72,55597,1,0,0:2:0:0:
136,272,55760,1,8,0:2:0:0:
368,296,55923,1,0,0:2:0:0:
408,96,56086,6,0,P|344:72|304:72,1,75,2|0,0:1|0:2,0:2:0:0:
216,72,56412,2,0,P|160:128|160:136,1,75,0|0,0:2|0:2,0:2:0:0:
128,216,56738,1,8,0:2:0:0:
200,312,56901,1,0,0:2:0:0:
320,232,57064,2,0,P|256:192|240:168,1,75,0|0,0:2|0:2,0:2:0:0:
168,128,57390,6,0,P|104:136|80:160,1,75,0|0,0:2|0:2,0:2:0:0:
56,272,57717,2,0,P|104:272|136:264,1,75,0|0,0:2|0:2,0:2:0:0:
240,216,58043,1,8,0:2:0:0:
328,128,58206,1,0,0:2:0:0:
448,176,58369,2,0,P|432:232|416:256,1,75,0|0,0:2|0:2,0:2:0:0:
312,312,58695,6,0,P|296:264|304:224,1,75,2|0,0:1|0:2,0:2:0:0:
192,88,59021,2,0,P|200:144|184:184,1,75,0|0,0:2|0:2,0:2:0:0:
184,288,59347,1,8,0:2:0:0:
328,176,59510,1,0,0:2:0:0:
184,176,59673,1,0,0:2:0:0:
328,288,59836,1,0,0:2:0:0:
256,96,59999,6,0,P|272:144|264:184,1,75,0|0,0:2|0:2,0:2:0:0:
376,320,60325,2,0,P|368:264|384:224,1,75,0|0,0:2|0:2,0:2:0:0:
384,120,60651,1,8,0:2:0:0:
240,232,60814,1,0,0:2:0:0:
384,232,60977,1,0,0:2:0:0:
240,120,61140,1,0,0:2:0:0:
104,192,61303,6,0,B|64:240|56:272,1,75,2|0,0:1|0:2,0:2:0:0:
176,344,61630,2,0,B|208:312|232:264,1,75,0|0,0:2|0:2,0:2:0:0:
208,152,61956,1,8,0:2:0:0:
312,264,62119,1,0,0:2:0:0:
208,264,62282,1,0,0:2:0:0:
312,152,62445,1,0,0:2:0:0:
448,72,62608,6,0,P|424:144|416:152,1,75,0|0,0:2|0:2,0:2:0:0:
296,88,62934,2,0,P|256:132|248:168,1,75,0|0,0:2|0:2,0:2:0:0:
256,296,63260,1,8,0:2:0:0:
256,136,63423,1,0,0:2:0:0:
336,224,63586,1,0,0:2:0:0:
184,224,63749,1,0,0:2:0:0:
144,128,63912,5,10,0:1:0:0:
144,128,64075,1,0,0:2:0:0:
368,328,64238,1,0,0:2:0:0:
216,364,64564,1,8,0:2:0:0:
352,64,64890,5,8,0:2:0:0:
352,64,65053,1,0,0:2:0:0:
80,312,65379,5,8,0:2:0:0:
80,312,65543,1,0,0:2:0:0:
72,48,65869,5,8,0:2:0:0:
72,48,66032,1,8,0:2:0:0:
38,160,66195,1,8,0:2:0:0:
50,174,66276,1,8,0:2:0:0:
63,187,66358,1,8,0:2:0:0:
78,198,66439,1,8,0:2:0:0:
96,208,66521,6,0,P|136:232|168:240,1,75,10|0,0:1|0:2,0:2:0:0:
184,336,66847,2,0,P|232:312|256:272,1,75,0|0,0:2|0:2,0:2:0:0:
304,216,67173,1,8,0:2:0:0:
328,112,67336,2,0,P|288:88|240:88,1,75,0|0,0:2|0:2,0:2:0:0:
144,112,67662,2,0,P|144:152|168:192,1,75,0|0,0:2|0:2,0:2:0:0:
232,272,67988,1,0,0:2:0:0:
368,328,68151,6,0,P|376:272|368:232,1,75,0|0,0:2|0:2,0:2:0:0:
272,224,68477,2,0,P|264:192|272:152,1,75,8|0,0:2|0:2,0:2:0:0:
384,136,68803,2,0,P|392:88|384:48,1,75,0|0,0:2|0:2,0:2:0:0:
248,40,69130,6,0,P|176:108|152:180,1,150,10|0,0:1|0:2,0:2:0:0:
168,216,69619,2,0,P|232:248|320:232,1,150,8|0,0:2|0:2,0:2:0:0:
352,200,70108,2,0,P|328:112|280:48,1,150,8|0,0:2|0:2,0:2:0:0:
184,40,70597,2,0,P|144:72|120:96,1,75,0|0,0:2|0:2,0:2:0:0:
72,184,70923,5,0,0:2:0:0:
88,200,71005,1,0,0:2:0:0:
104,216,71086,1,8,0:2:0:0:
184,288,71249,1,0,0:2:0:0:
272,248,71412,5,0,0:2:0:0:
288,240,71494,1,0,0:2:0:0:
304,232,71575,1,0,0:2:0:0:
320,224,71657,1,0,0:2:0:0:
336,216,71738,5,2,0:1:0:0:
432,160,71901,2,0,P|408:136|352:112,1,75,0|0,0:2|0:2,0:2:0:0:
280,48,72227,1,0,0:2:0:0:
168,56,72390,2,0,L|104:104,1,75,8|0,0:2|0:2,0:2:0:0:
40,168,72717,1,0,0:2:0:0:
48,264,72880,1,0,0:2:0:0:
128,320,73043,5,0,0:2:0:0:
224,312,73206,2,0,L|296:272,1,75,0|0,0:2|0:2,0:2:0:0:
376,224,73532,1,0,0:2:0:0:
352,128,73695,1,8,0:2:0:0:
352,128,73858,1,0,0:2:0:0:
144,152,74021,1,0,0:2:0:0:
144,152,74184,1,0,0:2:0:0:
264,336,74347,5,10,0:1:0:0:
400,232,74510,1,0,0:2:0:0:
320,80,74673,1,0,0:2:0:0:
16,312,74999,5,8,0:2:0:0:
184,264,75162,1,0,0:2:0:0:
328,176,75325,1,0,0:2:0:0:
448,48,75488,2,0,B|480:120|440:204,2,150,2|0|0,0:2|0:2|0:2,0:2:0:0:
256,48,76303,1,0,0:2:0:0:
104,168,76467,1,0,0:2:0:0:
232,328,76630,5,0,1:2:0:0:
232,328,76711,1,0,1:2:0:0:
232,328,76793,1,0,1:2:0:0:
232,328,76874,1,0,1:2:0:0:
232,328,76956,6,0,P|272:336|328:328,2,75,2|0|0,1:1|3:2|3:2,3:2:0:0:
144,280,77445,6,0,P|152:224|216:160,1,150,0|0,3:2|3:2,3:2:0:0:
312,88,77934,6,0,P|392:144|400:208,1,150,0|0,3:2|3:2,3:2:0:0:
392,304,78749,1,0,3:2:0:0:
304,256,78912,5,0,3:2:0:0:
288,240,78994,5,0,3:2:0:0:
272,224,79075,5,0,3:2:0:0:
256,208,79157,5,0,3:2:0:0:
240,192,79238,6,2,L|216:200,1,18.75,2|2,3:2|3:2,3:2:0:0:
224,176,79320,6,2,L|200:184,1,18.75,2|2,3:2|3:2,3:2:0:0:
208,160,79401,6,2,L|185:168,1,18.75,2|2,3:2|3:2,3:2:0:0:
192,144,79483,6,2,L|169:152,1,18.75,2|2,3:2|3:2,3:2:0:0:
172,124,79564,6,0,P|112:112|56:132,1,93.75,6|0,0:1|0:2,0:2:0:0:
84,232,79890,2,0,P|116:304|140:328,1,93.75,0|0,0:2|0:2,0:2:0:0:
256,336,80217,2,0,P|304:328|352:308,2,93.75,8|0|0,0:2|0:2|0:2,0:2:0:0:
192,232,80706,1,0,0:2:0:0:
304,200,80869,6,0,B|360:208|392:256,1,93.75,0|0,0:2|0:2,0:2:0:0:
328,336,81195,2,0,P|264:312|224:256,1,93.75,0|0,0:2|0:2,0:2:0:0:
328,240,81521,1,0,0:2:0:0:
272,80,81684,1,0,0:2:0:0:
104,56,81847,1,0,0:2:0:0:
48,216,82010,1,0,0:2:0:0:
184,320,82173,6,0,P|200:272|200:216,1,93.75,2|0,0:1|0:2,0:2:0:0:
192,56,82499,2,0,P|152:104|136:144,1,93.75,0|0,0:2|0:2,0:2:0:0:
72,288,82825,2,0,P|136:280|168:264,1,93.75,8|0,0:2|0:2,0:2:0:0:
304,176,83151,1,0,0:2:0:0:
424,56,83314,2,0,P|360:40|288:48,1,93.75,0|0,0:2|0:2,0:2:0:0:
176,104,83640,1,0,0:2:0:0:
88,248,83803,2,0,P|152:288|192:296,1,93.75,0|0,0:2|0:2,0:2:0:0:
424,320,84130,5,8,0:2:0:0:
384,96,84293,1,0,0:2:0:0:
208,280,84456,1,0,0:2:0:0:
152,32,84619,1,0,0:2:0:0:
0,240,84782,6,0,P|56:280|104:296,1,93.75,2|0,0:1|0:2,0:2:0:0:
208,344,85108,2,0,P|272:312|288:280,1,93.75,0|0,0:2|0:2,0:2:0:0:
352,120,85434,5,8,0:2:0:0:
184,208,85597,1,0,0:2:0:0:
352,296,85760,1,0,0:2:0:0:
240,88,85923,5,0,0:2:0:0:
240,328,86086,1,0,0:2:0:0:
440,200,86249,1,0,0:2:0:0:
208,152,86412,6,0,P|156:128|112:128,1,93.75,0|0,0:2|0:2,0:2:0:0:
48,232,86738,2,0,P|80:272|120:304,1,93.75,8|0,0:2|0:2,0:2:0:0:
240,264,87064,2,0,P|296:240|320:208,1,93.75,0|0,0:2|0:2,0:2:0:0:
408,120,87390,6,0,P|344:64|312:56,1,93.75,2|0,0:1|0:2,0:2:0:0:
216,120,87717,1,0,0:2:0:0:
144,232,87880,2,0,P|96:184|88:152,1,93.75,0|8,0:2|0:2,0:2:0:0:
120,32,88206,1,0,0:2:0:0:
248,72,88369,1,0,0:2:0:0:
288,200,88532,6,0,P|224:224|176:224,1,93.75,0|0,0:2|0:2,0:2:0:0:
72,192,88858,1,0,0:2:0:0:
128,312,89021,1,0,0:2:0:0:
256,280,89184,2,0,P|312:264|352:240,1,93.75,0|8,0:2|0:2,0:2:0:0:
363,121,89510,1,0,0:2:0:0:
344,107,89591,1,0,0:2:0:0:
323,95,89673,1,0,0:2:0:0:
302,86,89754,1,0,0:2:0:0:
280,80,89836,1,0,0:0:0:0:
184,192,89999,5,2,0:1:0:0:
104,128,90162,1,0,0:2:0:0:
88,228,90325,1,0,0:2:0:0:
128,312,90488,2,0,P|188:320|252:304,1,93.75,0|8,0:2|0:2,0:2:0:0:
312,280,90814,5,0,0:2:0:0:
352,192,90977,1,0,0:2:0:0:
384,96,91140,2,0,P|336:64|296:48,1,93.75,0|0,0:2|0:2,0:2:0:0:
208,56,91467,1,0,0:2:0:0:
128,160,91630,6,0,P|112:208|104:256,1,93.75,0|0,0:2|0:2,0:2:0:0:
232,336,91956,2,0,P|296:296|320:256,1,93.75,8|0,0:2|0:2,0:2:0:0:
208,120,92282,2,0,P|264:88|312:72,1,93.75,0|0,0:2|0:2,0:2:0:0:
416,112,92608,6,0,P|416:160|288:240,1,187.5,2|0,0:1|0:2,0:2:0:0:
184,288,93097,1,0,0:2:0:0:
120,168,93260,2,0,P|144:104|248:48,1,187.5,8|0,0:2|0:2,0:2:0:0:
448,128,93749,1,0,0:2:0:0:
128,112,94075,5,0,0:2:0:0:
296,192,94238,1,0,0:2:0:0:
128,280,94401,1,0,0:2:0:0:
400,192,94564,1,8,0:2:0:0:
96,280,94890,5,0,0:2:0:0:
408,120,95053,1,0,0:2:0:0:
408,120,95217,6,0,P|440:168|456:208,1,93.75,2|0,0:1|0:2,0:2:0:0:
416,304,95543,2,0,P|336:288|296:264,1,93.75,0|0,0:2|0:2,0:2:0:0:
152,136,95869,1,8,0:2:0:0:
240,208,96032,1,0,0:2:0:0:
448,112,96195,2,0,P|472:160|480:200,1,93.75,0|0,0:2|0:2,0:2:0:0:
400,328,96521,2,0,P|344:312|304:288,1,93.75,0|0,0:2|0:2,0:2:0:0:
152,96,96847,1,0,0:2:0:0:
240,168,97010,1,0,0:2:0:0:
352,48,97173,5,8,0:2:0:0:
128,288,97336,1,0,0:2:0:0:
128,56,97499,1,0,0:2:0:0:
352,296,97662,1,0,0:2:0:0:
336,24,97825,5,10,0:1:0:0:
152,324,97988,1,0,0:2:0:0:
176,24,98314,5,8,0:2:0:0:
360,324,98477,1,0,0:2:0:0:
96,192,98803,5,8,0:2:0:0:
416,192,98967,1,0,0:2:0:0:
256,16,99293,5,8,0:2:0:0:
96,192,99456,1,8,0:2:0:0:
256,360,99619,1,8,0:2:0:0:
416,192,99782,2,0,P|415:143|391:103,1,93.75,8|0,0:2|0:2,0:2:0:0:
368,80,100026,1,0,0:2:0:0:
344,56,100108,6,2,L|328:80,7,23.4375,2|2|2|2|2|2|2|2,0:2|3:2|3:2|3:2|3:2|3:2|3:2|3:2,3:2:0:0:
320,40,100434,6,0,P|240:48|208:80,1,93.75,2|0,0:1|0:2,0:2:0:0:
152,128,100760,2,0,P|152:200|160:224,1,93.75,0|0,0:2|0:2,0:2:0:0:
256,304,101086,1,8,0:2:0:0:
288,200,101249,1,0,0:2:0:0:
400,176,101412,1,0,0:0:0:0:
344,84,101575,1,0,0:0:0:0:
240,32,101738,6,0,P|234:91|240:140,1,93.75,0|0,0:2|0:2,0:2:0:0:
328,224,102064,1,0,0:2:0:0:
264,300,102227,1,0,0:2:0:0:
440,216,102390,2,0,L|428:120,1,93.75,8|0,0:2|0:2,0:2:0:0:
296,48,102717,2,0,L|284:144,1,93.75,0|0,0:2|0:2,0:2:0:0:
248,256,103043,5,2,0:1:0:0:
104,128,103206,1,0,0:2:0:0:
288,72,103369,2,0,L|224:152,1,93.75,0|0,0:2|0:2,0:2:0:0:
104,296,103695,5,8,0:2:0:0:
288,352,103858,2,0,P|336:336|368:296,1,93.75,0|0,0:2|0:2,0:2:0:0:
432,128,104184,5,0,0:2:0:0:
256,56,104347,2,0,P|176:80|168:104,1,93.75,0|0,0:2|0:2,0:2:0:0:
72,240,104673,5,0,0:2:0:0:
280,264,104836,1,0,0:2:0:0:
408,152,104999,1,8,0:2:0:0:
464,344,105162,1,0,0:2:0:0:
160,88,105325,1,0,0:2:0:0:
280,264,105488,1,0,0:2:0:0:
48,192,105651,5,2,0:1:0:0:
72,216,105733,1,0,0:2:0:0:
104,224,105814,2,0,P|160:240|200:240,1,93.75,0|0,0:2|0:2,0:2:0:0:
368,200,106140,2,0,P|352:136|320:96,1,93.75,0|8,0:2|0:2,0:2:0:0:
208,32,106467,2,0,P|168:80|152:120,1,93.75,0|0,0:2|0:2,0:2:0:0:
152,256,106793,5,0,0:2:0:0:
280,344,106956,2,0,P|352:320|384:304,1,93.75,0|0,0:2|0:2,0:2:0:0:
448,208,107282,5,0,0:2:0:0:
448,208,107445,1,0,0:2:0:0:
264,64,107608,1,8,0:2:0:0:
264,64,107771,1,0,0:2:0:0:
320,288,107934,1,0,0:2:0:0:
320,288,108097,1,0,0:2:0:0:
392,64,108260,6,0,P|344:96|304:144,1,93.75,2|0,0:1|0:2,0:2:0:0:
232,232,108586,2,0,P|184:216|152:184,1,93.75,0|0,0:2|0:2,0:2:0:0:
88,56,108912,5,8,0:2:0:0:
232,72,109075,2,0,P|288:96|312:128,1,93.75,0|0,0:2|0:2,0:2:0:0:
288,248,109401,1,0,0:2:0:0:
152,216,109564,2,0,P|96:248|80:272,1,93.75,0|0,0:2|0:2,0:2:0:0:
200,352,109890,2,0,L|312:320,1,93.75,0|0,0:2|0:2,0:2:0:0:
424,104,110217,5,8,0:2:0:0:
168,104,110380,1,0,0:2:0:0:
352,280,110543,1,0,0:2:0:0:
352,24,110706,1,0,0:2:0:0:
216,240,110869,6,0,P|160:256|96:240,1,93.75,2|0,0:1|0:2,0:2:0:0:
48,168,111195,1,0,0:2:0:0:
112,72,111358,1,0,0:2:0:0:
304,96,111521,6,0,P|304:160|280:192,1,93.75,8|0,0:2|0:2,0:2:0:0:
216,272,111847,1,0,0:2:0:0:
104,296,112010,1,0,0:2:0:0:
40,120,112173,6,0,P|104:96|144:96,1,93.75,0|0,0:2|0:2,0:2:0:0:
128,208,112499,2,0,P|192:192|232:168,1,93.75,0|0,0:2|0:2,0:2:0:0:
248,40,112825,5,8,0:2:0:0:
248,40,112988,1,0,0:2:0:0:
344,144,113151,1,0,0:2:0:0:
344,144,113314,1,0,0:2:0:0:
424,24,113477,6,0,P|440:72|448:120,1,93.75,2|0,0:1|0:2,0:2:0:0:
496,216,113803,2,0,P|424:280|400:288,1,93.75,0|0,0:2|0:2,0:2:0:0:
384,368,114130,2,0,P|336:344|288:304,1,93.75,8|0,0:2|0:2,0:2:0:0:
192,352,114456,2,0,P|152:296|144:264,1,93.75,0|0,0:2|0:2,0:2:0:0:
88,24,114782,6,0,P|72:72|64:120,1,93.75,0|0,0:2|0:2,0:2:0:0:
16,216,115108,2,0,P|88:280|112:288,1,93.75,0|0,0:2|0:2,0:2:0:0:
128,368,115435,2,0,P|176:344|224:304,1,93.75,8|0,0:2|0:2,0:2:0:0:
320,352,115761,2,0,P|360:296|368:264,1,93.75,0|0,0:2|0:2,0:2:0:0:
376,72,116086,5,2,0:1:0:0:
256,208,116249,1,0,0:2:0:0:
176,48,116412,1,0,0:2:0:0:
400,224,116575,2,0,P|355:251|307:275,1,93.75,0|8,0:2|0:2,0:2:0:0:
144,216,116901,1,0,0:2:0:0:
288,56,117064,5,0,0:2:0:0:
96,152,117227,1,0,0:2:0:0:
312,152,117390,1,0,0:2:0:0:
160,304,117553,2,0,P|115:275|80:240,1,93.75,0|0,0:2|0:2,0:2:0:0:
120,56,117880,1,0,0:2:0:0:
296,112,118043,6,0,L|392:176,1,93.75,8|0,0:2|0:2,0:2:0:0:
296,192,118369,2,0,L|392:256,1,93.75,0|0,0:2|0:2,0:2:0:0:
296,272,118695,1,2,0:1:0:0:
48,192,119021,6,0,P|104:160|160:144,1,93.75,0|0,0:2|0:2,0:2:0:0:
256,352,119347,2,0,P|328:328|360:296,1,93.75,8|0,0:2|0:2,0:2:0:0:
192,240,119673,1,0,0:2:0:0:
376,128,119836,1,0,0:2:0:0:
192,240,119999,2,0,L|280:184,1,93.75,0|0,0:2|0:2,0:2:0:0:
376,128,120325,2,0,P|336:96|288:80,1,93.75,0|0,0:2|0:2,0:2:0:0:
160,56,120651,1,8,0:2:0:0:
56,188,120814,5,10,0:2:0:0:
99,220,120895,1,0,0:2:0:0:
147,246,120977,1,8,0:2:0:0:
199,264,121058,1,0,0:2:0:0:
253,274,121140,1,8,0:2:0:0:
307,275,121222,1,0,0:2:0:0:
362,268,121303,6,0,P|416:246|466:192,1,93.75,2|0,0:1|0:2,0:2:0:0:
460,128,121630,2,0,P|424:92|372:80,1,75,0|0,0:2|0:2,0:2:0:0:
288,56,121956,1,8,0:2:0:0:
200,136,122119,2,0,P|176:184|176:216,1,75,0|0,0:2|0:2,0:2:0:0:
272,336,122445,2,0,P|304:288|312:256,1,75,0|0,0:2|0:2,0:2:0:0:
312,152,122771,1,0,0:2:0:0:
216,56,122934,2,0,P|160:64|136:88,1,75,0|0,0:2|0:2,0:2:0:0:
88,184,123260,5,8,0:2:0:0:
232,304,123423,1,0,0:2:0:0:
256,120,123586,1,0,0:2:0:0:
144,272,123749,1,0,0:2:0:0:
160,112,123912,6,0,P|187:163|195:179,1,75,2|0,0:1|0:2,0:2:0:0:
264,288,124238,1,0,0:2:0:0:
328,112,124401,1,0,0:2:0:0:
136,112,124564,1,8,0:2:0:0:
232,320,124727,1,0,0:2:0:0:
232,64,124890,2,0,L|232:152,1,75,0|0,0:2|0:2,0:2:0:0:
88,296,125380,5,0,0:2:0:0:
88,296,125543,1,0,0:2:0:0:
216,224,125706,1,0,0:2:0:0:
248,216,125787,1,0,0:2:0:0:
288,208,125869,1,8,0:2:0:0:
384,152,126032,1,0,0:2:0:0:
432,264,126195,1,0,0:2:0:0:
360,360,126358,1,0,0:2:0:0:
248,320,126521,6,0,P|192:296|160:272,1,75,2|0,0:1|0:2,0:2:0:0:
64,312,126847,2,0,P|72:264|88:232,1,75,0|0,0:2|0:2,0:2:0:0:
40,128,127173,2,0,P|88:88|112:80,1,75,8|0,0:2|0:2,0:2:0:0:
208,40,127499,5,0,0:2:0:0:
272,224,127662,1,0,0:2:0:0:
272,40,127988,5,0,0:2:0:0:
208,224,128151,1,0,0:2:0:0:
272,376,128314,1,0,0:2:0:0:
288,352,128396,1,0,0:2:0:0:
304,328,128477,1,8,0:2:0:0:
400,216,128640,1,0,0:2:0:0:
304,104,128803,1,0,0:2:0:0:
216,224,128967,1,0,0:2:0:0:
136,312,129130,6,0,P|96:288|80:264,1,75,2|0,0:1|0:2,0:2:0:0:
96,152,129456,2,0,P|144:120|184:120,1,75,0|0,0:2|0:2,0:2:0:0:
256,80,129782,5,8,0:2:0:0:
408,192,129945,1,0,0:2:0:0:
256,304,130108,1,0,0:2:0:0:
104,192,130271,1,0,0:2:0:0:
400,312,130597,5,0,0:2:0:0:
400,80,130760,1,0,0:2:0:0:
120,80,130923,1,0,0:2:0:0:
120,304,131086,1,8,0:2:0:0:
256,40,131412,2,0,L|256:128,1,75,0|0,0:2|0:2,0:2:0:0:
224,264,131738,6,0,P|280:272|312:256,1,75,2|0,0:1|0:2,0:2:0:0:
392,184,132064,2,0,P|352:152|304:136,1,75,0|0,0:2|0:2,0:2:0:0:
216,104,132390,1,8,0:2:0:0:
112,168,132553,1,0,0:2:0:0:
200,256,132717,1,0,0:2:0:0:
312,304,132880,1,0,0:2:0:0:
396,68,133206,5,0,0:2:0:0:
116,316,133369,1,0,0:2:0:0:
436,116,133532,1,0,0:2:0:0:
76,268,133695,1,8,0:2:0:0:
256,192,133858,1,0,0:2:0:0:
64,72,134021,5,0,0:2:0:0:
448,312,134184,1,0,0:2:0:0:
256,32,134347,1,2,0:1:0:0:
256,32,134673,1,0,0:2:0:0:
132,192,134836,5,0,0:2:0:0:
132,192,134918,1,0,0:2:0:0:
132,192,134999,1,8,0:2:0:0:
328,112,135162,1,0,0:2:0:0:
328,272,135325,1,0,0:2:0:0:
132,192,135488,1,0,0:2:0:0:
256,80,135651,5,0,0:2:0:0:
256,304,135814,1,0,0:2:0:0:
376,192,135977,1,0,0:2:0:0:
132,192,136140,1,0,0:2:0:0:
408,80,136303,5,8,0:2:0:0:
408,312,136467,1,0,0:2:0:0:
256,80,136629,5,8,0:2:0:0:
256,304,136792,1,0,0:2:0:0:
104,80,136956,6,0,P|136:136|176:152,1,75,2|0,0:1|0:2,0:2:0:0:
256,136,137282,2,0,P|288:184|288:224,1,75,0|0,0:2|0:2,0:2:0:0:
200,272,137608,5,8,0:2:0:0:
220,276,137689,1,0,0:2:0:0:
240,280,137771,1,0,0:2:0:0:
384,220,137934,1,0,0:2:0:0:
381,201,138015,1,0,0:2:0:0:
377,183,138097,1,0,0:2:0:0:
372,165,138178,1,0,0:2:0:0:
365,148,138260,2,0,P|333:108|305:88,1,75,0|0,0:2|0:2,0:2:0:0:
112,96,138586,6,0,L|112:144,1,37.5,0|0,0:2|0:2,0:2:0:0:
56,168,138749,2,0,L|56:128,1,37.5,0|0,0:2|0:2,0:2:0:0:
164,176,138912,2,0,L|164:216,4,37.5,8|0|0|0|0,0:2|0:2|0:2|0:2|0:2,0:2:0:0:
104,324,139564,6,0,P|168:328|208:320,1,75,2|0,0:1|0:2,0:2:0:0:
272,72,139890,2,0,P|320:120|336:152,1,75,0|0,0:2|0:2,0:2:0:0:
376,304,140217,1,8,0:2:0:0:
168,224,140380,1,0,0:2:0:0:
328,112,140543,1,0,0:2:0:0:
256,320,140706,1,0,0:2:0:0:
104,136,141032,6,0,L|136:176,2,37.5,0|0|0,0:2|0:2|0:2,0:2:0:0:
152,288,141358,1,0,0:2:0:0:
296,248,141521,1,8,0:2:0:0:
376,120,141684,5,8,0:2:0:0:
344,120,141765,1,0,0:2:0:0:
312,120,141847,1,8,0:2:0:0:
280,120,141928,1,0,0:2:0:0:
248,120,142010,1,8,0:2:0:0:
216,120,142092,1,0,0:2:0:0:
184,120,142173,5,2,0:1:0:0:
256,192,142255,12,2,147390,1:1:0:0:
