osu file format v14

[General]
AudioFilename: Timeless time.mp3
AudioLeadIn: 0
PreviewTime: 78912
Countdown: 0
SampleSet: Soft
StackLeniency: 0.7
Mode: 3
LetterboxInBreaks: 1
SpecialStyle: 0
WidescreenStoryboard: 1

[Editor]
DistanceSpacing: 0.6
BeatDivisor: 4
GridSize: 4
TimelineZoom: 1.299999

[Metadata]
Title:Timeless time
TitleUnicode:Timeless time
Artist:Kawada Mami
ArtistUnicode:川田まみ
Creator:wairo
Version:4K HD
Source:七つのふしぎの終わるとき
Tags:eroge Furely noraRcat hekivip wairin
BeatmapID:1360528
BeatmapSetID:333441

[Difficulty]
HPDrainRate:7
CircleSize:4
OverallDifficulty:8
ApproachRate:9.1
SliderMultiplier:2
SliderTickRate:1

[Events]
//Background and Video events
0,0,"Timeless.jpg",0,0
//Break Periods
//Storyboard Layer 0 (Background)
//Storyboard Layer 1 (Fail)
//Storyboard Layer 2 (Pass)
//Storyboard Layer 3 (Foreground)
//Storyboard Sound Samples

[TimingPoints]
1304,652.173913043478,4,2,22,15,1,0

[HitObjects]
64,192,1304,5,0,0:0:0:0:
192,192,1304,1,0,0:0:0:0:
320,192,1467,1,0,0:0:0:0:
448,192,1630,1,0,0:0:0:0:
320,192,1956,1,0,0:0:0:0:
192,192,1956,1,0,0:0:0:0:
64,192,2119,1,0,0:0:0:0:
192,192,2282,1,0,0:0:0:0:
320,192,2445,1,0,0:0:0:0:
448,192,2608,1,0,0:0:0:0:
192,192,2608,1,0,0:0:0:0:
64,192,2771,1,0,0:0:0:0:
192,192,2934,1,0,0:0:0:0:
320,192,3097,1,0,0:0:0:0:
448,192,3260,1,0,0:0:0:0:
192,192,3260,1,0,0:0:0:0:
64,192,3423,1,0,0:0:0:0:
192,192,3586,1,0,0:0:0:0:
448,192,3586,1,0,0:0:0:0:
448,192,3912,1,0,0:0:0:0:
320,192,3912,1,0,0:0:0:0:
192,192,4075,1,0,0:0:0:0:
64,192,4238,1,0,0:0:0:0:
448,192,4564,1,0,0:0:0:0:
192,192,4727,1,0,0:0:0:0:
64,192,4890,1,0,0:0:0:0:
320,192,4890,1,0,0:0:0:0:
448,192,5053,128,0,5380:0:0:0:0:
320,192,5380,1,0,0:0:0:0:
192,192,5543,1,0,0:0:0:0:
64,192,5706,1,0,0:0:0:0:
320,192,5869,1,0,0:0:0:0:
448,192,5869,1,0,0:0:0:0:
192,192,6032,1,0,0:0:0:0:
320,192,6195,128,0,6521:0:0:0:0:
448,192,6195,128,0,6521:0:0:0:0:
192,192,6521,1,0,0:0:0:0:
64,192,6521,1,0,0:0:0:0:
448,192,6684,1,0,0:0:0:0:
192,192,6847,1,0,0:0:0:0:
64,192,6847,1,0,0:0:0:0:
320,192,7173,1,0,0:0:0:0:
448,192,7336,1,0,0:0:0:0:
320,192,7499,1,0,0:0:0:0:
192,192,7662,1,0,0:0:0:0:
64,192,7825,1,0,0:0:0:0:
320,192,7825,1,0,0:0:0:0:
448,192,7988,1,0,0:0:0:0:
320,192,8151,1,0,0:0:0:0:
192,192,8314,1,0,0:0:0:0:
320,192,8477,1,0,0:0:0:0:
448,192,8477,1,0,0:0:0:0:
192,192,8640,1,0,0:0:0:0:
64,192,8640,1,0,0:0:0:0:
448,192,8803,1,0,0:0:0:0:
320,192,8885,1,0,0:0:0:0:
192,192,8967,1,0,0:0:0:0:
64,192,9048,1,0,0:0:0:0:
448,192,9130,1,0,0:0:0:0:
320,192,9130,1,0,0:0:0:0:
320,192,9293,1,0,0:0:0:0:
448,192,9293,1,0,0:0:0:0:
320,192,9456,128,0,9782:0:0:0:0:
448,192,9456,128,0,9782:0:0:0:0:
192,192,9782,1,0,0:0:0:0:
64,192,9782,1,0,0:0:0:0:
192,192,10108,1,0,0:0:0:0:
64,192,10108,1,0,0:0:0:0:
320,192,10271,1,0,0:0:0:0:
448,192,10271,1,0,0:0:0:0:
320,192,10597,1,0,0:0:0:0:
448,192,10597,1,0,0:0:0:0:
192,192,10760,1,0,0:0:0:0:
64,192,10760,1,0,0:0:0:0:
320,192,11086,1,0,0:0:0:0:
192,192,11086,1,0,0:0:0:0:
192,192,11249,1,0,0:0:0:0:
320,192,11249,1,0,0:0:0:0:
64,192,11412,1,0,0:0:0:0:
448,192,11412,1,0,0:0:0:0:
448,192,11575,1,0,0:0:0:0:
64,192,11575,1,0,0:0:0:0:
320,192,11738,128,0,12064:0:0:0:0:
192,192,11738,1,0,0:0:0:0:
320,192,12390,1,0,0:0:0:0:
192,192,12553,1,0,0:0:0:0:
64,192,12717,1,0,0:0:0:0:
448,192,12880,1,0,0:0:0:0:
320,192,13043,1,0,0:0:0:0:
192,192,13043,1,0,0:0:0:0:
64,192,13206,1,0,0:0:0:0:
192,192,13369,1,0,0:0:0:0:
320,192,13532,1,0,0:0:0:0:
448,192,13695,1,0,0:0:0:0:
192,192,13695,1,0,0:0:0:0:
320,192,13858,1,0,0:0:0:0:
192,192,14021,1,0,0:0:0:0:
64,192,14021,1,0,0:0:0:0:
64,192,14184,1,0,0:0:0:0:
192,192,14184,1,0,0:0:0:0:
320,192,14347,128,0,14673:0:0:0:0:
448,192,14347,1,0,0:0:0:0:
192,192,14999,1,0,0:0:0:0:
192,192,15162,1,0,0:0:0:0:
320,192,15325,1,0,0:0:0:0:
320,192,15488,1,0,0:0:0:0:
192,192,15651,1,0,0:0:0:0:
64,192,15651,1,0,0:0:0:0:
320,192,15814,1,0,0:0:0:0:
448,192,15977,1,0,0:0:0:0:
320,192,16140,1,0,0:0:0:0:
192,192,16303,1,0,0:0:0:0:
64,192,16303,1,0,0:0:0:0:
192,192,16467,1,0,0:0:0:0:
320,192,16630,1,0,0:0:0:0:
448,192,16630,1,0,0:0:0:0:
448,192,16793,1,0,0:0:0:0:
320,192,16793,1,0,0:0:0:0:
64,192,16956,1,0,0:0:0:0:
192,192,16956,128,0,17282:0:0:0:0:
320,192,17608,1,0,0:0:0:0:
448,192,17608,1,0,0:0:0:0:
192,192,17771,1,0,0:0:0:0:
64,192,17934,1,0,0:0:0:0:
448,192,18097,1,0,0:0:0:0:
320,192,18097,1,0,0:0:0:0:
192,192,18260,1,0,0:0:0:0:
64,192,18423,1,0,0:0:0:0:
192,192,18586,1,0,0:0:0:0:
320,192,18586,1,0,0:0:0:0:
64,192,18749,1,0,0:0:0:0:
192,192,18912,1,0,0:0:0:0:
320,192,18912,1,0,0:0:0:0:
448,192,19075,1,0,0:0:0:0:
64,192,19238,1,0,0:0:0:0:
320,192,19238,1,0,0:0:0:0:
320,192,19401,1,0,0:0:0:0:
64,192,19401,1,0,0:0:0:0:
192,192,19564,1,0,0:0:0:0:
448,192,19564,1,0,0:0:0:0:
320,192,19727,1,0,0:0:0:0:
192,192,19890,1,0,0:0:0:0:
64,192,19890,1,0,0:0:0:0:
320,192,20053,1,0,0:0:0:0:
448,192,20217,1,0,0:0:0:0:
192,192,20217,1,0,0:0:0:0:
64,192,20380,1,0,0:0:0:0:
192,192,20543,1,0,0:0:0:0:
320,192,20543,1,0,0:0:0:0:
448,192,20706,1,0,0:0:0:0:
448,192,21032,1,0,0:0:0:0:
320,192,21032,1,0,0:0:0:0:
192,192,21195,1,0,0:0:0:0:
64,192,21358,1,0,0:0:0:0:
320,192,21521,1,0,0:0:0:0:
448,192,21521,1,0,0:0:0:0:
192,192,21684,1,0,0:0:0:0:
64,192,21684,1,0,0:0:0:0:
320,192,21847,1,0,0:0:0:0:
448,192,21847,1,0,0:0:0:0:
448,192,22010,1,0,0:0:0:0:
320,192,22010,1,0,0:0:0:0:
192,192,22173,128,0,22499:0:0:0:0:
64,192,22173,1,0,0:0:0:0:
320,192,22825,1,0,0:0:0:0:
448,192,22988,1,0,0:0:0:0:
192,192,23151,1,0,0:0:0:0:
64,192,23151,1,0,0:0:0:0:
320,192,23314,1,0,0:0:0:0:
448,192,23477,1,0,0:0:0:0:
320,192,23477,1,0,0:0:0:0:
192,192,23640,1,0,0:0:0:0:
320,192,23803,1,0,0:0:0:0:
448,192,23967,1,0,0:0:0:0:
320,192,24130,1,0,0:0:0:0:
192,192,24130,1,0,0:0:0:0:
64,192,24293,1,0,0:0:0:0:
192,192,24456,1,0,0:0:0:0:
320,192,24456,1,0,0:0:0:0:
448,192,24619,1,0,0:0:0:0:
320,192,24782,128,0,25108:0:0:0:0:
192,192,24782,128,0,25108:0:0:0:0:
64,192,25108,1,0,0:0:0:0:
448,192,25271,1,0,0:0:0:0:
320,192,25434,1,0,0:0:0:0:
192,192,25434,1,0,0:0:0:0:
64,192,25597,1,0,0:0:0:0:
192,192,25760,1,0,0:0:0:0:
320,192,25923,1,0,0:0:0:0:
448,192,26086,1,0,0:0:0:0:
192,192,26086,1,0,0:0:0:0:
64,192,26249,1,0,0:0:0:0:
192,192,26412,1,0,0:0:0:0:
320,192,26412,1,0,0:0:0:0:
448,192,26575,1,0,0:0:0:0:
192,192,26738,128,0,27064:0:0:0:0:
320,192,26738,128,0,27064:0:0:0:0:
448,192,27064,128,0,27390:0:0:0:0:
64,192,27064,128,0,27390:0:0:0:0:
320,192,27390,1,0,0:0:0:0:
192,192,27390,1,0,0:0:0:0:
320,192,27553,1,0,0:0:0:0:
192,192,27553,1,0,0:0:0:0:
64,192,27717,128,0,28043:0:0:0:0:
192,192,27717,128,0,28043:0:0:0:0:
320,192,28043,1,0,0:0:0:0:
448,192,28043,1,0,0:0:0:0:
320,192,28206,1,0,0:0:0:0:
448,192,28206,1,0,0:0:0:0:
448,192,28369,1,0,0:0:0:0:
320,192,28369,1,0,0:0:0:0:
192,192,28532,1,0,0:0:0:0:
64,192,28695,1,0,0:0:0:0:
192,192,28858,1,0,0:0:0:0:
320,192,29021,1,0,0:0:0:0:
448,192,29184,1,0,0:0:0:0:
320,192,29347,1,0,0:0:0:0:
192,192,29347,1,0,0:0:0:0:
64,192,29510,1,0,0:0:0:0:
192,192,29673,1,0,0:0:0:0:
320,192,29673,1,0,0:0:0:0:
448,192,29836,1,0,0:0:0:0:
320,192,29999,1,0,0:0:0:0:
192,192,29999,1,0,0:0:0:0:
64,192,29999,1,0,0:0:0:0:
448,192,30162,1,0,0:0:0:0:
320,192,30244,1,0,0:0:0:0:
192,192,30325,1,0,0:0:0:0:
192,192,30488,1,0,0:0:0:0:
64,192,30488,1,0,0:0:0:0:
320,192,30651,1,0,0:0:0:0:
192,192,30733,1,0,0:0:0:0:
64,192,30814,1,0,0:0:0:0:
320,192,30977,1,0,0:0:0:0:
448,192,30977,1,0,0:0:0:0:
448,192,31140,1,0,0:0:0:0:
320,192,31140,1,0,0:0:0:0:
192,192,31303,1,0,0:0:0:0:
64,192,31303,1,0,0:0:0:0:
320,192,31385,1,0,0:0:0:0:
448,192,31467,1,0,0:0:0:0:
192,192,31630,1,0,0:0:0:0:
64,192,31630,1,0,0:0:0:0:
192,192,31793,1,0,0:0:0:0:
64,192,31793,1,0,0:0:0:0:
320,192,31956,1,0,0:0:0:0:
448,192,32037,1,0,0:0:0:0:
320,192,32119,1,0,0:0:0:0:
192,192,32200,1,0,0:0:0:0:
64,192,32282,1,0,0:0:0:0:
320,192,32445,1,0,0:0:0:0:
448,192,32445,1,0,0:0:0:0:
320,192,32608,1,0,0:0:0:0:
448,192,32608,1,0,0:0:0:0:
192,192,32771,1,0,0:0:0:0:
64,192,32771,1,0,0:0:0:0:
320,192,32934,1,0,0:0:0:0:
448,192,32934,1,0,0:0:0:0:
192,192,33260,1,0,0:0:0:0:
64,192,33260,1,0,0:0:0:0:
320,192,33423,1,0,0:0:0:0:
192,192,33586,1,0,0:0:0:0:
64,192,33749,1,0,0:0:0:0:
448,192,33912,1,0,0:0:0:0:
320,192,34075,1,0,0:0:0:0:
192,192,34238,1,0,0:0:0:0:
64,192,34401,1,0,0:0:0:0:
448,192,34564,1,0,0:0:0:0:
320,192,34646,1,0,0:0:0:0:
192,192,34727,1,0,0:0:0:0:
64,192,34809,1,0,0:0:0:0:
448,192,34890,1,0,0:0:0:0:
320,192,34931,1,0,0:0:0:0:
192,192,34972,1,0,0:0:0:0:
64,192,35013,1,0,0:0:0:0:
448,192,35053,1,0,0:0:0:0:
320,192,35094,1,0,0:0:0:0:
192,192,35135,1,0,0:0:0:0:
64,192,35176,1,0,0:0:0:0:
320,192,35217,1,0,0:0:0:0:
448,192,35217,1,0,0:0:0:0:
320,192,35543,1,0,0:0:0:0:
448,192,35543,1,0,0:0:0:0:
192,192,35869,1,0,0:0:0:0:
64,192,35869,1,0,0:0:0:0:
192,192,36195,1,0,0:0:0:0:
64,192,36195,1,0,0:0:0:0:
320,192,36521,1,0,0:0:0:0:
64,192,36684,1,0,0:0:0:0:
448,192,36847,1,0,0:0:0:0:
192,192,37010,1,0,0:0:0:0:
320,192,37173,1,0,0:0:0:0:
448,192,37173,1,0,0:0:0:0:
192,192,37336,1,0,0:0:0:0:
192,192,37499,1,0,0:0:0:0:
320,192,37662,1,0,0:0:0:0:
192,192,37825,1,0,0:0:0:0:
64,192,37825,1,0,0:0:0:0:
320,192,37988,1,0,0:0:0:0:
448,192,38151,1,0,0:0:0:0:
64,192,38314,1,0,0:0:0:0:
448,192,38477,1,0,0:0:0:0:
320,192,38477,1,0,0:0:0:0:
192,192,38640,1,0,0:0:0:0:
64,192,38803,1,0,0:0:0:0:
448,192,38967,1,0,0:0:0:0:
320,192,38967,1,0,0:0:0:0:
192,192,39130,1,0,0:0:0:0:
64,192,39293,1,0,0:0:0:0:
448,192,39456,1,0,0:0:0:0:
320,192,39456,1,0,0:0:0:0:
192,192,39619,1,0,0:0:0:0:
64,192,39619,1,0,0:0:0:0:
320,192,39782,1,0,0:0:0:0:
448,192,39782,1,0,0:0:0:0:
448,192,39945,1,0,0:0:0:0:
320,192,39945,1,0,0:0:0:0:
192,192,40108,1,0,0:0:0:0:
64,192,40108,1,0,0:0:0:0:
64,192,40271,1,0,0:0:0:0:
192,192,40271,1,0,0:0:0:0:
448,192,40434,1,0,0:0:0:0:
320,192,40434,1,0,0:0:0:0:
192,192,40597,1,0,0:0:0:0:
320,192,40760,1,0,0:0:0:0:
448,192,40923,1,0,0:0:0:0:
320,192,41086,1,0,0:0:0:0:
192,192,41086,1,0,0:0:0:0:
64,192,41249,1,0,0:0:0:0:
192,192,41412,1,0,0:0:0:0:
320,192,41575,1,0,0:0:0:0:
192,192,41738,128,0,42064:0:0:0:0:
64,192,41738,128,0,42064:0:0:0:0:
320,192,42064,1,0,0:0:0:0:
448,192,42064,1,0,0:0:0:0:
320,192,42227,128,0,42553:0:0:0:0:
448,192,42227,128,0,42553:0:0:0:0:
192,192,42553,1,0,0:0:0:0:
64,192,42553,1,0,0:0:0:0:
320,192,42717,1,0,0:0:0:0:
192,192,42880,1,0,0:0:0:0:
64,192,43043,1,0,0:0:0:0:
320,192,43043,1,0,0:0:0:0:
192,192,43206,1,0,0:0:0:0:
320,192,43369,1,0,0:0:0:0:
448,192,43532,1,0,0:0:0:0:
320,192,43695,1,0,0:0:0:0:
192,192,43695,1,0,0:0:0:0:
64,192,43858,1,0,0:0:0:0:
192,192,44021,1,0,0:0:0:0:
320,192,44184,1,0,0:0:0:0:
448,192,44347,1,0,0:0:0:0:
192,192,44347,1,0,0:0:0:0:
320,192,44510,1,0,0:0:0:0:
320,192,44673,1,0,0:0:0:0:
192,192,44836,1,0,0:0:0:0:
64,192,44836,1,0,0:0:0:0:
320,192,44999,1,0,0:0:0:0:
320,192,45162,1,0,0:0:0:0:
192,192,45325,128,0,45651:0:0:0:0:
64,192,45325,128,0,45651:0:0:0:0:
320,192,45651,1,0,0:0:0:0:
448,192,45651,1,0,0:0:0:0:
448,192,46140,1,0,0:0:0:0:
448,192,46303,1,0,0:0:0:0:
320,192,46467,1,0,0:0:0:0:
192,192,46630,1,0,0:0:0:0:
64,192,46793,1,0,0:0:0:0:
192,192,46956,1,0,0:0:0:0:
320,192,47119,1,0,0:0:0:0:
448,192,47282,1,0,0:0:0:0:
320,192,47445,1,0,0:0:0:0:
448,192,47608,1,0,0:0:0:0:
192,192,47608,1,0,0:0:0:0:
320,192,47771,1,0,0:0:0:0:
192,192,47934,1,0,0:0:0:0:
64,192,47934,1,0,0:0:0:0:
192,192,48097,1,0,0:0:0:0:
64,192,48097,1,0,0:0:0:0:
448,192,48260,1,0,0:0:0:0:
320,192,48260,1,0,0:0:0:0:
192,192,48423,1,0,0:0:0:0:
64,192,48586,1,0,0:0:0:0:
192,192,48749,1,0,0:0:0:0:
320,192,48912,1,0,0:0:0:0:
448,192,48912,1,0,0:0:0:0:
192,192,49075,1,0,0:0:0:0:
64,192,49238,1,0,0:0:0:0:
192,192,49401,1,0,0:0:0:0:
320,192,49564,1,0,0:0:0:0:
448,192,49564,1,0,0:0:0:0:
320,192,49727,1,0,0:0:0:0:
448,192,49727,1,0,0:0:0:0:
192,192,49890,1,0,0:0:0:0:
192,192,50053,1,0,0:0:0:0:
320,192,50217,1,0,0:0:0:0:
448,192,50217,1,0,0:0:0:0:
192,192,50380,1,0,0:0:0:0:
64,192,50380,1,0,0:0:0:0:
320,192,50543,1,0,0:0:0:0:
448,192,50543,1,0,0:0:0:0:
320,192,50706,1,0,0:0:0:0:
448,192,50706,1,0,0:0:0:0:
192,192,50869,1,0,0:0:0:0:
192,192,51032,1,0,0:0:0:0:
64,192,51195,1,0,0:0:0:0:
320,192,51195,1,0,0:0:0:0:
192,192,51358,1,0,0:0:0:0:
320,192,51521,1,0,0:0:0:0:
448,192,51521,1,0,0:0:0:0:
320,192,51684,1,0,0:0:0:0:
192,192,51847,1,0,0:0:0:0:
64,192,51847,1,0,0:0:0:0:
192,192,52010,1,0,0:0:0:0:
448,192,52173,1,0,0:0:0:0:
320,192,52336,1,0,0:0:0:0:
192,192,52499,1,0,0:0:0:0:
64,192,52662,1,0,0:0:0:0:
320,192,52825,1,0,0:0:0:0:
192,192,52988,1,0,0:0:0:0:
64,192,53151,1,0,0:0:0:0:
192,192,53233,1,0,0:0:0:0:
320,192,53314,1,0,0:0:0:0:
448,192,53396,1,0,0:0:0:0:
64,192,53477,1,0,0:0:0:0:
192,192,53477,1,0,0:0:0:0:
448,192,53640,1,0,0:0:0:0:
320,192,53640,1,0,0:0:0:0:
64,192,53967,1,0,0:0:0:0:
192,192,53967,1,0,0:0:0:0:
320,192,53967,1,0,0:0:0:0:
320,192,54456,1,0,0:0:0:0:
448,192,54456,1,0,0:0:0:0:
192,192,54619,1,0,0:0:0:0:
64,192,54782,1,0,0:0:0:0:
320,192,54945,1,0,0:0:0:0:
448,192,54945,1,0,0:0:0:0:
192,192,55108,1,0,0:0:0:0:
64,192,55271,1,0,0:0:0:0:
192,192,55434,1,0,0:0:0:0:
320,192,55434,1,0,0:0:0:0:
320,192,55597,1,0,0:0:0:0:
192,192,55597,1,0,0:0:0:0:
64,192,55760,1,0,0:0:0:0:
448,192,55760,1,0,0:0:0:0:
64,192,55923,1,0,0:0:0:0:
448,192,55923,1,0,0:0:0:0:
320,192,56086,1,0,0:0:0:0:
192,192,56086,1,0,0:0:0:0:
192,192,56412,1,0,0:0:0:0:
64,192,56412,1,0,0:0:0:0:
320,192,56738,1,0,0:0:0:0:
448,192,56738,1,0,0:0:0:0:
448,192,56901,1,0,0:0:0:0:
320,192,57064,1,0,0:0:0:0:
192,192,57227,1,0,0:0:0:0:
64,192,57390,1,0,0:0:0:0:
320,192,57553,1,0,0:0:0:0:
448,192,57553,1,0,0:0:0:0:
448,192,57717,1,0,0:0:0:0:
320,192,57717,1,0,0:0:0:0:
192,192,57880,1,0,0:0:0:0:
320,192,58043,1,0,0:0:0:0:
192,192,58206,1,0,0:0:0:0:
64,192,58206,1,0,0:0:0:0:
320,192,58369,1,0,0:0:0:0:
192,192,58532,1,0,0:0:0:0:
448,192,58532,1,0,0:0:0:0:
64,192,58695,1,0,0:0:0:0:
320,192,58695,1,0,0:0:0:0:
320,192,59021,1,0,0:0:0:0:
448,192,59021,1,0,0:0:0:0:
192,192,59347,1,0,0:0:0:0:
64,192,59347,1,0,0:0:0:0:
64,192,59510,1,0,0:0:0:0:
192,192,59673,1,0,0:0:0:0:
320,192,59836,1,0,0:0:0:0:
448,192,59999,1,0,0:0:0:0:
192,192,60162,1,0,0:0:0:0:
64,192,60162,1,0,0:0:0:0:
64,192,60325,1,0,0:0:0:0:
192,192,60325,1,0,0:0:0:0:
320,192,60488,1,0,0:0:0:0:
192,192,60651,1,0,0:0:0:0:
320,192,60814,1,0,0:0:0:0:
448,192,60814,1,0,0:0:0:0:
64,192,60977,1,0,0:0:0:0:
448,192,61059,1,0,0:0:0:0:
320,192,61140,1,0,0:0:0:0:
192,192,61222,1,0,0:0:0:0:
64,192,61303,1,0,0:0:0:0:
448,192,61303,1,0,0:0:0:0:
192,192,61630,1,0,0:0:0:0:
320,192,61630,1,0,0:0:0:0:
192,192,61956,1,0,0:0:0:0:
320,192,61956,1,0,0:0:0:0:
192,192,62119,1,0,0:0:0:0:
320,192,62282,1,0,0:0:0:0:
320,192,62445,1,0,0:0:0:0:
192,192,62608,1,0,0:0:0:0:
64,192,62608,1,0,0:0:0:0:
320,192,62771,1,0,0:0:0:0:
448,192,62934,1,0,0:0:0:0:
192,192,62934,1,0,0:0:0:0:
64,192,63097,1,0,0:0:0:0:
448,192,63260,1,0,0:0:0:0:
320,192,63423,1,0,0:0:0:0:
192,192,63586,1,0,0:0:0:0:
64,192,63749,1,0,0:0:0:0:
320,192,63912,1,0,0:0:0:0:
448,192,63912,1,0,0:0:0:0:
448,192,64075,1,0,0:0:0:0:
320,192,64075,1,0,0:0:0:0:
64,192,64238,1,0,0:0:0:0:
192,192,64238,1,0,0:0:0:0:
192,192,64401,1,0,0:0:0:0:
64,192,64401,1,0,0:0:0:0:
64,192,64564,1,0,0:0:0:0:
192,192,64564,1,0,0:0:0:0:
320,192,64890,1,0,0:0:0:0:
448,192,64890,1,0,0:0:0:0:
192,192,65053,1,0,0:0:0:0:
320,192,65053,1,0,0:0:0:0:
64,192,65380,1,0,0:0:0:0:
448,192,65380,1,0,0:0:0:0:
192,192,65543,128,0,65869:0:0:0:0:
320,192,65543,128,0,65869:0:0:0:0:
64,192,65869,1,0,0:0:0:0:
320,192,66032,1,0,0:0:0:0:
448,192,66032,1,0,0:0:0:0:
64,192,66195,1,0,0:0:0:0:
192,192,66358,1,0,0:0:0:0:
320,192,66439,1,0,0:0:0:0:
448,192,66521,1,0,0:0:0:0:
320,192,66684,1,0,0:0:0:0:
448,192,66847,1,0,0:0:0:0:
320,192,67010,1,0,0:0:0:0:
192,192,67173,1,0,0:0:0:0:
448,192,67173,1,0,0:0:0:0:
64,192,67336,1,0,0:0:0:0:
320,192,67499,1,0,0:0:0:0:
192,192,67662,1,0,0:0:0:0:
64,192,67825,1,0,0:0:0:0:
448,192,67988,1,0,0:0:0:0:
192,192,68151,1,0,0:0:0:0:
448,192,68314,1,0,0:0:0:0:
192,192,68477,1,0,0:0:0:0:
448,192,68477,1,0,0:0:0:0:
64,192,68640,1,0,0:0:0:0:
320,192,68640,1,0,0:0:0:0:
448,192,68803,1,0,0:0:0:0:
320,192,68967,1,0,0:0:0:0:
192,192,69130,1,0,0:0:0:0:
64,192,69130,1,0,0:0:0:0:
192,192,69293,1,0,0:0:0:0:
192,192,69456,1,0,0:0:0:0:
320,192,69619,1,0,0:0:0:0:
448,192,69619,1,0,0:0:0:0:
320,192,69782,1,0,0:0:0:0:
320,192,69945,1,0,0:0:0:0:
64,192,70108,128,0,70434:0:0:0:0:
192,192,70108,128,0,70434:0:0:0:0:
320,192,70434,1,0,0:0:0:0:
192,192,70597,1,0,0:0:0:0:
64,192,70760,1,0,0:0:0:0:
192,192,70923,1,0,0:0:0:0:
320,192,71086,1,0,0:0:0:0:
448,192,71086,1,0,0:0:0:0:
192,192,71249,1,0,0:0:0:0:
64,192,71249,1,0,0:0:0:0:
320,192,71412,1,0,0:0:0:0:
192,192,71575,1,0,0:0:0:0:
64,192,71657,1,0,0:0:0:0:
320,192,71738,1,0,0:0:0:0:
448,192,71738,1,0,0:0:0:0:
320,192,71901,1,0,0:0:0:0:
192,192,72064,1,0,0:0:0:0:
64,192,72064,1,0,0:0:0:0:
320,192,72227,1,0,0:0:0:0:
448,192,72390,1,0,0:0:0:0:
320,192,72553,1,0,0:0:0:0:
64,192,72717,1,0,0:0:0:0:
448,192,72880,1,0,0:0:0:0:
192,192,73043,1,0,0:0:0:0:
64,192,73043,1,0,0:0:0:0:
320,192,73206,1,0,0:0:0:0:
448,192,73369,1,0,0:0:0:0:
192,192,73532,1,0,0:0:0:0:
448,192,73695,1,0,0:0:0:0:
64,192,73858,1,0,0:0:0:0:
320,192,74021,1,0,0:0:0:0:
64,192,74184,1,0,0:0:0:0:
320,192,74347,1,0,0:0:0:0:
448,192,74347,1,0,0:0:0:0:
320,192,74510,1,0,0:0:0:0:
448,192,74510,1,0,0:0:0:0:
320,192,74673,1,0,0:0:0:0:
448,192,74673,1,0,0:0:0:0:
320,192,74999,1,0,0:0:0:0:
192,192,74999,1,0,0:0:0:0:
64,192,74999,1,0,0:0:0:0:
448,192,75162,1,0,0:0:0:0:
320,192,75325,1,0,0:0:0:0:
192,192,75488,1,0,0:0:0:0:
64,192,75488,1,0,0:0:0:0:
320,192,75814,1,0,0:0:0:0:
448,192,75814,1,0,0:0:0:0:
448,192,76140,1,0,0:0:0:0:
320,192,76222,1,0,0:0:0:0:
64,192,76303,1,0,0:0:0:0:
192,192,76385,1,0,0:0:0:0:
448,192,76467,1,0,0:0:0:0:
320,192,76548,1,0,0:0:0:0:
64,192,76630,1,0,0:0:0:0:
192,192,76711,1,0,0:0:0:0:
448,192,76793,1,0,0:0:0:0:
320,192,76874,1,0,0:0:0:0:
192,192,76956,128,0,77445:0:0:0:0:
64,192,76956,128,0,77445:0:0:0:0:
320,192,77445,1,0,0:0:0:0:
448,192,77445,1,0,0:0:0:0:
64,192,77934,128,0,78586:0:0:0:0:
192,192,77934,128,0,78586:0:0:0:0:
64,192,78912,1,0,0:0:0:0:
192,192,78994,1,0,0:0:0:0:
320,192,79075,1,0,0:0:0:0:
448,192,79157,1,0,0:0:0:0:
64,192,79238,1,0,0:0:0:0:
192,192,79279,1,0,0:0:0:0:
320,192,79320,1,0,0:0:0:0:
448,192,79361,1,0,0:0:0:0:
64,192,79401,1,0,0:0:0:0:
192,192,79442,1,0,0:0:0:0:
320,192,79483,1,0,0:0:0:0:
448,192,79524,1,0,0:0:0:0:
192,192,79564,128,0,79890:0:0:0:0:
64,192,79564,128,0,79890:0:0:0:0:
320,192,79890,1,0,0:0:0:0:
448,192,79890,1,0,0:0:0:0:
448,192,80217,1,0,0:0:0:0:
320,192,80217,1,0,0:0:0:0:
64,192,80380,1,0,0:0:0:0:
192,192,80543,1,0,0:0:0:0:
320,192,80706,1,0,0:0:0:0:
448,192,80869,1,0,0:0:0:0:
192,192,80869,1,0,0:0:0:0:
320,192,81032,1,0,0:0:0:0:
320,192,81195,1,0,0:0:0:0:
192,192,81358,1,0,0:0:0:0:
320,192,81521,1,0,0:0:0:0:
448,192,81521,1,0,0:0:0:0:
192,192,81684,1,0,0:0:0:0:
320,192,81847,1,0,0:0:0:0:
448,192,81847,1,0,0:0:0:0:
192,192,82010,1,0,0:0:0:0:
320,192,82173,1,0,0:0:0:0:
64,192,82173,1,0,0:0:0:0:
192,192,82336,1,0,0:0:0:0:
320,192,82499,1,0,0:0:0:0:
448,192,82662,1,0,0:0:0:0:
320,192,82825,1,0,0:0:0:0:
448,192,82825,1,0,0:0:0:0:
192,192,82988,1,0,0:0:0:0:
64,192,83151,1,0,0:0:0:0:
448,192,83314,1,0,0:0:0:0:
320,192,83314,1,0,0:0:0:0:
192,192,83477,1,0,0:0:0:0:
64,192,83640,1,0,0:0:0:0:
320,192,83803,1,0,0:0:0:0:
448,192,83803,1,0,0:0:0:0:
192,192,83967,1,0,0:0:0:0:
64,192,84130,1,0,0:0:0:0:
320,192,84130,1,0,0:0:0:0:
192,192,84293,1,0,0:0:0:0:
320,192,84456,1,0,0:0:0:0:
64,192,84456,1,0,0:0:0:0:
192,192,84619,1,0,0:0:0:0:
320,192,84782,1,0,0:0:0:0:
448,192,84782,1,0,0:0:0:0:
192,192,84945,1,0,0:0:0:0:
448,192,85108,1,0,0:0:0:0:
192,192,85271,1,0,0:0:0:0:
64,192,85434,1,0,0:0:0:0:
320,192,85597,1,0,0:0:0:0:
448,192,85760,1,0,0:0:0:0:
64,192,85923,1,0,0:0:0:0:
192,192,85923,1,0,0:0:0:0:
320,192,86086,1,0,0:0:0:0:
448,192,86249,1,0,0:0:0:0:
192,192,86412,1,0,0:0:0:0:
64,192,86412,1,0,0:0:0:0:
320,192,86575,1,0,0:0:0:0:
448,192,86575,1,0,0:0:0:0:
192,192,86738,1,0,0:0:0:0:
64,192,86738,1,0,0:0:0:0:
320,192,86901,1,0,0:0:0:0:
448,192,86901,1,0,0:0:0:0:
192,192,87064,1,0,0:0:0:0:
64,192,87064,1,0,0:0:0:0:
64,192,87227,1,0,0:0:0:0:
192,192,87227,1,0,0:0:0:0:
320,192,87390,1,0,0:0:0:0:
448,192,87390,1,0,0:0:0:0:
192,192,87553,1,0,0:0:0:0:
64,192,87717,1,0,0:0:0:0:
192,192,87880,1,0,0:0:0:0:
320,192,88043,1,0,0:0:0:0:
448,192,88043,1,0,0:0:0:0:
192,192,88206,1,0,0:0:0:0:
320,192,88369,1,0,0:0:0:0:
448,192,88369,1,0,0:0:0:0:
64,192,88532,1,0,0:0:0:0:
192,192,88695,1,0,0:0:0:0:
448,192,88858,1,0,0:0:0:0:
320,192,88858,1,0,0:0:0:0:
192,192,89021,1,0,0:0:0:0:
64,192,89184,1,0,0:0:0:0:
192,192,89347,1,0,0:0:0:0:
448,192,89347,1,0,0:0:0:0:
320,192,89510,1,0,0:0:0:0:
64,192,89510,1,0,0:0:0:0:
448,192,89673,1,0,0:0:0:0:
192,192,89673,1,0,0:0:0:0:
64,192,89836,1,0,0:0:0:0:
320,192,89836,1,0,0:0:0:0:
192,192,89999,1,0,0:0:0:0:
64,192,89999,1,0,0:0:0:0:
320,192,90162,1,0,0:0:0:0:
192,192,90325,1,0,0:0:0:0:
64,192,90488,1,0,0:0:0:0:
192,192,90651,1,0,0:0:0:0:
320,192,90651,1,0,0:0:0:0:
448,192,90814,1,0,0:0:0:0:
320,192,90977,1,0,0:0:0:0:
192,192,91140,1,0,0:0:0:0:
64,192,91140,1,0,0:0:0:0:
320,192,91303,1,0,0:0:0:0:
448,192,91467,1,0,0:0:0:0:
64,192,91630,1,0,0:0:0:0:
192,192,91630,1,0,0:0:0:0:
320,192,91793,1,0,0:0:0:0:
448,192,91793,1,0,0:0:0:0:
192,192,91956,1,0,0:0:0:0:
320,192,92119,1,0,0:0:0:0:
192,192,92282,1,0,0:0:0:0:
320,192,92445,1,0,0:0:0:0:
192,192,92608,1,0,0:0:0:0:
64,192,92608,1,0,0:0:0:0:
320,192,92771,1,0,0:0:0:0:
192,192,92934,1,0,0:0:0:0:
64,192,93097,1,0,0:0:0:0:
448,192,93260,1,0,0:0:0:0:
320,192,93260,1,0,0:0:0:0:
192,192,93423,1,0,0:0:0:0:
64,192,93423,1,0,0:0:0:0:
64,192,93749,1,0,0:0:0:0:
320,192,93912,1,0,0:0:0:0:
448,192,93912,1,0,0:0:0:0:
192,192,94075,1,0,0:0:0:0:
320,192,94238,1,0,0:0:0:0:
64,192,94401,1,0,0:0:0:0:
192,192,94401,1,0,0:0:0:0:
320,192,94564,1,0,0:0:0:0:
448,192,94564,1,0,0:0:0:0:
192,192,94727,1,0,0:0:0:0:
64,192,94727,1,0,0:0:0:0:
320,192,94890,1,0,0:0:0:0:
448,192,94890,1,0,0:0:0:0:
192,192,95053,1,0,0:0:0:0:
64,192,95053,1,0,0:0:0:0:
448,192,95217,1,0,0:0:0:0:
320,192,95380,1,0,0:0:0:0:
192,192,95543,1,0,0:0:0:0:
64,192,95706,1,0,0:0:0:0:
320,192,95869,1,0,0:0:0:0:
448,192,95869,1,0,0:0:0:0:
192,192,96032,1,0,0:0:0:0:
320,192,96195,1,0,0:0:0:0:
64,192,96195,1,0,0:0:0:0:
448,192,96358,1,0,0:0:0:0:
64,192,96521,1,0,0:0:0:0:
192,192,96684,1,0,0:0:0:0:
320,192,96847,1,0,0:0:0:0:
448,192,97010,1,0,0:0:0:0:
64,192,97173,1,0,0:0:0:0:
192,192,97173,1,0,0:0:0:0:
320,192,97336,1,0,0:0:0:0:
448,192,97336,1,0,0:0:0:0:
192,192,97499,1,0,0:0:0:0:
64,192,97499,1,0,0:0:0:0:
320,192,97662,1,0,0:0:0:0:
448,192,97662,1,0,0:0:0:0:
192,192,97825,1,0,0:0:0:0:
64,192,97825,1,0,0:0:0:0:
192,192,97988,1,0,0:0:0:0:
64,192,97988,1,0,0:0:0:0:
320,192,98314,1,0,0:0:0:0:
448,192,98314,1,0,0:0:0:0:
448,192,98477,1,0,0:0:0:0:
320,192,98477,1,0,0:0:0:0:
192,192,98803,1,0,0:0:0:0:
320,192,98803,1,0,0:0:0:0:
64,192,98803,1,0,0:0:0:0:
192,192,98967,1,0,0:0:0:0:
320,192,98967,1,0,0:0:0:0:
64,192,98967,1,0,0:0:0:0:
448,192,99293,1,0,0:0:0:0:
320,192,99293,1,0,0:0:0:0:
192,192,99374,1,0,0:0:0:0:
64,192,99456,1,0,0:0:0:0:
448,192,99619,1,0,0:0:0:0:
320,192,99619,1,0,0:0:0:0:
320,192,99782,1,0,0:0:0:0:
448,192,99782,1,0,0:0:0:0:
192,192,99945,1,0,0:0:0:0:
64,192,99945,1,0,0:0:0:0:
320,192,100108,1,0,0:0:0:0:
448,192,100108,1,0,0:0:0:0:
64,192,100271,1,0,0:0:0:0:
192,192,100434,128,0,100760:0:0:0:0:
320,192,100434,128,0,100760:0:0:0:0:
448,192,100434,128,0,100760:0:0:0:0:
64,192,100760,1,0,0:0:0:0:
192,192,100923,1,0,0:0:0:0:
320,192,101086,1,0,0:0:0:0:
448,192,101086,1,0,0:0:0:0:
192,192,101249,1,0,0:0:0:0:
64,192,101412,1,0,0:0:0:0:
320,192,101575,1,0,0:0:0:0:
64,192,101738,1,0,0:0:0:0:
192,192,101738,1,0,0:0:0:0:
320,192,101901,1,0,0:0:0:0:
64,192,102064,1,0,0:0:0:0:
448,192,102227,1,0,0:0:0:0:
320,192,102390,1,0,0:0:0:0:
192,192,102390,1,0,0:0:0:0:
64,192,102553,1,0,0:0:0:0:
320,192,102717,1,0,0:0:0:0:
64,192,102880,1,0,0:0:0:0:
320,192,103043,1,0,0:0:0:0:
448,192,103043,1,0,0:0:0:0:
320,192,103206,1,0,0:0:0:0:
448,192,103206,1,0,0:0:0:0:
192,192,103369,1,0,0:0:0:0:
64,192,103532,1,0,0:0:0:0:
320,192,103695,1,0,0:0:0:0:
192,192,103695,1,0,0:0:0:0:
448,192,103858,1,0,0:0:0:0:
192,192,104021,1,0,0:0:0:0:
320,192,104184,1,0,0:0:0:0:
192,192,104347,1,0,0:0:0:0:
448,192,104510,1,0,0:0:0:0:
64,192,104673,1,0,0:0:0:0:
448,192,104836,1,0,0:0:0:0:
448,192,104999,1,0,0:0:0:0:
64,192,104999,1,0,0:0:0:0:
320,192,105162,1,0,0:0:0:0:
192,192,105162,1,0,0:0:0:0:
64,192,105325,1,0,0:0:0:0:
192,192,105488,1,0,0:0:0:0:
320,192,105651,1,0,0:0:0:0:
448,192,105651,1,0,0:0:0:0:
192,192,105814,1,0,0:0:0:0:
64,192,105977,1,0,0:0:0:0:
320,192,106140,1,0,0:0:0:0:
64,192,106303,1,0,0:0:0:0:
192,192,106303,1,0,0:0:0:0:
320,192,106467,1,0,0:0:0:0:
448,192,106630,1,0,0:0:0:0:
192,192,106793,1,0,0:0:0:0:
320,192,106956,1,0,0:0:0:0:
448,192,106956,1,0,0:0:0:0:
192,192,107119,1,0,0:0:0:0:
64,192,107282,1,0,0:0:0:0:
320,192,107282,1,0,0:0:0:0:
448,192,107445,1,0,0:0:0:0:
192,192,107608,1,0,0:0:0:0:
64,192,107608,1,0,0:0:0:0:
192,192,107771,1,0,0:0:0:0:
320,192,107934,1,0,0:0:0:0:
64,192,107934,1,0,0:0:0:0:
64,192,108097,1,0,0:0:0:0:
320,192,108097,1,0,0:0:0:0:
448,192,108260,1,0,0:0:0:0:
192,192,108260,1,0,0:0:0:0:
320,192,108423,1,0,0:0:0:0:
192,192,108586,1,0,0:0:0:0:
64,192,108749,1,0,0:0:0:0:
192,192,108912,1,0,0:0:0:0:
320,192,108912,1,0,0:0:0:0:
64,192,109075,1,0,0:0:0:0:
448,192,109238,1,0,0:0:0:0:
192,192,109401,1,0,0:0:0:0:
320,192,109401,1,0,0:0:0:0:
64,192,109564,1,0,0:0:0:0:
320,192,109727,1,0,0:0:0:0:
64,192,109890,1,0,0:0:0:0:
192,192,109890,1,0,0:0:0:0:
320,192,110053,1,0,0:0:0:0:
192,192,110217,1,0,0:0:0:0:
64,192,110217,1,0,0:0:0:0:
192,192,110380,1,0,0:0:0:0:
64,192,110380,1,0,0:0:0:0:
448,192,110543,1,0,0:0:0:0:
320,192,110706,1,0,0:0:0:0:
192,192,110869,1,0,0:0:0:0:
64,192,110869,1,0,0:0:0:0:
320,192,111032,1,0,0:0:0:0:
64,192,111195,1,0,0:0:0:0:
448,192,111358,1,0,0:0:0:0:
192,192,111521,1,0,0:0:0:0:
64,192,111521,1,0,0:0:0:0:
320,192,111684,1,0,0:0:0:0:
192,192,111847,1,0,0:0:0:0:
320,192,112010,1,0,0:0:0:0:
448,192,112010,1,0,0:0:0:0:
192,192,112173,1,0,0:0:0:0:
64,192,112336,1,0,0:0:0:0:
320,192,112499,1,0,0:0:0:0:
64,192,112662,1,0,0:0:0:0:
320,192,112825,1,0,0:0:0:0:
448,192,112988,1,0,0:0:0:0:
192,192,113151,1,0,0:0:0:0:
64,192,113314,1,0,0:0:0:0:
320,192,113477,1,0,0:0:0:0:
448,192,113477,1,0,0:0:0:0:
320,192,113640,1,0,0:0:0:0:
192,192,113803,1,0,0:0:0:0:
64,192,113803,1,0,0:0:0:0:
192,192,113967,1,0,0:0:0:0:
448,192,114130,1,0,0:0:0:0:
320,192,114130,1,0,0:0:0:0:
192,192,114293,1,0,0:0:0:0:
64,192,114456,1,0,0:0:0:0:
448,192,114619,128,0,114945:0:0:0:0:
320,192,114619,128,0,114945:0:0:0:0:
192,192,114945,1,0,0:0:0:0:
64,192,114945,1,0,0:0:0:0:
320,192,115108,1,0,0:0:0:0:
448,192,115271,1,0,0:0:0:0:
192,192,115434,1,0,0:0:0:0:
64,192,115434,1,0,0:0:0:0:
320,192,115597,1,0,0:0:0:0:
448,192,115760,1,0,0:0:0:0:
320,192,115923,1,0,0:0:0:0:
192,192,116086,1,0,0:0:0:0:
64,192,116086,1,0,0:0:0:0:
320,192,116249,1,0,0:0:0:0:
64,192,116412,1,0,0:0:0:0:
320,192,116575,1,0,0:0:0:0:
448,192,116738,1,0,0:0:0:0:
192,192,116738,1,0,0:0:0:0:
320,192,116901,1,0,0:0:0:0:
192,192,117064,1,0,0:0:0:0:
64,192,117064,1,0,0:0:0:0:
320,192,117227,1,0,0:0:0:0:
64,192,117390,1,0,0:0:0:0:
192,192,117390,1,0,0:0:0:0:
320,192,117553,1,0,0:0:0:0:
448,192,117717,1,0,0:0:0:0:
64,192,117880,1,0,0:0:0:0:
192,192,118043,1,0,0:0:0:0:
320,192,118043,1,0,0:0:0:0:
448,192,118206,1,0,0:0:0:0:
64,192,118369,1,0,0:0:0:0:
192,192,118532,1,0,0:0:0:0:
320,192,118695,1,0,0:0:0:0:
448,192,118695,1,0,0:0:0:0:
320,192,118858,1,0,0:0:0:0:
448,192,118858,1,0,0:0:0:0:
192,192,119021,1,0,0:0:0:0:
320,192,119184,1,0,0:0:0:0:
448,192,119347,1,0,0:0:0:0:
64,192,119347,1,0,0:0:0:0:
192,192,119510,1,0,0:0:0:0:
320,192,119673,1,0,0:0:0:0:
448,192,119836,1,0,0:0:0:0:
64,192,119999,1,0,0:0:0:0:
192,192,119999,1,0,0:0:0:0:
320,192,120162,1,0,0:0:0:0:
448,192,120162,1,0,0:0:0:0:
192,192,120244,1,0,0:0:0:0:
64,192,120325,1,0,0:0:0:0:
320,192,120488,1,0,0:0:0:0:
448,192,120488,1,0,0:0:0:0:
64,192,120651,1,0,0:0:0:0:
192,192,120733,1,0,0:0:0:0:
448,192,120814,1,0,0:0:0:0:
320,192,120896,1,0,0:0:0:0:
64,192,120977,1,0,0:0:0:0:
192,192,121018,1,0,0:0:0:0:
320,192,121059,1,0,0:0:0:0:
448,192,121100,1,0,0:0:0:0:
64,192,121140,1,0,0:0:0:0:
192,192,121181,1,0,0:0:0:0:
320,192,121222,1,0,0:0:0:0:
448,192,121263,1,0,0:0:0:0:
192,192,121303,128,0,121630:0:0:0:0:
64,192,121303,128,0,121630:0:0:0:0:
320,192,121956,1,0,0:0:0:0:
448,192,122119,1,0,0:0:0:0:
192,192,122282,1,0,0:0:0:0:
64,192,122445,1,0,0:0:0:0:
320,192,122608,1,0,0:0:0:0:
448,192,122608,1,0,0:0:0:0:
320,192,122771,1,0,0:0:0:0:
192,192,122934,1,0,0:0:0:0:
64,192,122934,1,0,0:0:0:0:
192,192,123097,1,0,0:0:0:0:
320,192,123260,1,0,0:0:0:0:
448,192,123260,1,0,0:0:0:0:
192,192,123423,1,0,0:0:0:0:
320,192,123586,1,0,0:0:0:0:
448,192,123749,1,0,0:0:0:0:
192,192,123912,1,0,0:0:0:0:
64,192,123912,1,0,0:0:0:0:
192,192,124238,1,0,0:0:0:0:
64,192,124238,1,0,0:0:0:0:
320,192,124401,1,0,0:0:0:0:
192,192,124564,1,0,0:0:0:0:
64,192,124564,1,0,0:0:0:0:
320,192,124727,1,0,0:0:0:0:
448,192,124890,1,0,0:0:0:0:
192,192,125053,1,0,0:0:0:0:
64,192,125217,1,0,0:0:0:0:
320,192,125217,1,0,0:0:0:0:
448,192,125380,1,0,0:0:0:0:
192,192,125543,1,0,0:0:0:0:
448,192,125706,1,0,0:0:0:0:
64,192,125869,1,0,0:0:0:0:
192,192,125869,1,0,0:0:0:0:
320,192,126032,1,0,0:0:0:0:
448,192,126195,1,0,0:0:0:0:
192,192,126358,1,0,0:0:0:0:
64,192,126521,1,0,0:0:0:0:
448,192,126521,1,0,0:0:0:0:
320,192,126847,1,0,0:0:0:0:
192,192,126847,1,0,0:0:0:0:
64,192,127010,1,0,0:0:0:0:
192,192,127173,1,0,0:0:0:0:
448,192,127336,1,0,0:0:0:0:
192,192,127499,1,0,0:0:0:0:
64,192,127662,1,0,0:0:0:0:
192,192,127825,1,0,0:0:0:0:
320,192,127825,1,0,0:0:0:0:
448,192,127988,1,0,0:0:0:0:
320,192,128151,1,0,0:0:0:0:
192,192,128151,1,0,0:0:0:0:
64,192,128314,1,0,0:0:0:0:
320,192,128477,1,0,0:0:0:0:
448,192,128477,1,0,0:0:0:0:
320,192,128640,1,0,0:0:0:0:
448,192,128640,1,0,0:0:0:0:
192,192,128803,1,0,0:0:0:0:
64,192,128967,1,0,0:0:0:0:
320,192,129130,1,0,0:0:0:0:
448,192,129130,1,0,0:0:0:0:
192,192,129293,1,0,0:0:0:0:
64,192,129456,1,0,0:0:0:0:
320,192,129456,1,0,0:0:0:0:
192,192,129619,1,0,0:0:0:0:
320,192,129782,1,0,0:0:0:0:
448,192,129782,1,0,0:0:0:0:
192,192,129945,1,0,0:0:0:0:
64,192,130108,1,0,0:0:0:0:
320,192,130108,1,0,0:0:0:0:
192,192,130271,1,0,0:0:0:0:
448,192,130434,1,0,0:0:0:0:
320,192,130434,1,0,0:0:0:0:
192,192,130597,1,0,0:0:0:0:
64,192,130760,1,0,0:0:0:0:
192,192,130923,1,0,0:0:0:0:
320,192,131086,1,0,0:0:0:0:
448,192,131086,1,0,0:0:0:0:
192,192,131249,1,0,0:0:0:0:
64,192,131412,1,0,0:0:0:0:
320,192,131412,1,0,0:0:0:0:
448,192,131575,1,0,0:0:0:0:
192,192,131738,1,0,0:0:0:0:
64,192,131738,1,0,0:0:0:0:
320,192,131738,1,0,0:0:0:0:
448,192,131901,1,0,0:0:0:0:
192,192,132064,1,0,0:0:0:0:
64,192,132064,1,0,0:0:0:0:
192,192,132227,1,0,0:0:0:0:
320,192,132390,1,0,0:0:0:0:
448,192,132390,1,0,0:0:0:0:
320,192,132553,1,0,0:0:0:0:
192,192,132717,1,0,0:0:0:0:
64,192,132880,1,0,0:0:0:0:
320,192,133043,1,0,0:0:0:0:
448,192,133043,1,0,0:0:0:0:
192,192,133206,1,0,0:0:0:0:
64,192,133369,1,0,0:0:0:0:
320,192,133369,1,0,0:0:0:0:
448,192,133532,1,0,0:0:0:0:
320,192,133695,1,0,0:0:0:0:
192,192,133695,1,0,0:0:0:0:
64,192,133858,1,0,0:0:0:0:
192,192,134021,1,0,0:0:0:0:
320,192,134184,1,0,0:0:0:0:
448,192,134347,1,0,0:0:0:0:
64,192,134347,1,0,0:0:0:0:
64,192,134673,1,0,0:0:0:0:
448,192,134673,1,0,0:0:0:0:
320,192,134836,1,0,0:0:0:0:
192,192,134918,1,0,0:0:0:0:
64,192,134999,1,0,0:0:0:0:
448,192,135162,1,0,0:0:0:0:
320,192,135244,1,0,0:0:0:0:
192,192,135325,1,0,0:0:0:0:
192,192,135488,1,0,0:0:0:0:
64,192,135488,1,0,0:0:0:0:
448,192,135651,1,0,0:0:0:0:
320,192,135733,1,0,0:0:0:0:
64,192,135814,1,0,0:0:0:0:
192,192,135896,1,0,0:0:0:0:
448,192,135977,1,0,0:0:0:0:
320,192,136059,1,0,0:0:0:0:
64,192,136140,1,0,0:0:0:0:
192,192,136222,1,0,0:0:0:0:
448,192,136303,1,0,0:0:0:0:
320,192,136385,1,0,0:0:0:0:
192,192,136467,1,0,0:0:0:0:
64,192,136548,1,0,0:0:0:0:
448,192,136630,1,0,0:0:0:0:
320,192,136670,1,0,0:0:0:0:
192,192,136711,1,0,0:0:0:0:
64,192,136752,1,0,0:0:0:0:
448,192,136793,1,0,0:0:0:0:
320,192,136833,1,0,0:0:0:0:
192,192,136874,1,0,0:0:0:0:
64,192,136915,1,0,0:0:0:0:
320,192,136956,1,0,0:0:0:0:
448,192,136956,1,0,0:0:0:0:
192,192,137119,1,0,0:0:0:0:
64,192,137282,1,0,0:0:0:0:
192,192,137445,1,0,0:0:0:0:
320,192,137608,1,0,0:0:0:0:
448,192,137608,1,0,0:0:0:0:
192,192,137771,1,0,0:0:0:0:
64,192,137934,1,0,0:0:0:0:
320,192,138097,1,0,0:0:0:0:
64,192,138260,1,0,0:0:0:0:
192,192,138260,1,0,0:0:0:0:
320,192,138423,1,0,0:0:0:0:
64,192,138586,1,0,0:0:0:0:
320,192,138749,1,0,0:0:0:0:
192,192,138912,1,0,0:0:0:0:
64,192,138912,1,0,0:0:0:0:
448,192,139075,1,0,0:0:0:0:
192,192,139238,1,0,0:0:0:0:
320,192,139401,1,0,0:0:0:0:
64,192,139564,1,0,0:0:0:0:
448,192,139564,1,0,0:0:0:0:
64,192,139727,1,0,0:0:0:0:
448,192,139727,1,0,0:0:0:0:
320,192,139890,1,0,0:0:0:0:
192,192,139890,1,0,0:0:0:0:
192,192,140053,1,0,0:0:0:0:
320,192,140053,1,0,0:0:0:0:
64,192,140217,1,0,0:0:0:0:
448,192,140217,1,0,0:0:0:0:
64,192,140380,1,0,0:0:0:0:
448,192,140380,1,0,0:0:0:0:
192,192,140543,1,0,0:0:0:0:
320,192,140543,1,0,0:0:0:0:
192,192,140706,1,0,0:0:0:0:
320,192,140706,1,0,0:0:0:0:
320,192,141032,1,0,0:0:0:0:
192,192,141113,1,0,0:0:0:0:
64,192,141195,1,0,0:0:0:0:
320,192,141358,1,0,0:0:0:0:
448,192,141358,1,0,0:0:0:0:
448,192,141521,1,0,0:0:0:0:
320,192,141521,1,0,0:0:0:0:
64,192,141684,1,0,0:0:0:0:
192,192,141765,1,0,0:0:0:0:
320,192,141847,1,0,0:0:0:0:
448,192,141928,1,0,0:0:0:0:
64,192,142010,1,0,0:0:0:0:
192,192,142092,1,0,0:0:0:0:
320,192,142173,1,0,0:0:0:0:
448,192,142173,1,0,0:0:0:0:
320,192,142499,1,0,0:0:0:0:
448,192,142499,1,0,0:0:0:0:
192,192,142825,1,0,0:0:0:0:
320,192,142988,1,0,0:0:0:0:
448,192,143151,1,0,0:0:0:0:
64,192,143314,1,0,0:0:0:0:
192,192,143314,1,0,0:0:0:0:
320,192,143477,1,0,0:0:0:0:
448,192,143640,1,0,0:0:0:0:
192,192,143803,1,0,0:0:0:0:
320,192,143967,1,0,0:0:0:0:
64,192,144130,1,0,0:0:0:0:
320,192,144293,1,0,0:0:0:0:
192,192,144456,1,0,0:0:0:0:
64,192,144619,1,0,0:0:0:0:
320,192,144619,1,0,0:0:0:0:
448,192,144782,1,0,0:0:0:0:
320,192,144945,1,0,0:0:0:0:
192,192,145108,1,0,0:0:0:0:
64,192,145108,1,0,0:0:0:0:
320,192,145271,1,0,0:0:0:0:
448,192,145434,1,0,0:0:0:0:
192,192,145597,1,0,0:0:0:0:
64,192,145597,1,0,0:0:0:0:
320,192,145760,1,0,0:0:0:0:
448,192,145923,1,0,0:0:0:0:
192,192,146086,1,0,0:0:0:0:
64,192,146086,1,0,0:0:0:0:
320,192,146249,1,0,0:0:0:0:
448,192,146412,1,0,0:0:0:0:
192,192,146575,1,0,0:0:0:0:
64,192,146738,1,0,0:0:0:0:
64,192,146901,1,0,0:0:0:0:
64,192,147064,1,0,0:0:0:0:
64,192,147227,1,0,0:0:0:0:
