osu file format v14

[General]
AudioFilename: timeless.mp3
AudioLeadIn: 0
PreviewTime: 79283
Countdown: 0
SampleSet: Soft
StackLeniency: 0.7
Mode: 0
LetterboxInBreaks: 0
WidescreenStoryboard: 1

[Editor]
DistanceSpacing: 1
BeatDivisor: 4
GridSize: 4
TimelineZoom: 1.1

[Metadata]
Title:Timeless time
TitleUnicode:Timeless time
Artist:Kawada Mami
ArtistUnicode:川田まみ
Creator:Gaia
Version:Normal
Source:七つのふしぎの終わるとき
Tags:Akitoshi Corinn -Laura- Nanatsu no Fushigi no Owaru Toki eroge opening op Seven Clocks Tricks Nanatoki J-pop Best Birth visual novel etude 中沢伴行 Tomoyuki Nakazawa 井内 舞子 Maiko Iuchi
BeatmapID:2162630
BeatmapSetID:382700

[Difficulty]
HPDrainRate:4
CircleSize:3.5
OverallDifficulty:4
ApproachRate:5.5
SliderMultiplier:1.8
SliderTickRate:1

[Events]
//Background and Video events
0,0,"slep.jpg",0,0
//Break Periods
2,215217,232152
//Storyboard Layer 0 (Background)
//Storyboard Layer 1 (Fail)
//Storyboard Layer 2 (Pass)
//Storyboard Layer 3 (Foreground)
//Storyboard Layer 4 (Overlay)
//Storyboard Sound Samples

[TimingPoints]
1104,652.173913043478,4,2,1,40,1,0
10071,-100,4,2,1,60,0,0
11538,-100,4,2,1,70,0,0
32408,-100,4,2,1,40,0,0
35017,-100,4,2,1,50,0,0
43169,-100,4,2,1,30,0,0
43332,-100,4,2,1,50,0,0
43658,-100,4,2,1,30,0,0
43821,-100,4,2,1,50,0,0
43984,-100,4,2,1,30,0,0
44310,-100,4,2,1,50,0,0
44473,-100,4,2,1,30,0,0
44799,-100,4,2,1,50,0,0
45125,-100,4,2,1,30,0,0
45451,-100,4,2,1,50,0,0
55886,-100,4,2,1,60,0,0
58169,-100,4,2,1,30,0,0
58495,-100,4,2,1,60,0,0
63386,-100,4,2,1,30,0,0
63712,-100,4,2,1,60,0,0
68603,-100,4,2,1,30,0,0
68930,-100,4,2,1,60,0,0
78712,-100,4,2,1,30,0,0
79364,-100,4,2,1,70,0,0
121103,-100,4,2,1,60,0,0
126321,-100,4,2,1,50,0,0
134962,-100,4,2,1,30,0,0
135125,-100,4,2,1,50,0,0
135288,-100,4,2,1,30,0,0
135614,-100,4,2,1,50,0,0
136429,-100,4,2,1,30,0,0
136755,-100,4,2,1,50,0,0
147190,-100,4,2,1,60,0,0
149473,-100,4,2,1,30,0,0
149799,-100,4,2,1,60,0,0
154690,-100,4,2,1,30,0,0
155016,-100,4,2,1,60,0,0
159907,-100,4,2,1,30,0,0
160234,-100,4,2,1,60,0,0
169201,-100,4,2,1,40,0,0
169690,-100,4,2,1,30,0,0
170668,-100,4,2,1,70,0,0
212407,-100,4,2,1,60,0,0
215017,-100,4,2,1,40,0,0
233277,-100,4,2,1,60,0,0
234582,-100,4,2,1,40,0,0
234908,-100,4,2,1,50,0,0
235234,-100,4,2,1,70,0,0
256756,-100,4,2,1,60,0,0
277625,-100,4,2,1,40,0,0
280071,-100,4,2,1,20,0,0
282843,-100,4,2,1,5,0,0

[Colours]
Combo1 : 121,170,251
Combo2 : 149,234,255
Combo3 : 17,95,255
Combo4 : 96,244,170

[HitObjects]
125,332,1104,6,0,P|92:328|72:320,2,45,2|2|2,0:0|0:0|0:0,0:0:0:0:
113,242,1756,2,0,P|90:195|96:144,1,90,8|2,0:0|0:0,0:0:0:0:
92,113,2245,2,0,L|212:143,1,90,2|2,0:0|0:0,0:0:0:0:
212,165,2734,1,2,0:0:0:0:
297,138,3060,1,10,0:0:0:0:
281,49,3386,1,2,0:0:0:0:
362,10,3712,6,0,P|387:16|418:21,2,45,2|2|2,0:0|0:0|0:0,0:0:0:0:
281,49,4364,2,0,P|236:47|199:17,1,90,8|2,0:0|0:0,0:0:0:0:
157,11,4853,2,0,L|173:116,1,90,2|2,0:0|0:0,0:0:0:0:
179,144,5343,1,2,0:0:0:0:
103,193,5669,1,10,0:0:0:0:
34,134,5995,1,2,0:0:0:0:
73,52,6321,6,0,L|127:32,2,45,2|2|2,0:0|0:0|0:0,0:0:0:0:
34,134,6973,2,0,P|29:178|26:254,1,90,8|2,0:0|0:0,0:0:0:0:
23,268,7462,2,0,P|61:292|116:283,1,90,2|2,0:0|0:0,0:0:0:0:
136,320,7951,2,0,P|173:296|217:299,1,90,2|10,0:0|0:0,0:0:0:0:
301,332,8603,2,0,P|324:333|354:345,1,45,2|0,3:2|3:2,0:0:0:0:
381,366,8930,6,0,P|403:365|424:358,1,45,6|0,3:2|3:2,0:0:0:0:
440,316,9256,2,0,P|425:265|422:216,1,90,2|0,1:0|1:2,0:0:0:0:
367,157,9908,1,0,3:2:0:0:
367,157,10071,2,0,P|365:109|382:51,1,90,2|2,1:1|1:1,0:0:0:0:
379,23,10560,2,0,P|343:41|267:50,1,90,6|2,3:2|1:1,0:0:0:0:
260,80,11049,1,0,1:0:0:0:
260,80,11212,2,0,P|232:70|187:66,1,45,6|2,3:2|3:2,0:0:0:0:
179,42,11538,6,0,P|134:47|87:70,1,90,6|2,3:2|3:2,0:0:0:0:
60,149,12190,2,0,P|71:181|79:246,1,90,8|2,0:0|0:0,0:0:0:0:
54,274,12680,2,0,P|97:287|176:292,1,90,2|8,3:2|0:0,0:0:0:0:
175,322,13169,1,2,3:2:0:0:
258,289,13495,1,8,0:0:0:0:
332,338,13821,1,2,3:2:0:0:
414,301,14147,6,0,B|463:305|460:334|517:319,2,90,2|2|8,3:2|3:2|0:0,0:0:0:0:
364,225,15125,1,2,0:0:0:0:
364,225,15288,2,0,P|386:181|383:112,1,90,2|8,3:2|0:0,0:0:0:0:
398,96,15777,2,0,L|295:116,1,90,2|8,3:2|0:0,0:0:0:0:
227,149,16430,2,0,P|215:128|209:94,1,45,2|2,0:0|0:0,0:0:0:0:
189,68,16756,6,0,P|190:113|176:187,1,90,2|2,3:2|3:2,0:0:0:0:
176,247,17408,2,0,P|139:235|81:229,1,90,8|2,0:0|0:0,0:0:0:0:
53,200,17897,2,0,P|29:227|36:317,1,90,2|8,3:2|0:0,0:0:0:0:
23,323,18386,1,2,3:2:0:0:
99,370,18712,1,8,0:0:0:0:
172,318,19038,1,2,3:2:0:0:
259,366,19364,5,2,3:2:0:0:
259,366,19527,1,2,3:2:0:0:
259,366,19690,2,0,L|365:384,1,90,8|8,1:2|1:2,0:0:0:0:
412,310,20343,1,0,3:2:0:0:
412,310,20506,2,0,P|391:267|400:196,1,90,8|8,1:2|1:2,0:0:0:0:
417,189,20995,1,2,3:2:0:0:
363,116,21321,1,12,0:0:0:0:
363,116,21484,2,0,L|301:127,1,45,12|0,0:0|3:0,0:0:0:0:
280,100,21810,1,8,1:2:0:0:
280,100,21973,6,0,P|229:95|164:84,1,90,6|2,3:2|3:2,0:0:0:0:
111,46,22625,2,0,P|84:78|99:159,1,90,8|2,0:0|0:0,0:0:0:0:
52,160,23114,2,0,L|67:287,1,90,2|8,3:2|0:0,0:0:0:0:
46,291,23603,1,2,3:2:0:0:
115,348,23930,2,0,P|139:345|168:333,1,45,8|2,0:0|0:0,0:0:0:0:
191,307,24256,2,0,P|221:315|252:339,1,45,2|2,3:2|0:0,0:0:0:0:
276,334,24582,6,0,L|370:323,1,90,6|2,3:2|3:2,0:0:0:0:
447,360,25234,2,0,P|469:332|469:261,1,90,8|2,0:0|0:0,0:0:0:0:
443,246,25723,2,0,L|435:134,1,90,2|8,3:2|0:0,0:0:0:0:
405,124,26212,1,2,3:2:0:0:
321,158,26538,1,8,0:0:0:0:
248,105,26864,2,0,L|200:97,1,45,2|2,0:0|0:0,0:0:0:0:
166,122,27190,6,0,P|138:91|144:15,1,90,2|2,3:2|3:2,0:0:0:0:
44,22,27843,2,0,P|38:74|32:129,1,90,8|2,0:0|0:0,0:0:0:0:
8,148,28332,2,0,P|11:195|21:259,1,90,2|8,3:2|0:0,0:0:0:0:
41,275,28821,1,2,3:2:0:0:
127,250,29147,1,8,0:0:0:0:
192,311,29473,2,0,L|257:329,1,45,2|2,3:2|0:0,0:0:0:0:
270,351,29799,5,2,3:2:0:0:
270,351,29962,2,0,L|333:342,1,45,0|0,1:2|1:2,0:0:0:0:
355,362,30288,1,0,1:2:0:0:
355,362,30451,1,8,1:2:0:0:
355,362,30614,2,0,P|376:321|360:252,1,90,0|0,1:2|3:2,0:0:0:0:
346,242,31103,2,0,P|385:229|452:223,1,90,8|8,1:2|1:2,0:0:0:0:
471,141,31756,1,8,1:2:0:0:
471,141,31919,2,0,P|426:135|383:122,1,90,8|8,1:2|1:2,0:0:0:0:
256,192,32408,12,0,34364,0:0:0:0:
133,280,35017,6,0,P|81:246|102:122,1,180,6|8,3:2|0:0,0:0:0:0:
149,75,35995,1,2,0:0:0:0:
227,119,36321,2,0,P|270:112|343:95,1,90,0|2,3:2|0:0,0:0:0:0:
376,37,36973,1,10,0:0:0:0:
465,25,37299,1,2,0:0:0:0:
438,110,37625,6,0,P|426:151|420:223,1,90,2|0,3:2|0:0,0:0:0:0:
398,237,38114,2,0,P|404:257|408:301,1,45,2|8,0:0|0:0,0:0:0:0:
358,355,38603,2,0,P|428:370|489:299,2,135,2|2|10,0:0|0:0|0:0,0:0:0:0:
285,300,39908,2,0,P|257:306|232:313,1,45,2|2,0:0|0:0,0:0:0:0:
210,343,40234,6,0,L|88:330,2,90,2|2|8,3:2|0:0|0:0,0:0:0:0:
239,257,41212,1,2,0:0:0:0:
166,203,41538,2,0,P|143:162|151:79,1,90,0|2,3:0|0:0,0:0:0:0:
133,75,42027,1,2,0:0:0:0:
133,75,42190,2,0,L|243:98,1,90,10|2,0:0|0:0,0:0:0:0:
298,47,42843,6,0,P|337:27|413:41,1,90,0|2,3:0|0:0,0:0:0:0:
417,54,43332,1,2,0:0:0:0:
417,54,43495,2,0,P|404:93|406:144,1,90,8|2,0:0|0:0,0:0:0:0:
463,210,44147,1,2,0:0:0:0:
463,210,44310,2,0,P|471:231|476:303,1,90,2|2,0:0|0:0,0:0:0:0:
451,334,44799,2,0,L|501:352,2,45,10|2|4,0:0|0:0|0:1,0:0:0:0:
380,278,45451,6,0,B|281:261|310:341|196:313,1,180,2|8,3:2|0:0,0:0:0:0:
133,362,46430,1,2,0:0:0:0:
53,320,46756,2,0,P|43:276|42:205,1,90,0|0,3:2|0:0,0:0:0:0:
97,161,47408,1,10,0:0:0:0:
178,199,47734,1,2,0:0:0:0:
259,160,48060,6,0,P|268:116|271:71,1,90,2|0,3:2|0:0,0:0:0:0:
299,36,48549,2,0,P|326:42|346:53,1,45,2|8,0:0|0:0,0:0:0:0:
407,110,49038,2,0,B|437:94|464:93|464:93|480:48|454:12,2,135,2|2|10,0:0|0:0|0:0,0:0:0:0:
463,180,50343,2,0,P|468:198|472:234,1,45,0|2,0:0|0:0,0:0:0:0:
475,268,50669,6,0,P|436:272|379:232,1,90,2|2,3:2|0:0,0:0:0:0:
316,297,51321,2,0,P|277:293|220:333,1,90,8|0,0:0|0:0,0:0:0:0:
195,340,51810,1,2,0:0:0:0:
195,340,51973,2,0,P|181:293|181:232,1,90,0|2,3:0|0:0,0:0:0:0:
109,194,52625,1,10,0:0:0:0:
173,130,52951,2,0,P|179:101|181:71,1,45,0|0,3:2|3:2,0:0:0:0:
160,45,53277,5,4,1:2:0:0:
160,45,53440,2,0,P|211:41|269:25,1,90,0|4,1:2|1:2,0:0:0:0:
289,52,53930,1,8,0:0:0:0:
370,13,54256,1,2,3:2:0:0:
370,13,54419,2,0,P|395:49|392:108,1,90,0|8,3:2|1:2,0:0:0:0:
437,113,54908,2,0,P|419:147|420:215,1,90,4|12,1:2|0:0,0:0:0:0:
448,228,55397,1,8,0:0:0:0:
448,228,55560,2,0,L|456:293,1,45,4|8,3:2|3:2,0:0:0:0:
464,316,55886,6,0,P|424:338|359:327,1,90,4|2,3:2|0:0,0:0:0:0:
298,299,56538,2,0,B|241:288|241:288|204:316,1,90,8|0,0:0|3:0,0:0:0:0:
183,339,57027,2,0,L|126:353,1,45,2|2,3:2|0:0,0:0:0:0:
100,372,57353,1,8,0:0:0:0:
100,372,57517,2,0,P|77:333|81:272,1,90,0|8,3:0|0:0,0:0:0:0:
28,212,58169,1,4,3:1:0:0:
71,133,58495,6,0,B|79:92|79:92|77:78|77:78|87:34,2,90,2|2|8,3:2|3:2|0:0,0:0:0:0:
153,168,59473,1,0,0:0:0:0:
153,168,59636,2,0,P|180:130|246:138,1,90,2|8,0:0|0:0,0:0:0:0:
263,138,60125,2,0,L|364:122,1,90,0|8,3:2|0:0,0:0:0:0:
426,74,60777,2,0,P|449:82|471:108,1,45,2|2,0:0|0:0,0:0:0:0:
499,124,61103,6,0,P|488:167|487:235,1,90,2|2,3:2|0:0,0:0:0:0:
485,302,61756,2,0,P|445:304|399:270,1,90,8|0,0:0|3:0,0:0:0:0:
360,289,62245,2,0,P|316:293|270:306,1,90,2|8,0:0|0:0,0:0:0:0:
245,341,62734,1,0,3:0:0:0:
155,330,63060,1,8,0:0:0:0:
123,245,63386,2,0,L|114:184,1,45,4|2,3:1|0:0,0:0:0:0:
90,163,63712,5,6,3:2:0:0:
72,74,64038,1,0,1:2:0:0:
159,54,64364,1,8,0:0:0:0:
180,141,64690,1,0,1:2:0:0:
180,141,64853,2,0,P|227:152|281:158,1,90,0|4,3:2|1:2,0:0:0:0:
312,146,65343,1,0,3:2:0:0:
346,62,65669,1,8,0:0:0:0:
346,62,65832,2,0,P|390:56|434:45,1,90,8|0,0:0|3:2,0:0:0:0:
470,19,66321,6,0,P|487:61|486:134,1,90,4|0,3:2|3:2,0:0:0:0:
429,170,66973,1,10,0:0:0:0:
498,227,67299,2,0,P|490:272|484:335,1,90,4|0,3:2|0:0,0:0:0:0:
501,358,67788,1,8,0:0:0:0:
501,358,67951,2,0,L|383:341,1,90,0|8,3:0|0:0,0:0:0:0:
336,296,68603,1,4,3:1:0:0:
264,351,68930,6,0,P|220:355|156:365,2,90,6|0|8,3:2|3:2|0:0,0:0:0:0:
314,276,69908,2,0,B|314:231|340:200|340:200|312:191|292:158,1,135,6|8,3:2|0:0,0:0:0:0:
306,123,70560,2,0,P|263:98|216:112,1,90,0|8,3:2|0:0,0:0:0:0:
141,74,71212,1,2,0:0:0:0:
141,74,71375,1,2,0:0:0:0:
140,73,71538,6,0,L|130:21,2,45,6|2|2,3:2|3:2|3:2,0:0:0:0:
66,124,72190,2,0,P|77:173|86:219,1,90,8|2,0:0|0:0,0:0:0:0:
66,253,72680,2,0,P|115:257|177:275,1,90,2|8,3:2|0:0,0:0:0:0:
187,297,73169,1,2,3:2:0:0:
266,338,73495,1,8,0:0:0:0:
309,259,73821,1,2,3:2:0:0:
395,284,74147,6,0,L|452:295,2,45,0|0|4,1:2|1:2|1:2,0:0:0:0:
370,197,74799,1,8,1:2:0:0:
370,197,74962,2,0,P|373:170|385:145,1,45,0|0,1:2|3:2,0:0:0:0:
404,115,75288,2,0,B|370:122|350:133|350:133|326:121|292:107,1,90,4|8,1:2|1:2,0:0:0:0:
291,84,75777,2,0,P|287:56|282:30,2,45,0|0|8,3:0|1:2|1:2,0:0:0:0:
215,132,76430,2,0,P|207:105|203:61,1,45,0|0,3:0|3:0,0:0:0:0:
166,64,76756,6,0,B|125:68|91:88|91:88|63:65|14:58,2,135,4|4|4,3:2|3:2|3:2,0:0:0:0:
108,327,78712,2,0,P|146:310|166:256,1,90,2|2,0:2|3:2,0:0:0:0:
156,224,79201,1,0,3:2:0:0:
156,224,79364,6,0,P|206:231|263:251,1,90,6|2,3:2|3:2,0:0:0:0:
287,321,80017,2,0,P|331:308|396:309,1,90,8|2,0:0|0:0,0:0:0:0:
415,325,80506,2,0,B|420:289|432:269|432:269|415:214,1,90,2|8,3:2|0:0,0:0:0:0:
403,198,80995,1,2,3:2:0:0:
456,125,81321,1,8,0:0:0:0:
384,69,81647,1,2,3:2:0:0:
332,142,81973,6,0,P|294:166|220:162,1,90,2|2,3:2|3:2,0:0:0:0:
186,107,82625,1,8,0:0:0:0:
186,107,82788,2,0,B|200:50|200:50|181:-2,2,90,2|0|8,0:0|3:2|0:0,0:0:0:0:
146,128,83603,1,2,3:2:0:0:
61,96,83930,1,10,0:0:0:0:
16,174,84256,2,0,P|26:199|31:227,1,45,2|2,0:0|0:0,0:0:0:0:
9,256,84582,6,0,L|107:279,1,90,6|2,3:2|3:2,0:0:0:0:
155,344,85234,2,0,L|202:325,1,45,8|2,0:0|0:0,0:0:0:0:
237,345,85560,1,2,0:0:0:0:
237,345,85723,2,0,P|256:298|243:251,1,90,2|8,3:2|0:0,0:0:0:0:
217,228,86212,1,2,3:2:0:0:
247,143,86538,2,0,P|300:117|336:122,1,90,8|2,0:0|3:2,0:0:0:0:
369,139,87027,1,2,0:0:0:0:
369,139,87190,6,0,P|388:94|380:36,2,90,2|2|8,3:2|3:2|0:0,0:0:0:0:
379,183,88006,1,2,0:0:0:0:
306,240,88332,2,0,P|263:232|203:226,1,90,0|8,3:2|0:0,0:0:0:0:
185,258,88821,1,2,3:2:0:0:
102,294,89147,1,10,0:0:0:0:
48,221,89473,1,2,0:0:0:0:
48,221,89636,1,2,0:0:0:0:
48,220,89799,6,0,P|46:176|39:131,1,90,6|2,3:2|3:2,0:0:0:0:
81,52,90451,2,0,P|123:26|181:40,1,90,8|2,0:0|0:0,0:0:0:0:
195,59,90940,2,0,P|231:83|275:81,1,90,2|8,3:2|0:0,0:0:0:0:
315,60,91430,1,2,3:2:0:0:
390,11,91756,1,8,0:0:0:0:
466,59,92082,2,0,P|469:85|479:119,1,45,2|2,3:2|0:0,0:0:0:0:
479,147,92408,6,0,P|444:127|365:127,1,90,6|2,3:2|3:2,0:0:0:0:
418,207,93060,1,8,0:0:0:0:
418,207,93223,2,0,P|428:242|434:325,2,90,2|0|8,3:2|3:2|0:0,0:0:0:0:
373,200,94038,2,0,P|343:207|315:217,1,45,2|8,3:2|0:0,0:0:0:0:
308,251,94364,1,10,0:0:0:0:
238,193,94690,2,0,L|191:189,1,45,2|10,0:2|0:0,0:0:0:0:
164,224,95017,5,6,3:2:0:0:
86,269,95343,1,2,3:2:0:0:
28,195,95669,1,8,0:0:0:0:
28,195,95832,2,0,P|26:148|17:95,1,90,2|2,0:0|3:2,0:0:0:0:
15,60,96321,2,0,P|66:92|125:73,1,90,2|2,0:0|3:2,0:0:0:0:
166,37,96973,1,8,0:0:0:0:
247,75,97299,2,0,L|311:87,1,45,2|2,3:2|0:0,0:0:0:0:
329,106,97625,5,6,3:2:0:0:
373,98,97788,1,8,1:2:0:0:
442,155,98114,1,12,1:2:0:0:
486,147,98277,2,0,P|505:168|499:250,1,90,8|10,0:0|0:0,0:0:0:0:
483,263,98767,2,0,L|381:284,1,90,0|8,3:2|0:0,0:0:0:0:
374,321,99256,1,2,3:2:0:0:
287,344,99582,2,0,P|260:341|236:333,1,45,10|10,0:0|3:2,0:0:0:0:
204,358,99908,2,0,P|182:351|159:350,1,45,2|10,0:0|0:0,0:0:0:0:
121,372,100234,6,0,P|95:329|107:259,1,90,6|2,3:2|3:2,0:0:0:0:
32,224,100886,1,8,0:0:0:0:
77,146,101212,1,2,0:0:0:0:
77,146,101375,2,0,P|125:143|185:112,1,90,2|8,3:2|0:0,0:0:0:0:
203,106,101864,2,0,P|186:61|190:7,2,90,2|8|2,3:2|0:0|3:2,0:0:0:0:
292,98,102843,6,0,P|292:53|275:11,2,90,2|2|8,3:2|3:2|0:0,0:0:0:0:
325,128,103658,2,0,P|373:139|434:144,1,90,2|0,0:0|3:2,0:0:0:0:
488,193,104310,1,8,0:0:0:0:
488,193,104473,2,0,P|496:236|501:301,1,90,2|10,3:2|0:0,0:0:0:0:
434,342,105125,1,2,0:0:0:0:
377,271,105451,6,0,P|333:260|288:255,1,90,6|2,3:2|3:2,0:0:0:0:
225,319,106103,2,0,P|176:323|130:334,1,90,8|2,0:0|0:0,0:0:0:0:
96,354,106593,2,0,P|79:308|81:256,1,90,2|8,3:2|0:0,0:0:0:0:
102,229,107082,1,2,3:2:0:0:
58,150,107408,1,8,0:0:0:0:
120,85,107734,2,0,P|144:90|174:96,1,45,2|2,3:2|0:0,0:0:0:0:
205,112,108060,6,0,P|243:86|306:86,1,90,2|2,3:2|3:2,0:0:0:0:
371,108,108712,1,8,0:0:0:0:
371,108,108875,2,0,B|378:70|379:40|379:40|408:26,2,90,2|0|8,3:2|3:2|0:0,0:0:0:0:
356,150,109690,1,2,3:2:0:0:
404,226,110017,1,10,0:0:0:0:
342,291,110343,2,0,L|286:304,1,45,2|10,0:0|0:0,0:0:0:0:
259,323,110669,6,0,P|222:312|152:309,1,90,6|2,3:2|3:2,0:0:0:0:
85,335,111321,2,0,P|70:294|75:237,1,90,8|2,0:0|0:0,0:0:0:0:
51,207,111810,2,0,L|161:192,1,90,2|8,3:2|0:0,0:0:0:0:
181,212,112299,1,2,3:2:0:0:
223,132,112625,1,8,0:0:0:0:
179,53,112951,2,0,L|134:50,1,45,2|2,3:2|0:0,0:0:0:0:
98,23,113277,6,0,P|81:66|87:119,1,90,6|2,3:2|3:2,0:0:0:0:
29,180,113930,1,8,0:0:0:0:
29,180,114093,2,0,P|34:204|37:239,1,45,2|2,3:2|0:0,0:0:0:0:
18,265,114419,2,0,P|55:291|115:285,1,90,0|8,3:2|0:0,0:0:0:0:
135,316,114908,1,2,3:2:0:0:
135,316,115071,1,8,0:0:0:0:
135,316,115234,2,0,P|159:306|193:302,1,45,10|2,0:0|3:2,0:0:0:0:
215,278,115560,2,0,P|247:286|280:307,1,45,2|10,3:2|0:0,0:0:0:0:
300,306,115886,6,0,L|285:199,1,90,6|2,3:2|3:2,0:0:0:0:
231,146,116538,1,8,0:0:0:0:
231,146,116701,2,0,L|248:26,1,90,2|2,0:0|3:2,0:0:0:0:
326,22,117353,1,8,0:0:0:0:
326,22,117517,2,0,P|377:33|432:39,2,90,2|8|2,3:2|0:0|3:2,0:0:0:0:
243,56,118495,6,0,L|193:68,1,45,2|8,3:2|1:2,0:0:0:0:
156,52,118821,1,2,3:2:0:0:
68,19,119147,2,0,P|47:62|55:120,1,90,12|14,0:0|0:0,0:0:0:0:
22,139,119636,2,0,P|42:178|41:223,1,90,2|12,3:2|0:0,0:0:0:0:
19,262,120125,1,2,3:2:0:0:
19,262,120288,1,10,0:0:0:0:
19,262,120451,2,0,L|34:315,1,45,8|8,0:0|0:0,0:0:0:0:
44,348,120777,2,0,L|92:359,1,45,2|8,0:0|0:0,0:0:0:0:
130,371,121103,6,0,P|176:358|245:359,1,90,6|10,3:2|1:2,0:0:0:0:
307,370,121756,1,8,0:0:0:0:
307,370,121919,2,0,P|330:327|317:271,1,90,2|0,1:2|1:2,0:0:0:0:
301,249,122408,2,0,L|241:239,2,45,0|2|0,3:0|1:2|3:0,0:0:0:0:
366,186,123060,2,0,L|462:170,1,90,10|4,0:0|3:2,0:0:0:0:
485,139,123549,1,0,1:2:0:0:
485,139,123712,6,0,L|493:77,1,45,0|8,3:2|0:0,0:0:0:0:
501,50,124038,2,0,L|412:64,1,90,2|10,1:2|0:0,0:0:0:0:
325,40,124690,1,0,1:2:0:0:
325,40,124853,2,0,P|289:24|231:31,1,90,2|4,1:2|1:2,0:0:0:0:
205,57,125343,2,0,L|157:68,1,45,2|0,3:2|1:2,0:0:0:0:
118,53,125669,2,0,B|125:102|98:138|98:138|123:158|127:192,1,135,8|0,0:0|0:0,0:0:0:0:
143,214,126321,6,0,P|97:215|43:233,1,90,6|0,3:2|0:0,0:0:0:0:
58,317,126973,2,0,P|103:315|158:298,1,90,8|2,0:0|0:0,0:0:0:0:
225,345,127625,2,0,L|269:355,1,45,0|8,3:2|0:0,0:0:0:0:
309,375,127951,2,0,P|332:335|315:267,1,90,2|10,3:2|0:0,0:0:0:0:
277,218,128603,1,2,3:2:0:0:
356,175,128930,6,0,B|401:170|400:206|466:191,2,90,2|2|8,3:2|3:2|0:0,0:0:0:0:
294,109,129908,1,2,0:0:0:0:
294,109,130071,2,0,P|251:126|202:126,1,90,0|10,0:0|0:0,0:0:0:0:
172,155,130560,2,0,P|170:105|159:44,1,90,0|10,3:0|0:0,0:0:0:0:
79,96,131212,2,0,P|80:129|93:159,1,45,2|2,0:0|0:0,0:0:0:0:
87,185,131538,6,0,P|32:169|-12:177,2,90,2|2|8,3:2|0:0|0:0,0:0:0:0:
112,271,132517,1,2,0:0:0:0:
194,234,132843,2,0,L|206:182,2,45,0|8|2,3:0|0:0|3:2,0:0:0:0:
223,267,133332,1,2,0:0:0:0:
223,267,133495,2,0,P|275:278|325:283,1,90,10|2,0:0|3:2,0:0:0:0:
390,325,134147,5,2,3:2:0:0:
459,267,134473,1,2,3:2:0:0:
465,177,134799,1,8,0:0:0:0:
408,106,135125,1,2,0:0:0:0:
408,106,135288,2,0,P|365:121|310:129,1,90,2|10,0:0|0:0,0:0:0:0:
287,158,135777,1,2,3:2:0:0:
238,82,136103,2,0,L|247:33,2,45,10|2|4,0:0|0:0|0:1,0:0:0:0:
161,129,136756,6,0,B|133:111|80:108|80:108|68:131|45:152,1,135,6|2,3:2|0:0,0:0:0:0:
6,161,137408,1,8,0:0:0:0:
53,237,137734,1,2,0:0:0:0:
10,316,138060,2,0,L|22:367,1,45,0|8,3:0|0:0,0:0:0:0:
62,376,138386,2,0,P|108:363|159:358,1,90,2|10,3:2|0:0,0:0:0:0:
203,285,139038,1,2,3:2:0:0:
287,317,139364,6,0,P|334:321|382:337,1,90,2|2,3:2|3:2,0:0:0:0:
455,374,140017,1,8,0:0:0:0:
453,284,140343,2,0,B|455:230|434:195|434:195|452:179|460:150,1,135,2|10,0:0|0:0,0:0:0:0:
462,114,140995,1,0,3:2:0:0:
373,128,141321,2,0,P|328:138|280:142,1,90,10|0,0:0|0:0,0:0:0:0:
215,83,141973,5,4,1:2:0:0:
215,83,142136,2,0,B|191:82|170:74|170:74|155:89|121:105,1,90,0|0,1:2|1:2,0:0:0:0:
91,84,142625,2,0,P|66:135|80:183,1,90,8|0,0:0|0:0,0:0:0:0:
64,255,143277,2,0,L|11:243,2,45,0|10|2,0:0|0:0|3:2,0:0:0:0:
109,333,143930,1,10,0:0:0:0:
186,286,144256,2,0,L|243:273,1,45,0|0,3:2|0:0,0:0:0:0:
265,302,144582,5,4,1:2:0:0:
265,302,144745,2,0,P|282:268|274:193,1,90,0|4,1:2|1:2,0:0:0:0:
254,182,145234,1,8,0:0:0:0:
297,103,145560,1,2,3:2:0:0:
297,103,145723,2,0,P|338:90|404:84,1,90,0|10,3:2|1:2,0:0:0:0:
418,55,146212,2,0,P|431:78|441:157,1,90,4|12,1:2|1:2,0:0:0:0:
481,163,146701,1,8,0:0:0:0:
481,163,146864,2,0,L|472:211,1,45,4|8,3:2|3:2,0:0:0:0:
503,240,147190,6,0,B|435:234|453:295|363:279,1,135,4|2,3:2|0:0,0:0:0:0:
340,303,147843,2,0,L|327:195,1,90,8|0,0:0|3:0,0:0:0:0:
258,158,148495,2,0,L|272:96,2,45,2|8|0,0:0|0:0|3:0,0:0:0:0:
203,229,149147,1,8,0:0:0:0:
133,172,149473,1,4,3:1:0:0:
110,259,149799,6,0,P|109:300|97:363,2,90,2|2|8,3:2|3:2|0:0,0:0:0:0:
42,198,150777,1,2,0:2:0:0:
42,198,150940,2,0,P|32:161|42:97,1,90,2|8,0:0|0:0,0:0:0:0:
42,65,151430,2,0,L|145:93,1,90,0|8,3:2|0:0,0:0:0:0:
206,42,152082,2,0,L|259:28,1,45,2|2,0:0|0:0,0:0:0:0:
294,24,152408,6,0,P|276:65|275:136,1,90,2|2,3:2|0:0,0:0:0:0:
344,162,153060,2,0,P|362:121|363:50,1,90,8|0,0:0|3:0,0:0:0:0:
403,49,153549,2,0,L|459:38,1,45,2|0,0:0|0:0,0:0:0:0:
491,32,153875,1,8,0:0:0:0:
491,32,154038,1,0,3:0:0:0:
479,121,154364,1,8,0:0:0:0:
466,210,154690,2,0,P|469:238|478:275,1,45,4|2,3:1|0:0,0:0:0:0:
499,290,155017,5,6,3:2:0:0:
432,351,155343,1,0,1:2:0:0:
354,304,155669,2,0,P|314:292|241:293,1,90,8|0,0:0|1:2,0:0:0:0:
227,312,156158,2,0,P|206:282|208:213,1,90,0|4,3:2|1:2,0:0:0:0:
230,195,156647,1,0,3:2:0:0:
168,129,156973,1,8,0:0:0:0:
168,129,157136,2,0,L|101:150,1,45,8|4,0:0|0:0,0:0:0:0:
80,142,157462,1,0,3:2:0:0:
80,142,157625,6,0,P|103:104|105:59,1,90,4|0,3:2|3:2,0:0:0:0:
180,9,158277,1,10,0:0:0:0:
255,58,158603,2,0,B|309:70|309:70|332:64|332:64|399:79,1,135,4|8,3:2|0:0,0:0:0:0:
423,49,159256,2,0,P|439:87|437:148,1,90,0|8,3:0|0:0,0:0:0:0:
362,181,159908,1,4,3:1:0:0:
424,245,160234,6,0,P|468:235|524:228,2,90,6|0|8,3:2|3:2|0:0,0:0:0:0:
357,305,161212,2,0,B|284:295|295:342|215:324,1,135,6|8,3:2|0:0,0:0:0:0:
186,346,161864,2,0,P|183:294|177:251,1,90,0|8,3:2|0:0,0:0:0:0:
93,225,162517,1,2,0:0:0:0:
93,225,162680,1,2,0:0:0:0:
93,225,162843,6,0,L|45:242,2,45,6|2|2,3:2|3:2|3:2,0:0:0:0:
132,144,163495,2,0,P|134:99|143:42,1,90,8|2,0:0|0:0,0:0:0:0:
172,22,163984,2,0,P|216:20|263:53,1,90,2|8,3:2|0:0,0:0:0:0:
272,83,164473,1,2,3:2:0:0:
356,114,164799,1,8,0:0:0:0:
422,53,165125,1,2,3:2:0:0:
503,90,165451,6,0,P|512:111|519:139,2,45,0|0|4,1:2|1:2|1:2,0:0:0:0:
439,154,166103,1,8,1:2:0:0:
439,154,166267,2,0,L|430:203,1,45,0|0,1:2|0:0,0:0:0:0:
451,238,166593,2,0,P|406:259|360:262,1,90,4|8,1:2|1:2,0:0:0:0:
329,236,167082,2,0,P|299:241|273:248,1,45,0|0,3:0|1:2,0:0:0:0:
253,277,167408,1,8,1:2:0:0:
171,239,167734,2,0,L|116:230,1,45,0|0,3:0|3:0,0:0:0:0:
92,201,168060,6,0,P|45:231|44:305,2,135,4|4|4,3:2|3:2|3:2,0:0:0:0:
326,66,170017,2,0,B|279:71|239:86|239:86|226:65|197:45,1,135,2|0,0:2|0:0,0:0:0:0:
169,29,170669,6,0,P|147:77|157:126,1,90,6|2,3:2|3:2,0:0:0:0:
98,185,171321,1,8,0:0:0:0:
181,218,171647,1,2,0:0:0:0:
181,218,171810,2,0,P|224:204|288:197,1,90,2|8,3:2|0:0,0:0:0:0:
310,212,172299,2,0,P|320:171|326:118,2,90,2|8|2,3:2|0:0|3:2,0:0:0:0:
362,284,173277,5,2,3:2:0:0:
295,344,173603,1,2,3:2:0:0:
239,272,173930,2,0,L|173:254,1,45,8|2,0:0|0:0,0:0:0:0:
159,287,174256,1,2,0:0:0:0:
159,287,174419,2,0,P|139:247|147:180,1,90,0|8,3:2|0:0,0:0:0:0:
118,162,174908,1,2,3:2:0:0:
166,86,175234,2,0,P|210:80|266:68,1,90,10|2,0:0|0:0,0:0:0:0:
280,34,175723,1,2,0:0:0:0:
280,34,175886,6,0,P|324:39|368:48,1,90,6|2,3:2|3:2,0:0:0:0:
456,28,176538,2,0,P|462:49|466:81,1,45,8|2,0:0|0:0,0:0:0:0:
501,99,176864,1,2,0:0:0:0:
501,99,177027,2,0,P|489:139|488:202,1,90,2|8,3:2|0:0,0:0:0:0:
503,229,177517,1,2,3:2:0:0:
432,284,177843,1,8,0:0:0:0:
352,241,178169,2,0,P|341:216|337:183,1,45,2|2,3:2|0:0,0:0:0:0:
315,159,178495,6,0,P|357:155|404:144,2,90,2|2|8,3:2|3:2|0:0,0:0:0:0:
280,188,179310,1,2,0:0:0:0:
214,125,179636,2,0,B|189:117|166:116|166:116|137:122|110:140,1,90,0|8,3:2|0:0,0:0:0:0:
85,145,180125,2,0,P|72:106|91:40,2,90,2|10|2,3:2|0:0|0:0,0:0:0:0:
68,186,180940,1,2,0:0:0:0:
68,186,181103,6,0,L|83:286,1,90,6|2,3:2|3:2,0:0:0:0:
21,342,181756,2,0,P|66:311|133:324,1,90,8|2,0:0|0:0,0:0:0:0:
139,331,182245,2,0,L|233:351,1,90,2|8,3:2|0:0,0:0:0:0:
263,324,182734,1,2,3:2:0:0:
347,353,183060,1,8,0:0:0:0:
425,308,183386,2,0,P|434:284|441:243,1,45,2|2,3:2|0:0,0:0:0:0:
415,227,183712,6,0,P|459:214|510:210,2,90,6|2|8,3:2|3:2|0:0,0:0:0:0:
383,259,184527,1,2,3:2:0:0:
303,216,184853,2,0,P|290:176|293:104,1,90,0|8,3:2|0:0,0:0:0:0:
309,88,185343,1,2,3:2:0:0:
309,88,185506,1,8,0:0:0:0:
309,88,185669,2,0,L|250:78,1,45,10|2,0:0|3:2,0:0:0:0:
229,51,185995,2,0,L|170:64,1,45,2|10,0:0|0:0,0:0:0:0:
145,39,186321,5,6,3:2:0:0:
86,107,186647,1,2,3:2:0:0:
145,174,186973,1,8,0:0:0:0:
145,174,187136,2,0,L|153:281,1,90,2|2,0:0|3:2,0:0:0:0:
125,299,187625,2,0,L|74:309,2,45,2|8|2,0:0|0:0|3:2,0:0:0:0:
193,357,188277,1,8,0:0:0:0:
258,295,188603,1,2,3:2:0:0:
340,331,188930,5,6,3:2:0:0:
340,331,189093,2,0,P|362:303|358:225,1,90,8|12,1:2|1:2,0:0:0:0:
344,213,189582,2,0,L|333:106,1,90,8|10,0:0|0:0,0:0:0:0:
339,78,190071,2,0,B|297:78|297:107|231:106,1,90,0|8,3:2|0:0,0:0:0:0:
215,128,190560,1,2,3:2:0:0:
144,72,190886,2,0,L|157:19,2,45,10|10|2,1:2|3:2|0:0,0:0:0:0:
112,103,191375,1,10,0:0:0:0:
112,103,191538,6,0,P|118:152|121:212,1,90,6|2,3:2|3:2,0:0:0:0:
171,270,192190,1,8,0:0:0:0:
171,270,192353,2,0,P|128:283|85:275,2,90,2|2|8,0:0|3:2|0:0,0:0:0:0:
209,294,193169,2,0,P|257:300|313:314,1,90,2|8,3:2|0:0,0:0:0:0:
369,363,193821,2,0,P|393:358|418:350,1,45,2|2,3:2|0:0,0:0:0:0:
439,316,194147,6,0,P|440:273|446:219,1,90,2|2,3:2|3:2,0:0:0:0:
496,152,194799,1,8,0:0:0:0:
496,152,194962,1,2,0:0:0:0:
422,100,195288,2,0,P|379:118|332:118,1,90,0|8,3:2|0:0,0:0:0:0:
293,133,195777,2,0,P|290:84|286:42,2,90,2|10|2,3:2|0:0|0:0,0:0:0:0:
217,182,196756,5,6,3:2:0:0:
144,129,197082,1,2,3:2:0:0:
66,173,197408,1,8,0:0:0:0:
66,173,197571,2,0,P|53:222|54:274,1,90,2|2,3:2|3:2,0:0:0:0:
36,303,198060,1,2,0:0:0:0:
36,303,198223,2,0,P|55:321|85:334,1,45,8|2,0:0|3:2,0:0:0:0:
105,359,198549,1,2,3:2:0:0:
105,359,198712,2,0,P|145:340|207:329,1,90,8|2,0:0|3:2,0:0:0:0:
262,277,199364,6,0,B|305:278|304:313|380:308,1,90,4|2,3:1|3:2,0:0:0:0:
427,346,200017,1,8,0:0:0:0:
427,346,200180,2,0,P|447:302|434:230,1,90,2|0,0:0|3:2,0:0:0:0:
433,217,200669,2,0,L|486:206,2,45,4|8|6,0:1|0:0|3:2,0:0:0:0:
356,168,201321,1,10,0:0:0:0:
407,94,201647,1,4,0:1:0:0:
343,29,201973,6,0,P|287:5|237:18,1,90,6|2,3:2|3:2,0:0:0:0:
183,53,202625,1,8,0:0:0:0:
183,53,202788,2,0,L|83:69,2,90,2|2|8,0:0|3:2|0:0,0:0:0:0:
220,77,203603,1,2,3:2:0:0:
180,158,203930,1,8,0:0:0:0:
251,212,204256,2,0,L|260:266,1,45,2|2,3:2|0:0,0:0:0:0:
244,299,204582,5,6,3:2:0:0:
321,343,204908,1,2,3:2:0:0:
379,274,205234,1,8,0:0:0:0:
379,274,205397,2,0,P|423:268|477:262,2,90,2|0|8,3:2|3:2|0:0,0:0:0:0:
348,240,206212,2,0,P|341:202|334:138,1,90,2|10,3:2|0:0,0:0:0:0:
312,63,206864,2,0,P|291:56|260:51,1,45,2|10,0:0|0:0,0:0:0:0:
233,24,207190,5,6,3:2:0:0:
145,47,207517,2,0,P|130:85|139:164,1,90,10|8,1:2|0:0,0:0:0:0:
88,153,208006,2,0,L|98:256,1,90,2|2,1:2|1:2,0:0:0:0:
85,286,208495,1,2,3:2:0:0:
85,286,208658,2,0,L|140:301,1,45,8|2,1:2|3:2,0:0:0:0:
159,330,208984,1,2,3:2:0:0:
159,330,209147,2,0,P|192:309|271:318,1,90,8|2,0:0|3:2,0:0:0:0:
282,325,209636,1,2,1:2:0:0:
282,325,209799,6,0,L|270:371,2,45,2|8|6,3:2|0:2|3:2,0:0:0:0:
360,281,210451,2,0,P|351:234|348:185,1,90,8|8,1:2|0:0,0:0:0:0:
381,161,210940,1,2,3:2:0:0:
330,86,211267,2,0,L|272:104,1,45,8|6,0:0|3:2,0:0:0:0:
251,71,211593,1,10,0:0:0:0:
251,71,211756,2,0,L|157:60,1,90,10|2,0:0|0:0,0:0:0:0:
117,54,212245,5,2,0:0:0:0:
256,192,212408,12,6,215017,0:2:0:0:
102,296,233277,5,0,1:2:0:0:
102,296,233440,2,0,B|163:285|163:285|177:307|195:326,1,90,8|0,1:2|1:2,0:0:0:0:
201,347,233930,1,8,1:2:0:0:
284,313,234256,1,8,0:0:0:0:
284,313,234419,2,0,P|302:290|299:212,1,90,0|2,3:0|1:2,0:0:0:0:
276,198,234908,1,0,3:0:0:0:
315,117,235234,2,0,L|371:101,2,45,8|2|2,0:0|0:0|3:2,0:0:0:0:
277,92,235723,1,10,0:0:0:0:
277,92,235886,6,0,P|237:87|172:80,1,90,6|2,3:2|3:2,0:0:0:0:
107,41,236538,2,0,P|85:81|92:139,1,90,8|2,0:0|0:0,0:0:0:0:
66,164,237027,2,0,L|81:273,1,90,2|8,3:2|0:0,0:0:0:0:
57,293,237517,1,2,3:2:0:0:
118,359,237843,1,8,0:0:0:0:
195,313,238169,2,0,L|251:299,1,45,2|2,3:2|0:0,0:0:0:0:
276,326,238495,6,0,P|320:339|376:350,1,90,2|2,3:2|3:2,0:0:0:0:
450,369,239147,1,8,0:0:0:0:
450,369,239310,2,0,P|472:326|449:261,1,90,2|0,0:0|3:2,0:0:0:0:
441,248,239799,2,0,L|492:237,2,45,2|8|2,0:0|0:0|3:2,0:0:0:0:
369,194,240451,1,10,0:0:0:0:
405,111,240777,2,0,L|414:48,1,45,2|2,0:0|0:0,0:0:0:0:
426,24,241103,6,0,P|378:4|318:13,1,90,6|2,3:2|3:2,0:0:0:0:
283,74,241756,1,8,0:0:0:0:
198,44,242082,1,2,0:0:0:0:
198,44,242245,2,0,P|152:41|82:32,1,90,2|8,3:2|0:0,0:0:0:0:
65,48,242734,1,2,3:2:0:0:
12,121,243060,1,8,0:0:0:0:
96,151,243386,2,0,L|111:209,1,45,2|2,3:2|0:0,0:0:0:0:
104,239,243712,6,0,B|46:233|46:233|15:266,2,90,2|2|8,3:2|3:2|0:0,0:0:0:0:
130,275,244527,1,2,3:2:0:0:
193,339,244853,2,0,L|290:318,1,90,0|8,3:2|0:0,0:0:0:0:
308,284,245343,1,2,3:2:0:0:
386,327,245669,1,10,0:0:0:0:
449,263,245995,2,0,L|463:206,1,45,2|2,0:0|0:0,0:0:0:0:
472,176,246321,6,0,P|426:157|380:171,1,90,6|2,3:2|3:2,0:0:0:0:
325,101,246973,1,8,0:0:0:0:
249,150,247299,1,2,0:0:0:0:
249,150,247462,2,0,P|203:169|157:155,1,90,2|8,3:2|0:0,0:0:0:0:
127,135,247951,2,0,L|116:28,2,90,2|8|2,3:2|0:0|3:2,0:0:0:0:
53,187,248930,5,6,3:2:0:0:
64,276,249256,1,2,3:2:0:0:
136,329,249582,2,0,L|191:320,1,45,8|2,0:0|3:2,0:0:0:0:
260,361,250071,2,0,L|383:344,1,90,0|8,3:2|0:0,0:0:0:0:
390,366,250560,2,0,P|403:340|408:306,1,45,2|8,3:2|0:0,0:0:0:0:
442,297,250886,2,0,P|440:271|429:242,1,45,10|2,0:0|3:2,0:0:0:0:
405,218,251212,1,2,3:2:0:0:
405,218,251375,1,10,0:0:0:0:
405,218,251538,6,0,L|394:104,1,90,6|2,3:2|1:2,0:0:0:0:
381,39,252190,1,8,0:0:0:0:
381,39,252353,2,0,P|337:32|283:61,1,90,2|2,1:2|1:2,0:0:0:0:
254,129,253006,1,8,0:0:0:0:
254,129,253169,2,0,P|209:123|139:111,1,90,2|8,3:2|0:0,0:0:0:0:
75,126,253821,2,0,P|62:153|61:187,1,45,2|2,3:2|1:2,0:0:0:0:
28,200,254147,6,0,P|36:228|40:265,1,45,2|8,3:2|1:2,0:0:0:0:
15,282,254473,2,0,P|53:305|119:298,1,90,6|12,3:2|0:0,0:0:0:0:
180,340,255125,1,10,0:0:0:0:
180,340,255288,2,0,P|194:296|194:225,1,90,4|8,3:2|0:0,0:0:0:0:
169,216,255777,1,2,3:2:0:0:
169,216,255940,1,10,0:0:0:0:
169,216,256103,2,0,L|164:152,1,45,8|10,1:2|3:2,0:0:0:0:
137,135,256430,2,0,L|143:78,1,45,2|10,0:0|0:0,0:0:0:0:
123,48,256756,6,0,P|161:28|228:36,1,90,6|2,3:2|3:2,0:0:0:0:
260,100,257408,1,8,0:0:0:0:
332,46,257734,1,2,0:0:0:0:
332,46,257897,2,0,L|440:29,1,90,2|8,3:2|0:0,0:0:0:0:
464,22,258386,2,0,P|463:69|446:120,1,90,2|8,3:2|0:0,0:0:0:0:
369,148,259038,1,2,3:2:0:0:
423,219,259364,6,0,L|511:232,2,90,2|2|8,3:2|3:2|0:0,0:0:0:0:
383,240,260180,1,2,0:0:0:0:
296,214,260506,2,0,P|270:177|288:115,1,90,2|8,3:2|0:0,0:0:0:0:
304,101,260995,1,2,3:2:0:0:
231,48,261321,2,0,L|241:-2,2,45,8|2|2,0:0|3:2|0:0,0:0:0:0:
193,72,261810,1,2,0:0:0:0:
193,72,261973,6,0,L|75:96,1,90,6|2,3:2|3:2,0:0:0:0:
18,64,262625,2,0,P|3:104|7:170,1,90,8|2,0:0|0:0,0:0:0:0:
0,195,263114,2,0,L|88:177,1,90,2|8,3:2|0:0,0:0:0:0:
132,169,263603,1,2,3:2:0:0:
205,220,263930,1,8,0:0:0:0:
178,305,264256,2,0,L|170:365,1,45,2|2,3:2|0:0,0:0:0:0:
208,376,264582,6,0,L|296:358,1,90,2|2,3:2|3:2,0:0:0:0:
384,375,265234,2,0,P|401:331|394:270,1,90,8|0,0:2|0:0,0:0:0:0:
362,263,265723,2,0,P|345:221|346:176,1,90,2|8,3:2|0:2,0:0:0:0:
381,148,266212,1,2,3:2:0:0:
358,60,266538,2,0,L|377:8,2,45,8|0|2,0:0|3:0|0:0,0:0:0:0:
314,71,267027,1,8,0:2:0:0:
314,71,267190,6,0,P|275:60|210:53,1,90,6|2,3:2|3:2,0:0:0:0:
145,12,267843,2,0,P|123:49|133:114,1,90,8|2,0:0|0:0,0:0:0:0:
90,124,268332,2,0,P|96:160|104:233,1,90,2|8,3:2|0:0,0:0:0:0:
72,246,268821,1,2,3:2:0:0:
134,310,269147,2,0,L|198:324,1,45,10|2,0:0|0:0,0:0:0:0:
208,352,269473,2,0,L|264:340,1,45,2|2,3:2|0:0,0:0:0:0:
292,362,269799,5,6,3:2:0:0:
348,291,270125,1,2,3:2:0:0:
283,227,270451,2,0,L|275:171,1,45,8|2,0:0|3:2,0:0:0:0:
206,126,270940,2,0,P|259:92|346:127,1,135,2|2,3:2|3:2,0:0:0:0:
370,114,271593,1,2,0:0:0:0:
370,114,271756,2,0,L|436:93,1,45,8|2,0:0|3:2,0:0:0:0:
438,63,272082,2,0,P|465:70|485:81,1,45,2|2,3:2|0:0,0:0:0:0:
509,111,272408,6,0,L|490:213,1,90,6|2,3:2|3:2,0:0:0:0:
509,287,273060,1,8,0:0:0:0:
427,325,273386,1,2,0:0:0:0:
427,325,273549,2,0,P|385:317|313:309,1,90,2|8,3:2|0:0,0:0:0:0:
302,338,274038,1,2,3:2:0:0:
220,300,274364,1,8,0:0:0:0:
268,224,274690,2,0,L|280:168,1,45,2|2,3:2|0:0,0:0:0:0:
253,141,275017,6,0,L|243:96,2,45,2|8|0,3:2|0:0|3:0,0:0:0:0:
163,136,275669,2,0,P|126:125|61:123,1,90,8|8,0:0|0:0,0:0:0:0:
32,106,276158,2,0,P|40:141|45:204,1,90,0|8,3:0|1:2,0:0:0:0:
77,225,276647,2,0,P|70:250|70:280,1,45,2|8,3:2|0:0,0:0:0:0:
49,309,276973,1,8,0:0:0:0:
49,309,277136,2,0,P|85:334|163:327,1,90,8|8,0:0|0:0,0:0:0:0:
168,316,277625,5,6,0:0:0:0:
256,192,277788,12,0,279908,0:0:0:0:
256,192,280071,12,0,282843,0:0:0:0:
