osu file format v14

[General]
AudioFilename: timeless.mp3
AudioLeadIn: 0
PreviewTime: 79283
Countdown: 0
SampleSet: Soft
StackLeniency: 0.7
Mode: 0
LetterboxInBreaks: 0
WidescreenStoryboard: 1

[Editor]
DistanceSpacing: 1.4
BeatDivisor: 8
GridSize: 4
TimelineZoom: 1.8

[Metadata]
Title:Timeless time
TitleUnicode:Timeless time
Artist:Kawada Mami
ArtistUnicode:川田まみ
Creator:Gaia
Version:Hard
Source:七つのふしぎの終わるとき
Tags:Akitoshi Corinn -Laura- Nanatsu no Fushigi no Owaru Toki eroge opening op Seven Clocks Tricks Nanatoki J-pop Best Birth visual novel etude 中沢伴行 Tomoyuki Nakazawa 井内 舞子 Maiko Iuchi
BeatmapID:2157207
BeatmapSetID:382700

[Difficulty]
HPDrainRate:5
CircleSize:4
OverallDifficulty:6
ApproachRate:8
SliderMultiplier:2.3
SliderTickRate:2

[Events]
//Background and Video events
0,0,"slep.jpg",0,0
//Break Periods
2,215217,232527
//Storyboard Layer 0 (Background)
//Storyboard Layer 1 (Fail)
//Storyboard Layer 2 (Pass)
//Storyboard Layer 3 (Foreground)
//Storyboard Layer 4 (Overlay)
//Storyboard Sound Samples

[TimingPoints]
1104,652.173913043478,4,2,1,40,1,0
10071,-83.3333333333333,4,2,1,60,0,0
10560,-71.4285714285714,4,2,1,60,0,0
11212,-100,4,2,1,60,0,0
11538,-83.3333333333333,4,2,1,70,0,0
31919,-71.4285714285714,4,2,1,70,0,0
32408,-71.4285714285714,4,2,1,40,0,0
35017,-111.111111111111,4,2,1,50,0,0
43169,-111.111111111111,4,2,1,30,0,0
43332,-111.111111111111,4,2,1,50,0,0
43658,-111.111111111111,4,2,1,30,0,0
43821,-111.111111111111,4,2,1,50,0,0
43984,-111.111111111111,4,2,1,30,0,0
44310,-111.111111111111,4,2,1,50,0,0
44473,-111.111111111111,4,2,1,30,0,0
44799,-111.111111111111,4,2,1,50,0,0
45125,-111.111111111111,4,2,1,30,0,0
45451,-111.111111111111,4,2,1,50,0,0
53277,-100,4,2,1,50,0,0
54908,-83.3333333333333,4,2,1,50,0,0
55886,-90.9090909090909,4,2,1,60,0,0
58169,-90.9090909090909,4,2,1,30,0,0
58495,-90.9090909090909,4,2,1,60,0,0
63386,-90.9090909090909,4,2,1,30,0,0
63712,-90.9090909090909,4,2,1,60,0,0
68603,-90.9090909090909,4,2,1,30,0,0
68930,-90.9090909090909,4,2,1,60,0,0
75288,-76.9230769230769,4,2,1,60,0,0
75777,-90.9090909090909,4,2,1,60,0,0
76756,-111.111111111111,4,2,1,60,0,0
78712,-111.111111111111,4,2,1,30,0,0
79364,-83.3333333333333,4,2,1,70,0,0
121103,-83.3333333333333,4,2,1,60,0,0
125669,-111.111111111111,4,2,1,60,0,0
126321,-100,4,2,1,50,0,0
134962,-100,4,2,1,30,0,0
135125,-100,4,2,1,50,0,0
135288,-100,4,2,1,30,0,0
135614,-100,4,2,1,50,0,0
136429,-100,4,2,1,30,0,0
136755,-100,4,2,1,50,0,0
142136,-83.3333333333333,4,2,1,50,0,0
143114,-100,4,2,1,50,0,0
144582,-90.9090909090909,4,2,1,50,0,0
146212,-83.3333333333333,4,2,1,50,0,0
147190,-90.9090909090909,4,2,1,60,0,0
149473,-90.9090909090909,4,2,1,30,0,0
149799,-90.9090909090909,4,2,1,60,0,0
154690,-90.9090909090909,4,2,1,30,0,0
155016,-90.9090909090909,4,2,1,60,0,0
159907,-90.9090909090909,4,2,1,30,0,0
160234,-90.9090909090909,4,2,1,60,0,0
165125,-83.3333333333333,4,2,1,60,0,0
168060,-111.111111111111,4,2,1,60,0,0
169038,-142.857142857143,4,2,1,60,0,0
169201,-142.857142857143,4,2,1,40,0,0
169690,-142.857142857143,4,2,1,30,0,0
170668,-142.857142857143,4,2,1,70,0,0
170669,-83.3333333333334,4,2,1,70,0,0
191538,-90.9090909090909,4,2,1,70,0,0
212407,-90.9090909090909,4,2,1,60,0,0
215017,-90.9090909090909,4,2,1,40,0,0
233277,-90.9090909090909,4,2,1,60,0,0
234582,-90.9090909090909,4,2,1,40,0,0
234908,-90.9090909090909,4,2,1,50,0,0
235234,-90.9090909090909,4,2,1,70,0,0
235886,-83.3333333333333,4,2,1,70,0,0
256756,-83.3333333333333,4,2,1,60,0,0
277625,-83.3333333333333,4,2,1,40,0,0
280071,-83.3333333333333,4,2,1,20,0,0
282843,-83.3333333333333,4,2,1,5,0,0

[Colours]
Combo1 : 121,170,251
Combo2 : 149,234,255
Combo3 : 17,95,255
Combo4 : 96,244,170

[HitObjects]
49,307,1104,5,2,0:0:0:0:
22,230,1267,1,2,0:0:0:0:
111,251,1430,2,0,P|169:255|229:213,1,115,2|8,0:0|0:0,0:0:0:0:
361,50,2082,1,2,0:0:0:0:
280,18,2245,2,0,P|253:68|259:147,1,115,2|2,0:0|0:0,0:0:0:0:
321,176,2734,2,0,P|354:185|388:217,1,57.5,2|0,0:0|0:0,0:0:0:0:
452,232,3060,2,0,B|389:227|407:275|320:266,1,115,10|2,0:0|0:0,0:0:0:0:
345,267,3712,5,2,0:0:0:0:
379,188,3875,1,2,0:0:0:0:
277,208,4038,2,0,P|217:216|153:239,1,115,2|8,0:0|0:0,0:0:0:0:
62,77,4690,1,2,0:0:0:0:
1,137,4853,2,0,P|47:162|123:133,1,115,2|2,0:0|0:0,0:0:0:0:
154,78,5343,2,0,P|156:46|165:0,1,57.5,2|0,0:0|0:0,0:0:0:0:
244,102,5669,2,0,P|254:145|259:240,1,115,10|2,0:0|0:0,0:0:0:0:
260,215,6321,5,2,0:0:0:0:
173,247,6484,1,2,0:0:0:0:
315,293,6647,2,0,P|351:250|348:176,2,115,2|8|2,0:0|0:0|0:0,0:0:0:0:
224,311,7462,2,0,P|171:300|98:297,1,115,2|2,0:0|0:0,0:0:0:0:
28,339,7951,2,0,P|25:306|18:267,1,57.5,2|0,0:0|0:0,0:0:0:0:
55,196,8277,2,0,P|50:167|48:138,1,57.5,10|0,0:0|0:0,0:0:0:0:
47,46,8603,2,0,L|24:38,4,14.375,2|0|0|0|0,3:2|3:2|3:2|3:2|3:2,0:0:0:0:
136,70,8930,5,6,3:2:0:0:
226,53,9093,1,0,3:2:0:0:
316,39,9256,1,2,1:0:0:0:
316,39,9582,2,0,P|356:81|346:160,1,115,0|0,1:2|3:2,0:0:0:0:
395,222,10071,2,0,B|360:203|346:177|346:177|304:196|253:180,1,137.999995788574,2|2,1:1|1:1,0:0:0:0:
163,124,10560,6,0,P|123:181|142:257,1,120.749996315003,6|0,3:2|0:0,0:0:0:0:
121,244,10886,1,2,1:1:0:0:
212,233,11049,1,0,1:0:0:0:
121,244,11212,2,0,P|90:235|48:228,1,57.5,6|2,3:2|3:2,0:0:0:0:
128,335,11538,6,0,B|195:321|193:384|286:354,1,137.999995788574,6|2,3:2|3:2,0:0:0:0:
445,359,12190,2,0,P|427:329|424:295,1,68.9999978942872,8|2,0:0|0:0,0:0:0:0:
494,228,12517,1,2,0:0:0:0:
432,154,12680,2,0,P|365:112|302:140,1,137.999995788574,2|8,3:2|0:0,0:0:0:0:
256,206,13169,2,0,P|292:213|343:218,1,68.9999978942872,2|2,3:2|0:0,0:0:0:0:
299,93,13495,2,0,P|262:85|212:81,1,68.9999978942872,8|0,0:0|0:0,0:0:0:0:
144,155,13821,1,2,3:2:0:0:
64,114,13984,1,2,0:0:0:0:
171,146,14147,6,0,P|210:194|194:295,1,137.999995788574,2|2,3:2|3:2,0:0:0:0:
114,337,14636,2,0,P|108:302|106:255,1,68.9999978942872,0|8,0:0|0:0,0:0:0:0:
220,291,14962,2,0,P|225:325|228:373,1,68.9999978942872,2|2,0:0|0:0,0:0:0:0:
321,334,15288,2,0,B|393:324|383:382|482:364,1,137.999995788574,2|8,3:2|0:0,0:0:0:0:
490,278,15777,2,0,P|455:253|400:260,1,68.9999978942872,2|2,3:2|0:0,0:0:0:0:
361,181,16103,2,0,L|349:100,1,68.9999978942872,8|2,0:0|3:2,0:0:0:0:
279,47,16430,1,2,0:0:0:0:
252,162,16593,5,2,0:0:0:0:
252,162,16674,1,2,0:0:0:0:
252,162,16756,2,0,P|260:236|278:331,2,137.999995788574,2|2|8,3:2|3:2|0:0,0:0:0:0:
172,107,17571,1,2,0:0:0:0:
92,162,17734,1,2,0:0:0:0:
118,39,17897,2,0,P|187:24|251:70,1,137.999995788574,2|8,3:2|0:0,0:0:0:0:
329,97,18386,2,0,P|361:75|371:21,1,68.9999978942872,2|0,3:2|0:0,0:0:0:0:
461,11,18712,2,0,P|464:49|505:85,1,68.9999978942872,8|0,0:0|0:0,0:0:0:0:
480,169,19038,2,0,P|444:152|393:170,1,68.9999978942872,2|2,3:2|0:0,0:0:0:0:
358,246,19364,5,2,3:2:0:0:
262,260,19527,1,2,3:2:0:0:
166,272,19690,2,0,P|146:241|152:191,1,68.9999978942872,8|0,1:2|0:0,0:0:0:0:
101,77,20017,2,0,P|168:78|219:153,1,137.999995788574,8|0,1:2|3:2,0:0:0:0:
335,166,20506,2,0,L|175:141,1,137.999995788574,8|8,1:2|1:2,0:0:0:0:
131,213,20995,2,0,P|128:247|117:309,1,68.9999978942872,2|2,3:2|0:0,0:0:0:0:
6,375,21321,1,12,0:0:0:0:
22,279,21484,1,12,0:0:0:0:
114,305,21647,2,0,P|150:312|193:324,1,68.9999978942872,0|8,3:0|1:2,0:0:0:0:
312,369,21973,6,0,P|353:341|355:239,1,137.999995788574,6|2,3:2|3:2,0:0:0:0:
288,51,22625,2,0,P|256:43|218:31,2,68.9999978942872,8|2|2,0:0|0:0|0:0,0:0:0:0:
375,10,23114,2,0,P|334:38|332:140,1,137.999995788574,2|8,3:2|0:0,0:0:0:0:
293,213,23603,2,0,B|264:212|257:231|217:228,1,68.9999978942872,2|2,3:2|0:0,0:0:0:0:
136,190,23930,1,8,0:0:0:0:
136,190,24093,1,2,0:0:0:0:
46,153,24256,1,2,3:2:0:0:
2,239,24419,1,2,0:0:0:0:
144,204,24582,6,0,P|168:151|159:45,1,137.999995788574,6|2,3:2|3:2,0:0:0:0:
263,154,25071,2,0,P|266:186|283:239,1,68.9999978942872,2|8,0:0|0:0,0:0:0:0:
368,248,25397,2,0,P|401:239|435:234,1,68.9999978942872,2|2,0:0|0:0,0:0:0:0:
328,340,25723,2,0,P|259:360|178:374,1,137.999995788574,2|8,3:2|0:0,0:0:0:0:
97,368,26212,2,0,P|78:336|82:296,1,68.9999978942872,2|2,3:2|0:0,0:0:0:0:
154,228,26538,2,0,P|173:260|169:300,2,68.9999978942872,8|2|2,0:0|3:2|0:0,0:0:0:0:
73,175,27027,5,2,0:0:0:0:
73,175,27109,1,2,0:0:0:0:
73,175,27190,2,0,P|40:187|-1:197,1,68.9999978942872,2|0,3:2|0:0,0:0:0:0:
119,94,27517,2,0,P|176:81|253:146,1,137.999995788574,2|8,3:2|0:0,0:0:0:0:
476,203,28169,1,2,0:0:0:0:
404,267,28332,2,0,B|334:269|351:313|266:307,1,137.999995788574,2|8,3:2|0:0,0:0:0:0:
197,364,28821,2,0,P|183:337|182:284,1,68.9999978942872,2|2,3:2|0:0,0:0:0:0:
265,213,29147,2,0,P|213:172|130:186,1,137.999995788574,8|2,0:0|3:2,0:0:0:0:
78,247,29636,1,2,0:0:0:0:
4,183,29799,5,2,3:2:0:0:
85,130,29962,2,0,L|133:138,2,34.4999989471436,0|0|0,1:2|1:2|1:2,0:0:0:0:
12,193,30288,1,0,1:2:0:0:
75,265,30451,1,8,1:2:0:0:
150,204,30614,2,0,L|234:181,1,68.9999978942872,0|2,1:2|0:0,0:0:0:0:
325,101,30940,1,0,3:2:0:0:
399,162,31103,2,0,P|392:199|390:237,1,68.9999978942872,8|2,1:2|0:0,0:0:0:0:
234,153,31430,2,0,P|240:115|243:78,1,68.9999978942872,8|0,1:2|0:0,0:0:0:0:
335,16,31756,1,8,1:2:0:0:
325,101,31919,2,0,L|301:283,1,160.99999508667,8|8,1:2|1:2,0:0:0:0:
256,192,32408,12,0,34690,0:0:0:0:
311,321,35017,6,0,P|321:263|320:195,1,103.499996841431,6|0,3:2|0:0,0:0:0:0:
352,135,35506,1,2,0:0:0:0:
352,135,35669,2,0,P|319:130|282:119,1,51.7499984207154,8|0,0:0|0:0,0:0:0:0:
238,64,35995,2,0,P|208:66|169:76,1,51.7499984207154,2|0,0:0|0:0,0:0:0:0:
108,31,36321,2,0,P|63:75|68:132,1,103.499996841431,0|2,3:2|0:0,0:0:0:0:
35,286,36973,2,0,P|79:274|152:265,1,103.499996841431,10|2,0:0|0:0,0:0:0:0:
186,193,37462,1,2,0:0:0:0:
240,261,37625,6,0,P|231:317|231:382,1,103.499996841431,2|0,3:2|0:0,0:0:0:0:
317,351,38114,1,2,0:0:0:0:
317,351,38277,2,0,P|322:316|321:281,1,51.7499984207154,8|0,0:0|0:0,0:0:0:0:
380,233,38603,2,0,B|435:235|479:214|479:214|487:245|517:276,2,155.249995262146,2|2|10,0:0|0:0|0:0,0:0:0:0:
232,21,39908,1,2,0:0:0:0:
195,101,40071,1,2,0:0:0:0:
270,146,40234,6,0,P|294:142|340:133,1,51.7499984207154,2|0,3:2|0:0,0:0:0:0:
180,91,40560,2,0,P|155:94|110:104,1,51.7499984207154,2|0,0:0|0:0,0:0:0:0:
49,60,40886,2,0,P|7:124|35:211,1,155.249995262146,8|2,0:0|0:0,0:0:0:0:
107,222,41538,1,0,3:0:0:0:
63,298,41701,2,0,P|32:304|-3:319,2,51.7499984207154,2|2|2,0:0|0:0|0:0,0:0:0:0:
140,339,42190,2,0,P|154:319|159:274,1,51.7499984207154,10|0,0:0|0:0,0:0:0:0:
215,179,42517,2,0,P|220:204|235:225,1,51.7499984207154,2|2,0:0|0:0,0:0:0:0:
317,258,42843,6,0,P|373:267|439:286,1,103.499996841431,0|2,3:0|0:0,0:0:0:0:
446,362,43332,2,0,P|427:340|418:313,1,51.7499984207154,2|8,0:0|0:0,0:0:0:0:
440,190,43658,2,0,P|430:217|411:238,1,51.7499984207154,2|2,0:0|0:0,0:0:0:0:
317,258,43984,2,0,P|269:233|201:242,1,103.499996841431,2|2,0:0|0:0,0:0:0:0:
158,296,44473,2,0,P|165:323|171:360,1,51.7499984207154,2|2,0:0|0:0,0:0:0:0:
81,349,44799,2,0,P|73:321|68:285,1,51.7499984207154,10|2,0:0|0:0,0:0:0:0:
92,163,45125,1,4,0:1:0:0:
92,163,45451,6,0,P|140:188|208:179,1,103.499996841431,2|0,3:2|0:0,0:0:0:0:
224,106,45940,1,2,0:0:0:0:
224,106,46103,2,0,P|215:75|211:36,1,51.7499984207154,8|0,0:0|0:0,0:0:0:0:
319,104,46430,2,0,P|334:156|341:211,1,103.499996841431,2|0,0:0|3:2,0:0:0:0:
249,356,47082,2,0,P|227:351|180:345,1,51.7499984207154,0|0,0:0|0:0,0:0:0:0:
117,382,47408,2,0,P|98:358|97:276,1,103.499996841431,10|2,0:0|0:0,0:0:0:0:
69,202,47897,1,0,0:0:0:0:
69,202,48060,6,0,P|124:204|168:245,1,103.499996841431,2|0,3:2|0:0,0:0:0:0:
227,290,48549,1,2,0:0:0:0:
303,247,48712,2,0,P|332:241|358:233,1,51.7499984207154,8|0,0:0|0:0,0:0:0:0:
408,166,49038,2,0,B|406:203|385:226|385:226|422:263|423:319,2,155.249995262146,2|2|10,0:0|0:0|0:0,0:0:0:0:
268,57,50343,1,0,0:0:0:0:
329,0,50506,1,2,0:0:0:0:
272,71,50669,6,0,L|206:63,1,51.7499984207154,2|0,3:2|0:0,0:0:0:0:
130,57,50995,2,0,L|146:131,1,51.7499984207154,2|0,0:0|0:0,0:0:0:0:
121,200,51321,2,0,P|166:198|222:157,1,103.499996841431,8|0,0:0|0:0,0:0:0:0:
300,183,51810,1,2,0:0:0:0:
260,261,51973,2,0,P|252:291|252:332,1,51.7499984207154,0|0,3:0|0:0,0:0:0:0:
374,367,52299,2,0,P|381:336|382:296,1,51.7499984207154,2|0,0:0|0:0,0:0:0:0:
432,243,52625,2,0,P|458:235|501:231,1,51.7499984207154,10|0,0:0|0:0,0:0:0:0:
505,146,52951,2,0,L|509:126,4,12.9374996051788,0|0|0|0|0,3:2|3:2|3:2|3:2|3:2,0:0:0:0:
414,132,53277,5,4,1:2:0:0:
414,132,53440,2,0,L|401:53,1,57.5,0|0,1:2|3:2,0:0:0:0:
320,36,53767,1,4,1:2:0:0:
262,128,53930,2,0,P|204:133|159:96,1,115,8|2,0:0|3:2,0:0:0:0:
72,75,54419,2,0,L|92:210,1,115,0|8,3:2|1:2,0:0:0:0:
77,284,54908,2,0,B|116:275|116:275|138:282|138:282|199:272,1,103.499996841431,4|0,1:2|0:0,0:0:0:0:
189,281,55234,2,0,P|207:248|199:202,1,68.9999978942872,12|8,0:0|0:0,0:0:0:0:
263,140,55560,1,4,3:2:0:0:
263,140,55723,1,8,3:2:0:0:
263,140,55886,6,0,B|333:133|313:189|393:173,1,126.500003860474,4|2,3:2|0:0,0:0:0:0:
462,142,56375,2,0,P|466:109|478:71,1,63.2500019302369,2|8,0:0|0:0,0:0:0:0:
364,188,56701,2,0,P|359:220|348:259,1,63.2500019302369,2|0,0:0|3:0,0:0:0:0:
283,307,57027,1,2,3:2:0:0:
207,259,57190,1,2,0:0:0:0:
134,309,57353,2,0,P|97:315|54:322,2,63.2500019302369,8|0|2,0:0|3:0|0:0,0:0:0:0:
133,219,57843,2,0,P|130:179|118:144,1,63.2500019302369,8|2,0:0|0:0,0:0:0:0:
30,89,58169,1,4,3:1:0:0:
103,137,58332,1,2,0:0:0:0:
158,68,58495,6,0,P|187:56|216:29,1,63.2500019302369,2|0,3:2|0:0,0:0:0:0:
25,77,58821,2,0,P|-4:164|11:222,1,126.500003860474,2|8,3:2|0:0,0:0:0:0:
38,276,59310,2,0,P|74:280|120:294,1,63.2500019302369,2|0,0:0|0:0,0:0:0:0:
163,349,59636,1,2,0:0:0:0:
163,349,59799,2,0,P|193:338|244:331,1,63.2500019302369,0|8,0:0|0:0,0:0:0:0:
308,377,60125,2,0,P|352:340|341:258,1,126.500003860474,0|8,3:2|0:0,0:0:0:0:
250,97,60777,1,2,0:0:0:0:
211,176,60940,5,2,0:0:0:0:
211,176,61022,1,2,0:0:0:0:
211,176,61103,2,0,P|180:182|141:198,1,63.2500019302369,2|0,3:2|0:0,0:0:0:0:
251,82,61430,2,0,P|281:75|321:60,1,63.2500019302369,2|2,0:0|0:0,0:0:0:0:
203,0,61756,2,0,P|165:38|171:127,1,126.500003860474,8|0,0:0|3:0,0:0:0:0:
112,181,62245,2,0,P|79:189|26:202,1,63.2500019302369,2|0,0:0|0:0,0:0:0:0:
18,279,62571,1,8,0:0:0:0:
152,278,62734,2,0,P|217:260|296:241,1,126.500003860474,0|8,3:0|0:0,0:0:0:0:
494,351,63386,1,4,3:1:0:0:
446,276,63549,1,2,0:0:0:0:
376,330,63712,6,0,P|345:329|292:318,1,63.2500019302369,6|0,3:2|0:0,0:0:0:0:
292,238,64038,2,0,P|304:207|310:165,1,63.2500019302369,0|0,1:2|0:0,0:0:0:0:
191,110,64364,2,0,P|193:149|216:195,1,63.2500019302369,8|0,0:0|0:0,0:0:0:0:
274,246,64690,1,0,1:2:0:0:
201,184,64853,2,0,P|147:159|65:182,1,126.500003860474,0|4,3:2|1:2,0:0:0:0:
28,278,65343,2,0,P|82:303|164:280,1,126.500003860474,0|8,3:2|0:0,0:0:0:0:
228,323,65832,2,0,P|263:331|306:345,1,63.2500019302369,8|4,0:0|0:0,0:0:0:0:
371,370,66158,5,0,3:2:0:0:
371,370,66239,1,0,3:2:0:0:
371,370,66321,2,0,P|392:345|399:301,1,63.2500019302369,4|0,3:2|0:0,0:0:0:0:
443,238,66647,2,0,P|437:209|431:154,1,63.2500019302369,0|2,3:2|0:0,0:0:0:0:
440,87,66973,2,0,P|392:93|351:141,1,94.8750028953553,10|0,0:0|0:0,0:0:0:0:
360,137,67299,2,0,L|222:114,1,126.500003860474,4|0,3:2|0:0,0:0:0:0:
174,51,67788,1,8,0:0:0:0:
129,127,67951,2,0,P|138:153|145:205,1,63.2500019302369,0|2,3:0|0:0,0:0:0:0:
89,256,68277,2,0,P|51:262|5:281,1,63.2500019302369,8|2,0:0|0:0,0:0:0:0:
180,281,68603,2,0,P|222:295|280:304,1,94.8750028953553,4|0,3:1|0:0,0:0:0:0:
291,296,68930,6,0,P|279:333|277:372,1,63.2500019302369,6|0,3:2|0:0,0:0:0:0:
365,354,69256,2,0,P|377:317|379:278,1,63.2500019302369,0|2,3:2|0:0,0:0:0:0:
475,239,69582,1,8,0:0:0:0:
385,25,69908,2,0,P|350:71|360:155,1,126.500003860474,6|0,3:2|0:0,0:0:0:0:
437,156,70397,1,8,0:0:0:0:
341,150,70560,2,0,P|306:153|255:161,1,63.2500019302369,0|2,3:2|0:0,0:0:0:0:
190,145,70886,2,0,P|183:115|178:66,1,63.2500019302369,8|0,0:0|3:2,0:0:0:0:
75,40,71212,2,0,L|38:46,2,31.6250009651184,2|2|2,0:0|0:0|0:0,0:0:0:0:
158,68,71538,5,6,3:2:0:0:
173,155,71701,1,2,3:2:0:0:
189,241,71864,1,2,3:2:0:0:
377,367,72190,2,0,P|387:336|386:289,1,63.2500019302369,8|0,0:0|0:0,0:0:0:0:
301,323,72517,1,2,0:0:0:0:
301,323,72680,2,0,P|238:336|166:347,1,126.500003860474,2|8,3:2|0:0,0:0:0:0:
90,327,73169,2,0,P|85:294|76:254,1,63.2500019302369,2|0,3:2|0:0,0:0:0:0:
27,192,73495,2,0,P|61:181|99:177,1,63.2500019302369,8|0,0:0|0:0,0:0:0:0:
145,109,73821,2,0,P|195:118|266:122,1,94.8750028953553,2|0,3:2|0:0,0:0:0:0:
247,133,74147,5,0,1:2:0:0:
328,98,74310,1,0,1:2:0:0:
293,16,74473,1,4,1:2:0:0:
293,16,74799,1,8,1:2:0:0:
342,112,74962,2,0,P|335:146|333:188,1,63.2500019302369,0|0,1:2|3:2,0:0:0:0:
392,293,75288,2,0,B|331:280|331:280|316:259|316:259|237:240,1,149.499993156433,4|8,1:2|1:2,0:0:0:0:
176,281,75777,2,0,P|185:306|187:358,1,63.2500019302369,0|0,3:0|1:2,0:0:0:0:
63,256,76103,2,0,P|53:230|52:179,1,63.2500019302369,8|0,1:2|3:0,0:0:0:0:
52,187,76348,1,0,3:0:0:0:
55,178,76430,2,0,L|90:165,3,31.6250009651184,0|0|0|0,3:0|3:0|3:0|3:0,0:0:0:0:
98,156,76756,6,0,P|68:215|79:321,2,155.249995262146,4|4|4,3:2|3:2|3:2,0:0:0:0:
426,66,79038,2,0,L|422:88,6,12.9374996051788,2|0|0|0|0|0|0,3:2|3:2|3:2|3:2|3:2|3:2|3:2,0:0:0:0:
446,43,79364,6,0,P|380:68|302:70,1,137.999995788574,6|2,3:2|3:2,0:0:0:0:
230,21,79853,1,0,0:0:0:0:
230,21,80017,2,0,B|188:15|188:15|138:31,1,68.9999978942872,8|2,0:0|0:0,0:0:0:0:
94,91,80343,1,2,0:0:0:0:
170,149,80506,2,0,P|181:200|189:288,1,137.999995788574,2|8,3:2|0:0,0:0:0:0:
67,358,80995,2,0,P|58:321|59:276,1,68.9999978942872,2|0,3:2|0:0,0:0:0:0:
165,309,81321,2,0,P|248:314|302:371,1,137.999995788574,8|2,0:0|3:2,0:0:0:0:
379,378,81810,1,2,0:0:0:0:
423,292,81973,6,0,P|412:260|411:214,1,68.9999978942872,2|0,3:2|0:0,0:0:0:0:
458,109,82299,2,0,P|419:113|380:136,1,68.9999978942872,2|0,3:2|0:0,0:0:0:0:
323,192,82625,1,8,0:0:0:0:
323,192,82788,2,0,L|237:173,1,68.9999978942872,2|2,0:0|0:0,0:0:0:0:
199,98,83114,2,0,P|155:62|52:84,1,137.999995788574,0|8,3:2|0:0,0:0:0:0:
123,150,83603,2,0,P|135:175|140:230,1,68.9999978942872,2|0,3:2|0:0,0:0:0:0:
34,361,83930,1,10,0:0:0:0:
1,270,84093,1,2,3:2:0:0:
103,294,84256,2,0,L|177:314,1,68.9999978942872,2|2,0:0|0:0,0:0:0:0:
169,312,84500,5,2,0:0:0:0:
169,312,84582,2,0,P|237:316|301:275,1,137.999995788574,6|2,3:2|3:2,0:0:0:0:
512,283,85234,1,8,0:0:0:0:
470,370,85397,2,0,P|435:364|400:356,1,68.9999978942872,2|2,0:0|0:0,0:0:0:0:
314,289,85723,2,0,P|303:210|290:132,1,137.999995788574,2|8,3:2|0:0,0:0:0:0:
172,38,86212,2,0,P|177:66|182:117,1,68.9999978942872,2|0,3:2|0:0,0:0:0:0:
150,197,86538,2,0,P|90:206|38:153,1,137.999995788574,8|2,0:0|3:2,0:0:0:0:
52,54,87027,1,2,0:0:0:0:
21,163,87190,6,0,P|26:203|35:247,1,68.9999978942872,2|0,3:2|0:0,0:0:0:0:
91,320,87517,2,0,P|61:327|8:347,1,68.9999978942872,2|0,3:2|0:0,0:0:0:0:
132,228,87843,1,8,0:0:0:0:
132,228,88006,2,0,P|166:219|209:205,1,68.9999978942872,2|2,0:0|0:0,0:0:0:0:
359,141,88332,2,0,P|312:102|229:118,1,137.999995788574,0|8,3:2|0:0,0:0:0:0:
236,207,88821,2,0,L|258:300,1,68.9999978942872,2|2,3:2|0:0,0:0:0:0:
302,356,89147,1,10,0:0:0:0:
302,356,89310,1,2,3:2:0:0:
397,373,89473,1,2,0:0:0:0:
472,313,89636,1,2,0:0:0:0:
457,217,89799,6,0,P|440:136|421:65,1,137.999995788574,6|2,3:2|3:2,0:0:0:0:
198,52,90451,1,8,0:0:0:0:
130,120,90614,1,2,0:0:0:0:
218,157,90777,1,2,0:0:0:0:
120,128,90940,2,0,P|85:80|105:-9,1,137.999995788574,2|8,3:2|0:0,0:0:0:0:
185,39,91430,2,0,L|259:21,1,68.9999978942872,2|0,3:2|0:0,0:0:0:0:
340,60,91756,2,0,P|351:97|360:143,1,68.9999978942872,8|0,0:0|0:0,0:0:0:0:
424,196,92082,1,2,3:2:0:0:
359,268,92245,1,2,0:0:0:0:
270,228,92408,6,0,P|259:191|250:145,1,68.9999978942872,6|0,3:2|0:0,0:0:0:0:
176,102,92734,2,0,P|110:100|40:140,1,137.999995788574,2|8,3:2|0:0,0:0:0:0:
17,255,93223,2,0,P|77:246|124:210,1,103.499996841431,2|0,3:2|0:0,0:0:0:0:
109,210,93549,2,0,L|90:354,1,137.999995788574,0|8,3:2|0:0,0:0:0:0:
180,382,94038,1,2,3:2:0:0:
261,330,94201,1,8,0:0:0:0:
261,330,94364,2,0,L|337:313,1,68.9999978942872,10|2,0:0|3:2,0:0:0:0:
411,364,94690,1,2,0:0:0:0:
411,364,94853,1,10,0:0:0:0:
465,269,95017,6,0,P|449:206|438:124,1,137.999995788574,6|2,3:2|3:2,0:0:0:0:
345,56,95506,2,0,P|343:92|331:141,1,68.9999978942872,2|8,0:0|0:0,0:0:0:0:
243,149,95832,1,2,0:0:0:0:
243,149,95995,2,0,L|161:133,1,68.9999978942872,2|2,0:0|3:2,0:0:0:0:
24,221,96321,1,2,0:0:0:0:
82,144,96484,2,0,P|158:171|181:248,1,137.999995788574,8|2,0:0|0:0,0:0:0:0:
126,355,96973,2,0,P|109:320|109:277,1,68.9999978942872,8|0,0:0|0:0,0:0:0:0:
202,301,97299,1,2,3:2:0:0:
202,301,97462,1,2,0:0:0:0:
279,359,97625,5,6,3:2:0:0:
279,359,97788,2,0,L|351:372,1,68.9999978942872,8|2,1:2|3:2,0:0:0:0:
427,267,98114,5,12,1:2:0:0:
427,267,98277,2,0,L|355:280,1,68.9999978942872,8|2,0:0|0:0,0:0:0:0:
268,163,98603,5,10,0:0:0:0:
349,197,98767,2,0,P|378:142|372:66,1,137.999995788574,0|8,3:2|0:0,0:0:0:0:
367,66,99174,1,2,0:0:0:0:
361,64,99256,1,2,3:2:0:0:
277,15,99419,1,10,0:0:0:0:
200,74,99582,2,0,L|118:91,2,68.9999978942872,10|10|2,0:0|3:2|0:0,0:0:0:0:
192,187,100071,5,10,0:0:0:0:
188,179,100152,1,2,0:0:0:0:
185,169,100234,2,0,P|133:137|39:153,1,137.999995788574,6|2,3:2|3:2,0:0:0:0:
17,229,100723,1,0,0:0:0:0:
97,282,100886,2,0,P|106:320|115:364,1,68.9999978942872,8|2,0:0|0:0,0:0:0:0:
203,382,101212,1,2,0:0:0:0:
280,324,101375,2,0,P|347:311|414:295,1,137.999995788574,2|8,3:2|0:0,0:0:0:0:
457,192,101864,2,0,P|423:198|387:210,1,68.9999978942872,2|2,3:2|0:0,0:0:0:0:
302,167,102190,2,0,P|273:122|271:33,1,137.999995788574,8|2,0:0|3:2,0:0:0:0:
177,7,102680,1,2,0:0:0:0:
287,22,102843,6,0,P|299:60|306:117,1,68.9999978942872,2|0,3:2|0:0,0:0:0:0:
203,220,103169,2,0,P|191:182|184:125,1,68.9999978942872,2|0,3:2|0:0,0:0:0:0:
94,108,103495,1,8,0:0:0:0:
94,108,103658,2,0,P|61:117|10:129,1,68.9999978942872,2|2,0:0|0:0,0:0:0:0:
196,135,103984,2,0,P|263:115|359:95,1,137.999995788574,0|8,3:2|0:0,0:0:0:0:
426,98,104473,2,0,P|468:144|454:226,1,137.999995788574,2|10,3:2|0:0,0:0:0:0:
433,307,104962,1,2,3:2:0:0:
340,278,105125,1,2,0:0:0:0:
255,324,105288,5,2,0:0:0:0:
255,324,105370,1,2,0:0:0:0:
255,324,105451,2,0,P|235:292|239:241,1,68.9999978942872,6|0,3:2|0:0,0:0:0:0:
306,199,105777,2,0,L|381:179,1,68.9999978942872,2|0,3:2|0:0,0:0:0:0:
318,51,106103,1,8,0:0:0:0:
251,121,106267,2,0,L|176:141,1,68.9999978942872,2|2,0:0|0:0,0:0:0:0:
113,222,106593,2,0,P|64:174|68:92,1,137.999995788574,2|8,3:2|0:0,0:0:0:0:
134,44,107082,2,0,P|156:67|164:128,1,68.9999978942872,2|0,3:2|0:0,0:0:0:0:
256,138,107408,2,0,B|327:131|316:179|420:162,1,137.999995788574,8|2,0:0|3:2,0:0:0:0:
484,106,107897,1,2,0:0:0:0:
406,166,108060,6,0,P|389:130|392:89,1,68.9999978942872,2|0,3:2|0:0,0:0:0:0:
494,203,108386,2,0,P|492:237|476:267,1,68.9999978942872,2|0,3:2|0:0,0:0:0:0:
383,294,108712,1,8,0:0:0:0:
383,294,108875,2,0,P|348:299|304:313,1,68.9999978942872,2|0,3:2|0:0,0:0:0:0:
238,366,109201,2,0,B|196:368|169:346|169:346|136:369|85:358,1,137.999995788574,0|8,3:2|0:0,0:0:0:0:
25,310,109690,1,2,3:2:0:0:
25,310,109853,1,2,0:0:0:0:
109,262,110017,2,0,P|121:229|119:187,1,68.9999978942872,10|2,0:0|3:2,0:0:0:0:
35,97,110343,1,2,0:0:0:0:
116,45,110506,1,10,0:0:0:0:
35,97,110669,6,0,P|23:130|25:172,1,68.9999978942872,6|0,3:2|0:0,0:0:0:0:
116,188,110995,2,0,P|182:175|263:162,1,137.999995788574,2|8,3:2|0:0,0:0:0:0:
306,83,111484,2,0,B|340:86|341:107|391:106,1,68.9999978942872,2|2,0:0|0:0,0:0:0:0:
466,114,111810,2,0,P|395:133|371:199,1,137.999995788574,2|8,3:2|0:0,0:0:0:0:
452,266,112299,2,0,P|453:229|459:184,1,68.9999978942872,2|0,3:2|0:0,0:0:0:0:
354,277,112625,2,0,P|352:313|347:359,1,68.9999978942872,8|0,0:0|0:0,0:0:0:0:
259,382,112951,1,2,3:2:0:0:
197,307,113114,1,2,0:0:0:0:
118,363,113277,6,0,P|50:372|-41:382,1,137.999995788574,6|2,3:2|3:2,0:0:0:0:
99,166,113930,1,8,0:0:0:0:
182,214,114093,2,0,P|216:209|265:199,1,68.9999978942872,2|2,3:2|0:0,0:0:0:0:
338,140,114419,2,0,P|283:94|195:116,1,137.999995788574,0|8,3:2|0:0,0:0:0:0:
126,74,114908,2,0,P|118:39|112:5,1,68.9999978942872,2|8,3:2|0:0,0:0:0:0:
37,122,115234,1,10,0:0:0:0:
37,122,115397,2,0,P|44:156|51:191,1,68.9999978942872,2|2,3:2|3:2,0:0:0:0:
9,300,115723,1,10,0:0:0:0:
92,348,115886,6,0,P|172:348|223:299,1,137.999995788574,6|2,3:2|3:2,0:0:0:0:
239,219,116375,1,2,0:0:0:0:
239,219,116538,2,0,L|148:234,1,68.9999978942872,8|2,0:0|0:0,0:0:0:0:
306,299,116864,2,0,L|374:287,1,68.9999978942872,2|2,0:0|3:2,0:0:0:0:
448,349,117190,1,2,0:0:0:0:
448,349,117353,1,8,0:0:0:0:
505,270,117517,2,0,P|523:209|507:105,1,137.999995788574,2|8,3:2|0:0,0:0:0:0:
321,33,118169,1,2,3:2:0:0:
273,116,118332,1,2,0:0:0:0:
339,45,118495,6,0,P|370:39|419:27,1,68.9999978942872,2|8,3:2|1:2,0:0:0:0:
234,18,118821,2,0,P|178:11|68:8,1,137.999995788574,2|12,3:2|0:0,0:0:0:0:
118,101,119310,2,0,P|126:132|132:191,1,68.9999978942872,2|14,0:0|0:0,0:0:0:0:
234,225,119636,2,0,B|304:219|289:277|394:255,1,137.999995788574,2|12,3:2|0:0,0:0:0:0:
362,265,120044,1,8,0:0:0:0:
360,272,120125,1,2,3:2:0:0:
426,341,120288,1,10,0:0:0:0:
332,366,120451,2,0,P|303:360|239:351,1,68.9999978942872,8|8,0:0|0:0,0:0:0:0:
177,311,120777,1,2,0:0:0:0:
107,377,120940,1,8,0:0:0:0:
24,326,121103,6,0,P|17:252|8:167,1,137.999995788574,6|10,3:2|1:2,0:0:0:0:
201,91,121756,1,8,0:0:0:0:
148,9,121919,2,0,P|111:55|125:146,1,137.999995788574,2|0,1:2|1:2,0:0:0:0:
208,103,122408,1,0,3:0:0:0:
208,103,122571,2,0,P|241:90|303:78,1,68.9999978942872,2|0,1:2|3:0,0:0:0:0:
352,26,122897,1,0,3:0:0:0:
437,69,123060,1,10,0:0:0:0:
308,212,123386,1,4,3:2:0:0:
223,260,123549,6,0,P|220:293|211:340,1,68.9999978942872,0|0,1:2|3:2,0:0:0:0:
125,365,123875,1,8,0:0:0:0:
219,345,124038,2,0,P|276:310|360:321,1,137.999995788574,2|10,1:2|0:0,0:0:0:0:
430,268,124527,2,0,P|403:285|353:288,1,68.9999978942872,0|0,3:0|1:2,0:0:0:0:
308,212,124853,2,0,L|292:139,1,68.9999978942872,2|2,1:2|0:0,0:0:0:0:
231,69,125180,2,0,P|194:73|142:92,1,68.9999978942872,4|2,1:2|3:2,0:0:0:0:
53,171,125506,1,0,1:2:0:0:
21,88,125669,6,0,B|111:61|100:150|199:122,1,181.124994472504,8|0,0:0|0:0,0:0:0:0:
200,111,126321,6,0,P|116:114|50:175,1,172.5,6|2,3:2|0:0,0:0:0:0:
78,246,126973,2,0,P|116:249|155:260,1,57.5,8|0,0:0|0:0,0:0:0:0:
178,321,127299,2,0,P|157:260|157:202,1,115,2|0,0:0|3:2,0:0:0:0:
236,215,127788,1,8,0:0:0:0:
236,215,127951,2,0,P|244:242|248:287,1,57.5,2|0,3:2|0:0,0:0:0:0:
289,340,128277,2,0,P|363:350|399:315,1,115,10|2,0:0|3:2,0:0:0:0:
470,131,128930,6,0,P|410:137|348:157,1,115,2|2,3:2|3:2,0:0:0:0:
301,95,129419,2,0,P|309:64|306:26,1,57.5,0|8,0:0|0:0,0:0:0:0:
215,105,129745,1,0,0:0:0:0:
215,105,129908,2,0,P|206:166|203:233,1,115,2|0,0:0|0:0,0:0:0:0:
244,320,130397,1,10,0:0:0:0:
163,290,130560,2,0,P|137:285|84:276,1,57.5,0|0,3:0|0:0,0:0:0:0:
252,339,130886,2,0,P|305:328|392:322,1,115,10|2,0:0|0:0,0:0:0:0:
431,369,131375,1,2,0:0:0:0:
491,316,131538,6,0,P|502:283|505:238,1,57.5,2|0,3:2|0:0,0:0:0:0:
410,144,131864,2,0,P|398:176|396:222,1,57.5,2|0,0:0|0:0,0:0:0:0:
318,222,132190,2,0,B|261:221|271:260|206:250,1,115,8|2,0:0|0:0,0:0:0:0:
143,297,132680,1,2,0:0:0:0:
70,261,132843,2,0,P|34:269|2:273,2,57.5,0|8|2,3:0|0:0|3:2,0:0:0:0:
143,297,133332,1,2,0:0:0:0:
143,297,133495,2,0,P|110:246|114:171,1,115,10|2,0:0|3:2,0:0:0:0:
154,128,133984,1,2,0:0:0:0:
101,67,134147,6,0,P|70:71|27:77,1,57.5,2|0,3:2|0:0,0:0:0:0:
168,134,134473,2,0,P|198:129|242:124,1,57.5,2|0,3:2|0:0,0:0:0:0:
295,165,134799,2,0,P|328:127|323:55,1,115,8|2,0:0|0:0,0:0:0:0:
377,1,135288,2,0,P|368:24|365:71,1,57.5,2|2,0:0|0:0,0:0:0:0:
427,105,135614,1,10,0:0:0:0:
427,105,135777,2,0,P|433:132|437:177,1,57.5,2|2,3:2|0:0,0:0:0:0:
390,227,136103,1,10,0:0:0:0:
452,278,136267,1,2,0:0:0:0:
396,335,136430,2,0,P|367:338|327:350,1,57.5,4|0,0:1|0:0,0:0:0:0:
248,384,136756,6,0,P|218:332|228:254,1,115,6|0,3:2|0:0,0:0:0:0:
262,211,137245,1,2,0:0:0:0:
196,164,137408,2,0,P|167:173|121:185,1,57.5,8|0,0:0|0:0,0:0:0:0:
262,211,137734,2,0,P|292:159|282:81,1,115,2|0,0:0|3:0,0:0:0:0:
321,30,138223,1,8,0:0:0:0:
389,71,138386,2,0,P|409:62|452:54,1,57.5,2|0,3:2|0:0,0:0:0:0:
311,23,138712,2,0,P|282:17|256:6,1,57.5,10|0,0:0|0:0,0:0:0:0:
175,10,139038,2,0,P|158:37|159:82,1,57.5,2|0,3:2|0:0,0:0:0:0:
69,106,139364,6,0,L|203:86,1,115,2|2,3:2|3:2,0:0:0:0:
253,128,139853,1,2,0:0:0:0:
204,192,140017,2,0,P|200:220|193:259,1,57.5,8|2,0:0|0:0,0:0:0:0:
274,351,140343,2,0,P|277:294|290:222,1,115,2|0,0:0|0:0,0:0:0:0:
352,191,140832,1,10,0:0:0:0:
352,191,140995,2,0,P|389:196|422:223,1,57.5,0|0,3:2|0:0,0:0:0:0:
498,188,141321,2,0,P|457:181|419:117,1,115,10|0,0:0|0:0,0:0:0:0:
447,47,141810,1,2,0:0:0:0:
355,9,141973,5,4,1:2:0:0:
355,9,142136,2,0,L|206:33,1,137.999995788574,0|0,1:2|1:2,0:0:0:0:
124,20,142625,2,0,P|81:60|90:153,1,137.999995788574,8|0,0:0|0:0,0:0:0:0:
140,187,143114,2,0,P|155:159|156:114,1,57.5,2|0,0:0|0:0,0:0:0:0:
233,102,143440,1,10,0:0:0:0:
233,102,143603,2,0,P|248:132|252:174,1,57.5,2|0,3:2|0:0,0:0:0:0:
328,181,143930,2,0,P|368:151|450:164,1,115,10|0,0:0|3:2,0:0:0:0:
497,214,144419,5,0,0:0:0:0:
497,214,144500,1,0,3:2:0:0:
497,214,144582,1,4,1:2:0:0:
440,282,144745,2,0,P|400:288|367:298,1,63.2500019302369,0|0,1:2|3:2,0:0:0:0:
328,367,145071,1,4,1:2:0:0:
247,330,145234,2,0,P|242:242|235:194,1,126.500003860474,8|2,0:0|3:2,0:0:0:0:
265,120,145723,2,0,P|208:86|137:115,1,126.500003860474,0|10,3:2|1:2,0:0:0:0:
53,206,146212,2,0,P|118:206|158:166,1,103.499996841431,4|0,1:2|0:2,0:0:0:0:
146,183,146538,2,0,P|136:216|135:273,1,68.9999978942872,12|8,1:2|0:2,0:0:0:0:
70,352,146864,1,4,3:2:0:0:
70,352,147027,1,8,3:2:0:0:
152,382,147190,6,0,P|210:376|285:355,1,126.500003860474,4|2,3:2|0:0,0:0:0:0:
361,383,147680,2,0,P|370:347|364:310,1,63.2500019302369,2|8,0:0|0:0,0:0:0:0:
289,202,148006,2,0,P|280:238|286:275,1,63.2500019302369,2|0,0:0|3:0,0:0:0:0:
364,296,148332,2,0,L|441:282,1,63.2500019302369,2|2,3:2|0:0,0:0:0:0:
470,207,148658,1,8,0:0:0:0:
343,145,148821,2,0,L|218:167,1,126.500003860474,0|8,3:0|0:0,0:0:0:0:
28,70,149473,1,4,3:1:0:0:
91,7,149636,1,2,0:0:0:0:
176,30,149799,6,0,P|186:56|189:108,1,63.2500019302369,2|0,3:2|0:0,0:0:0:0:
90,177,150125,2,0,P|93:145|104:116,1,63.2500019302369,2|2,3:2|0:0,0:0:0:0:
192,110,150451,2,0,B|252:110|243:160|325:148,1,126.500003860474,8|2,0:0|0:2,0:0:0:0:
394,170,150940,2,0,P|407:144|400:87,1,63.2500019302369,2|0,0:0|0:0,0:0:0:0:
375,27,151267,1,8,0:0:0:0:
310,160,151430,2,0,P|288:227|278:293,1,126.500003860474,0|8,3:2|0:0,0:0:0:0:
122,365,152082,1,2,0:0:0:0:
187,305,152245,1,2,0:0:0:0:
116,250,152408,6,0,B|70:250|40:267|40:267|28:238|3:226,1,126.500003860474,2|2,3:2|0:0,0:0:0:0:
60,157,152897,2,0,P|91:155|144:133,1,63.2500019302369,2|8,0:0|0:0,0:0:0:0:
184,83,153223,2,0,P|178:41|159:8,1,63.2500019302369,2|0,0:0|3:0,0:0:0:0:
275,108,153549,2,0,P|281:150|300:183,1,63.2500019302369,2|0,0:0|0:0,0:0:0:0:
374,192,153875,1,8,0:0:0:0:
285,190,154038,2,0,P|238:163|144:175,1,126.500003860474,0|8,3:0|0:0,0:0:0:0:
38,338,154690,1,4,3:1:0:0:
98,273,154853,1,2,0:0:0:0:
178,310,155017,6,0,P|245:325|298:334,1,94.8750028953553,6|0,3:2|0:0,0:0:0:0:
279,318,155343,2,0,P|289:339|292:383,1,63.2500019302369,0|0,1:2|0:0,0:0:0:0:
374,283,155669,2,0,P|363:261|361:218,1,63.2500019302369,8|0,0:0|0:0,0:0:0:0:
445,198,155995,1,0,1:2:0:0:
375,143,156158,2,0,P|313:137|240:117,1,126.500003860474,0|4,3:2|1:2,0:0:0:0:
194,31,156647,2,0,P|210:90|222:173,1,126.500003860474,0|8,3:2|0:0,0:0:0:0:
153,212,157136,1,8,0:0:0:0:
75,169,157299,1,4,0:0:0:0:
2,220,157462,5,0,3:2:0:0:
2,220,157544,1,0,3:2:0:0:
2,220,157625,2,0,P|35:211|81:194,1,63.2500019302369,4|0,3:2|0:0,0:0:0:0:
142,239,157951,2,0,P|176:247|221:265,1,63.2500019302369,0|2,3:2|0:0,0:0:0:0:
263,321,158277,1,10,0:0:0:0:
425,250,158603,2,0,P|455:192|438:120,1,126.500003860474,4|0,3:2|0:0,0:0:0:0:
384,69,159093,1,8,0:0:0:0:
384,69,159256,2,0,P|350:79|301:89,1,63.2500019302369,0|0,3:0|0:0,0:0:0:0:
234,77,159582,2,0,P|224:38|222:8,1,63.2500019302369,8|2,0:0|0:0,0:0:0:0:
323,106,159908,2,0,P|332:144|335:175,1,63.2500019302369,4|2,3:1|0:0,0:0:0:0:
252,201,160234,6,0,P|175:198|135:140,1,126.500003860474,6|0,3:2|3:2,0:0:0:0:
63,127,160723,1,2,0:0:0:0:
63,127,160886,2,0,P|55:162|59:203,1,63.2500019302369,8|2,0:0|0:0,0:0:0:0:
32,301,161212,2,0,B|75:300|112:277|112:277|124:300|146:310,1,126.500003860474,6|0,3:2|0:0,0:0:0:0:
203,369,161701,1,8,0:0:0:0:
203,369,161864,2,0,P|231:363|280:354,1,63.2500019302369,0|2,3:2|0:0,0:0:0:0:
335,302,162190,2,0,P|410:304|464:348,1,126.500003860474,8|2,0:0|0:0,0:0:0:0:
504,260,162680,5,2,0:0:0:0:
504,260,162761,1,0,0:0:0:0:
504,260,162843,1,6,3:2:0:0:
484,173,163006,1,2,3:2:0:0:
464,86,163169,1,2,3:2:0:0:
265,16,163495,2,0,P|265:43|257:86,1,63.2500019302369,8|0,0:0|0:0,0:0:0:0:
172,127,163821,1,2,0:0:0:0:
254,94,163984,2,0,P|327:88|381:144,1,126.500003860474,2|8,3:2|0:0,0:0:0:0:
403,198,164473,2,0,L|389:263,1,63.2500019302369,2|0,3:2|0:0,0:0:0:0:
309,339,164799,2,0,L|295:277,1,63.2500019302369,8|0,0:0|0:0,0:0:0:0:
228,219,165125,2,0,P|187:201|115:213,1,103.499996841431,2|0,3:2|0:0,0:0:0:0:
123,214,165451,5,0,1:2:0:0:
132,124,165614,1,0,1:2:0:0:
140,34,165777,1,4,1:2:0:0:
340,93,166103,1,8,1:2:0:0:
413,41,166267,2,0,P|444:37|494:29,1,68.9999978942872,0|0,1:2|0:0,0:0:0:0:
389,162,166593,2,0,P|322:173|258:119,1,137.999995788574,4|8,1:2|1:2,0:0:0:0:
219,59,167082,1,0,3:0:0:0:
146,112,167245,1,0,1:2:0:0:
71,62,167408,1,8,1:2:0:0:
7,125,167571,2,0,L|19:172,5,34.4999989471436,0|0|0|0|0|0,3:0|3:0|3:0|3:0|3:0|3:0,0:0:0:0:
10,175,168060,6,0,P|64:182|127:199,1,103.499996841431,4|0,3:2|0:0,0:0:0:0:
181,247,168549,1,4,3:2:0:0:
181,247,168712,2,0,P|197:223|203:180,1,51.7499984207154,8|0,0:0|0:0,0:0:0:0:
220,111,169038,2,0,P|252:181|342:198,1,160.99999508667,4|2,3:2|0:0,0:0:0:0:
455,46,170343,2,0,L|447:59,6,10.0624996929169,2|0|0|0|0|0|0,3:2|3:2|3:2|3:2|0:0|3:2|3:2,0:0:0:0:
433,24,170669,6,0,L|444:163,1,137.999995788574,6|2,3:2|3:2,0:0:0:0:
507,234,171158,1,0,0:0:0:0:
430,293,171321,1,8,0:0:0:0:
430,293,171484,2,0,P|397:289|361:260,1,68.9999978942872,2|2,0:0|0:0,0:0:0:0:
262,275,171810,2,0,B|228:276|197:296|197:296|159:286|128:293,1,137.999995788574,2|8,3:2|0:0,0:0:0:0:
38,327,172299,2,0,P|24:292|27:251,1,68.9999978942872,2|0,3:2|0:0,0:0:0:0:
20,164,172625,2,0,P|56:174|95:181,1,68.9999978942872,8|0,0:0|0:0,0:0:0:0:
178,149,172951,1,2,3:2:0:0:
145,58,173114,1,2,0:0:0:0:
240,74,173277,6,0,P|272:69|322:55,1,68.9999978942872,2|0,3:2|0:0,0:0:0:0:
383,11,173603,2,0,P|341:36|346:141,1,137.999995788574,2|8,3:2|0:0,0:0:0:0:
417,162,174093,2,0,P|425:126|422:88,1,68.9999978942872,2|2,0:0|0:0,0:0:0:0:
313,141,174419,2,0,P|244:150|163:166,1,137.999995788574,0|8,3:2|0:0,0:0:0:0:
92,115,174908,1,2,3:2:0:0:
37,330,175234,1,10,0:0:0:0:
125,369,175397,2,0,P|139:332|137:289,1,68.9999978942872,2|2,3:2|0:0,0:0:0:0:
91,219,175723,5,2,0:0:0:0:
91,219,175805,1,2,0:0:0:0:
91,219,175886,2,0,P|154:264|227:255,1,137.999995788574,6|2,3:2|3:2,0:0:0:0:
308,253,176375,2,0,P|293:289|296:333,1,68.9999978942872,0|8,0:0|0:0,0:0:0:0:
367,380,176701,2,0,B|385:373|396:365|396:365|412:369|435:366,1,68.9999978942872,2|2,0:0|0:0,0:0:0:0:
492,291,177027,2,0,P|490:217|454:138,1,137.999995788574,2|8,3:2|0:0,0:0:0:0:
400,87,177517,2,0,L|313:66,1,68.9999978942872,2|0,3:2|0:0,0:0:0:0:
248,23,177843,2,0,P|182:34|102:68,1,137.999995788574,8|2,0:0|3:2,0:0:0:0:
44,125,178332,1,2,0:0:0:0:
135,155,178495,6,0,P|138:118|148:79,1,68.9999978942872,2|0,3:2|0:0,0:0:0:0:
40,160,178821,2,0,P|36:196|27:236,1,68.9999978942872,2|0,3:2|0:0,0:0:0:0:
51,322,179147,1,8,0:0:0:0:
51,322,179310,2,0,L|137:304,1,68.9999978942872,2|2,0:0|0:0,0:0:0:0:
205,367,179636,2,0,P|236:318|225:224,1,137.999995788574,0|8,3:2|0:0,0:0:0:0:
221,144,180125,2,0,L|288:158,1,68.9999978942872,2|2,3:2|0:0,0:0:0:0:
345,80,180451,2,0,P|336:41|335:-8,2,68.9999978942872,10|2|2,0:0|3:2|0:0,0:0:0:0:
441,84,180940,1,2,0:0:0:0:
338,96,181103,6,0,P|271:105|185:138,1,137.999995788574,6|2,3:2|3:2,0:0:0:0:
136,197,181593,1,0,0:0:0:0:
44,165,181756,2,0,P|34:131|52:85,1,68.9999978942872,8|2,0:0|0:0,0:0:0:0:
146,178,182082,1,2,0:0:0:0:
146,178,182245,2,0,P|161:245|169:313,1,137.999995788574,2|8,3:2|0:0,0:0:0:0:
93,373,182734,2,0,P|35:360|23:275,2,137.999995788574,2|8|2,3:2|0:0|3:2,0:0:0:0:
174,320,183549,1,2,0:0:0:0:
260,363,183712,6,0,P|298:369|348:388,1,68.9999978942872,6|0,3:2|0:0,0:0:0:0:
417,345,184038,2,0,P|434:316|433:262,1,68.9999978942872,2|0,3:2|0:0,0:0:0:0:
476,193,184364,1,8,0:0:0:0:
476,193,184527,2,0,P|464:160|459:118,1,68.9999978942872,2|0,3:2|0:0,0:0:0:0:
400,33,184853,2,0,P|351:72|368:162,1,137.999995788574,0|8,3:2|0:0,0:0:0:0:
361,239,185343,1,2,3:2:0:0:
361,239,185506,1,8,0:0:0:0:
277,190,185669,2,0,P|243:180|209:177,1,68.9999978942872,10|2,0:0|3:2,0:0:0:0:
133,117,185995,1,2,0:0:0:0:
45,158,186158,1,10,0:0:0:0:
133,117,186321,6,0,P|157:167|161:262,1,137.999995788574,6|2,3:2|3:2,0:0:0:0:
55,340,186810,2,0,P|48:308|45:272,1,68.9999978942872,2|8,0:0|0:0,0:0:0:0:
139,291,187136,2,0,P|199:277|298:269,1,137.999995788574,2|2,0:0|3:2,0:0:0:0:
337,342,187625,1,2,0:0:0:0:
410,279,187788,2,0,P|420:244|423:198,2,68.9999978942872,8|2|2,0:0|3:2|0:0,0:0:0:0:
337,342,188277,2,0,P|300:349|255:359,1,68.9999978942872,8|0,0:0|0:0,0:0:0:0:
188,302,188603,1,2,3:2:0:0:
243,222,188767,1,2,0:0:0:0:
181,147,188930,5,6,3:2:0:0:
269,212,189093,2,0,P|280:243|284:297,1,68.9999978942872,8|2,1:2|3:2,0:0:0:0:
146,228,189419,2,0,P|150:193|162:161,2,68.9999978942872,12|8|2,1:2|0:0|0:0,0:0:0:0:
34,286,189908,1,10,0:0:0:0:
34,286,190071,2,0,B|107:279|86:341|195:322,1,137.999995788574,0|8,3:2|0:0,0:0:0:0:
243,377,190560,1,2,3:2:0:0:
312,310,190723,1,10,0:0:0:0:
312,310,190886,2,0,P|346:301|397:295,1,68.9999978942872,10|10,1:2|3:2,0:0:0:0:
467,190,191212,2,0,P|432:198|382:205,1,68.9999978942872,2|10,0:0|0:0,0:0:0:0:
395,209,191457,5,2,0:0:0:0:
390,214,191538,2,0,P|381:144|368:77,1,126.500003860474,6|2,3:2|3:2,0:0:0:0:
174,25,192190,1,8,0:0:0:0:
195,110,192353,1,2,0:0:0:0:
110,137,192517,1,2,0:0:0:0:
82,52,192680,2,0,P|73:118|70:197,1,126.500003860474,2|8,3:2|0:0,0:0:0:0:
26,254,193169,2,0,P|75:220|165:231,1,126.500003860474,2|8,3:2|0:0,0:0:0:0:
258,350,193821,1,2,3:2:0:0:
321,287,193984,1,2,0:0:0:0:
258,350,194147,6,0,P|223:354|182:367,1,63.2500019302369,2|0,3:2|0:0,0:0:0:0:
123,311,194473,2,0,P|113:286|107:237,1,63.2500019302369,2|0,3:2|0:0,0:0:0:0:
117,162,194799,1,8,0:0:0:0:
193,205,194962,2,0,P|254:200|296:142,2,126.500003860474,2|0|8,0:0|3:2|0:0,0:0:0:0:
68,111,195777,2,0,P|105:111|141:128,1,63.2500019302369,2|0,3:2|0:0,0:0:0:0:
184,263,196103,2,0,P|168:232|169:180,1,63.2500019302369,10|2,0:0|0:0,0:0:0:0:
276,113,196430,2,0,P|248:126|217:132,1,63.2500019302369,2|2,0:0|0:0,0:0:0:0:
329,42,196756,6,0,L|467:62,1,126.500003860474,6|2,3:2|3:2,0:0:0:0:
496,232,197408,1,8,0:0:0:0:
437,165,197571,1,2,3:2:0:0:
397,244,197734,1,2,0:0:0:0:
397,244,197897,2,0,P|386:302|381:378,1,126.500003860474,2|8,3:2|0:0,0:0:0:0:
299,335,198386,1,2,3:2:0:0:
299,335,198549,1,2,3:2:0:0:
218,371,198712,2,0,P|184:377|146:380,1,63.2500019302369,8|0,0:0|0:0,0:0:0:0:
90,320,199038,1,2,3:2:0:0:
135,244,199201,1,2,0:0:0:0:
71,181,199364,6,0,P|62:148|61:108,1,63.2500019302369,4|0,3:1|0:0,0:0:0:0:
130,64,199690,2,0,P|165:66|202:80,1,63.2500019302369,2|0,3:2|0:0,0:0:0:0:
252,9,200017,2,0,P|247:82|228:155,1,126.500003860474,8|0,0:0|0:0,0:0:0:0:
193,212,200506,1,0,3:2:0:0:
193,212,200669,2,0,P|245:178|318:180,1,126.500003860474,4|6,0:1|3:2,0:0:0:0:
371,115,201158,1,2,0:0:0:0:
371,115,201321,2,0,P|408:126|447:135,1,63.2500019302369,10|2,0:0|3:2,0:0:0:0:
488,209,201647,2,0,P|457:216|427:226,1,63.2500019302369,4|2,0:1|0:0,0:0:0:0:
386,304,201973,6,0,P|329:286|300:204,1,126.500003860474,6|2,3:2|3:2,0:0:0:0:
155,53,202625,1,8,0:0:0:0:
140,140,202788,1,2,0:0:0:0:
64,92,202951,1,2,0:0:0:0:
167,52,203114,2,0,P|178:107|185:197,1,126.500003860474,2|8,3:2|0:0,0:0:0:0:
113,229,203603,2,0,P|75:235|24:247,1,63.2500019302369,2|0,3:2|0:0,0:0:0:0:
164,310,203930,2,0,P|227:300|296:281,1,126.500003860474,8|2,0:0|3:2,0:0:0:0:
367,322,204419,1,2,0:0:0:0:
422,253,204582,6,0,P|414:212|399:172,1,63.2500019302369,6|0,3:2|0:0,0:0:0:0:
371,110,204908,2,0,P|403:106|450:94,1,63.2500019302369,2|0,3:2|0:0,0:0:0:0:
383,20,205234,2,0,P|324:28|245:45,1,126.500003860474,8|2,0:0|0:0,0:0:0:0:
174,13,205723,2,0,P|139:54|162:140,1,126.500003860474,0|8,3:2|0:0,0:0:0:0:
207,186,206212,1,2,3:2:0:0:
207,186,206375,1,2,0:0:0:0:
142,246,206538,2,0,P|109:249|62:258,2,63.2500019302369,10|2|2,0:0|0:0|0:0,0:0:0:0:
198,178,207027,1,10,0:0:0:0:
272,226,207190,6,0,P|281:254|288:304,1,63.2500019302369,6|0,3:2|0:0,0:0:0:0:
346,353,207517,2,0,P|338:287|374:207,1,126.500003860474,10|8,1:2|0:0,0:0:0:0:
443,249,208006,2,0,P|451:186|432:126,1,126.500003860474,2|2,1:2|1:2,0:0:0:0:
424,38,208495,1,2,3:2:0:0:
352,90,208658,2,0,P|321:82|270:80,1,63.2500019302369,8|2,1:2|3:2,0:0:0:0:
227,16,208984,1,2,3:2:0:0:
149,58,209147,2,0,P|117:98|142:183,1,126.500003860474,8|2,0:0|3:2,0:0:0:0:
211,197,209636,6,0,P|241:184|278:180,1,63.2500019302369,2|2,1:2|3:2,0:0:0:0:
230,281,209962,1,8,0:2:0:0:
154,327,210125,2,0,P|97:327|34:275,1,126.500003860474,6|8,3:2|1:2,0:0:0:0:
148,134,210777,1,8,0:0:0:0:
68,172,210940,2,0,L|56:105,1,63.2500019302369,2|0,3:2|0:0,0:0:0:0:
44,21,211267,1,8,0:0:0:0:
44,21,211430,2,0,P|77:30|117:37,1,63.2500019302369,6|10,3:2|0:0,0:0:0:0:
172,93,211756,2,0,P|204:88|246:64,1,63.2500019302369,10|2,0:0|0:0,0:0:0:0:
308,30,212082,6,0,L|344:39,3,31.6250009651184,2|2|2|2,0:0|0:0|0:0|0:0,0:0:0:0:
256,192,212408,12,6,215017,0:2:0:0:
386,97,233277,5,0,1:2:0:0:
313,46,233440,2,0,P|282:51|235:58,1,63.2500019302369,8|0,1:2|3:0,0:0:0:0:
104,125,233767,5,0,1:2:0:0:
177,74,233930,2,0,P|207:79|255:86,1,63.2500019302369,8|0,1:2|3:0,0:0:0:0:
354,180,234256,5,8,0:0:0:0:
280,230,234419,2,0,P|258:169|260:91,1,126.500003860474,0|2,3:0|1:2,0:0:0:0:
206,34,234908,1,0,3:0:0:0:
133,84,235071,1,8,0:0:0:0:
52,48,235234,2,0,L|39:90,3,31.6250009651184,8|2|2|2,0:0|0:0|0:0|0:0,0:0:0:0:
22,94,235560,2,0,L|30:137,3,31.6250009651184,2|2|10|2,3:2|0:0|0:0|0:0,0:0:0:0:
19,150,235886,6,0,P|85:111|154:121,1,137.999995788574,6|2,3:2|3:2,0:0:0:0:
210,186,236375,1,0,0:0:0:0:
210,186,236538,2,0,B|205:237|205:237|186:257|164:253,1,68.9999978942872,8|2,0:0|0:0,0:0:0:0:
96,231,236864,1,2,0:0:0:0:
125,322,237027,2,0,B|201:327|178:368|270:361,1,137.999995788574,2|8,3:2|0:0,0:0:0:0:
350,377,237517,2,0,P|359:349|357:298,1,68.9999978942872,2|0,3:2|0:0,0:0:0:0:
382,216,237843,2,0,P|381:250|391:283,1,68.9999978942872,8|0,0:0|0:0,0:0:0:0:
478,240,238169,1,2,3:2:0:0:
478,240,238332,1,2,0:0:0:0:
400,181,238495,6,0,P|354:147|254:166,1,137.999995788574,2|2,3:2|3:2,0:0:0:0:
59,284,239147,1,8,0:0:0:0:
123,212,239310,1,2,0:0:0:0:
176,292,239473,1,2,0:0:0:0:
59,284,239636,2,0,P|35:238|45:126,1,137.999995788574,0|8,3:2|0:0,0:0:0:0:
78,67,240125,2,0,L|175:86,1,68.9999978942872,2|0,3:2|0:0,0:0:0:0:
233,120,240451,2,0,P|302:114|391:97,1,137.999995788574,10|2,0:0|0:0,0:0:0:0:
420,20,240940,5,2,0:0:0:0:
420,20,241022,1,2,0:0:0:0:
420,20,241103,2,0,P|403:52|399:110,1,68.9999978942872,6|0,3:2|0:0,0:0:0:0:
451,164,241430,2,0,L|461:241,1,68.9999978942872,2|0,3:2|0:0,0:0:0:0:
476,327,241756,1,8,0:0:0:0:
476,327,241919,2,0,P|444:341|391:344,1,68.9999978942872,2|2,0:0|0:0,0:0:0:0:
322,306,242245,2,0,P|316:242|299:149,1,137.999995788574,2|8,3:2|0:0,0:0:0:0:
249,89,242734,2,0,P|217:113|208:147,1,68.9999978942872,2|0,3:2|0:0,0:0:0:0:
204,235,243060,2,0,B|160:238|111:259|111:259|91:242|84:194,1,137.999995788574,8|2,0:0|3:2,0:0:0:0:
20,157,243549,1,2,0:0:0:0:
113,134,243712,6,0,P|145:131|194:116,1,68.9999978942872,2|0,3:2|0:0,0:0:0:0:
273,94,244038,2,0,P|267:51|252:3,1,68.9999978942872,2|0,3:2|0:0,0:0:0:0:
359,53,244364,1,8,0:0:0:0:
359,53,244527,2,0,P|362:86|375:140,1,68.9999978942872,2|0,3:2|0:0,0:0:0:0:
464,141,244853,2,0,P|499:184|495:268,1,137.999995788574,0|8,3:2|0:0,0:0:0:0:
437,340,245343,1,2,3:2:0:0:
437,340,245506,1,2,0:0:0:0:
355,288,245669,2,0,P|349:244|338:200,1,68.9999978942872,10|2,0:0|3:2,0:0:0:0:
247,223,245995,1,2,0:0:0:0:
267,317,246158,1,2,0:0:0:0:
185,384,246321,6,0,B|112:393|124:347|30:351,2,137.999995788574,6|2|8,3:2|3:2|0:0,0:0:0:0:
246,309,247136,2,0,P|215:296|167:295,1,68.9999978942872,2|2,0:0|0:0,0:0:0:0:
103,234,247462,2,0,P|92:175|85:69,1,137.999995788574,2|8,3:2|0:0,0:0:0:0:
162,38,247951,2,0,P|171:68|173:129,1,68.9999978942872,2|0,3:2|0:0,0:0:0:0:
271,116,248277,2,0,P|281:69|377:51,1,137.999995788574,8|2,0:0|3:2,0:0:0:0:
452,17,248767,1,2,0:0:0:0:
437,112,248930,6,0,P|431:138|426:186,1,68.9999978942872,6|0,3:2|0:0,0:0:0:0:
344,230,249256,2,0,P|377:226|424:211,1,68.9999978942872,2|0,3:2|0:0,0:0:0:0:
363,323,249582,1,8,0:0:0:0:
363,323,249745,2,0,P|329:326|283:342,1,68.9999978942872,2|2,3:2|0:0,0:0:0:0:
208,378,250071,2,0,P|181:321|188:219,1,137.999995788574,0|8,3:2|0:0,0:0:0:0:
128,165,250560,1,2,3:2:0:0:
128,165,250723,1,8,0:0:0:0:
47,218,250886,2,0,P|44:251|31:306,1,68.9999978942872,10|2,0:0|3:2,0:0:0:0:
6,377,251212,1,2,3:2:0:0:
6,377,251375,1,10,0:0:0:0:
68,303,251538,6,0,P|132:275|214:281,1,137.999995788574,6|2,3:2|1:2,0:0:0:0:
414,347,252190,1,8,0:0:0:0:
320,370,252353,2,0,P|291:304|295:220,1,137.999995788574,2|2,1:2|1:2,0:0:0:0:
352,163,252843,1,2,0:0:0:0:
443,194,253006,2,0,P|474:189|516:175,2,68.9999978942872,8|2|2,0:0|3:2|0:0,0:0:0:0:
362,140,253495,2,0,L|272:121,1,68.9999978942872,8|0,0:0|0:0,0:0:0:0:
236,48,253821,1,2,3:2:0:0:
162,110,253984,1,2,1:2:0:0:
79,60,254147,5,2,3:2:0:0:
155,1,254310,1,8,1:2:0:0:
172,123,254473,2,0,P|167:157|155:199,1,68.9999978942872,6|2,3:2|0:2,0:0:0:0:
49,252,254799,2,0,P|87:227|191:236,1,137.999995788574,12|10,0:0|0:0,0:0:0:0:
259,333,255288,2,0,P|191:340|131:309,1,137.999995788574,4|8,3:2|0:0,0:0:0:0:
129,315,255696,1,2,0:0:0:0:
126,320,255777,1,2,3:2:0:0:
38,361,255940,1,10,0:0:0:0:
42,264,256103,2,0,P|51:229|55:184,1,68.9999978942872,8|10,1:2|3:2,0:0:0:0:
12,108,256430,1,2,0:0:0:0:
106,126,256593,5,10,0:0:0:0:
106,126,256674,1,2,0:0:0:0:
106,126,256756,2,0,L|255:102,1,137.999995788574,6|2,3:2|3:2,0:0:0:0:
477,61,257408,1,8,0:0:0:0:
390,17,257571,1,2,0:0:0:0:
391,113,257734,1,2,0:0:0:0:
391,113,257897,2,0,P|405:172|417:273,1,137.999995788574,2|8,3:2|0:0,0:0:0:0:
374,335,258386,2,0,B|339:339|347:357|290:359,1,68.9999978942872,2|2,3:2|0:0,0:0:0:0:
214,384,258712,2,0,P|177:335|196:242,1,137.999995788574,8|2,0:0|3:2,0:0:0:0:
159,167,259201,1,2,0:0:0:0:
250,198,259364,6,0,P|280:211|339:223,1,68.9999978942872,2|0,3:2|0:0,0:0:0:0:
201,93,259690,2,0,P|138:85|77:134,1,137.999995788574,2|8,3:2|0:0,0:0:0:0:
18,201,260180,2,0,P|24:227|28:289,1,68.9999978942872,2|2,0:0|0:0,0:0:0:0:
87,345,260506,2,0,B|158:348|153:366|248:364,1,137.999995788574,2|8,3:2|0:0,0:0:0:0:
319,360,260995,2,0,P|337:295|319:218,1,137.999995788574,2|8,3:2|0:0,0:0:0:0:
244,171,261484,1,2,3:2:0:0:
244,171,261647,1,2,0:0:0:0:
301,93,261810,5,2,0:0:0:0:
301,93,261892,1,2,0:0:0:0:
301,93,261973,2,0,P|336:88|388:77,1,68.9999978942872,6|0,3:2|0:0,0:0:0:0:
448,27,262299,2,0,P|458:59|459:107,1,68.9999978942872,2|0,3:2|0:0,0:0:0:0:
423,183,262625,2,0,P|387:187|336:199,1,68.9999978942872,8|2,0:0|0:0,0:0:0:0:
282,257,262951,1,2,0:0:0:0:
216,185,263114,2,0,P|187:112|191:21,1,137.999995788574,2|8,3:2|0:0,0:0:0:0:
92,24,263603,2,0,P|92:51|77:105,1,68.9999978942872,2|2,3:2|0:0,0:0:0:0:
0,134,263930,2,0,P|46:127|125:193,1,137.999995788574,8|2,0:0|3:2,0:0:0:0:
74,262,264419,1,2,0:0:0:0:
155,313,264582,6,0,P|185:304|231:300,1,68.9999978942872,2|2,3:2|0:0,0:0:0:0:
303,352,264908,2,0,P|333:360|379:365,1,68.9999978942872,2|0,3:2|0:0,0:0:0:0:
466,370,265234,2,0,P|498:294|467:223,1,137.999995788574,8|0,0:2|0:0,0:0:0:0:
448,153,265723,2,0,B|400:165|400:165|363:159|363:159|283:175,1,137.999995788574,2|8,3:2|0:2,0:0:0:0:
223,132,266212,2,0,P|212:169|214:211,1,68.9999978942872,2|2,3:2|0:0,0:0:0:0:
198,294,266538,2,0,B|221:290|221:290|240:292|240:292|294:282,2,68.9999978942872,8|0|2,0:0|3:0|0:0,0:0:0:0:
131,364,267027,1,8,0:2:0:0:
42,325,267190,6,0,P|22:262|21:168,1,137.999995788574,6|2,3:2|3:2,0:0:0:0:
124,28,267843,2,0,P|131:58|135:102,1,68.9999978942872,8|2,0:0|0:0,0:0:0:0:
201,166,268169,1,2,0:0:0:0:
272,100,268332,2,0,P|341:91|428:71,1,137.999995788574,2|8,3:2|0:0,0:0:0:0:
486,21,268821,2,0,P|455:80|448:150,1,137.999995788574,2|10,3:2|0:0,0:0:0:0:
507,226,269310,1,2,0:0:0:0:
448,302,269473,1,2,3:2:0:0:
448,302,269636,1,2,0:0:0:0:
362,257,269799,6,0,P|357:222|343:172,1,68.9999978942872,6|0,3:2|0:0,0:0:0:0:
272,130,270125,2,0,P|232:137|187:144,1,68.9999978942872,2|0,3:2|0:0,0:0:0:0:
82,106,270451,1,8,0:0:0:0:
118,27,270614,2,0,P|157:19|203:13,1,68.9999978942872,2|0,3:2|0:0,0:0:0:0:
178,117,270940,2,0,P|189:171|203:280,1,137.999995788574,2|8,3:2|0:0,0:0:0:0:
96,336,271430,1,2,3:2:0:0:
96,336,271593,1,2,0:0:0:0:
170,274,271756,1,8,0:0:0:0:
244,335,271919,1,2,3:2:0:0:
331,293,272082,2,0,P|363:290|410:283,1,68.9999978942872,2|2,3:2|0:0,0:0:0:0:
496,318,272408,6,0,P|435:267|433:192,1,137.999995788574,6|2,3:2|3:2,0:0:0:0:
484,27,273060,2,0,P|449:37|395:47,1,68.9999978942872,8|2,0:0|0:0,0:0:0:0:
359,121,273386,1,2,0:0:0:0:
288,54,273549,2,0,P|236:27|146:49,1,137.999995788574,2|8,3:2|0:0,0:0:0:0:
218,116,274038,2,0,P|225:142|232:200,1,68.9999978942872,2|2,3:2|0:0,0:0:0:0:
166,306,274364,2,0,P|152:258|141:156,1,137.999995788574,8|2,0:0|3:2,0:0:0:0:
49,138,274853,1,2,0:0:0:0:
92,52,275017,6,0,P|126:46|174:36,2,68.9999978942872,2|8|0,3:2|0:0|3:0,0:0:0:0:
371,121,275669,2,0,P|336:126|303:133,2,68.9999978942872,8|2|8,0:0|0:0|0:0,0:0:0:0:
459,81,276158,2,0,P|417:113|416:222,1,137.999995788574,0|8,3:0|1:2,0:0:0:0:
407,198,276565,1,8,0:0:0:0:
411,202,276647,1,2,3:2:0:0:
495,254,276810,1,8,0:0:0:0:
436,330,276973,1,8,0:0:0:0:
436,330,277136,1,8,0:0:0:0:
352,281,277299,2,0,P|320:274|261:263,1,68.9999978942872,2|8,3:2|0:0,0:0:0:0:
194,303,277625,5,6,0:0:0:0:
256,192,277707,12,0,279908,0:0:0:0:
256,192,280071,12,0,282843,0:0:0:0:
