osu file format v14

[General]
AudioFilename: timeless.mp3
AudioLeadIn: 0
PreviewTime: 79283
Countdown: 0
SampleSet: Soft
StackLeniency: 0.7
Mode: 0
LetterboxInBreaks: 0
WidescreenStoryboard: 1

[Editor]
DistanceSpacing: 1.3
BeatDivisor: 4
GridSize: 4
TimelineZoom: 1.1

[Metadata]
Title:Timeless time
TitleUnicode:Timeless time
Artist:Kawada Mami
ArtistUnicode:川田まみ
Creator:Gaia
Version:Easy
Source:七つのふしぎの終わるとき
Tags:Akitoshi Corinn -Laura- Nanatsu no Fushigi no Owaru Toki eroge opening op Seven Clocks Tricks Nanatoki J-pop Best Birth visual novel etude 中沢伴行 Tomoyuki Nakazawa 井内 舞子 Maiko Iuchi
BeatmapID:2162629
BeatmapSetID:382700

[Difficulty]
HPDrainRate:2
CircleSize:3
OverallDifficulty:2
ApproachRate:4
SliderMultiplier:1.4
SliderTickRate:1

[Events]
//Background and Video events
0,0,"slep.jpg",0,0
//Break Periods
2,35217,51837
2,215217,231837
//Storyboard Layer 0 (Background)
//Storyboard Layer 1 (Fail)
//Storyboard Layer 2 (Pass)
//Storyboard Layer 3 (Foreground)
//Storyboard Layer 4 (Overlay)
//Storyboard Sound Samples

[TimingPoints]
1104,652.173913043478,4,2,1,40,1,0
10071,-100,4,2,1,60,0,0
11538,-100,4,2,1,70,0,0
32408,-100,4,2,1,40,0,0
35017,-100,4,2,1,50,0,0
53277,-100,4,2,1,50,0,0
55886,-100,4,2,1,60,0,0
58169,-100,4,2,1,30,0,0
58495,-100,4,2,1,60,0,0
63386,-100,4,2,1,30,0,0
63712,-100,4,2,1,60,0,0
68603,-100,4,2,1,30,0,0
68930,-100,4,2,1,60,0,0
78712,-100,4,2,1,30,0,0
79364,-100,4,2,1,70,0,0
121103,-100,4,2,1,60,0,0
126321,-100,4,2,1,50,0,0
134962,-100,4,2,1,30,0,0
135125,-100,4,2,1,50,0,0
135288,-100,4,2,1,30,0,0
135614,-100,4,2,1,50,0,0
136429,-100,4,2,1,30,0,0
136755,-100,4,2,1,50,0,0
147190,-100,4,2,1,60,0,0
149473,-100,4,2,1,30,0,0
149799,-100,4,2,1,60,0,0
154690,-100,4,2,1,30,0,0
155016,-100,4,2,1,60,0,0
159907,-100,4,2,1,30,0,0
160234,-100,4,2,1,60,0,0
169201,-100,4,2,1,40,0,0
169690,-100,4,2,1,30,0,0
170668,-100,4,2,1,70,0,0
212407,-100,4,2,1,60,0,0
215017,-100,4,2,1,40,0,0
233277,-100,4,2,1,60,0,0
234582,-100,4,2,1,40,0,0
234908,-100,4,2,1,50,0,0
235234,-100,4,2,1,70,0,0
256756,-100,4,2,1,60,0,0
277625,-100,4,2,1,40,0,0
280071,-100,4,2,1,20,0,0
282843,-100,4,2,1,5,0,0

[Colours]
Combo1 : 121,170,251
Combo2 : 149,234,255
Combo3 : 17,95,255
Combo4 : 96,244,170

[HitObjects]
85,273,1104,6,0,L|73:184,1,70,2|2,0:0|0:0,0:0:0:0:
122,125,1756,2,0,P|46:115|7:139,2,105,8|2|2,0:0|0:0|0:0,0:0:0:0:
199,172,3060,1,10,0:0:0:0:
264,111,3386,1,2,0:0:0:0:
341,159,3712,6,0,L|432:175,1,70,2|2,0:0|0:0,0:0:0:0:
481,227,4364,2,0,P|499:270|473:346,2,105,8|2|2,0:0|0:0|0:0,0:0:0:0:
409,284,5669,2,0,L|321:302,1,70,10|2,0:0|0:0,0:0:0:0:
269,354,6321,5,2,0:0:0:0:
210,284,6647,1,2,0:0:0:0:
252,203,6973,2,0,B|252:159|261:131|261:131|250:118|237:97,2,105,8|2|2,0:0|0:0|0:0,0:0:0:0:
176,253,8277,2,0,P|143:250|107:222,1,70,10|2,0:0|3:2,0:0:0:0:
68,150,8930,5,6,3:2:0:0:
127,80,9256,1,2,1:0:0:0:
211,112,9582,2,0,P|229:29|212:2,2,105,0|2|6,1:2|1:1|3:2,0:0:0:0:
260,188,10886,2,0,L|308:196,2,35,2|0|6,1:1|1:0|3:2,0:0:0:0:
192,249,11538,6,0,P|157:255|123:264,1,70,6|2,3:2|3:2,0:0:0:0:
43,222,12190,2,0,P|20:263|34:339,2,105,8|2|2,0:0|3:2|3:2,0:0:0:0:
70,135,13495,2,0,P|68:95|57:46,1,70,8|2,0:0|3:2,0:0:0:0:
142,22,14147,5,2,3:2:0:0:
219,69,14473,1,2,3:2:0:0:
295,19,14799,2,0,B|350:16|345:44|424:39,2,105,8|2|2,0:0|3:2|3:2,0:0:0:0:
240,90,16103,2,0,P|222:120|220:155,1,70,8|2,0:0|0:0,0:0:0:0:
291,212,16756,5,2,3:2:0:0:
372,171,17082,1,2,3:2:0:0:
454,210,17408,2,0,P|464:243|469:319,2,105,8|2|2,0:0|3:2|3:2,0:0:0:0:
364,191,18712,2,0,L|282:178,1,70,8|2,0:0|3:2,0:0:0:0:
220,127,19364,5,2,3:2:0:0:
148,183,19690,1,8,1:2:0:0:
69,136,20017,2,0,B|64:104|53:74|53:74|85:34,2,105,8|8|2,1:2|1:2|3:2,0:0:0:0:
41,222,21321,2,0,L|4:218,2,35,12|12|0,0:0|0:0|3:0,0:0:0:0:
80,303,21973,6,0,P|118:300|158:286,1,70,6|2,3:2|3:2,0:0:0:0:
225,242,22625,2,0,P|256:284|250:352,2,105,8|2|2,0:0|3:2|3:2,0:0:0:0:
151,187,23930,1,8,0:0:0:0:
185,103,24256,1,2,3:2:0:0:
273,123,24582,6,0,L|359:137,1,70,6|2,3:2|3:2,0:0:0:0:
414,79,25234,2,0,P|451:119|453:188,2,105,8|2|2,0:0|3:2|3:2,0:0:0:0:
369,158,26538,2,0,P|360:195|354:249,1,70,8|2,0:0|0:0,0:0:0:0:
407,301,27190,5,2,3:2:0:0:
332,353,27517,1,2,3:2:0:0:
250,311,27843,2,0,B|228:312|197:306|197:306|174:322|139:336,2,105,8|2|2,0:0|3:2|3:2,0:0:0:0:
296,232,29147,1,8,0:0:0:0:
251,152,29473,1,2,3:2:0:0:
306,80,29799,6,0,P|321:51|322:4,1,70,2|0,3:2|1:2,0:0:0:0:
233,25,30451,2,0,P|187:42|119:45,2,105,8|0|8,1:2|3:2|1:2,0:0:0:0:
229,118,31756,2,0,P|209:167|218:229,1,105,8|8,1:2|1:2,0:0:0:0:
256,192,32408,12,6,35017,3:2:0:0:
102,92,53277,6,0,L|202:76,1,70,4|0,1:2|3:2,0:0:0:0:
242,24,53930,2,0,P|303:8|348:38,1,105,8|0,0:0|3:2,0:0:0:0:
287,101,54745,2,0,P|271:148|272:213,1,105,8|12,1:2|0:0,0:0:0:0:
347,250,55560,1,4,3:2:0:0:
412,187,55886,6,0,L|491:176,2,70,4|2|8,3:2|0:0|0:0,0:0:0:0:
352,255,56864,1,0,3:0:0:0:
297,182,57190,2,0,L|290:127,2,35,2|8|0,0:0|0:0|3:0,0:0:0:0:
223,236,57843,2,0,P|226:275|234:325,1,70,8|4,0:0|3:1,0:0:0:0:
165,368,58495,5,2,3:2:0:0:
85,324,58821,1,2,3:2:0:0:
132,246,59147,2,0,P|128:206|121:157,1,70,8|0,0:0|0:0,0:0:0:0:
75,99,59799,2,0,L|21:111,2,35,0|8|0,0:0|0:0|3:2,0:0:0:0:
137,33,60451,2,0,P|176:35|215:53,1,70,8|2,0:0|0:0,0:0:0:0:
253,122,61103,5,2,3:2:0:0:
334,80,61430,2,0,P|368:74|405:66,2,70,2|8|0,0:0|0:0|3:0,0:0:0:0:
260,133,62408,2,0,L|210:127,2,35,0|8|0,0:0|0:0|3:0,0:0:0:0:
340,175,63060,2,0,P|353:205|354:262,1,70,8|4,0:0|3:1,0:0:0:0:
387,327,63712,5,6,3:2:0:0:
308,372,64038,1,0,1:2:0:0:
245,305,64364,1,8,0:0:0:0:
161,340,64690,2,0,B|125:348|97:360|97:360|72:348|61:319,2,105,0|4|8,1:2|1:2|0:0,0:0:0:0:
204,259,65995,1,4,0:0:0:0:
116,233,66321,6,0,P|46:197|62:131,1,140,4|10,3:2|0:0,0:0:0:0:
139,128,67299,2,0,B|194:127|186:167|261:151,2,105,4|8|8,3:2|0:0|0:0,0:0:0:0:
70,68,68603,1,4,3:1:0:0:
155,36,68930,6,0,P|194:32|246:23,1,70,6|0,3:2|3:2,0:0:0:0:
306,67,69582,1,8,0:0:0:0:
381,15,69908,2,0,P|415:49|408:125,2,105,6|8|8,3:2|0:0|0:0,0:0:0:0:
306,67,71212,1,2,0:0:0:0:
335,152,71538,6,0,P|327:189|320:237,1,70,6|2,3:2|3:2,0:0:0:0:
385,285,72190,2,0,B|420:282|449:270|449:270|474:289|504:304,2,105,8|2|2,0:0|3:2|3:2,0:0:0:0:
323,352,73495,1,8,0:0:0:0:
247,301,73821,1,2,3:2:0:0:
169,349,74147,6,0,L|117:362,2,35,0|0|4,1:2|1:2|1:2,0:0:0:0:
134,264,74799,2,0,P|107:222|119:153,1,105,8|4,1:2|1:2,0:0:0:0:
70,86,75614,2,0,B|96:76|120:54|120:54|143:68|172:75,1,105,8|8,1:2|1:2,0:0:0:0:
242,114,76430,1,0,3:0:0:0:
317,62,76756,6,0,B|361:69|361:69|372:83|372:83|438:95,2,105,4|4|4,3:2|3:2|3:2,0:0:0:0:
159,284,78712,2,0,L|237:272,1,70,2|2,0:2|3:2,0:0:0:0:
302,325,79364,5,6,3:2:0:0:
391,308,79690,1,2,3:2:0:0:
448,237,80017,2,0,P|494:262|503:328,2,105,8|2|2,0:0|3:2|3:2,0:0:0:0:
362,206,81321,2,0,P|352:177|347:130,1,70,8|2,0:0|3:2,0:0:0:0:
395,60,81973,5,2,3:2:0:0:
313,19,82299,1,2,3:2:0:0:
261,94,82625,2,0,B|208:93|220:123|143:116,2,105,8|0|2,0:0|3:2|3:2,0:0:0:0:
267,185,83930,2,0,P|277:228|284:271,1,70,10|2,0:0|0:0,0:0:0:0:
324,333,84582,5,6,3:2:0:0:
244,378,84908,1,2,3:2:0:0:
164,334,85234,2,0,B|123:342|99:353|99:353|86:344|52:337,2,105,8|2|2,0:0|3:2|3:2,0:0:0:0:
184,245,86538,2,0,P|147:244|104:229,1,70,8|2,0:0|3:2,0:0:0:0:
75,153,87190,5,2,3:2:0:0:
115,71,87517,1,2,3:2:0:0:
204,86,87843,2,0,P|257:82|317:72,2,105,8|0|2,0:0|3:2|3:2,0:0:0:0:
127,36,89147,1,10,0:0:0:0:
69,106,89473,1,2,0:0:0:0:
146,153,89799,6,0,P|154:183|161:238,1,70,6|2,3:2|3:2,0:0:0:0:
197,304,90451,2,0,P|138:309|89:279,2,105,8|2|2,0:0|3:2|3:2,0:0:0:0:
271,356,91756,1,8,0:0:0:0:
354,319,92082,1,2,3:2:0:0:
436,357,92408,6,0,P|457:326|453:276,1,70,6|2,3:2|3:2,0:0:0:0:
418,213,93060,2,0,L|410:101,2,105,8|0|2,0:0|3:2|3:2,0:0:0:0:
328,231,94364,2,0,P|290:234|254:244,1,70,10|2,0:0|0:0,0:0:0:0:
214,322,95017,6,0,P|179:318|145:310,1,70,6|2,3:2|3:2,0:0:0:0:
62,272,95669,2,0,B|55:310|57:340|57:340|20:358,2,105,8|2|2,0:0|3:2|3:2,0:0:0:0:
115,198,96973,1,8,0:0:0:0:
66,121,97299,1,2,3:2:0:0:
124,50,97625,6,0,P|177:18|246:37,2,105,6|12|10,3:2|1:2|0:0,0:0:0:0:
47,99,98930,1,0,0:0:0:0:
110,164,99256,2,0,P|118:197|123:253,1,70,2|10,3:2|0:0,0:0:0:0:
69,306,99908,1,2,0:0:0:0:
143,357,100234,6,0,P|175:369|210:367,1,70,6|2,3:2|3:2,0:0:0:0:
255,288,100886,2,0,B|254:253|241:221|241:221|253:199|264:174,2,105,8|2|2,0:0|3:2|3:2,0:0:0:0:
326,344,102190,2,0,P|366:333|407:329,1,70,8|2,0:0|3:2,0:0:0:0:
476,370,102843,5,2,3:2:0:0:
507,284,103169,1,2,3:2:0:0:
445,216,103495,2,0,B|434:144|434:144|453:134|471:114,2,105,8|0|2,0:0|3:2|3:2,0:0:0:0:
358,245,104799,2,0,P|352:203|341:169,1,70,10|2,0:0|0:0,0:0:0:0:
275,117,105451,5,6,3:2:0:0:
195,160,105777,1,2,3:2:0:0:
113,118,106103,2,0,B|102:104|78:92|78:92|87:67|83:31,2,105,8|2|2,0:0|3:2|3:2,0:0:0:0:
52,185,107408,2,0,P|36:213|42:261,1,70,8|2,0:0|3:2,0:0:0:0:
34,340,108060,5,2,3:2:0:0:
123,321,108386,1,2,3:2:0:0:
208,352,108712,2,0,B|259:350|255:377|326:369,2,105,8|0|2,0:0|3:2|3:2,0:0:0:0:
198,261,110017,2,0,P|235:254|286:241,1,70,10|2,0:0|0:0,0:0:0:0:
319,172,110669,5,6,3:2:0:0:
268,96,110995,1,2,3:2:0:0:
332,32,111321,2,0,P|383:20|440:62,2,105,8|2|2,0:0|3:2|3:2,0:0:0:0:
276,103,112625,2,0,P|242:114|196:120,1,70,8|2,0:0|3:2,0:0:0:0:
134,172,113277,5,6,3:2:0:0:
65,112,113603,1,2,3:2:0:0:
5,181,113930,2,0,B|14:251|14:251|58:281,2,105,8|0|2,0:0|3:2|3:2,0:0:0:0:
66,113,115234,2,0,B|101:108|117:113|153:93,1,70,10|2,0:0|3:2,0:0:0:0:
201,39,115886,2,0,P|234:47|269:51,1,70,6|2,3:2|3:2,0:0:0:0:
357,28,116538,6,0,P|374:62|372:113,1,70,8|2,0:0|0:0,0:0:0:0:
422,171,117190,2,0,L|468:178,2,35,2|8|2,0:0|0:0|3:2,0:0:0:0:
347,224,117843,1,8,0:0:0:0:
258,203,118169,1,2,3:2:0:0:
224,118,118495,6,0,L|235:76,2,35,2|8|2,3:2|1:2|3:2,0:0:0:0:
136,144,119147,2,0,B|99:150|74:165|74:165|62:147|33:123,2,105,12|2|2,0:0|3:2|3:2,0:0:0:0:
158,232,120451,2,0,P|142:259|137:312,1,70,8|2,0:0|0:0,0:0:0:0:
197,362,121103,5,6,3:2:0:0:
288,357,121430,2,0,L|424:336,1,105,10|2,1:2|1:2,0:0:0:0:
462,283,122245,1,0,1:2:0:0:
396,219,122571,2,0,P|367:159|386:113,1,105,2|10,1:2|0:0,0:0:0:0:
433,53,123386,1,4,3:2:0:0:
352,11,123712,6,0,P|318:17|255:27,1,70,0|2,3:2|1:2,0:0:0:0:
206,72,124364,2,0,P|155:50|81:66,1,105,10|2,0:0|1:2,0:0:0:0:
47,123,125180,1,4,1:2:0:0:
109,189,125506,2,0,L|116:231,1,35,0|8,1:2|0:0,0:0:0:0:
8,371,126321,5,6,3:2:0:0:
174,298,126973,2,0,P|212:308|250:315,1,70,8|2,0:0|0:0,0:0:0:0:
326,347,127625,2,0,L|363:340,2,35,0|8|2,3:2|0:0|3:2,0:0:0:0:
329,256,128277,1,10,0:0:0:0:
417,236,128603,1,2,3:2:0:0:
464,157,128930,6,0,P|472:118|471:83,1,70,2|2,3:2|3:2,0:0:0:0:
400,31,129582,1,8,0:0:0:0:
333,93,129908,2,0,P|279:104|216:111,2,105,2|10|10,0:0|0:0|0:0,0:0:0:0:
373,174,131212,1,2,0:0:0:0:
301,230,131538,6,0,P|313:264|311:309,1,70,2|2,3:2|0:0,0:0:0:0:
239,351,132190,2,0,P|194:305|106:321,1,140,8|0,0:0|3:0,0:0:0:0:
58,373,133169,1,2,3:2:0:0:
15,292,133495,2,0,P|7:255|6:209,1,70,10|2,0:0|3:2,0:0:0:0:
26,134,134147,5,2,3:2:0:0:
111,165,134473,1,2,3:2:0:0:
185,112,134799,1,8,0:0:0:0:
268,148,135125,2,0,B|318:145|317:169|377:162,2,105,2|10|10,0:0|0:0|0:0,0:0:0:0:
210,219,136430,1,4,0:1:0:0:
127,181,136756,6,0,P|90:118|118:30,1,140,6|8,3:2|0:0,0:0:0:0:
183,18,137734,1,2,0:0:0:0:
261,63,138060,2,0,P|297:57|350:49,1,70,0|2,3:0|3:2,0:0:0:0:
412,14,138712,2,0,P|434:47|429:92,1,70,10|2,0:0|3:2,0:0:0:0:
480,155,139364,5,2,3:2:0:0:
411,215,139690,1,2,3:2:0:0:
469,284,140017,1,8,0:0:0:0:
410,353,140343,2,0,P|458:375|527:353,2,105,2|10|10,0:0|0:0|0:0,0:0:0:0:
352,282,141647,1,0,0:0:0:0:
278,335,141973,6,0,L|230:348,1,35,4|0,1:2|1:2,0:0:0:0:
167,295,142462,2,0,L|119:308,1,35,0|8,1:2|0:0,0:0:0:0:
46,275,142951,1,0,0:0:0:0:
92,196,143277,2,0,P|106:162|105:118,1,70,0|2,0:0|3:2,0:0:0:0:
69,46,143930,2,0,P|102:31|160:35,1,70,10|0,0:0|3:2,0:0:0:0:
213,75,144582,6,0,L|353:91,1,140,4|8,1:2|0:0,0:0:0:0:
435,127,145560,2,0,P|461:99|443:13,2,105,2|10|12,3:2|1:2|1:2,0:0:0:0:
362,181,146864,1,4,3:2:0:0:
431,239,147190,6,0,P|434:271|445:330,1,70,4|2,3:2|0:0,0:0:0:0:
354,340,147843,2,0,B|290:358|290:296|207:315,1,140,8|2,0:0|0:0,0:0:0:0:
141,356,148821,1,0,3:0:0:0:
56,322,149147,2,0,P|41:278|49:237,1,70,8|4,0:0|3:1,0:0:0:0:
71,168,149799,5,2,3:2:0:0:
156,200,150125,1,2,3:2:0:0:
229,146,150451,2,0,P|265:161|316:166,1,70,8|2,0:0|0:2,0:0:0:0:
357,99,151103,2,0,L|350:49,2,35,0|8|0,0:0|0:0|3:2,0:0:0:0:
439,137,151756,2,0,P|455:168|450:217,1,70,8|2,0:0|0:0,0:0:0:0:
486,287,152408,6,0,P|415:282|366:222,1,140,2|8,3:2|0:0,0:0:0:0:
295,182,153386,1,0,3:0:0:0:
240,255,153712,2,0,L|230:333,1,70,0|0,0:0|3:0,0:0:0:0:
145,355,154364,2,0,L|136:285,1,70,8|4,0:0|3:1,0:0:0:0:
85,209,155017,5,6,3:2:0:0:
52,123,155343,1,0,1:2:0:0:
137,91,155669,1,8,0:0:0:0:
173,174,155995,2,0,L|158:293,2,105,0|4|8,1:2|1:2|0:0,0:0:0:0:
240,112,157299,1,4,0:0:0:0:
317,159,157625,6,0,P|357:167|397:179,2,70,4|0|10,3:2|3:2|0:0,0:0:0:0:
240,112,158603,2,0,P|302:122|356:64,1,140,4|0,3:2|3:0,0:0:0:0:
273,29,159582,2,0,L|188:17,1,70,8|4,0:0|3:1,0:0:0:0:
115,40,160234,5,6,3:2:0:0:
47,101,160560,1,0,3:2:0:0:
116,159,160886,1,8,0:0:0:0:
42,212,161212,2,0,P|120:223|196:239,1,140,6|0,3:2|3:2,0:0:0:0:
265,203,162190,2,0,P|277:228|278:289,1,70,8|2,0:0|0:0,0:0:0:0:
325,349,162843,6,0,L|276:362,2,35,6|2|2,3:2|3:2|3:2,0:0:0:0:
398,295,163495,2,0,B|435:302|456:320|456:320|479:312|512:318,2,105,8|2|2,0:0|3:2|3:2,0:0:0:0:
354,215,164799,1,8,0:0:0:0:
400,136,165125,1,2,3:2:0:0:
351,59,165451,6,0,L|343:9,2,35,0|0|4,1:2|1:2|1:2,0:0:0:0:
272,104,166103,2,0,P|236:75|169:79,1,105,8|4,1:2|1:2,0:0:0:0:
201,162,166919,2,0,P|208:190|221:272,1,105,8|8,1:2|1:2,0:0:0:0:
150,323,167734,1,0,3:0:0:0:
234,357,168060,6,0,B|280:363|280:363|293:372|293:372|341:381,2,105,4|4|4,3:2|3:2|3:2,0:0:0:0:
22,183,170017,2,0,P|54:165|113:177,1,70,2|2,0:2|3:2,0:0:0:0:
166,208,170669,5,6,3:2:0:0:
256,197,170995,1,2,3:2:0:0:
303,119,171321,2,0,B|309:57|309:57|284:39|269:13,2,105,8|2|2,0:0|3:2|3:2,0:0:0:0:
212,116,172625,2,0,P|170:123|127:126,1,70,8|2,0:0|3:2,0:0:0:0:
54,103,173277,6,0,P|26:151|42:192,1,70,2|2,3:2|3:2,0:0:0:0:
7,252,173930,2,0,B|61:259|104:222|104:222|105:253|120:274,1,140,8|0,0:0|0:0,0:0:0:0:
151,341,174908,1,2,3:2:0:0:
223,286,175234,2,0,L|305:274,1,70,10|2,0:0|0:0,0:0:0:0:
370,321,175886,6,0,P|393:289|392:238,1,70,6|2,3:2|3:2,0:0:0:0:
368,173,176538,2,0,P|413:148|474:168,2,105,8|2|2,0:0|3:2|3:2,0:0:0:0:
280,146,177843,1,8,0:0:0:0:
200,190,178169,1,2,3:2:0:0:
111,167,178495,6,0,P|95:136|100:90,1,70,2|2,3:2|3:2,0:0:0:0:
138,20,179147,2,0,L|195:36,1,35,8|0,0:0|3:2,0:0:0:0:
261,42,179636,2,0,B|304:40|334:31|334:31|374:66,1,105,0|2,3:2|3:2,0:0:0:0:
448,44,180451,1,10,0:0:0:0:
498,119,180777,1,2,0:0:0:0:
428,178,181103,6,0,P|388:178|350:147,1,70,6|2,3:2|3:2,0:0:0:0:
283,118,181756,2,0,P|224:116|176:154,2,105,8|2|2,0:0|3:2|3:2,0:0:0:0:
291,208,183060,2,0,P|298:237|303:292,1,70,8|2,0:0|3:2,0:0:0:0:
264,358,183712,5,6,3:2:0:0:
184,314,184038,1,2,3:2:0:0:
109,366,184364,2,0,L|55:382,1,35,8|2,0:0|3:2,0:0:0:0:
10,312,184853,2,0,P|1:257|-3:177,1,105,0|2,3:2|3:2,0:0:0:0:
14,118,185669,1,10,0:0:0:0:
97,153,185995,1,2,0:0:0:0:
152,81,186321,6,0,P|185:78|228:62,1,70,6|2,3:2|3:2,0:0:0:0:
296,17,186973,2,0,B|375:15|352:71|447:60,1,140,8|2,0:0|0:0,0:0:0:0:
500,111,187951,2,0,P|505:145|480:188,1,70,2|8,3:2|0:0,0:0:0:0:
410,218,188603,1,2,3:2:0:0:
358,142,188930,6,0,L|352:97,2,35,6|8|2,3:2|1:2|3:2,0:0:0:0:
285,196,189582,2,0,B|291:258|291:258|313:267|333:287,2,105,8|0|2,0:0|3:2|3:2,0:0:0:0:
220,131,190886,1,10,1:2:0:0:
141,176,191212,1,2,0:0:0:0:
57,139,191538,6,0,P|26:191|32:222,1,70,6|2,3:2|3:2,0:0:0:0:
100,251,192190,2,0,B|132:248|164:231|164:231|185:251|215:256,2,105,8|2|2,0:0|3:2|3:2,0:0:0:0:
63,334,193495,1,8,0:0:0:0:
147,367,193821,1,2,3:2:0:0:
230,330,194147,6,0,P|266:316|312:328,1,70,2|2,3:2|3:2,0:0:0:0:
372,369,194799,2,0,P|425:333|410:240,1,140,8|2,0:0|0:0,0:0:0:0:
350,213,195777,2,0,L|341:301,2,70,2|10|2,3:2|0:0|0:0,0:0:0:0:
404,139,196756,5,6,3:2:0:0:
326,91,197082,1,2,3:2:0:0:
252,144,197408,2,0,P|216:157|180:160,1,70,8|2,0:0|0:0,0:0:0:0:
118,97,198060,2,0,B|125:51|125:51|108:26,2,70,2|2|8,0:0|3:2|0:0,0:0:0:0:
46,152,199038,1,2,3:2:0:0:
100,224,199364,5,4,3:1:0:0:
58,304,199690,1,2,3:2:0:0:
131,358,200017,2,0,B|176:345|217:347|217:347|241:327|243:288,1,140,8|4,0:0|0:1,0:0:0:0:
204,218,200995,1,6,3:2:0:0:
272,158,201321,2,0,P|309:144|357:143,1,70,10|4,0:0|0:1,0:0:0:0:
414,192,201973,6,0,P|436:165|441:109,1,70,6|2,3:2|3:2,0:0:0:0:
408,47,202625,2,0,B|439:45|468:33|468:33|491:56|516:64,2,105,8|2|2,0:0|3:2|3:2,0:0:0:0:
337,105,203930,1,8,0:0:0:0:
257,60,204256,1,2,3:2:0:0:
173,96,204582,6,0,L|78:80,1,70,6|2,3:2|3:2,0:0:0:0:
39,148,205234,1,8,0:0:0:0:
103,212,205560,2,0,B|108:270|108:270|131:289|131:289|139:362,1,140,2|2,0:0|3:2,0:0:0:0:
220,374,206538,2,0,P|259:369|300:343,1,70,10|2,0:0|0:0,0:0:0:0:
271,265,207190,5,6,3:2:0:0:
301,178,207517,2,0,P|343:148|399:156,1,105,10|2,1:2|1:2,0:0:0:0:
436,234,208332,1,2,1:2:0:0:
502,172,208658,2,0,P|523:114|496:54,1,105,8|8,1:2|0:0,0:0:0:0:
430,33,209473,1,2,3:2:0:0:
377,107,209799,6,0,L|386:152,2,35,2|8|6,3:2|0:2|3:2,0:0:0:0:
299,58,210451,1,8,1:2:0:0:
239,126,210777,2,0,L|199:138,1,35,8|2,0:0|3:2,0:0:0:0:
129,84,211267,2,0,P|72:70|17:90,1,105,8|10,0:0|0:0,0:0:0:0:
6,170,212082,1,2,0:0:0:0:
256,192,212408,12,6,215017,0:2:0:0:
238,304,233277,6,0,B|271:305|300:317|300:317|309:305|340:293,2,105,0|0|8,1:2|1:2|0:0,0:0:0:0:
106,342,234745,2,0,P|80:304|89:235,1,105,2|8,1:2|0:0,0:0:0:0:
96,157,235560,1,2,3:2:0:0:
185,170,235886,6,0,P|219:168|273:146,1,70,6|2,3:2|3:2,0:0:0:0:
271,68,236538,2,0,P|310:33|403:50,1,140,8|0,0:0|0:0,0:0:0:0:
479,77,237517,1,2,3:2:0:0:
428,152,237843,2,0,P|424:180|418:230,1,70,8|2,0:0|3:2,0:0:0:0:
433,311,238495,5,2,3:2:0:0:
345,335,238821,1,2,3:2:0:0:
299,256,239147,2,0,P|347:250|405:236,2,105,8|0|2,0:0|3:2|3:2,0:0:0:0:
222,206,240451,2,0,P|200:248|206:283,1,70,10|2,0:0|0:0,0:0:0:0:
117,305,241103,6,0,P|97:276|96:241,1,70,6|2,3:2|3:2,0:0:0:0:
14,201,241756,2,0,P|61:155|147:172,1,140,8|2,0:0|0:0,0:0:0:0:
180,83,242734,1,2,3:2:0:0:
264,116,243060,2,0,L|345:106,1,70,8|2,0:0|3:2,0:0:0:0:
395,40,243712,5,2,3:2:0:0:
480,70,244038,1,2,3:2:0:0:
446,154,244364,2,0,L|439:197,1,35,8|2,0:0|3:2,0:0:0:0:
354,215,244853,2,0,P|302:223|240:236,1,105,0|2,3:2|3:2,0:0:0:0:
217,318,245669,1,10,0:0:0:0:
128,297,245995,1,2,0:0:0:0:
44,332,246321,6,0,P|25:293|34:253,1,70,6|2,3:2|3:2,0:0:0:0:
19,176,246973,2,0,B|96:163|75:228|178:204,1,140,8|0,0:0|0:0,0:0:0:0:
195,127,247951,2,0,P|171:97|171:42,2,70,2|8|2,3:2|0:0|3:2,0:0:0:0:
277,87,248930,5,6,3:2:0:0:
358,126,249256,1,0,3:2:0:0:
433,74,249582,2,0,L|480:93,1,35,8|0,0:0|3:0,0:0:0:0:
498,171,250071,2,0,P|491:223|487:304,1,105,0|2,3:2|3:2,0:0:0:0:
443,355,250886,1,10,0:0:0:0:
368,302,251212,1,2,3:2:0:0:
291,351,251538,5,6,3:2:0:0:
210,309,251864,2,0,B|145:320|145:320|135:340|123:355,1,105,2|2,1:2|1:2,0:0:0:0:
35,332,252680,1,2,1:2:0:0:
76,251,253006,2,0,P|99:204|88:150,1,105,8|8,0:0|0:0,0:0:0:0:
8,114,253821,1,2,3:2:0:0:
65,44,254147,6,0,L|57:4,2,35,2|8|6,3:2|1:2|3:2,0:0:0:0:
150,74,254799,2,0,B|198:77|198:110|266:101,1,105,12|4,0:0|3:2,0:0:0:0:
314,166,255614,2,0,P|365:137|363:83,1,105,8|8,0:0|1:2,0:0:0:0:
423,22,256430,1,2,0:0:0:0:
480,92,256756,6,0,P|484:123|496:185,1,70,6|2,3:2|3:2,0:0:0:0:
464,248,257408,1,8,0:0:0:0:
396,186,257734,2,0,P|345:140|248:155,1,140,2|2,0:0|3:2,0:0:0:0:
192,105,258712,2,0,P|156:100|109:89,1,70,8|2,0:0|3:2,0:0:0:0:
44,139,259364,5,2,3:2:0:0:
61,228,259690,1,2,3:2:0:0:
14,306,260017,2,0,P|62:295|119:289,2,105,8|2|2,0:0|3:2|3:2,0:0:0:0:
63,382,261321,2,0,P|102:376|153:366,1,70,8|2,0:0|0:0,0:0:0:0:
201,312,261973,6,0,P|237:314|268:332,1,70,6|2,3:2|3:2,0:0:0:0:
344,376,262625,1,8,0:0:0:0:
424,333,262951,2,0,P|456:275|419:192,1,140,2|2,0:0|3:2,0:0:0:0:
362,153,263930,2,0,B|326:153|330:173|276:167,1,70,8|2,0:0|3:2,0:0:0:0:
206,191,264582,6,0,P|194:159|199:110,1,70,2|2,3:2|3:2,0:0:0:0:
247,49,265234,2,0,P|292:22|368:45,2,105,8|2|2,0:2|3:2|3:2,0:0:0:0:
156,44,266538,2,0,P|114:34|75:11,1,70,8|2,0:0|0:0,0:0:0:0:
36,95,267190,6,0,P|48:127|43:176,1,70,6|2,3:2|3:2,0:0:0:0:
7,244,267843,2,0,P|46:254|128:199,1,140,8|2,0:0|0:0,0:0:0:0:
207,164,268821,1,2,3:2:0:0:
210,254,269147,2,0,P|196:283|194:333,1,70,10|2,0:0|3:2,0:0:0:0:
270,367,269799,5,6,3:2:0:0:
349,323,270125,1,2,3:2:0:0:
428,367,270451,2,0,L|475:377,1,35,8|2,0:0|3:2,0:0:0:0:
509,296,270940,2,0,P|490:239|489:164,1,105,2|2,3:2|3:2,0:0:0:0:
496,103,271756,2,0,P|463:79|407:81,1,70,8|2,0:0|3:2,0:0:0:0:
351,38,272408,5,6,3:2:0:0:
278,93,272734,1,2,3:2:0:0:
202,41,273060,1,8,0:0:0:0:
120,81,273386,2,0,B|81:70|55:71|55:71|46:50|26:34,2,105,2|8|8,0:0|0:0|0:0,0:0:0:0:
176,152,274690,1,2,3:2:0:0:
104,208,275017,6,0,L|52:218,2,35,2|8|0,3:2|0:0|3:0,0:0:0:0:
184,250,275669,2,0,P|215:288|213:353,1,105,8|0,0:0|3:0,0:0:0:0:
303,369,276484,2,0,B|367:373|353:340|422:347,1,105,8|8,1:2|0:0,0:0:0:0:
488,379,277299,1,2,3:2:0:0:
510,290,277625,5,6,0:0:0:0:
256,192,277788,12,0,279908,0:0:0:0:
256,192,280071,12,0,282843,0:0:0:0:
