osu file format v14

[General]
AudioFilename: audio.mp3
AudioLeadIn: 0
PreviewTime: 201851
Countdown: 0
SampleSet: None
StackLeniency: 0.7
Mode: 0
LetterboxInBreaks: 0
WidescreenStoryboard: 0

[Editor]
Bookmarks: 15512,692885
DistanceSpacing: 0.7
BeatDivisor: 4
GridSize: 4
TimelineZoom: 1.5

[Metadata]
Title:Songs Compilation
TitleUnicode:Songs Compilation
Artist:Kawada Mami
ArtistUnicode:Kawada Mami
Creator:Mei
Version:Insane
Source:
Tags:
BeatmapID:1515129
BeatmapSetID:622577

[Difficulty]
HPDrainRate:7
CircleSize:4
OverallDifficulty:7
ApproachRate:8
SliderMultiplier:1.7
SliderTickRate:1

[Events]
//Background and Video events
0,0,"laopo.jpg",0,0
//Break Periods
2,99348,106755
2,152481,158253
2,188559,193953
2,231699,239958
2,285215,290669
2,321619,330423
2,372051,376486
2,409091,418960
2,460209,474207
2,499157,510009
2,570959,582633
2,658637,667246
//Storyboard Layer 0 (Background)
//Storyboard Layer 1 (Fail)
//Storyboard Layer 2 (Pass)
//Storyboard Layer 3 (Foreground)
//Storyboard Sound Samples

[TimingPoints]
967,454.545454545455,4,2,1,50,1,0
105714,447.761194029851,4,2,1,50,1,0
157503,428.571428571429,4,2,1,50,1,0
194000,468.75,4,2,1,50,1,0
194000,-100,4,1,1,30,0,0
201500,-100,4,1,1,50,0,0
238862,461.538461538462,4,2,1,50,1,0
240708,-100,4,2,1,50,0,0
248092,-133.333333333333,4,2,1,50,0,0
255477,-100,4,2,1,50,0,0
262862,-100,4,1,1,50,0,0
289655,441.176470588235,4,2,1,50,1,0
329140,508.474576271186,4,2,1,50,1,0
376822,413.793103448276,4,2,1,50,1,0
377029,-100,4,1,1,50,0,0
379098,-100,4,2,1,50,0,0
418815,447.761194029851,4,2,1,50,1,0
467573,461.538461538462,4,2,1,50,1,0
505134,468.75,4,2,1,50,1,0
583383,436.363636363636,4,2,1,50,1,0
627019,-100,4,1,1,50,0,0
666219,444.444444444444,4,2,1,50,1,0
667996,-133.333333333333,4,2,1,50,0,0
680441,-100,4,2,1,50,0,0
682219,-100,4,2,1,50,0,0
724885,-100,4,2,1,50,0,0

[HitObjects]
128,44,15512,5,0,0:0:0:0:
212,112,15739,1,0,0:0:0:0:
300,48,15967,2,0,P|360:32|396:20,1,85,8|0,0:0|0:0,0:0:0:0:
412,12,16307,1,0,0:0:0:0:
436,0,16421,2,0,P|440:52|440:104,1,85,0|0,0:0|0:0,0:0:0:0:
336,192,16876,1,8,0:0:0:0:
492,224,17103,1,0,0:0:0:0:
492,224,17217,1,0,0:0:0:0:
492,224,17330,6,0,P|488:276|488:328,1,85,0|0,0:0|0:0,0:0:0:0:
368,368,17785,2,0,P|312:352|264:328,1,85,8|0,0:0|0:0,0:0:0:0:
176,260,18239,2,0,P|217:242|260:230,1,85,0|0,0:0|0:0,0:0:0:0:
396,256,18694,1,8,0:0:0:0:
316,88,18921,1,0,0:0:0:0:
316,88,19035,1,0,0:0:0:0:
316,88,19148,6,0,P|260:72|212:48,2,85,0|0|8,0:0|0:0|0:0,0:0:0:0:
472,232,19830,1,0,0:0:0:0:
472,232,19944,1,0,0:0:0:0:
472,232,20057,1,0,0:0:0:0:
504,96,20285,2,0,P|512:44|512:4,1,85,0|8,0:0|0:0,0:0:0:0:
388,184,20740,6,0,P|380:236|380:276,1,85,0|0,0:0|0:0,0:0:0:0:
316,384,21194,1,0,0:0:0:0:
224,268,21421,2,0,P|164:272|116:292,1,85,8|0,0:0|0:0,0:0:0:0:
16,340,21876,1,0,0:0:0:0:
84,180,22103,1,0,0:0:0:0:
0,260,22330,1,8,0:0:0:0:
168,192,22557,1,0,0:0:0:0:
20,56,22785,6,0,P|4:116|-4:160,1,85,4|0,0:0|0:0,0:0:0:0:
48,280,23239,1,8,0:0:0:0:
168,192,23467,1,0,0:0:0:0:
168,192,23580,1,0,0:0:0:0:
168,191,23694,2,0,P|207:177|278:145,1,85,0|0,0:0|0:0,0:0:0:0:
412,184,24148,1,8,0:0:0:0:
356,40,24376,6,0,P|316:19|273:3,2,85,0|0|0,0:0|0:0|0:0,0:0:0:0:
476,136,25057,1,8,0:0:0:0:
336,212,25285,1,0,0:0:0:0:
336,212,25398,1,0,0:0:0:0:
336,212,25512,2,0,P|324:272|320:316,1,85,0|0,0:0|0:0,0:0:0:0:
420,368,25967,2,0,P|432:308|436:264,1,85,8|0,0:0|0:0,0:0:0:0:
336,212,26421,5,0,0:0:0:0:
216,264,26648,2,0,P|152:288|100:304,1,85,0|8,0:0|0:0,0:0:0:0:
16,224,27103,2,0,L|0:180,2,42.5,0|0|0,0:0|0:0|0:0,0:0:0:0:
136,176,27557,2,0,P|140:116|148:76,1,85,0|8,0:0|0:0,0:0:0:0:
264,24,28012,1,0,0:0:0:0:
264,24,28126,1,0,0:0:0:0:
264,24,28239,6,0,P|271:68|273:113,1,85,0|0,0:0|0:0,0:0:0:0:
308,256,28694,2,0,P|356:244|412:240,1,85,8|0,0:0|0:0,0:0:0:0:
216,180,29148,2,0,P|168:192|112:196,1,85,0|0,0:0|0:0,0:0:0:0:
192,348,29603,2,0,P|234:352|275:363,1,85,8|0,0:0|0:0,0:0:0:0:
476,344,30057,5,0,0:0:0:0:
478,310,30170,1,0,0:0:0:0:
480,276,30284,1,0,0:0:0:0:
482,242,30397,1,0,0:0:0:0:
483,209,30511,1,8,0:0:0:0:
472,56,30739,6,0,L|430:60,1,42.5,0|0,0:0|0:0,0:0:0:0:
400,136,30967,2,0,L|348:132,1,42.5,0|0,0:0|0:0,0:0:0:0:
320,32,31194,2,0,L|278:36,1,42.5,0|0,0:0|0:0,0:0:0:0:
240,137,31421,2,0,L|211:134,6,21.25,8|0|0|0|0|0|0,0:0|0:0|0:0|0:0|0:0|0:0|0:0,0:0:0:0:
280,204,31876,6,0,P|292:272|296:328,1,85,4|0,0:0|0:0,0:0:0:0:
216,360,32330,1,8,0:0:0:0:
64,304,32557,2,0,P|80:260|200:296,1,170,0|0,0:0|0:0,0:0:0:0:
64,304,33239,1,8,0:0:0:0:
0,224,33467,1,0,0:0:0:0:
60,136,33694,6,0,P|120:112|156:96,1,85,0|0,0:0|0:0,0:0:0:0:
348,80,34148,1,8,0:0:0:0:
252,32,34376,2,0,B|232:96|232:96|260:128|260:128|236:208,1,170,0|0,0:0|0:0,0:0:0:0:
324,304,35057,2,0,P|388:284|420:260,1,85,8|0,0:0|0:0,0:0:0:0:
496,208,35512,6,0,P|452:176|336:192,1,170,0|8,0:0|0:0,0:0:0:0:
228,268,36194,2,0,P|216:340|216:364,1,85,0|0,0:0|0:0,0:0:0:0:
136,184,36648,1,0,0:0:0:0:
136,184,36876,2,0,P|72:192|32:212,1,85,8|0,0:0|0:0,0:0:0:0:
0,312,37330,6,0,P|40:325|82:327,1,85,0|0,0:0|0:0,0:0:0:0:
168,384,37785,1,8,0:0:0:0:
388,304,38012,2,0,P|304:293|223:315,1,170,0|0,0:0|0:0,0:0:0:0:
176,224,38694,1,8,0:0:0:0:
284,144,38921,1,0,0:0:0:0:
284,144,39035,1,0,0:0:0:0:
284,144,39148,5,0,0:0:0:0:
152,80,39376,2,0,P|92:104|56:120,1,85,0|8,0:0|0:0,0:0:0:0:
284,228,39830,2,0,P|344:200|324:80,1,170,0|0,0:0|0:0,0:0:0:0:
176,224,40512,2,0,P|168:280|168:320,1,85,8|0,0:0|0:0,0:0:0:0:
308,384,40967,5,0,0:0:0:0:
408,272,41194,1,0,0:0:0:0:
252,312,41421,1,8,0:0:0:0:
436,348,41648,2,0,P|480:308|432:192,1,170,0|0,0:0|0:0,0:0:0:0:
324,152,42330,2,0,P|272:164|228:180,1,85,8|0,0:0|0:0,0:0:0:0:
240,28,42785,5,0,0:0:0:0:
136,96,43012,1,0,0:0:0:0:
136,96,43126,1,0,0:0:0:0:
136,96,43239,2,0,P|120:180|116:208,1,85,8|0,0:0|0:0,0:0:0:0:
96,312,43694,1,0,0:0:0:0:
224,248,43921,2,0,P|276:232|320:224,2,85,0|8|0,0:0|0:0|0:0,0:0:0:0:
28,240,44603,5,8,0:0:0:0:
28,240,44830,1,0,0:0:0:0:
112,360,45057,2,0,L|160:344,1,42.5,8|0,0:0|0:0,0:0:0:0:
232,364,45285,2,0,L|280:348,1,42.5,0|0,0:0|0:0,0:0:0:0:
354,345,45512,2,0,L|369:259,1,85,0|8,0:0|0:0,0:0:0:0:
364,182,45853,1,0,0:0:0:0:
364,182,45967,2,0,L|368:152,6,21.25,8|0|0|0|0|0|0,0:0|0:0|0:0|0:0|0:0|0:0|0:0,0:0:0:0:
440,136,46421,6,0,P|496:116|524:100,1,85,4|0,0:0|0:0,0:0:0:0:
320,60,46876,1,8,0:0:0:0:
284,180,47103,2,0,P|272:244|256:360,1,170,0|0,0:0|0:0,0:0:0:0:
144,372,47785,2,0,P|132:328|128:280,1,85,8|0,0:0|0:0,0:0:0:0:
192,204,48239,5,0,0:0:0:0:
40,180,48467,1,0,0:0:0:0:
40,180,48580,1,0,0:0:0:0:
40,180,48694,1,8,0:0:0:0:
132,80,48921,2,0,P|200:60|316:64,1,170,0|0,0:0|0:0,0:0:0:0:
416,132,49603,2,0,P|484:112|512:104,1,85,8|0,0:0|0:0,0:0:0:0:
319,198,50057,6,0,P|279:166|307:54,1,170,0|8,0:0|0:0,0:0:0:0:
424,240,50739,1,0,0:0:0:0:
328,300,50967,2,0,L|308:388,1,85,0|0,0:0|0:0,0:0:0:0:
208,320,51421,2,0,L|226:237,1,85,8|0,0:0|0:0,0:0:0:0:
412,120,51876,6,0,P|468:144|504:172,2,85,0|0|8,0:0|0:0|0:0,0:0:0:0:
297,60,52557,2,0,P|220:64|124:96,1,170,0|0,0:0|0:0,0:0:0:0:
32,148,53239,1,8,0:0:0:0:
24,24,53467,1,0,0:0:0:0:
24,24,53580,1,0,0:0:0:0:
24,24,53694,5,0,0:0:0:0:
120,164,53921,2,0,L|104:256,1,85,0|8,0:0|0:0,0:0:0:0:
188,360,54376,2,0,P|232:328|204:220,1,170,0|0,0:0|0:0,0:0:0:0:
188,360,55057,1,8,0:0:0:0:
64,332,55285,1,0,0:0:0:0:
188,360,55512,6,0,P|252:364|296:384,1,85,0|0,0:0|0:0,0:0:0:0:
436,220,55967,1,8,0:0:0:0:
436,220,56194,2,0,P|452:160|424:36,1,170,0|0,0:0|0:0,0:0:0:0:
336,8,56876,2,0,P|328:68|344:100,1,85,8|0,0:0|0:0,0:0:0:0:
328,220,57330,6,0,L|152:196,1,170,0|8,0:0|0:0,0:0:0:0:
56,120,58012,1,0,0:0:0:0:
188,16,58239,2,0,P|176:88|168:120,1,85,0|0,0:0|0:0,0:0:0:0:
64,220,58694,2,0,P|76:292|84:324,1,85,8|0,0:0|0:0,0:0:0:0:
224,372,59148,5,0,0:0:0:0:
316,232,59376,1,8,0:0:0:0:
316,232,59489,1,0,0:0:0:0:
316,232,59603,2,0,P|256:216|144:200,1,170,8|0,0:0|0:0,0:0:0:0:
352,324,60285,5,8,0:0:0:0:
492,188,60512,1,8,0:0:0:0:
320,112,60739,1,0,0:0:0:0:
376,352,60967,6,0,L|408:148,1,170,4|8,0:0|0:0,0:0:0:0:
248,44,61648,1,0,0:0:0:0:
248,44,61876,2,0,P|188:68|140:80,1,85,0|0,0:0|0:0,0:0:0:0:
30,205,62330,2,0,P|70:217|109:234,1,85,8|0,0:0|0:0,0:0:0:0:
267,214,62785,6,0,P|275:150|280:101,1,85,0|0,0:0|0:0,0:0:0:0:
110,235,63239,2,0,P|102:299|97:348,1,85,8|0,0:0|0:0,0:0:0:0:
292,376,63694,2,0,P|300:312|305:263,1,85,0|0,0:0|0:0,0:0:0:0:
173,345,64148,1,8,0:0:0:0:
360,208,64376,6,0,P|408:192|520:120,1,170,0|0,0:0|0:0,0:0:0:0:
392,60,65057,2,0,P|436:20|456:-12,1,85,8|0,0:0|0:0,0:0:0:0:
256,32,65512,2,0,P|248:112|248:224,1,170,0|8,0:0|0:0,0:0:0:0:
336,324,66194,1,0,0:0:0:0:
336,324,66307,1,0,0:0:0:0:
336,324,66421,6,0,P|404:344|436:364,1,85,0|0,0:0|0:0,0:0:0:0:
176,256,66876,2,0,P|120:272|80:304,1,85,8|0,0:0|0:0,0:0:0:0:
336,216,67330,1,0,0:0:0:0:
140,128,67557,1,0,0:0:0:0:
328,32,67785,1,8,0:0:0:0:
140,128,68012,6,0,P|72:104|-4:20,1,170,4|0,0:0|0:0,0:0:0:0:
264,92,68694,1,8,0:0:0:0:
264,92,68921,2,0,L|256:200,2,85,0|0|0,0:0|0:0|0:0,0:0:0:0:
248,272,69603,1,8,0:0:0:0:
376,176,69830,6,0,P|444:200|520:284,1,170,0|0,0:0|0:0,0:0:0:0:
360,368,70512,2,0,P|364:304|380:248,1,85,8|0,0:0|0:0,0:0:0:0:
257,176,70967,1,0,0:0:0:0:
240,372,71194,1,0,0:0:0:0:
240,372,71307,1,0,0:0:0:0:
240,372,71421,1,8,0:0:0:0:
116,216,71648,6,0,P|108:164|88:32,1,170,4|0,0:0|0:0,0:0:0:0:
224,96,72330,1,8,0:0:0:0:
336,32,72557,1,0,0:0:0:0:
460,84,72785,2,0,P|447:168|434:252,1,170,0|8,0:0|0:0,0:0:0:0:
304,316,73467,1,0,0:0:0:0:
304,316,73694,6,0,P|316:231|320:208,1,85,0|0,0:0|0:0,0:0:0:0:
148,208,74148,2,0,P|204:172|228:160,1,85,8|0,0:0|0:0,0:0:0:0:
388,120,74603,2,0,P|336:92|288:72,1,85,0|0,0:0|0:0,0:0:0:0:
192,32,75057,1,8,0:0:0:0:
60,172,75285,6,0,P|48:232|128:308,1,170,0|0,0:0|0:0,0:0:0:0:
272,308,75967,1,8,3:2:0:0:
309,288,76080,1,0,3:2:0:0:
350,292,76194,1,0,3:2:0:0:
383,318,76307,1,0,3:2:0:0:
396,358,76421,2,0,P|476:340|488:324,1,85,0|0,3:2|0:0,0:0:0:0:
384,200,76876,2,0,P|360:192|316:184,1,42.5,8|0,0:0|0:0,0:0:0:0:
224,208,77103,5,8,0:0:0:0:
404,80,77557,5,8,0:0:0:0:
76,24,78012,5,8,0:0:0:0:
64,52,78921,2,0,L|56:108,1,42.5,0|0,0:0|0:0,0:0:0:0:
100,204,79148,5,4,0:0:0:0:
220,128,79376,1,0,0:0:0:0:
244,296,79603,1,8,0:0:0:0:
372,196,79830,2,0,L|384:22,1,170,0|0,0:0|0:0,0:0:0:0:
240,209,80512,1,8,0:0:0:0:
349,307,80739,6,0,L|454:282,1,85,0|0,0:0|0:0,0:0:0:0:
234,371,81194,1,0,0:0:0:0:
308,243,81421,1,8,0:0:0:0:
153,258,81648,2,0,L|145:81,1,170,0|0,0:0|0:0,0:0:0:0:
232,161,82330,1,8,0:0:0:0:
63,221,82557,1,0,0:0:0:0:
63,221,82671,1,0,0:0:0:0:
63,221,82785,5,0,0:0:0:0:
145,88,83012,1,0,0:0:0:0:
211,303,83239,1,8,0:0:0:0:
399,191,83467,6,0,P|347:183|207:155,1,170,0|0,0:0|0:0,0:0:0:0:
378,285,84148,1,8,0:0:0:0:
492,129,84376,2,0,P|468:69|352:69,1,170,0|0,0:0|0:0,0:0:0:0:
231,160,85057,2,0,P|223:220|223:252,1,85,8|0,0:0|0:0,0:0:0:0:
370,369,85512,2,0,P|378:309|378:277,1,85,0|0,0:0|0:0,0:0:0:0:
156,120,85967,1,8,0:0:0:0:
124,126,86080,1,0,0:0:0:0:
93,133,86194,1,0,0:0:0:0:
62,139,86307,1,0,0:0:0:0:
31,146,86421,5,4,0:0:0:0:
88,36,86648,1,0,0:0:0:0:
144,228,86876,1,8,0:0:0:0:
216,112,87103,1,0,0:0:0:0:
56,240,87330,1,0,0:0:0:0:
212,336,87557,2,0,P|280:320|328:308,1,85,0|8,0:0|0:0,0:0:0:0:
439,239,88012,5,0,0:0:0:0:
288,140,88239,2,0,P|280:200|276:244,1,85,0|0,0:0|0:0,0:0:0:0:
384,360,88694,1,8,0:0:0:0:
376,96,88921,2,0,P|336:56|212:64,1,170,0|0,0:0|0:0,0:0:0:0:
277,224,89603,1,8,0:0:0:0:
277,224,89830,2,0,P|321:226|375:233,1,85
152,341,90285,6,0,P|108:339|54:332,1,85,0|8,0:0|0:0,0:0:0:0:
40,188,90739,1,0,0:0:0:0:
160,48,90967,2,0,P|164:112|164:148,1,85,0|0,0:0|0:0,0:0:0:0:
332,288,91421,2,0,P|392:284|428:268,1,85,8|0,0:0|0:0,0:0:0:0:
484,137,91876,6,0,L|492:29,1,85,0|0,0:0|0:0,0:0:0:0:
260,56,92330,2,0,L|253:225,1,170,8|0,0:0|0:0,0:0:0:0:
304,384,93012,1,8,0:0:0:0:
416,272,93239,1,0,0:0:0:0:
304,384,93467,1,8,0:0:0:0:
252,224,93694,6,0,P|184:204|140:200,2,85,4|0|8,0:0|0:0|0:0,0:0:0:0:
416,172,94376,1,0,0:0:0:0:
416,172,94603,2,0,P|428:124|428:80,1,85,0|0,0:0|0:0,0:0:0:0:
296,8,95057,2,0,P|284:56|284:100,1,85,8|0,0:0|0:0,0:0:0:0:
336,320,95512,2,0,P|400:304|448:304,1,85,0|0,0:0|0:0,0:0:0:0:
200,348,95967,2,0,P|136:364|88:364,1,85,8|0,0:0|0:0,0:0:0:0:
232,168,96421,5,0,0:0:0:0:
268,292,96648,1,0,0:0:0:0:
268,292,96762,1,0,0:0:0:0:
268,292,96876,1,8,0:0:0:0:
320,120,97103,1,0,0:0:0:0:
120,252,97330,1,0,3:2:0:0:
88,245,97443,1,0,3:2:0:0:
57,239,97557,1,0,3:2:0:0:
26,233,97670,1,0,3:2:0:0:
0,226,97784,5,8,3:2:0:0:
172,76,98012,2,0,L|180:132,1,42.5,0|0,0:0|0:0,0:0:0:0:
236,200,98239,2,0,P|288:184|340:176,1,85,0|0,0:0|0:0,0:0:0:0:
488,248,98694,2,0,L|476:312,1,42.5,8|0,0:0|0:0,0:0:0:0:
376,312,98921,2,0,L|388:360,1,42.5,0|0,0:0|0:0,0:0:0:0:
484,372,99148,5,4,0:0:0:0:
304,156,107505,6,0,P|352:144|396:140,1,85,4|0,0:0|0:0,0:0:0:0:
360,240,107952,1,8,0:0:0:0:
196,108,108176,1,0,0:0:0:0:
196,108,108288,6,0,P|153:103|112:92,1,85,0|0,0:0|0:0,0:0:0:0:
88,88,108624,2,0,L|96:176,1,85,0|8,0:0|0:0,0:0:0:0:
120,328,109072,1,0,0:0:0:0:
120,328,109184,1,0,0:0:0:0:
120,328,109296,5,0,0:0:0:0:
32,260,109519,1,0,0:0:0:0:
200,216,109743,2,0,P|260:228|296:240,1,85,8|0,0:0|0:0,0:0:0:0:
308,244,110079,2,0,P|320:316|324:340,1,85,0|0,0:0|0:0,0:0:0:0:
320,352,110415,5,0,0:0:0:0:
440,272,110639,2,0,P|448:196|460:120,1,127.5,8|0,0:0|0:0,0:0:0:0:
468,124,111087,5,0,0:0:0:0:
352,172,111311,1,0,0:0:0:0:
240,112,111534,2,0,P|176:96|144:84,1,85,8|0,0:0|0:0,0:0:0:0:
136,80,111870,2,0,P|72:96|40:108,1,85,0|0,0:0|0:0,0:0:0:0:
32,120,112206,1,0,0:0:0:0:
136,216,112430,1,8,0:0:0:0:
0,288,112654,1,0,0:0:0:0:
4,312,112766,1,0,0:0:0:0:
8,336,112878,5,0,0:0:0:0:
188,384,113102,1,0,0:0:0:0:
260,200,113326,1,8,0:0:0:0:
56,180,113549,2,0,L|88:368,1,170,0|0,0:0|0:0,0:0:0:0:
304,384,114221,1,8,0:0:0:0:
332,368,114332,1,0,0:0:0:0:
362,358,114444,1,0,0:0:0:0:
393,352,114556,1,0,0:0:0:0:
425,351,114669,6,0,L|393:163,1,170,4|8,0:0|0:0,0:0:0:0:
472,84,115340,1,0,0:0:0:0:
312,52,115564,6,0,P|240:40|176:16,1,127.5,0|0,0:0|0:0,0:0:0:0:
164,12,116012,2,0,L|180:104,1,85,8|0,0:0|0:0,0:0:0:0:
48,256,116460,2,0,P|120:244|184:220,1,127.5,0|0,0:0|0:0,0:0:0:0:
196,216,116908,2,0,L|180:308,1,85,8|0,0:0|0:0,0:0:0:0:
376,256,117355,5,0,0:0:0:0:
280,356,117579,1,0,0:0:0:0:
280,356,117691,1,0,0:0:0:0:
280,356,117803,1,8,0:0:0:0:
236,124,118027,1,0,0:0:0:0:
376,256,118251,6,0,P|428:228|452:204,1,85,0|0,0:0|0:0,0:0:0:0:
236,124,118699,2,0,P|185:92|152:84,1,85,8|0,0:0|0:0,0:0:0:0:
192,296,119146,2,0,P|190:355|199:387,1,85,0|0,0:0|0:0,0:0:0:0:
316,336,119594,1,8,0:0:0:0:
440,372,119818,1,0,0:0:0:0:
496,256,120042,6,0,L|500:152,1,85,8|0,0:0|0:0,0:0:0:0:
500,144,120378,2,0,P|440:120|412:116,1,85,8|0,0:0|0:0,0:0:0:0:
396,120,120714,2,0,P|328:136|376:20,1,255,8|8,0:0|0:0,0:0:0:0:
316,224,121609,1,0,3:2:0:0:
316,224,121721,1,0,3:2:0:0:
316,224,121833,6,0,L|244:208,3,42.5,0|0|0|0,3:2|3:2|3:2|3:2,3:2:0:0:
192,264,122281,2,0,L|120:248,3,42.5,0|0|0|0,3:2|3:2|3:2|3:2,3:2:0:0:
56,296,122728,2,0,L|-16:280,3,42.5,0|0|0|0,3:2|3:2|3:2|3:2,3:2:0:0:
36,172,123176,6,0,L|16:128,1,42.5,2|0,3:0|3:0,3:0:0:0:
116,80,123400,2,0,L|116:28,1,42.5,2|0,3:0|3:0,3:0:0:0:
212,120,123624,6,0,P|280:104|320:96,1,85,4|0,0:0|0:0,0:0:0:0:
320,104,123960,1,0,0:0:0:0:
344,108,124072,1,8,0:0:0:0:
472,208,124296,1,0,0:0:0:0:
300,264,124519,2,0,P|232:280|192:288,1,85,0|0,0:0|0:0,0:0:0:0:
192,280,124855,1,0,0:0:0:0:
168,276,124967,1,8,0:0:0:0:
40,176,125191,1,0,0:0:0:0:
164,356,125415,5,0,0:0:0:0:
136,128,125639,2,0,L|144:72,2,42.5,0|0|8,0:0|0:0|0:0,0:0:0:0:
40,300,126087,1,0,0:0:0:0:
216,172,126311,2,0,P|268:160|308:148,1,85,0|0,0:0|0:0,0:0:0:0:
192,32,126758,1,8,0:0:0:0:
132,240,126982,1,0,0:0:0:0:
352,212,127206,6,0,P|404:224|444:236,1,85,0|0,0:0|0:0,0:0:0:0:
456,244,127542,1,0,0:0:0:0:
476,260,127654,1,8,0:0:0:0:
372,324,127878,1,0,0:0:0:0:
392,128,128102,5,0,0:0:0:0:
272,248,128325,1,0,0:0:0:0:
480,156,128549,1,8,0:0:0:0:
288,40,128773,1,0,0:0:0:0:
272,248,128997,6,0,L|264:348,1,85,0|0,0:0|0:0,0:0:0:0:
265,332,129333,1,0,0:0:0:0:
265,332,129445,1,8,0:0:0:0:
108,264,129669,2,0,P|80:208|148:120,1,170,0|0,0:0|0:0,0:0:0:0:
164,200,130340,1,8,0:0:0:0:
48,88,130564,1,0,0:0:0:0:
240,20,130788,5,0,0:0:0:0:
240,20,130900,2,0,L|348:44,1,85,0|0,0:0|0:0,0:0:0:0:
348,44,131236,2,0,L|444:64,1,85,8|0,0:0|0:0,0:0:0:0:
488,180,131684,2,0,P|480:264|472:344,1,127.5,0|0,0:0|0:0,0:0:0:0:
480,332,132131,2,0,P|424:332|376:340,1,85,8|0,0:0|0:0,0:0:0:0:
256,356,132579,6,0,P|248:284|260:164,1,170,0|8,0:0|0:0,0:0:0:0:
180,48,133251,2,0,P|120:140|72:128,1,170,0|0,0:0|0:0,0:0:0:0:
24,36,133923,1,8,0:0:0:0:
255,186,134146,1,0,0:0:0:0:
255,186,134258,1,0,0:0:0:0:
255,186,134370,6,0,L|451:162,1,170,0|8,0:0|0:0,0:0:0:0:
448,48,135042,2,0,P|376:56|336:64,1,85,0|0,0:0|0:0,0:0:0:0:
156,272,135490,2,0,L|120:308,2,42.5,0|0|8,0:0|0:0|0:0,0:0:0:0:
356,272,135937,2,0,L|392:308,2,42.5,0|0|0,0:0|0:0|0:0,0:0:0:0:
256,72,136385,5,0,0:0:0:0:
226,83,136496,1,0,0:0:0:0:
195,89,136608,1,8,0:0:0:0:
163,88,136720,1,0,0:0:0:0:
132,80,136832,1,0,0:0:0:0:
101,73,136944,1,0,0:0:0:0:
69,71,137056,1,0,0:0:0:0:
38,76,137168,1,0,0:0:0:0:
7,85,137281,2,0,P|8:152|12:192,1,85,0|8,0:0|0:0,0:0:0:0:
152,312,137728,1,0,0:0:0:0:
176,304,137840,1,0,0:0:0:0:
200,296,137952,5,0,0:0:0:0:
256,192,138064,12,0,139743,0:0:0:0:
328,116,139967,5,0,0:0:0:0:
208,32,140191,1,8,0:0:0:0:
164,240,140415,2,0,P|248:224|336:200,1,170,0|0,0:0|0:0,0:0:0:0:
496,104,141087,2,0,P|440:84|404:68,1,85,8|0,0:0|0:0,0:0:0:0:
396,56,141422,1,0,0:0:0:0:
376,40,141534,1,0,0:0:0:0:
177,146,141758,5,0,0:0:0:0:
329,202,141982,1,8,0:0:0:0:
281,34,142206,1,0,0:0:0:0:
329,202,142430,2,0,L|313:390,1,170,0|8,0:0|0:0,0:0:0:0:
236,272,143102,1,0,0:0:0:0:
420,232,143325,1,0,0:0:0:0:
236,272,143549,6,0,P|164:248|128:236,1,85,0|8,0:0|0:0,0:0:0:0:
24,208,143997,1,0,0:0:0:0:
144,80,144221,2,0,P|185:71|224:55,1,85,0|0,0:0|0:0,0:0:0:0:
324,212,144669,1,8,0:0:0:0:
436,104,144893,1,0,0:0:0:0:
224,55,145116,6,0,L|208:167,1,85,0|0,0:0|0:0,0:0:0:0:
212,164,145452,1,0,0:0:0:0:
212,188,145564,2,0,L|224:300,1,85,8|0,0:0|0:0,0:0:0:0:
384,248,146012,2,0,L|360:352,1,85,0|0,0:0|0:0,0:0:0:0:
84,172,146460,2,0,L|104:272,1,85,8|0,0:0|0:0,0:0:0:0:
256,356,146908,1,0,0:0:0:0:
312,96,147131,6,0,L|324:8,1,85,0|8,0:0|0:0,0:0:0:0:
100,39,147579,2,0,P|47:100|84:172,1,170,0|0,0:0|0:0,0:0:0:0:
188,244,148251,1,8,0:0:0:0:
304,192,148475,1,0,0:0:0:0:
428,224,148699,6,0,L|456:68,1,127.5,0|0,0:0|0:0,0:0:0:0:
456,72,149146,2,0,P|408:56|368:36,1,85,8|0,0:0|0:0,0:0:0:0:
84,172,149594,2,0,L|56:328,1,127.5,0|0,0:0|0:0,0:0:0:0:
56,324,150042,2,0,P|104:340|144:360,1,85,8|0,0:0|0:0,0:0:0:0:
328,172,150490,6,0,P|292:140|268:104,1,85,8|0,0:0|0:0,0:0:0:0:
240,112,150826,2,0,P|215:146|183:174,1,85,8|0,0:0|0:0,0:0:0:0:
164,188,151161,2,0,L|176:240,1,42.5,8|0,0:0|0:0,0:0:0:0:
232,292,151385,2,0,L|244:344,2,42.5,0|0|0,0:0|0:0|0:0,0:0:0:0:
32,264,151833,2,0,L|0:304,2,42.5,8|0|0,0:0|0:0|0:0,0:0:0:0:
160,80,152281,5,4,0:0:0:0:
357,259,159003,6,0,L|173:247,1,170,2|0,0:3|0:0,0:0:0:0:
152,244,159538,1,0,0:0:0:0:
120,240,159645,1,0,3:0:0:0:
0,104,159860,2,0,P|12:40|128:56,1,170,0|0,3:0|0:0,0:0:0:0:
114,59,160395,1,0,0:0:0:0:
128,90,160503,2,0,L|144:121,6,21.25
124,136,160931,6,0,P|184:116|220:96,1,85,4|0,0:0|0:0,0:0:0:0:
376,176,161359,2,0,P|337:158|296:146,1,85,8|0,0:0|0:0,0:0:0:0:
188,248,161788,1,0,0:0:0:0:
284,344,162002,1,0,0:0:0:0:
376,176,162217,1,8,0:0:0:0:
188,248,162431,6,0,P|112:256|-8:288,1,170,0|0,0:0|0:0,0:0:0:0:
284,344,163074,2,0,P|288:288|288:224,1,85,8|0,0:0|0:0,0:0:0:0:
295,135,163502,1,0,0:0:0:0:
368,7,163717,1,0,0:0:0:0:
295,135,163931,1,8,0:0:0:0:
476,104,164145,6,0,L|504:296,1,170,0|0,0:0|0:0,0:0:0:0:
380,56,164788,2,0,P|424:16|472:12,1,85,8|0,0:0|0:0,0:0:0:0:
376,164,165217,2,0,L|264:124,1,85,0|0,0:0|0:0,0:0:0:0:
272,20,165645,1,8,0:0:0:0:
157,139,165859,6,0,P|227:179|295:135,1,170,0|0,0:0|0:0,0:0:0:0:
224,96,166502,1,8,0:0:0:0:
152,264,166717,2,0,P|155:306|158:349,2,85,0|0|0,0:0|0:0|0:0,0:0:0:0:
105,24,167359,1,8,0:0:0:0:
65,147,167574,1,0,0:0:0:0:
224,96,167788,6,0,L|216:192,1,85,0|0,0:0|0:0,0:0:0:0:
308,320,168217,2,0,P|392:304|392:200,1,170,8|0,0:0|0:0,0:0:0:0:
352,152,168859,1,0,0:0:0:0:
328,244,169074,1,8,0:0:0:0:
460,136,169288,1,0,0:0:0:0:
280,68,169502,6,0,P|238:78|199:93,1,85,0|0,0:0|0:0,0:0:0:0:
210,352,169931,2,0,P|252:342|291:327,1,85,8|0,0:0|0:0,0:0:0:0:
409,230,170359,2,0,P|328:243|274:183,1,170,0|8,0:0|0:0,0:0:0:0:
215,9,171002,1,0,0:0:0:0:
215,9,171109,1,0,0:0:0:0:
215,9,171217,6,0,P|199:85|199:125,1,85,0|0,0:0|0:0,0:0:0:0:
384,144,171645,2,0,P|444:128|468:112,1,85,8|0,0:0|0:0,0:0:0:0:
251,251,172074,2,0,P|259:299|271:335,1,85,0|0,0:0|0:0,0:0:0:0:
80,168,172502,1,8,0:0:0:0:
80,168,172717,2,0,P|56:216|44:260,1,85,0|0,0:0|0:0,0:0:0:0:
156,372,173145,5,8,0:0:0:0:
156,372,173252,1,0,0:0:0:0:
156,372,173360,1,0,0:0:0:0:
200,140,173574,1,8,0:0:0:0:
271,334,173788,1,0,0:0:0:0:
144,236,174002,1,8,0:0:0:0:
372,136,174217,1,8,0:0:0:0:
136,24,174431,1,8,0:0:0:0:
460,72,174645,6,0,L|440:280,1,170,4|8,0:0|0:0,0:0:0:0:
328,300,175288,1,0,0:0:0:0:
248,200,175502,2,0,P|256:144|264:96,1,85,0|0,0:0|0:0,0:0:0:0:
240,8,175931,1,8,0:0:0:0:
248,200,176145,6,0,P|208:240|104:196,1,170,0|0,0:0|0:0,0:0:0:0:
0,208,176788,2,0,P|1:166|8:124,1,85,8|0,0:0|0:0,0:0:0:0:
100,312,177217,1,0,0:0:0:0:
176,160,177431,1,0,0:0:0:0:
0,208,177645,1,8,0:0:0:0:
120,348,177859,6,0,P|192:340|312:316,1,170,0|0,0:0|0:0,0:0:0:0:
432,244,178502,2,0,P|480:272|508:300,1,85,8|0,0:0|0:0,0:0:0:0:
272,180,178931,2,0,P|256:120|256:72,1,85,0|0,0:0|0:0,0:0:0:0:
456,8,179359,1,8,0:0:0:0:
456,8,179574,6,0,P|472:84|492:200,1,170,0|0,0:0|0:0,0:0:0:0:
376,304,180217,1,8,0:0:0:0:
216,244,180431,2,0,P|144:228|108:228,1,85,0|0,0:0|0:0,0:0:0:0:
208,144,180859,1,0,0:0:0:0:
264,336,181074,1,8,0:0:0:0:
320,176,181288,1,0,0:0:0:0:
192,48,181502,6,0,P|140:72|104:100,1,85,0|0,0:0|0:0,0:0:0:0:
296,84,181931,2,0,L|320:-4,1,85,8|0,0:0|0:0,0:0:0:0:
193,161,182359,2,0,L|215:243,2,85,0|0|8,0:0|0:0|0:0,0:0:0:0:
132,280,183002,6,0,P|172:324|288:272,1,170,4|0,0:0|0:0,0:0:0:0:
364,112,183645,1,8,0:0:0:0:
432,224,183859,1,0,0:0:0:0:
364,112,184074,6,0,P|304:136|268:156,1,85,0|0,0:0|0:0,0:0:0:0:
176,208,184502,1,8,0:0:0:0:
80,124,184717,2,0,P|72:52|80:16,1,85,0|0,0:0|0:0,0:0:0:0:
240,16,185145,1,0,0:0:0:0:
176,208,185359,6,0,P|160:276|152:316,1,85,8|0,0:0|0:0,0:0:0:0:
360,352,185788,1,0,0:0:0:0:
312,168,186002,1,0,0:0:0:0:
248,296,186217,1,8,0:0:0:0:
428,236,186431,2,0,L|520:204,1,85,0|0,0:0|0:0,0:0:0:0:
196,112,186859,6,0,L|104:144,1,85,0|8,0:0|0:0,0:0:0:0:
80,256,187288,1,0,0:0:0:0:
280,200,187502,1,0,0:0:0:0:
282,168,187609,1,0,0:0:0:0:
284,136,187716,1,0,0:0:0:0:
287,104,187823,1,0,0:0:0:0:
289,72,187931,2,0,L|292:20,1,42.5,8|0,0:0|0:0,0:0:0:0:
372,44,188145,2,0,L|375:-8,1,42.5,0|0,0:0|0:0,0:0:0:0:
448,88,188359,5,4,0:0:0:0:
276,211,194703,5,0,0:0:0:0:
110,211,194937,1,0,0:0:0:0:
193,68,195171,2,0,P|243:63|296:63,1,85,0|8,0:0|0:0,0:0:0:0:
188,368,195640,6,0,P|107:341|25:317,1,170,0|0,0:0|0:0,0:0:0:0:
276,211,196343,1,8,0:0:0:0:
276,211,196578,2,0,P|318:217|359:229,1,85,0|0,0:0|0:0,0:0:0:0:
296,320,197046,1,0,0:0:0:0:
296,320,197164,1,0,0:0:0:0:
296,320,197281,1,8,0:0:0:0:
192,232,197515,1,0,0:0:0:0:
384,128,197750,6,0,P|436:156|456:276,1,170,0|8,0:0|0:0,0:0:0:0:
260,148,198453,1,0,0:0:0:0:
308,32,198687,2,0,P|364:28|496:12,1,170,0|8,0:0|0:0,0:0:0:0:
168,12,199390,6,0,L|160:80,1,42.5,0|0,0:0|0:0,0:0:0:0:
132,152,199625,1,0,0:0:0:0:
52,48,199859,1,0,0:0:0:0:
8,192,200093,1,8,0:0:0:0:
10,223,200210,1,0,0:0:0:0:
13,255,200327,1,0,0:0:0:0:
15,287,200444,1,0,0:0:0:0:
18,319,200562,6,0,P|88:300|116:296,1,85,0|0,0:0|0:0,0:0:0:0:
276,256,201031,2,0,L|288:200,1,42.5,8|0,0:0|0:0,0:0:0:0:
344,336,201265,2,0,L|352:377,1,42.5,0|0,0:0|0:0,0:0:0:0:
404,252,201500,6,0,P|444:208|392:120,1,170,4|8,0:0|0:0,0:0:0:0:
252,40,202203,1,0,0:0:0:0:
252,40,202437,2,0,P|176:44|112:60,1,127.5,0|0,0:0|0:0,0:0:0:0:
104,64,202906,2,0,L|124:164,1,85,8|0,0:0|0:0,0:0:0:0:
104,296,203375,1,0,0:0:0:0:
216,208,203609,5,0,0:0:0:0:
48,168,203843,1,8,0:0:0:0:
216,208,204078,2,0,P|280:184|320:168,1,85,0|0,0:0|0:0,0:0:0:0:
404,284,204546,1,0,0:0:0:0:
404,284,204664,1,0,0:0:0:0:
404,284,204781,2,0,P|468:308|476:312,1,42.5,8|0,0:0|0:0,0:0:0:0:
512,186,205015,2,0,P|492:193|472:200,1,42.5,0|0,0:0|0:0,0:0:0:0:
372,136,205250,6,0,P|380:84|484:68,1,170,0|8,0:0|0:0,0:0:0:0:
256,172,205953,1,0,0:0:0:0:
256,172,206187,2,0,P|256:104|264:24,1,127.5,0|0,0:0|0:0,0:0:0:0:
268,20,206656,2,0,P|204:32|168:40,1,85,8|0,0:0|0:0,0:0:0:0:
160,44,207007,1,0,0:0:0:0:
136,56,207125,6,0,P|56:48|20:40,1,85,0|0,0:0|0:0,0:0:0:0:
0,200,207593,1,8,0:0:0:0:
128,156,207828,1,0,0:0:0:0:
128,156,207945,1,0,0:0:0:0:
128,156,208062,1,0,0:0:0:0:
92,300,208296,2,0,P|168:280|196:272,1,85,0|8,0:0|0:0,0:0:0:0:
200,276,208648,2,0,P|264:288|296:296,1,85,0|0,0:0|0:0,0:0:0:0:
308,300,209000,6,0,P|324:232|332:120,1,170,4|8,0:0|0:0,0:0:0:0:
416,32,209703,1,0,0:0:0:0:
416,32,209820,1,0,0:0:0:0:
416,32,209937,2,0,P|472:56|512:116,1,127.5,0|0,0:0|0:0,0:0:0:0:
508,136,210406,1,8,0:0:0:0:
332,132,210640,6,0,P|272:136|152:168,1,170,0|0,0:0|0:0,0:0:0:0:
46,72,211343,2,0,P|31:120|31:170,1,85,8|0,0:0|0:0,0:0:0:0:
45,325,211812,1,0,0:0:0:0:
101,208,212046,1,0,0:0:0:0:
206,299,212281,1,8,0:0:0:0:
206,299,212398,2,0,L|220:386,1,85,0|0,0:0|0:0,0:0:0:0:
220,383,212750,6,0,P|296:367|388:359,1,170,0|8,0:0|0:0,0:0:0:0:
404,208,213453,1,0,0:0:0:0:
404,208,213687,2,0,P|472:228|504:248,1,85,0|0,0:0|0:0,0:0:0:0:
276,224,214156,6,0,P|268:164|272:112,1,85,8|0,0:0|0:0,0:0:0:0:
272,116,214507,1,0,0:0:0:0:
305,110,214624,1,0,0:0:0:0:
339,105,214741,1,0,0:0:0:0:
372,99,214858,1,0,0:0:0:0:
406,94,214975,1,0,0:0:0:0:
439,89,215092,1,8,0:0:0:0:
220,16,215328,6,0,L|168:40,1,42.5,0|0,0:0|0:0,0:0:0:0:
152,140,215562,2,0,L|100:116,1,42.5,0|0,0:0|0:0,0:0:0:0:
44,40,215796,1,0,0:0:0:0:
32,192,216031,2,0,P|44:248|48:292,1,85,8|0,0:0|0:0,0:0:0:0:
164,352,216500,6,0,P|169:309|179:268,1,85,4|0,0:0|0:0,0:0:0:0:
336,200,216968,1,8,0:0:0:0:
204,88,217203,2,0,P|129:118|69:134,1,127.5,0|0,0:0|0:0,0:0:0:0:
60,132,217671,2,0,L|68:36,1,85,0|8,0:0|0:0,0:0:0:0:
288,20,218140,6,0,L|272:168,1,127.5,0|0,0:0|0:0,0:0:0:0:
268,172,218609,2,0,L|256:272,1,85,0|8,0:0|0:0,0:0:0:0:
252,280,218960,2,0,P|304:264|360:256,1,85,0|0,0:0|0:0,0:0:0:0:
360,264,219312,1,0,0:0:0:0:
424,144,219546,1,0,0:0:0:0:
184,160,219781,2,0,P|116:184|68:208,1,85,8|0,0:0|0:0,0:0:0:0:
84,204,220132,1,0,0:0:0:0:
64,220,220250,6,0,P|52:152|48:108,1,85,4|0,0:0|0:0,0:0:0:0:
164,304,220718,1,8,0:0:0:0:
256,192,220953,2,0,P|312:204|428:236,1,170,0|0,0:0|0:0,0:0:0:0:
512,124,221656,1,8,0:0:0:0:
424,24,221890,2,0,L|372:40,1,42.5,0|0,0:0|0:0,0:0:0:0:
324,100,222125,6,0,P|256:80|216:68,1,85,0|0,0:0|0:0,0:0:0:0:
88,124,222593,1,8,0:0:0:0:
152,16,222828,1,0,0:0:0:0:
152,16,222945,1,0,0:0:0:0:
152,16,223062,1,0,0:0:0:0:
176,192,223296,1,0,0:0:0:0:
4,132,223531,2,0,L|12:184,1,42.5,8|0,0:0|0:0,0:0:0:0:
68,228,223765,2,0,L|76:280,1,42.5,0|0,0:0|0:0,0:0:0:0:
40,356,224000,6,0,P|112:336|148:328,1,85,4|0,0:0|0:0,0:0:0:0:
284,372,224468,1,8,0:0:0:0:
212,204,224703,2,0,P|216:136|232:16,1,170,0|0,0:0|0:0,0:0:0:0:
360,16,225406,1,8,0:0:0:0:
456,104,225640,6,0,P|452:164|448:208,1,85,0|0,0:0|0:0,0:0:0:0:
332,140,226109,1,0,0:0:0:0:
448,284,226343,1,8,0:0:0:0:
252,348,226578,1,0,0:0:0:0:
252,348,226695,2,0,L|156:320,1,85,0|0,0:0|0:0,0:0:0:0:
144,328,227046,5,0,0:0:0:0:
40,224,227281,1,8,0:0:0:0:
232,176,227515,1,0,0:0:0:0:
104,68,227750,1,4,0:0:0:0:
344,160,227984,1,0,0:0:0:0:
344,160,228101,1,0,0:0:0:0:
344,160,228218,5,8,0:0:0:0:
136,240,228453,1,0,0:0:0:0:
236,64,228687,1,0,0:0:0:0:
272,296,228921,2,0,L|256:388,1,85,0|8,0:0|0:0,0:0:0:0:
376,260,229390,1,0,0:0:0:0:
376,260,229507,1,0,0:0:0:0:
376,260,229625,6,0,P|412:240|448:228,1,42.5,0|0,0:0|0:0,0:0:0:0:
512,160,229859,2,0,P|480:152|464:144,1,42.5,0|0,0:0|0:0,0:0:0:0:
380,64,230093,2,0,L|368:164,1,85,8|0,0:0|0:0,0:0:0:0:
268,328,230562,5,0,3:2:0:0:
243,317,230679,1,0,3:2:0:0:
219,306,230796,1,0,3:2:0:0:
195,295,230913,1,0,3:2:0:0:
171,284,231030,1,8,3:2:0:0:
147,273,231147,1,0,3:2:0:0:
122,262,231265,1,0,3:2:0:0:
98,251,231382,1,0,3:2:0:0:
74,240,231499,5,4,3:2:0:0:
148,100,240708,6,0,P|140:168|136:204,1,85,0|0,0:0|2:0,0:0:0:0:
188,336,241169,1,8,0:0:0:0:
272,232,241400,1,0,0:0:0:0:
272,232,241515,1,0,0:0:0:0:
272,232,241631,2,0,P|320:224|384:212,2,85,0|0|8,0:0|0:0|0:0,0:0:0:0:
20,200,242323,1,0,0:0:0:0:
20,200,242438,1,0,0:0:0:0:
20,200,242554,5,0,0:0:0:0:
68,368,242785,1,0,0:0:0:0:
198,240,243015,2,0,P|202:198|208:156,1,85,8|0,0:0|0:0,0:0:0:0:
136,40,243477,2,0,L|84:48,2,42.5,0|0|0,0:0|0:0|0:0,0:0:0:0:
328,19,243938,2,0,P|324:61|318:103,1,85,8|0,0:0|0:0,0:0:0:0:
496,68,244400,6,0,L|480:240,1,170,0|8,0:0|0:0,0:0:0:0:
456,360,245092,1,0,0:0:0:0:
456,360,245323,2,0,P|414:369|373:380,1,85,0|0,0:0|0:0,0:0:0:0:
276,300,245785,2,0,P|234:290|193:279,1,85,8|0,0:0|0:0,0:0:0:0:
228,164,246246,5,0,3:0:0:0:
84,219,246477,1,0,3:0:0:0:
123,96,246708,1,8,3:0:0:0:
193,279,246938,1,0,3:0:0:0:
317,162,247169,2,0,L|324:113,6,42.5,0|0|0|0|0|0|0,0:0|0:0|0:0|0:0|3:0|0:0|0:0,0:0:0:0:
323,119,248092,6,0,L|395:107,2,63.7500024318696,4|0|0,0:0|0:0|0:0,0:0:0:0:
171,104,248785,2,0,L|99:116,1,63.7500024318696
93,246,249246,1,0,0:0:0:0:
156,323,249477,1,0,0:0:0:0:
196,228,249708,2,0,P|228:220|324:200,1,127.500004863739,0|0,0:0|0:0,0:0:0:0:
160,112,250400,5,0,0:0:0:0:
112,224,250631,1,0,0:0:0:0:
112,224,250746,1,0,0:0:0:0:
112,224,250862,1,0,0:0:0:0:
84,80,251092,1,0,0:0:0:0:
232,120,251323,1,0,0:0:0:0:
84,80,251554,6,0,P|40:116|44:192,1,127.500004863739,0|0,0:0|0:0,0:0:0:0:
76,328,252246,1,8,0:0:0:0:
76,328,252477,2,0,P|116:316|160:312,1,63.7500024318696,0|0,0:0|0:0,0:0:0:0:
264,360,252938,1,0,0:0:0:0:
264,360,253169,2,0,P|294:369|325:375,1,63.7500024318696
448,228,253631,6,0,P|460:188|464:144,1,63.7500024318696,8|0,0:3|0:0,0:0:0:0:
360,0,254092,2,0,P|348:40|344:84,1,63.7500024318696,8|0,0:0|0:0,0:0:0:0:
184,52,254554,2,0,L|172:92,3,31.8750012159348,0|0|0|0,3:0|3:0|3:0|3:0,3:0:0:0:
88,128,255015,2,0,L|76:168,3,31.8750012159348,2|0|0|0,3:0|3:0|3:0|3:0,3:0:0:0:
100,244,255477,5,4,0:3:0:0:
248,168,255708,1,0,0:0:0:0:
228,340,255938,1,8,0:0:0:0:
368,256,256169,1,0,0:0:0:0:
368,256,256285,1,0,0:0:0:0:
368,256,256400,1,0,0:0:0:0:
188,268,256631,1,0,0:0:0:0:
328,376,256862,1,8,0:0:0:0:
360,164,257092,6,0,B|392:88|352:32|352:32|304:68,1,170,0|0,0:0|0:0,0:0:0:0:
176,184,257785,2,0,P|182:231|190:279,1,85,8|0,0:0|0:0,0:0:0:0:
196,292,258131,1,0,0:0:0:0:
204,316,258246,1,0,0:0:0:0:
280,216,258477,1,0,0:0:0:0:
76,136,258708,2,0,L|72:68,1,42.5,8|0,0:0|0:0,0:0:0:0:
196,56,258938,6,0,P|256:60|384:64,1,170,0|0,0:0|0:0,0:0:0:0:
504,140,259631,1,8,0:0:0:0:
356,204,259862,2,0,P|348:256|344:296,1,85,0|0,0:0|0:0,0:0:0:0:
464,360,260323,1,0,0:0:0:0:
464,360,260438,1,0,0:0:0:0:
464,360,260554,2,0,P|472:308|476:268,1,85,8|0,0:0|0:0,0:0:0:0:
204,268,261015,6,0,P|152:292|120:308,1,85,8|0,0:3|0:0,0:0:0:0:
76,132,261477,2,0,P|24:108|-8:92,1,85,8|0,0:0|0:0,0:0:0:0:
224,48,261938,1,0,3:0:0:0:
247,61,262053,1,0,3:0:0:0:
271,71,262168,1,0,3:0:0:0:
297,78,262284,1,0,3:0:0:0:
323,81,262400,1,2,3:0:0:0:
350,81,262514,1,0,3:0:0:0:
376,77,262630,1,0,3:0:0:0:
402,71,262745,1,0,3:0:0:0:
426,60,262862,6,0,P|472:48|520:52,1,85,4|0,0:0|0:0,0:0:0:0:
396,184,263323,1,8,0:0:0:0:
288,24,263554,1,0,0:0:0:0:
280,232,263785,1,0,0:0:0:0:
476,144,264015,2,0,P|484:200|488:248,1,85,0|8,0:0|0:0,0:0:0:0:
312,352,264477,1,0,0:0:0:0:
312,352,264592,1,0,0:0:0:0:
312,352,264708,6,0,P|232:340|128:320,1,170,0|8,0:0|0:0,0:0:0:0:
108,152,265400,1,0,0:0:0:0:
108,152,265515,1,0,0:0:0:0:
108,152,265631,2,0,P|132:92|140:64,1,85,0|0,0:0|0:0,0:0:0:0:
44,8,266092,1,8,0:0:0:0:
280,40,266323,2,0,L|332:20,1,42.5,0|0,0:0|0:0,0:0:0:0:
368,88,266554,6,0,L|480:104,2,85,0|0|8,0:0|0:0|0:0,0:0:0:0:
256,176,267246,2,0,B|228:252|288:252|248:360,1,170,0|0,0:0|0:0,0:0:0:0:
344,224,267938,2,0,P|400:236|436:264,1,85,8|0,0:0|0:0,0:0:0:0:
164,288,268400,5,0,0:0:0:0:
164,288,268631,2,0,P|148:232|164:184,1,85,0|8,0:0|0:0,0:0:0:0:
248,72,269092,1,0,0:0:0:0:
248,72,269208,1,0,0:0:0:0:
248,72,269323,2,0,P|320:56|336:48,1,85,0|0,0:0|0:0,0:0:0:0:
136,16,269785,1,8,0:0:0:0:
24,88,270015,2,0,L|4:136,1,42.5,0|0,0:0|0:0,0:0:0:0:
80,176,270246,6,0,L|20:340,1,170,4|8,0:0|0:0,0:0:0:0:
152,376,270938,1,0,0:0:0:0:
264,300,271169,1,0,0:0:0:0:
290,282,271284,1,0,0:0:0:0:
320,271,271399,1,0,0:0:0:0:
351,268,271515,1,0,0:0:0:0:
383,273,271631,2,0,P|440:296|480:300,1,85,8|0,0:0|0:0,0:0:0:0:
320,160,272092,2,0,P|278:168|239:185,1,85,0|0,0:0|0:0,0:0:0:0:
460,172,272554,1,8,0:0:0:0:
380,32,272785,1,0,0:0:0:0:
356,28,272900,1,0,0:0:0:0:
332,24,273015,5,0,0:0:0:0:
222,102,273246,2,0,L|239:185,1,85,0|8,0:0|0:0,0:0:0:0:
296,320,273708,2,0,L|348:332,1,42.5,0|0,0:0|0:0,0:0:0:0:
208,288,273938,2,0,P|156:300|44:352,1,170,0|8,0:0|0:0,0:0:0:0:
8,216,274631,5,0,0:0:0:0:
8,216,274746,1,0,0:0:0:0:
8,216,274862,2,0,L|32:116,1,85,0|0,0:0|0:0,0:0:0:0:
140,156,275323,1,8,0:0:0:0:
44,52,275554,1,0,0:0:0:0:
200,4,275785,6,0,L|288:24,1,85,0|0,0:0|0:0,0:0:0:0:
360,116,276246,1,8,0:0:0:0:
472,24,276477,1,0,0:0:0:0:
480,58,276592,1,0,0:0:0:0:
486,93,276707,1,0,0:0:0:0:
489,128,276823,1,0,0:0:0:0:
489,164,276938,1,0,0:0:0:0:
486,199,277053,1,0,0:0:0:0:
480,234,277169,2,0,P|476:264|476:296,1,42.5,8|0,0:0|0:0,0:0:0:0:
400,352,277400,2,0,P|398:330|394:309,1,42.5,0|0,0:0|0:0,0:0:0:0:
376,208,277631,6,0,P|320:192|232:272,1,170,4|8,0:0|0:0,0:0:0:0:
112,248,278323,2,0,L|120:296,3,42.5,0|0|0|0,0:0|0:0|0:0|0:0,0:0:0:0:
108,368,278785,2,0,P|64:352|8:340,1,85,0|8,0:0|0:0,0:0:0:0:
4,208,279246,1,0,0:0:0:0:
172,136,279477,1,0,0:0:0:0:
32,48,279708,1,0,0:0:0:0:
112,248,279938,1,8,0:0:0:0:
248,120,280169,5,0,0:0:0:0:
248,120,280285,1,0,0:0:0:0:
248,120,280400,2,0,L|260:16,1,85,0|0,0:0|0:0,0:0:0:0:
400,144,280862,2,0,L|396:196,4,42.5,8|0|0|0|0,0:0|0:0|0:0|0:0|0:0,0:0:0:0:
256,192,281438,12,4,285015,0:0:0:0:
256,192,291419,12,0,292743,0:0:0:0:
192,88,292963,5,0,0:0:0:0:
192,88,293074,1,0,0:0:0:0:
192,88,293184,2,0,P|184:148|168:272,1,170,4|8,0:0|0:0,0:0:0:0:
264,364,293846,1,0,0:0:0:0:
344,216,294066,2,0,P|390:169|483:190,1,170,0|8,0:0|0:0,0:0:0:0:
424,248,294728,1,0,0:0:0:0:
264,108,294949,6,0,P|252:44|260:8,1,85,0|0,0:0|0:0,0:0:0:0:
264,232,295390,1,8,0:0:0:0:
152,152,295610,2,0,P|110:161|76:186,1,85,0|0,0:0|0:0,0:0:0:0:
28,336,296052,1,0,0:0:0:0:
156,256,296272,1,8,0:0:0:0:
4,128,296493,1,0,0:0:0:0:
4,128,296603,1,0,0:0:0:0:
4,128,296713,6,0,B|16:60|56:16|56:16|72:64,1,170,4|8,0:0|0:0,0:0:0:0:
224,208,297375,1,0,0:0:0:0:
224,208,297596,2,0,P|304:192|336:180,1,85,0|0,0:0|0:0,0:0:0:0:
211,90,298037,2,0,P|131:106|99:118,1,85,8|0,0:0|0:0,0:0:0:0:
264,360,298478,5,0,0:0:0:0:
368,248,298699,1,0,0:0:0:0:
156,240,298919,2,0,P|104:260|76:280,1,85,8|0,0:0|0:0,0:0:0:0:
332,116,299360,2,0,P|384:136|412:156,1,85,0|0,0:0|0:0,0:0:0:0:
128,108,299802,1,8,0:0:0:0:
288,16,300022,1,0,0:0:0:0:
288,16,300132,1,0,0:0:0:0:
288,16,300243,5,4,0:0:0:0:
263,231,300463,1,0,0:0:0:0:
416,112,300684,1,8,0:0:0:0:
220,140,300905,1,0,0:0:0:0:
220,140,301015,1,0,0:0:0:0:
220,140,301125,2,0,P|156:148|36:172,1,170,0|8,0:0|0:0,0:0:0:0:
296,256,301787,1,0,0:0:0:0:
296,256,301897,1,0,0:0:0:0:
296,256,302007,5,4,0:0:0:0:
392,140,302228,1,0,0:0:0:0:
384,360,302449,1,8,0:0:0:0:
488,240,302669,2,0,L|500:192,2,42.5,0|0|0,0:0|0:0|0:0,0:0:0:0:
288,148,303110,2,0,P|240:164|204:180,1,85,0|8,0:0|0:0,0:0:0:0:
268,16,303552,1,4,0:0:0:0:
108,92,303772,6,0,P|92:164|84:272,1,170,0|8,0:0|0:0,0:0:0:0:
260,384,304434,1,0,0:0:0:0:
260,384,304655,2,0,P|276:312|284:204,1,170,0|8,0:0|0:0,0:0:0:0:
204,40,305316,1,0,0:0:0:0:
204,40,305537,6,0,P|156:52|112:68,1,85,4|0,0:0|0:0,0:0:0:0:
260,384,305978,2,0,P|308:372|352:356,1,85,8|0,0:0|0:0,0:0:0:0:
424,80,306419,1,4,0:0:0:0:
240,224,306640,1,0,0:0:0:0:
484,304,306860,1,12,0:0:0:0:
320,4,307081,1,0,0:0:0:0:
320,4,307191,1,0,0:0:0:0:
320,4,307302,6,0,P|304:92|296:184,1,170,4|8,0:0|0:0,0:0:0:0:
316,332,307963,1,0,0:0:0:0:
184,232,308184,2,0,P|120:240|68:264,1,85,0|0,0:0|0:0,0:0:0:0:
240,360,308625,1,8,0:0:0:0:
440,232,308846,6,0,P|476:184|428:88,1,170,0|0,0:0|0:0,0:0:0:0:
296,12,309507,1,8,0:0:0:0:
296,12,309728,2,0,P|284:96|280:200,1,170,0|0,0:0|0:0,0:0:0:0:
124,168,310390,1,8,0:0:0:0:
172,324,310610,1,0,0:0:0:0:
172,324,310721,1,0,0:0:0:0:
172,324,310831,6,0,P|232:312|372:292,1,170,0|8,0:0|0:0,0:0:0:0:
456,184,311493,1,0,0:0:0:0:
272,112,311713,2,0,P|264:168|264:216,1,85,0|0,0:0|0:0,0:0:0:0:
384,360,312155,1,8,0:0:0:0:
512,284,312375,6,0,P|464:268|412:256,1,85,0|0,0:0|0:0,0:0:0:0:
263,196,312816,1,0,0:0:0:0:
416,108,313037,1,8,0:0:0:0:
240,28,313257,2,0,P|199:41|158:52,2,85,0|0|0,0:0|0:0|0:0,0:0:0:0:
384,68,313919,1,8,0:0:0:0:
252,168,314140,1,0,0:0:0:0:
252,168,314250,1,0,0:0:0:0:
252,168,314360,5,4,0:0:0:0:
316,12,314581,1,0,0:0:0:0:
324,244,314802,1,8,0:0:0:0:
168,184,315022,2,0,L|124:176,2,42.5,0|0|0,0:0|0:0|0:0,0:0:0:0:
432,224,315463,1,0,0:0:0:0:
240,336,315684,2,0,P|164:352|124:356,1,85,8|0,0:0|0:0,0:0:0:0:
124,360,316015,1,0,0:0:0:0:
124,360,316125,6,0,P|120:304|120:256,1,85,4|0,0:0|0:0,0:0:0:0:
76,56,316566,1,8,0:0:0:0:
76,56,316787,2,0,P|24:76|-16:96,1,85,0|0,0:0|0:0,0:0:0:0:
192,232,317228,1,0,0:0:0:0:
304,132,317449,2,0,L|316:32,1,85,8|0,0:0|0:0,0:0:0:0:
280,288,317890,6,0,L|288:332,3,42.5,4|0|0|0,0:0|0:0|0:0|0:0,0:0:0:0:
400,336,318331,2,0,L|408:380,3,42.5,8|0|0|0,0:0|0:0|0:0|0:0,0:0:0:0:
468,244,318772,2,0,L|512:264,3,42.5,0|0|0|0,0:0|0:0|0:0|0:0,0:0:0:0:
456,144,319213,2,0,L|500:124,3,42.5,8|0|0|0,0:0|0:0|0:0|0:0,0:0:0:0:
416,48,319655,1,0,3:2:0:0:
379,43,319765,1,0,3:2:0:0:
342,38,319875,1,0,3:2:0:0:
305,34,319985,1,0,3:2:0:0:
268,29,320096,1,8,3:2:0:0:
231,25,320206,1,0,3:2:0:0:
194,20,320316,1,0,3:2:0:0:
157,16,320427,1,0,3:2:0:0:
123,13,320537,2,0,L|89:7,14,21.25,0|0|0|0|0|0|0|0|8|0|0|0|0|0|0,3:2|3:2|3:2|3:2|3:2|3:2|3:2|3:2|3:2|3:2|3:2|3:2|3:2|3:2|3:2,3:2:0:0:
15,23,321419,5,4,0:0:0:0:
144,88,331173,6,0,P|212:80|256:68,1,85,8|0,0:0|0:0,0:0:0:0:
284,136,331555,2,0,P|352:144|396:156,1,85,8|0,0:0|0:0,0:0:0:0:
364,224,331936,2,0,P|408:252|436:276,1,85,8|0,0:0|0:0,0:0:0:0:
208,340,332445,1,8,0:0:0:0:
208,340,332572,1,8,0:0:0:0:
208,340,332699,1,0,0:0:0:0:
88,200,332953,1,8,0:0:0:0:
88,200,333080,1,0,0:0:0:0:
88,200,333207,6,0,P|80:144|72:100,1,85,8|0,0:0|0:0,0:0:0:0:
156,120,333589,2,0,P|160:60|164:12,1,85,8|0,0:0|0:0,0:0:0:0:
240,24,333970,1,8,0:0:0:0:
412,128,334224,1,0,3:2:0:0:
408,159,334351,1,0,3:2:0:0:
405,191,334478,1,0,3:2:0:0:
401,223,334605,1,0,3:2:0:0:
396,256,334733,2,0,L|393:283,6,21.25,0|0|0|0|0|0|0,3:2|3:2|3:2|3:2|3:2|3:2|3:2,3:2:0:0:
368,352,335241,6,0,P|308:324|220:324,1,127.5,4|0,0:0|0:0,0:0:0:0:
216,332,335750,1,8,0:0:0:0:
148,180,336004,2,0,P|216:196|264:200,1,85,0|0,0:0|0:0,0:0:0:0:
356,84,336512,1,0,0:0:0:0:
268,0,336767,1,8,0:0:0:0:
135,53,337021,1,0,0:0:0:0:
135,53,337148,1,0,0:0:0:0:
135,53,337275,6,0,P|143:129|151:213,1,127.5,0|0,0:0|0:0,0:0:0:0:
140,212,337784,1,8,0:0:0:0:
240,344,338038,2,0,P|296:324|336:312,1,85,0|0,0:0|0:0,0:0:0:0:
428,215,338546,2,0,P|387:202|348:188,1,85,0|8,0:0|0:0,0:0:0:0:
500,104,339055,1,0,0:0:0:0:
500,104,339182,1,0,0:0:0:0:
500,104,339309,6,0,P|512:184|516:256,1,127.5,0|0,0:0|0:0,0:0:0:0:
512,260,339817,1,8,0:0:0:0:
356,92,340072,2,0,P|348:28|348:-24,1,85,0|0,0:0|0:0,0:0:0:0:
348,188,340580,1,0,0:0:0:0:
444,40,340834,1,8,0:0:0:0:
224,64,341089,2,0,P|184:80|145:97,1,85,0|0,0:0|0:0,0:0:0:0:
228,224,341597,5,0,0:0:0:0:
356,92,341851,1,8,0:0:0:0:
128,8,342106,1,0,0:0:0:0:
252,132,342360,1,0,0:0:0:0:
112,220,342614,1,8,0:0:0:0:
112,220,342741,1,8,0:0:0:0:
112,220,342868,2,0,L|16:200,1,85,0|8,0:0|0:0,0:0:0:0:
224,332,343377,6,0,P|284:316|384:304,1,127.5,4|0,0:0|0:0,0:0:0:0:
384,312,343885,1,8,0:0:0:0:
451,96,344140,2,0,P|395:104|343:120,1,85,0|0,0:0|0:0,0:0:0:0:
112,160,344648,1,0,0:0:0:0:
148,12,344902,1,8,0:0:0:0:
272,112,345156,6,0,L|260:220,1,85,0|0,0:0|0:0,0:0:0:0:
248,344,345665,1,0,0:0:0:0:
247,344,345792,2,0,L|300:332,1,42.5,0|8,0:0|0:0,0:0:0:0:
372,304,346046,1,0,0:0:0:0:
371,303,346173,2,0,L|488:328,1,85,0|0,0:0|0:0,0:0:0:0:
368,112,346682,1,0,0:0:0:0:
244,240,346936,2,0,P|164:260|84:268,1,127.5,8|0,0:0|0:0,0:0:0:0:
88,260,347445,5,0,0:0:0:0:
220,136,347699,1,0,0:0:0:0:
220,136,347826,1,0,0:0:0:0:
220,136,347953,1,8,0:0:0:0:
256,344,348207,2,0,P|336:324|368:320,1,85,0|0,0:0|0:0,0:0:0:0:
496,180,348716,2,0,P|454:171|413:159,1,85,0|8,0:0|0:0,0:0:0:0:
380,152,349097,2,0,L|376:40,1,85,0|0,0:0|0:0,0:0:0:0:
376,32,349478,5,0,0:0:0:0:
296,236,349733,1,0,0:0:0:0:
296,236,349860,1,0,0:0:0:0:
296,236,349987,1,8,0:0:0:0:
208,12,350241,1,0,0:0:0:0:
100,196,350495,1,0,3:2:0:0:
93,227,350622,1,0,3:2:0:0:
87,258,350749,1,0,3:2:0:0:
81,289,350876,1,0,3:2:0:0:
74,321,351004,2,0,L|65:363,1,42.5,8|0,3:2|3:2,3:2:0:0:
196,332,351258,2,0,L|205:290,1,42.5,0|0,3:2|3:2,3:2:0:0:
116,152,351512,6,0,P|20:122|1:67,1,127.5,4|0,0:0|0:0,0:0:0:0:
0,71,352021,1,8,0:0:0:0:
140,8,352275,1,0,0:0:0:0:
228,136,352529,2,0,P|232:200|232:240,1,85,0|0,0:0|0:0,0:0:0:0:
296,328,353038,1,8,0:0:0:0:
424,128,353292,1,0,0:0:0:0:
424,128,353419,1,0,0:0:0:0:
424,128,353546,6,0,P|368:104|288:60,1,127.5,0|0,0:0|0:0,0:0:0:0:
280,56,354055,1,8,0:0:0:0:
344,208,354309,1,0,0:0:0:0:
104,180,354563,2,0,P|52:200|20:220,1,85,0|0,0:0|0:0,0:0:0:0:
256,356,355072,2,0,P|264:288|268:252,1,85,8|0,0:0|0:0,0:0:0:0:
252,240,355453,1,0,0:0:0:0:
236,208,355580,6,0,B|228:168|228:168|248:132|248:132|240:64,1,127.5,0|0,0:0|0:0,0:0:0:0:
232,56,356089,1,8,0:0:0:0:
392,144,356343,2,0,L|484:176,1,85,0|0,0:0|0:0,0:0:0:0:
420,248,356851,1,0,0:0:0:0:
320,104,357106,1,8,0:0:0:0:
512,56,357360,1,0,0:0:0:0:
412,280,357614,6,0,P|352:256|316:232,1,85,0|0,0:0|0:0,0:0:0:0:
300,236,357995,1,0,0:0:0:0:
264,232,358123,2,0,P|212:236|168:248,1,85,8|0,0:0|0:0,0:0:0:0:
64,172,358631,1,0,3:2:0:0:
64,172,358758,1,0,3:2:0:0:
64,172,358885,2,0,L|52:104,1,42.5,0|0,3:2|3:2,3:2:0:0:
152,64,359140,1,8,3:2:0:0:
152,64,359267,1,0,3:2:0:0:
152,64,359394,2,0,L|140:-4,1,42.5,0|0,3:2|3:2,3:2:0:0:
284,48,359648,6,0,P|332:100|316:164,1,127.5,4|0,0:0|0:0,0:0:0:0:
308,184,360156,1,8,0:0:0:0:
320,352,360411,2,0,P|384:328|424:316,1,85,0|0,0:0|0:0,0:0:0:0:
424,172,360919,1,0,0:0:0:0:
188,252,361173,2,0,P|196:316|204:376,1,85,8|0,0:0|0:0,0:0:0:0:
292,248,361682,5,0,0:0:0:0:
144,168,361936,1,0,0:0:0:0:
144,168,362063,1,0,0:0:0:0:
144,168,362190,1,8,0:0:0:0:
292,56,362445,2,0,P|296:120|300:176,1,85,0|0,0:0|0:0,0:0:0:0:
456,240,362953,1,0,0:0:0:0:
456,240,363207,2,0,P|452:304|448:360,1,85,8|0,0:0|0:0,0:0:0:0:
264,368,363716,6,0,L|248:208,1,127.5,0|0,0:0|0:0,0:0:0:0:
248,208,364224,1,8,0:0:0:0:
80,132,364478,2,0,P|48:168|96:264,1,170,0|0,0:0|0:0,0:0:0:0:
344,272,365241,1,8,0:0:0:0:
375,265,365368,1,0,0:0:0:0:
406,258,365495,1,0,0:0:0:0:
437,251,365622,1,0,0:0:0:0:
468,244,365750,6,0,L|476:144,1,85,4|0,0:0|0:0,0:0:0:0:
344,56,366258,1,8,0:0:0:0:
256,264,366512,2,0,L|248:364,1,85,4|0,0:0|0:0,0:0:0:0:
88,256,367021,1,0,0:0:0:0:
71,232,367148,1,0,0:0:0:0:
63,205,367275,1,8,0:0:0:0:
63,177,367402,1,0,0:0:0:0:
72,150,367529,1,0,0:0:0:0:
89,128,367656,1,0,0:0:0:0:
112,111,367783,1,4,0:0:0:0:
256,192,367911,12,0,371851,0:0:0:0:
200,140,377236,5,8,0:0:0:0:
200,140,377339,1,0,0:0:0:0:
200,140,377442,1,0,0:0:0:0:
280,260,377649,1,8,0:0:0:0:
396,164,377856,2,0,L|436:116,2,42.5,8|0|0,0:0|0:0|0:0,0:0:0:0:
256,336,378270,1,8,0:0:0:0:
200,140,378477,1,0,0:0:0:0:
200,140,378580,1,0,0:0:0:0:
200,140,378684,2,0,L|188:36,1,85,8|0,0:0|0:0,0:0:0:0:
84,128,379098,5,2,0:0:0:0:
264,204,379305,1,0,0:0:0:0:
36,248,379511,1,2,0:0:0:0:
156,80,379718,1,0,0:0:0:0:
120,280,379925,1,2,0:0:0:0:
8,160,380132,1,2,0:0:0:0:
264,204,380339,6,0,P|340:184|448:156,1,170,4|0,0:0|0:0,0:0:0:0:
264,204,380960,1,8,0:0:0:0:
361,311,381167,2,0,P|442:313|476:240,1,170
244,28,381787,1,8,0:0:0:0:
244,28,381994,6,0,P|248:70|252:112,1,85
248,368,382408,1,0,0:0:0:0:
145,286,382615,1,8,0:0:0:0:
340,264,382822,2,0,P|391:282|437:302,1,85,0|0,0:0|0:0,0:0:0:0:
200,176,383236,2,0,P|160:192|120:205,1,85,0|8,0:0|0:0,0:0:0:0:
354,91,383649,5,0,0:0:0:0:
200,176,383856,1,0,0:0:0:0:
230,58,384063,1,0,0:0:0:0:
314,221,384270,1,8,0:0:0:0:
465,92,384477,2,0,L|473:0,2,85
408,284,385098,1,8,0:0:0:0:
408,284,385305,6,0,P|344:296|304:312,1,85,0|0,0:0|0:0,0:0:0:0:
96,340,385718,2,0,P|160:352|200:368,1,85,0|8,0:0|0:0,0:0:0:0:
316,208,386132,1,0,0:0:0:0:
172,136,386339,1,0,0:0:0:0:
228,288,386546,1,8,0:0:0:0:
352,188,386753,2,0,L|352:96,1,85,8|0,0:0|0:0,0:0:0:0:
208,20,387167,5,0,0:0:0:0:
208,20,387270,1,0,0:0:0:0:
208,20,387374,2,0,P|152:40|108:48,1,85,0|8,0:0|0:0,0:0:0:0:
52,152,387787,2,0,P|40:232|36:328,1,170
172,360,388408,1,8,0:0:0:0:
264,264,388615,2,0,P|276:200|280:164,1,85,8|0,0:0|0:0,0:0:0:0:
164,240,389029,5,8,0:0:0:0:
164,240,389132,1,0,0:0:0:0:
164,240,389236,1,0,0:0:0:0:
268,360,389442,1,8,0:0:0:0:
268,360,389546,1,0,0:0:0:0:
268,360,389649,2,0,L|356:344,1,85,0|8,0:0|0:0,0:0:0:0:
472,240,390063,2,0,L|388:224,1,85,8|0,0:0|0:0,0:0:0:0:
248,152,390477,6,0,P|236:88|244:56,1,85,8|0,0:0|0:0,0:0:0:0:
328,0,390891,1,0,0:0:0:0:
328,176,391098,2,0,P|292:228|180:192,1,170,8|8,0:0|0:0,0:0:0:0:
104,128,391718,1,8,0:0:0:0:
72,264,391925,2,0,P|64:320|64:352,1,85,8|0,0:0|0:0,0:0:0:0:
248,152,392339,5,8,0:0:0:0:
172,308,392546,1,0,0:0:0:0:
400,208,392753,1,8,0:0:0:0:
188,56,392960,1,8,0:0:0:0:
296,296,393167,1,8,0:0:0:0:
344,28,393374,1,8,0:0:0:0:
172,308,393580,6,0,L|4:276,1,170,12|0,0:0|0:0,0:0:0:0:
212,179,394201,1,8,0:0:0:0:
212,179,394408,2,0,P|254:187|296:195,1,85
347,383,394822,2,0,P|305:375|264:368,1,85,0|8,0:0|0:0,0:0:0:0:
356,116,395236,6,0,P|392:168|352:280,1,170
228,84,395856,1,8,0:0:0:0:
340,32,396063,2,0,L|424:24,1,85
296,195,396477,2,0,L|212:204,1,85,0|8,0:0|0:0,0:0:0:0:
28,84,396891,5,0,0:0:0:0:
112,188,397098,1,0,0:0:0:0:
168,40,397305,1,8,0:0:0:0:
112,188,397511,2,0,L|124:288,1,85,8|0,0:0|0:0,0:0:0:0:
228,360,397925,1,0,0:0:0:0:
324,268,398132,2,0,P|372:256|428:252,1,85,8|0,0:0|0:0,0:0:0:0:
212,196,398546,6,0,P|208:136|188:16,1,170,8|8,0:0|0:0,0:0:0:0:
340,84,399167,1,8,0:0:0:0:
340,84,399374,2,0,P|400:96|444:108,2,85,0|0|8,0:0|0:0|0:0,0:0:0:0:
190,27,399994,2,0,P|148:37|106:44,1,85,8|0,0:0|0:0,0:0:0:0:
44,168,400408,5,4,0:0:0:0:
48,200,400511,1,0,0:0:0:0:
52,236,400615,1,0,0:0:0:0:
188,176,400822,1,8,0:0:0:0:
144,328,401029,2,0,L|40:340,1,85
232,256,401442,1,0,0:0:0:0:
256,372,401649,1,8,0:0:0:0:
352,304,401856,6,0,L|456:316,1,85
509,138,402270,1,8,0:0:0:0:
425,82,402477,1,0,0:0:0:0:
337,134,402684,2,0,P|345:206|353:334,1,170,8|0,0:0|0:0,0:0:0:0:
176,152,403305,1,8,0:0:0:0:
176,152,403511,6,0,P|180:88|184:44,1,85,8|0,0:0|0:0,0:0:0:0:
240,256,403925,1,0,0:0:0:0:
140,244,404132,1,8,0:0:0:0:
40,236,404339,2,0,P|36:300|32:344,1,85,8|0,0:0|0:0,0:0:0:0:
256,360,404753,1,8,0:0:0:0:
256,360,404960,2,0,L|368:344,2,85,8|0|0,0:0|0:0|0:0,0:0:0:0:
352,192,405580,5,8,0:0:0:0:
192,112,405787,1,0,0:0:0:0:
216,288,405994,1,8,0:0:0:0:
300,104,406201,1,0,0:0:0:0:
96,168,406408,1,8,0:0:0:0:
264,216,406615,1,8,0:0:0:0:
208,16,406822,5,8,0:0:0:0:
184,192,407029,1,0,0:0:0:0:
56,92,407236,1,8,0:0:0:0:
208,100,407442,1,0,0:0:0:0:
80,212,407649,1,8,0:0:0:0:
230,276,407856,1,0,0:0:0:0:
256,184,408063,1,8,0:0:0:0:
322,348,408270,1,8,0:0:0:0:
161,325,408477,1,8,0:0:0:0:
360,240,408684,5,8,0:0:0:0:
360,240,408891,1,12,0:0:0:0:
220,120,419710,6,0,P|292:112|288:20,1,170,0|8,0:0|0:0,0:0:0:0:
140,44,420382,1,0,0:0:0:0:
140,44,420494,1,0,0:0:0:0:
140,44,420606,6,0,P|124:132|112:216,1,170,4|8,0:0|0:0,0:0:0:0:
224,328,421277,2,0,P|288:312|336:304,1,85,0|0,0:0|0:0,0:0:0:0:
472,332,421725,2,0,L|480:376,2,42.5,0|0|8,0:0|0:0|0:0,0:0:0:0:
376,168,422173,1,0,0:0:0:0:
376,168,422285,1,0,0:0:0:0:
376,168,422397,6,0,P|392:80|404:-4,1,170,0|8,0:0|0:0,0:0:0:0:
168,44,423068,1,0,0:0:0:0:
168,44,423292,2,0,P|124:36|80:20,1,85,0|0,0:0|0:0,0:0:0:0:
124,208,423740,2,0,P|64:224|12:248,1,85,8|0,0:0|0:0,0:0:0:0:
268,344,424188,5,0,0:0:0:0:
268,344,424300,2,0,P|280:280|292:224,1,85,0|0,0:0|0:0,0:0:0:0:
288,228,424635,2,0,P|344:212|396:204,1,85,8|0,0:0|0:0,0:0:0:0:
500,44,425083,1,0,0:0:0:0:
500,44,425195,2,0,P|458:35|417:23,1,85,0|0,0:0|0:0,0:0:0:0:
384,20,425531,2,0,P|332:24|288:36,1,85,8|0,0:0|0:0,0:0:0:0:
128,172,425979,5,0,0:0:0:0:
128,172,426091,2,0,L|112:272,1,85,0|0,0:0|0:0,0:0:0:0:
108,288,426426,2,0,P|65:293|24:302,1,85,8|0,0:0|0:0,0:0:0:0:
220,132,426874,1,0,0:0:0:0:
220,132,426986,2,0,P|280:144|332:148,1,85,0|0,0:0|0:0,0:0:0:0:
336,148,427322,2,0,P|396:160|448:164,1,85,8|0,0:0|0:0,0:0:0:0:
460,296,427770,6,0,L|488:352,3,42.5,0|0|0|0,0:0|0:0|0:0|0:0,0:0:0:0:
352,344,428217,2,0,L|324:400,3,42.5
222,351,428665,1,0,0:0:0:0:
213,320,428777,1,0,0:0:0:0:
206,289,428889,1,0,0:0:0:0:
201,258,429001,1,0,0:0:0:0:
199,226,429113,1,0,0:0:0:0:
199,194,429225,1,0,0:0:0:0:
201,162,429337,1,0,0:0:0:0:
205,131,429449,1,0,0:0:0:0:
211,101,429561,6,0,L|219:65,14,21.25
288,55,430456,2,0,L|379:41,1,85,0|0,0:0|0:0,0:0:0:0:
384,132,431352,6,0,P|440:120|484:220,1,170,4|8,0:0|0:0,0:0:0:0:
328,352,432023,1,0,0:0:0:0:
328,352,432135,1,0,0:0:0:0:
328,352,432247,1,0,0:0:0:0:
332,184,432471,1,0,0:0:0:0:
428,304,432695,1,8,0:0:0:0:
232,248,432919,1,0,0:0:0:0:
400,48,433143,6,0,L|420:228,1,170,0|8,0:0|0:0,0:0:0:0:
116,112,433815,1,0,0:0:0:0:
116,112,433926,1,0,0:0:0:0:
116,112,434038,2,0,P|108:48|112:4,1,85,0|0,0:0|0:0,0:0:0:0:
184,24,434374,1,0,0:0:0:0:
184,24,434486,2,0,L|296:37,1,85,8|0,0:0|0:0,0:0:0:0:
160,216,434934,6,0,P|80:244|72:332,1,170,0|8,0:0|0:0,0:0:0:0:
320,264,435606,2,0,L|328:200,1,42.5,0|0,0:0|0:0,0:0:0:0:
316,132,435829,2,0,P|264:144|224:160,1,85,0|0,0:0|0:0,0:0:0:0:
344,348,436277,2,0,P|383:362|425:371,1,85,8|0,0:0|0:0,0:0:0:0:
252,344,436725,5,0,0:0:0:0:
428,228,436949,1,0,0:0:0:0:
428,228,437061,1,0,0:0:0:0:
428,228,437173,1,8,0:0:0:0:
234,155,437397,2,0,P|166:167|62:195,1,170,0|0,0:0|0:0,0:0:0:0:
176,16,438068,1,8,0:0:0:0:
336,80,438292,2,0,L|332:140,1,42.5,0|0,0:0|0:0,0:0:0:0:
290,235,438516,6,0,P|326:267|430:223,1,170,4|8,0:0|0:0,0:0:0:0:
192,268,439188,1,0,0:0:0:0:
192,268,439300,1,0,0:0:0:0:
192,268,439412,2,0,P|124:248|76:228,1,85,0|0,0:0|0:0,0:0:0:0:
36,236,439747,1,0,0:0:0:0:
36,236,439859,2,0,L|44:332,1,85,8|0,0:0|0:0,0:0:0:0:
240,136,440307,5,0,0:0:0:0:
280,356,440531,1,0,0:0:0:0:
280,356,440643,1,0,0:0:0:0:
280,356,440755,2,0,P|340:344|380:332,1,85,8|0,0:0|0:0,0:0:0:0:
448,192,441203,1,0,0:0:0:0:
288,220,441426,1,0,0:0:0:0:
288,220,441538,1,0,0:0:0:0:
288,220,441650,1,8,0:0:0:0:
336,52,441874,1,0,0:0:0:0:
448,192,442098,6,0,P|464:236|468:296,1,85,4|0,0:0|0:0,0:0:0:0:
184,360,442546,1,8,0:0:0:0:
184,360,442658,1,0,0:0:0:0:
144,244,442882,1,0,0:0:0:0:
144,244,442994,1,0,0:0:0:0:
268,268,443217,2,0,L|328:248,2,42.5,0|0|8,0:0|0:0|0:0,0:0:0:0:
48,340,443665,2,0,L|28:288,1,42.5,0|0,0:0|0:0,0:0:0:0:
76,200,443889,6,0,L|86:115,1,85,4|0,0:0|0:0,0:0:0:0:
436,184,444337,2,0,L|424:280,1,85,8|0,0:0|0:0,0:0:0:0:
260,52,444785,1,0,0:0:0:0:
336,168,445009,1,0,0:0:0:0:
336,168,445120,1,0,0:0:0:0:
336,168,445232,2,0,L|328:224,1,42.5,8|0,0:0|0:0,0:0:0:0:
168,232,445456,2,0,L|176:176,1,42.5,0|0,0:0|0:0,0:0:0:0:
260,260,445680,6,0,P|280:312|180:352,1,170,4|8,0:0|0:0,0:0:0:0:
86,115,446352,1,0,0:0:0:0:
282,143,446576,1,0,0:0:0:0:
190,27,446800,1,0,0:0:0:0:
174,215,447023,2,0,L|72:204,1,85,8|0,0:0|0:0,0:0:0:0:
16,200,447359,1,0,0:0:0:0:
16,200,447471,6,0,P|6:271|-1:384,1,170,0|8,0:0|0:0,0:0:0:0:
312,228,448143,2,0,L|380:220,1,42.5,0|0,0:0|0:0,0:0:0:0:
432,220,448367,2,0,P|440:160|440:120,1,85,0|0,0:0|0:0,0:0:0:0:
432,60,448703,1,0,0:0:0:0:
432,60,448815,2,0,L|340:44,1,85,8|0,0:0|0:0,0:0:0:0:
128,88,449262,6,0,P|152:166|248:160,1,170,0|8,0:0|0:0,0:0:0:0:
199,108,449934,1,0,0:0:0:0:
108,276,450158,2,0,P|168:288|216:284,1,85,0|0,0:0|0:0,0:0:0:0:
404,108,450606,2,0,P|344:96|296:100,1,85,8|0,0:0|0:0,0:0:0:0:
192,28,451053,5,0,0:0:0:0:
192,28,451165,1,0,0:0:0:0:
84,132,451389,1,0,0:0:0:0:
84,132,451501,2,0,L|68:224,1,85,8|0,0:0|0:0,0:0:0:0:
320,356,451949,5,0,0:0:0:0:
320,356,452061,1,0,0:0:0:0:
428,252,452285,1,0,0:0:0:0:
428,252,452397,2,0,L|444:160,1,85,8|0,0:0|0:0,0:0:0:0:
200,204,452844,6,0,P|220:272|324:264,1,170,4|8,0:0|0:0,0:0:0:0:
352,88,453516,1,0,0:0:0:0:
244,32,453740,2,0,P|172:44|132:56,1,85,0|0,0:0|0:0,0:0:0:0:
4,24,454188,1,8,0:0:0:0:
92,204,454412,1,0,0:0:0:0:
92,204,454523,1,0,0:0:0:0:
92,204,454635,6,0,P|184:180|284:160,1,170,0|8,0:0|0:0,0:0:0:0:
456,220,455307,1,0,0:0:0:0:
456,220,455419,1,0,0:0:0:0:
456,220,455531,2,0,L|444:324,1,85,0|0,0:0|0:0,0:0:0:0:
432,380,455867,1,0,0:0:0:0:
432,380,455979,2,0,P|384:368|336:348,1,85,8|0,0:0|0:0,0:0:0:0:
256,68,456426,5,0,0:0:0:0:
256,192,456538,12,4,460009,0:0:0:0:
266,74,474957,6,0,L|297:60,2,21.25,2|0|0,3:0|3:0|3:0,3:0:0:0:
226,150,475188,2,0,L|230:202,1,42.5,8|0,3:0|3:0,3:0:0:0:
184,84,475419,2,0,P|176:28|184:-16,1,85,0|0,3:0|3:0,3:0:0:0:
372,252,475880,6,0,P|432:256|476:252,1,85,8|0,0:0|0:0,0:0:0:0:
464,336,476226,2,0,P|421:334|379:338,1,85,8|0,0:0|0:0,0:0:0:0:
304,304,476573,1,8,0:0:0:0:
420,144,476803,5,4,0:0:0:0:
423,112,476918,1,0,0:0:0:0:
427,80,477033,1,0,0:0:0:0:
431,49,477149,1,0,0:0:0:0:
435,17,477265,2,0,L|320:32,1,85,8|0,0:0|0:0,0:0:0:0:
260,216,477726,1,0,0:0:0:0:
152,24,477957,1,0,0:0:0:0:
152,24,478073,1,0,0:0:0:0:
151,24,478188,2,0,P|194:28|236:36,1,85,8|0,0:0|0:0,0:0:0:0:
96,196,478649,6,0,P|64:248|96:308,1,127.5,0|0,0:0|0:0,0:0:0:0:
120,320,479111,2,0,L|220:308,1,85,8|0,0:0|0:0,0:0:0:0:
472,248,479573,1,0,0:0:0:0:
356,384,479803,1,0,0:0:0:0:
356,384,479919,1,0,0:0:0:0:
356,384,480034,1,8,0:0:0:0:
292,240,480265,1,0,0:0:0:0:
388,108,480496,6,0,P|444:112|488:120,1,85,4|0,0:0|0:0,0:0:0:0:
248,140,480957,1,8,0:0:0:0:
324,20,481188,1,0,0:0:0:0:
356,208,481419,1,0,0:0:0:0:
168,140,481649,1,0,0:0:0:0:
168,140,481765,1,0,0:0:0:0:
168,140,481880,1,8,0:0:0:0:
312,108,482111,1,0,0:0:0:0:
276,272,482342,6,0,L|260:364,1,85,0|0,0:0|0:0,0:0:0:0:
188,368,482688,1,0,0:0:0:0:
188,368,482803,2,0,P|132:348|84:332,1,85,8|0,0:0|0:0,0:0:0:0:
36,144,483265,2,0,L|28:100,1,42.5,0|0,0:0|0:0,0:0:0:0:
104,24,483496,2,0,L|112:68,1,42.5,0|0,0:0|0:0,0:0:0:0:
140,164,483726,2,0,L|284:128,1,127.5,8|0,0:0|0:0,0:0:0:0:
263,133,484188,6,0,P|275:85|272:28,1,85,4|0,0:0|0:0,0:0:0:0:
368,232,484649,1,8,0:0:0:0:
368,232,484765,2,0,P|432:216|452:200,1,85,0|0,0:0|0:0,0:0:0:0:
472,184,485111,1,0,0:0:0:0:
252,324,485342,2,0,L|260:384,2,42.5,0|0|8,0:0|0:0|0:0,0:0:0:0:
263,133,485803,1,0,0:0:0:0:
112,280,486034,6,0,P|48:296|28:312,1,85,0|0,0:0|0:0,0:0:0:0:
0,232,486380,1,0,0:0:0:0:
0,232,486496,2,0,L|16:136,1,85,8|0,0:0|0:0,0:0:0:0:
208,204,486957,1,0,0:0:0:0:
104,76,487188,1,0,0:0:0:0:
104,76,487303,1,0,0:0:0:0:
104,76,487419,1,8,0:0:0:0:
304,96,487649,1,0,0:0:0:0:
204,8,487880,6,0,L|196:104,1,85,0|0,0:0|0:0,0:0:0:0:
328,224,488342,1,8,0:0:0:0:
328,224,488457,2,0,L|320:320,1,85,0|0,0:0|0:0,0:0:0:0:
316,344,488803,1,0,0:0:0:0:
200,292,489034,1,0,0:0:0:0:
80,336,489265,1,8,0:0:0:0:
96,208,489496,1,0,0:0:0:0:
234,366,489726,6,0,P|274:354|316:344,1,85,0|0,0:0|0:0,0:0:0:0:
355,335,490073,1,0,0:0:0:0:
355,335,490188,2,0,L|417:320,1,42.5,8|0,0:0|0:0,0:0:0:0:
464,280,490419,2,0,P|476:344|476:380,1,85,0|0,0:0|0:0,0:0:0:0:
184,204,490880,1,0,0:0:0:0:
184,204,490996,1,0,0:0:0:0:
184,204,491111,2,0,L|124:220,1,42.5,8|0,0:0|0:0,0:0:0:0:
128,116,491342,2,0,L|68:100,1,42.5,0|0,0:0|0:0,0:0:0:0:
32,212,491573,6,0,L|16:304,1,85,4|0,0:0|0:0,0:0:0:0:
212,28,492034,2,0,L|224:132,1,85,8|0,0:0|0:0,0:0:0:0:
248,300,492496,1,0,0:0:0:0:
376,188,492726,1,0,0:0:0:0:
376,188,492842,1,0,0:0:0:0:
376,188,492957,1,8,0:0:0:0:
240,196,493188,1,0,0:0:0:0:
324,348,493419,5,0,0:0:0:0:
148,248,493649,1,0,0:0:0:0:
148,248,493765,1,0,0:0:0:0:
148,248,493880,1,8,0:0:0:0:
308,120,494111,1,0,0:0:0:0:
204,360,494342,1,0,0:0:0:0:
32,312,494573,1,0,0:0:0:0:
32,312,494688,1,0,0:0:0:0:
32,312,494803,2,0,L|24:212,1,85,8|0,0:0|0:0,0:0:0:0:
256,36,495265,6,0,L|268:196,1,127.5,0|0,0:0|0:0,0:0:0:0:
272,240,495726,1,8,0:0:0:0:
396,88,495957,1,0,0:0:0:0:
136,100,496188,1,0,0:0:0:0:
105,89,496303,1,0,0:0:0:0:
75,78,496418,1,0,0:0:0:0:
45,68,496534,1,0,0:0:0:0:
15,57,496649,2,0,L|20:112,3,42.5,8|0|0|0,0:0|0:0|0:0|0:0,0:0:0:0:
24,188,497111,6,0,L|72:200,1,42.5,2|0,3:0|3:0,3:0:0:0:
204,220,497342,2,0,L|156:248,1,42.5,0|0,3:0|3:0,3:0:0:0:
72,336,497573,2,0,L|84:276,1,42.5,8|0,3:0|3:0,3:0:0:0:
212,328,497803,2,0,P|260:344|300:360,1,85,0|0,0:0|0:0,0:0:0:0:
440,272,498265,1,0,0:0:0:0:
440,272,498380,1,0,0:0:0:0:
440,272,498496,2,0,P|400:256|359:243,1,85,8|0,0:0|0:0,0:0:0:0:
256,132,498957,5,4,0:0:0:0:
232,96,510759,6,0,P|220:180|208:276,1,170,4|8,0:0|0:0,0:0:0:0:
196,360,511462,1,0,0:0:0:0:
376,228,511696,2,0,P|436:208|436:92,1,170,0|8,0:0|0:0,0:0:0:0:
324,32,512399,1,0,0:0:0:0:
324,32,512516,1,0,0:0:0:0:
324,32,512634,6,0,P|272:24|224:12,1,85,0|0,0:0|0:0,0:0:0:0:
80,120,513102,1,8,0:0:0:0:
212,212,513337,2,0,L|404:184,1,170,0|0,0:0|0:0,0:0:0:0:
480,288,514040,2,0,P|472:340|472:376,1,85,8|0,0:0|0:0,0:0:0:0:
380,187,514509,6,0,P|372:120|344:8,1,170,0|8,0:0|0:0,0:0:0:0:
196,40,515212,1,0,0:0:0:0:
196,40,515446,2,0,P|132:56|88:76,1,85,0|0,0:0|0:0,0:0:0:0:
0,212,515915,2,0,P|40:226|81:235,1,85,8|0,0:0|0:0,0:0:0:0:
308,260,516384,6,0,P|236:328|160:288,1,170,0|8,0:0|0:0,0:0:0:0:
224,228,517087,1,0,0:0:0:0:
224,228,517204,1,0,0:0:0:0:
224,228,517321,1,0,0:0:0:0:
404,256,517555,2,0,P|416:320|416:344,1,85,0|8,0:0|0:0,0:0:0:0:
300,136,518024,1,0,0:0:0:0:
308,104,518141,1,0,0:0:0:0:
316,72,518259,6,0,P|368:60|512:44,1,170,4|8,0:0|0:0,0:0:0:0:
172,96,518962,1,0,0:0:0:0:
172,96,519196,2,0,P|87:86|4:69,1,170,0|8,0:0|0:0,0:0:0:0:
84,248,519899,1,0,0:0:0:0:
84,248,520134,6,0,P|140:232|192:216,1,85,0|0,0:0|0:0,0:0:0:0:
256,156,520602,1,8,0:0:0:0:
428,316,520837,2,0,P|356:316|292:232,1,170,0|0,0:0|0:0,0:0:0:0:
404,120,521540,2,0,L|388:228,1,85,8|0,0:0|0:0,0:0:0:0:
172,316,522009,6,0,P|168:248|156:128,1,170,0|8,0:0|0:0,0:0:0:0:
148,40,522712,1,0,0:0:0:0:
264,192,522946,2,0,L|356:168,1,85,0|0,0:0|0:0,0:0:0:0:
372,52,523415,2,0,L|280:76,1,85,8|0,0:0|0:0,0:0:0:0:
100,152,523884,5,0,0:0:0:0:
284,284,524118,1,8,0:0:0:0:
289,73,524352,5,0,0:0:0:0:
116,232,524586,1,8,0:0:0:0:
120,20,524821,5,0,0:0:0:0:
120,20,524938,1,0,0:0:0:0:
120,20,525055,1,0,0:0:0:0:
224,184,525290,2,0,L|272:176,1,42.5,8|0,0:0|0:0,0:0:0:0:
364,180,525524,2,0,L|412:172,1,42.5
508,148,525759,6,0,P|496:228|488:316,1,170,4|8,0:0|0:0,0:0:0:0:
344,360,526462,1,0,0:0:0:0:
344,360,526696,2,0,P|340:304|336:268,1,85,0|0,0:0|0:0,0:0:0:0:
212,264,527165,1,8,0:0:0:0:
340,140,527399,1,0,0:0:0:0:
168,72,527634,6,0,P|124:84|76:100,1,85,0|0,0:0|0:0,0:0:0:0:
252,16,528102,1,8,0:0:0:0:
20,48,528337,2,0,P|0:120|72:180,1,170,0|0,0:0|0:0,0:0:0:0:
140,316,529040,2,0,P|188:304|232:288,1,85,8|0,0:0|0:0,0:0:0:0:
384,200,529509,6,0,P|396:264|396:304,1,85,0|0,0:0|0:0,0:0:0:0:
152,196,529977,2,0,P|155:153|164:112,1,85,8|0,0:0|0:0,0:0:0:0:
352,120,530446,1,0,0:0:0:0:
247,4,530680,1,0,0:0:0:0:
352,120,530915,2,0,P|296:140|268:148,1,85,8|0,0:0|0:0,0:0:0:0:
232,258,531384,5,0,0:0:0:0:
176,78,531618,1,0,0:0:0:0:
352,120,531852,1,8,0:0:0:0:
176,78,532087,1,0,0:0:0:0:
346,255,532321,2,0,L|394:279,2,42.5,0|0|0,0:0|0:0|0:0,0:0:0:0:
124,216,532790,2,0,L|72:252,1,42.5,8|0,0:0|0:0,0:0:0:0:
92,356,533024,2,0,L|144:320,1,42.5,0|0,0:0|0:0,0:0:0:0:
244,260,533259,6,0,B|216:184|244:120|244:120|272:144,1,170,4|8,0:0|0:0,0:0:0:0:
120,224,533962,1,0,0:0:0:0:
120,224,534196,2,0,P|60:212|24:196,1,85,0|0,0:0|0:0,0:0:0:0:
263,137,534665,2,0,P|323:125|359:109,1,85,8|0,0:0|0:0,0:0:0:0:
172,16,535134,6,0,L|188:200,1,170,0|8,0:0|0:0,0:0:0:0:
212,344,535837,1,0,0:0:0:0:
212,344,536071,2,0,P|148:324|112:316,1,85,0|0,0:0|0:0,0:0:0:0:
364,284,536540,2,0,P|376:340|372:380,1,85,8|0,0:0|0:0,0:0:0:0:
184,184,537009,6,0,L|130:193,2,42.5,0|0|0,0:0|0:0|0:0,0:0:0:0:
364,120,537477,2,0,P|428:136|464:156,1,85,8|0,0:0|0:0,0:0:0:0:
164,96,537946,1,0,0:0:0:0:
260,264,538180,1,0,0:0:0:0:
260,264,538298,1,0,0:0:0:0:
260,264,538415,1,8,0:0:0:0:
296,40,538649,1,0,0:0:0:0:
144,192,538884,5,0,0:0:0:0:
364,120,539118,1,0,0:0:0:0:
364,120,539235,1,0,0:0:0:0:
364,120,539352,1,8,0:0:0:0:
188,20,539587,1,0,0:0:0:0:
304,240,539821,5,0,0:0:0:0:
324,268,539938,1,0,0:0:0:0:
344,296,540055,1,0,0:0:0:0:
172,328,540290,2,0,L|152:372,1,42.5,8|0,0:0|0:0,0:0:0:0:
104,280,540524,2,0,L|84:324,1,42.5,0|0,0:0|0:0,0:0:0:0:
28,236,540759,6,0,P|72:192|172:224,1,170,4|8,0:0|0:0,0:0:0:0:
272,89,541462,1,0,0:0:0:0:
272,89,541696,2,0,P|280:153|288:205,1,85,0|0,0:0|0:0,0:0:0:0:
300,312,542165,1,8,0:0:0:0:
424,176,542399,1,0,0:0:0:0:
168,120,542634,6,0,P|48:96|0:80,1,170,0|8,0:0|0:0,0:0:0:0:
344,24,543337,2,0,P|352:96|360:220,1,170,0|0,0:0|0:0,0:0:0:0:
248,336,544040,1,8,0:0:0:0:
128,244,544274,1,0,0:0:0:0:
128,244,544391,1,0,0:0:0:0:
128,244,544509,6,0,P|180:228|232:216,1,85,0|0,0:0|0:0,0:0:0:0:
416,284,544977,2,0,P|364:300|312:312,1,85,8|0,0:0|0:0,0:0:0:0:
100,324,545446,2,0,P|56:292|80:176,1,170,0|8,0:0|0:0,0:0:0:0:
272,84,546149,1,0,0:0:0:0:
272,84,546266,1,0,0:0:0:0:
272,84,546384,5,0,0:0:0:0:
236,236,546618,1,0,0:0:0:0:
168,52,546852,1,8,0:0:0:0:
368,108,547087,2,0,P|428:84|460:64,1,85,0|0,0:0|0:0,0:0:0:0:
392,220,547555,1,0,0:0:0:0:
244,148,547790,1,8,0:0:0:0:
272,328,548024,1,0,0:0:0:0:
124,252,548259,6,0,P|108:196|92:48,1,170,4|8,0:0|0:0,0:0:0:0:
152,340,548962,1,0,0:0:0:0:
152,340,549079,1,0,0:0:0:0:
152,340,549196,1,0,0:0:0:0:
192,184,549430,1,0,0:0:0:0:
36,244,549665,1,8,0:0:0:0:
168,80,549899,1,0,0:0:0:0:
224,296,550134,6,0,P|288:272|384:224,1,170,0|8,0:0|0:0,0:0:0:0:
456,120,550837,1,0,0:0:0:0:
456,120,551071,2,0,L|468:224,1,85,0|0,0:0|0:0,0:0:0:0:
340,376,551540,1,8,0:0:0:0:
224,296,551774,1,0,0:0:0:0:
383,179,552009,6,0,P|424:192|465:204,1,85,0|0,0:0|0:0,0:0:0:0:
280,64,552477,1,8,0:0:0:0:
256,200,552712,1,0,0:0:0:0:
160,120,552946,1,8,0:0:0:0:
361,98,553180,1,8,0:0:0:0:
160,120,553415,1,0,0:0:0:0:
344,240,553649,6,0,P|372:296|380:332,1,85,8|0,0:0|0:0,0:0:0:0:
128,188,554118,1,8,0:0:0:0:
128,188,554235,1,0,0:0:0:0:
128,188,554352,2,0,P|104:244|96:280,1,85,0|8,0:0|0:0,0:0:0:0:
260,60,554821,2,0,L|256:8,2,42.5
204,344,555290,2,0,L|252:352,1,42.5,8|0,0:0|0:0,0:0:0:0:
380,360,555524,2,0,L|320:380,1,42.5,0|0,0:0|0:0,0:0:0:0:
288,272,555759,6,0,L|276:176,1,85,4|0,0:0|0:0,0:0:0:0:
88,8,556227,2,0,P|76:87|145:126,1,170,8|0,0:0|0:0,0:0:0:0:
266,103,556930,2,0,L|276:187,1,85,0|8,0:0|0:0,0:0:0:0:
160,288,557399,1,0,0:0:0:0:
160,288,557634,6,0,P|104:260|56:240,2,85,0|0|8,0:0|0:0|0:0,0:0:0:0:
300,356,558337,1,0,0:0:0:0:
300,356,558454,1,0,0:0:0:0:
300,356,558571,2,0,P|356:328|404:308,1,85,0|0,0:0|0:0,0:0:0:0:
353,150,559040,2,0,P|314:167|276:186,1,85,8|0,0:0|0:0,0:0:0:0:
56,180,559509,5,0,0:0:0:0:
36,88,559743,1,0,0:0:0:0:
120,120,559977,2,0,L|184:220,1,85,8|0,0:0|0:0,0:0:0:0:
454,107,560446,1,0,0:0:0:0:
446,13,560680,1,0,0:0:0:0:
375,68,560914,2,0,L|343:182,1,85,8|0,0:0|0:0,0:0:0:0:
204,324,561384,5,0,0:0:0:0:
300,299,561618,1,0,0:0:0:0:
204,324,561852,2,0,L|92:308,1,85,8|0,0:0|0:0,0:0:0:0:
84,308,562204,1,0,0:0:0:0:
52,304,562321,2,0,P|44:236|40:200,1,85,0|0,0:0|0:0,0:0:0:0:
168,136,562790,1,8,0:0:0:0:
32,100,563024,1,0,0:0:0:0:
32,100,563141,1,0,0:0:0:0:
32,100,563259,5,0,0:0:0:0:
128,12,563493,1,0,0:0:0:0:
168,136,563727,2,0,L|176:244,1,85,8|0,0:0|0:0,0:0:0:0:
180,256,564079,1,0,0:0:0:0:
184,288,564196,2,0,L|192:384,1,85,0|0,0:0|0:0,0:0:0:0:
372,248,564665,2,0,L|364:344,1,85,8|0,0:0|0:0,0:0:0:0:
256,168,565134,6,0,P|244:112|256:60,1,85,0|0,0:0|0:0,0:0:0:0:
404,176,565602,1,8,0:0:0:0:
328,112,565837,1,0,0:0:0:0:
328,112,565954,1,0,0:0:0:0:
328,112,566071,1,0,0:0:0:0:
416,20,566305,1,0,0:0:0:0:
476,128,566540,2,0,P|488:184|476:236,1,85,8|0,0:0|0:0,0:0:0:0:
148,302,567009,5,0,0:0:0:0:
158,165,567243,1,0,0:0:0:0:
353,302,567477,1,8,0:0:0:0:
309,158,567712,1,0,0:0:0:0:
309,158,567829,1,0,0:0:0:0:
309,158,567946,1,0,0:0:0:0:
239,329,568180,1,0,0:0:0:0:
75,186,568415,2,0,P|116:175|158:165,1,85,8|0,0:0|0:0,0:0:0:0:
424,232,568884,5,0,0:0:0:0:
413,94,569118,1,0,0:0:0:0:
219,232,569352,1,8,0:0:0:0:
262,87,569587,1,0,0:0:0:0:
262,87,569704,1,0,0:0:0:0:
262,87,569821,1,0,0:0:0:0:
333,258,570055,1,0,0:0:0:0:
496,115,570290,2,0,P|455:104|414:94,1,85,8|0,0:0|0:0,0:0:0:0:
175,57,570759,5,4,0:0:0:0:
108,192,583383,6,0,P|196:180|280:160,1,170,4|8,0:0|0:0,0:0:0:0:
408,220,584037,1,0,0:0:0:0:
360,72,584255,1,0,0:0:0:0:
360,72,584473,2,0,P|288:56|256:44,1,85,0|8,0:0|0:0,0:0:0:0:
56,140,584910,6,0,P|32:200|123:264,1,170,0|0,0:0|0:0,0:0:0:0:
272,236,585564,1,8,0:0:0:0:
192,370,585782,2,0,P|127:354|69:348,1,85,0|0,0:0|0:0,0:0:0:0:
336,181,586219,2,0,P|354:242|348:277,1,85,0|8,0:0|0:0,0:0:0:0:
178,151,586655,1,0,0:0:0:0:
287,66,586873,6,0,P|360:58|464:36,1,170,0|8,0:0|0:0,0:0:0:0:
127,47,587528,2,0,P|63:31|37:18,1,85,0|0,0:0|0:0,0:0:0:0:
14,127,587964,2,0,P|53:142|95:151,1,85,0|8,0:0|0:0,0:0:0:0:
250,210,588401,6,0,P|260:277|167:325,1,170,0|0,0:0|0:0,0:0:0:0:
186,250,589055,1,8,0:0:0:0:
347,161,589273,2,0,P|370:217|377:263,1,85,0|0,0:0|0:0,0:0:0:0:
226,126,589710,1,0,0:0:0:0:
380,44,589928,1,8,0:0:0:0:
249,2,590146,1,0,0:0:0:0:
347,161,590364,6,0,P|413:146|532:101,1,170,0|8,0:0|0:0,0:0:0:0:
384,334,591019,2,0,P|326:322|289:319,1,85,0|0,0:0|0:0,0:0:0:0:
120,253,591455,2,0,P|178:241|215:238,1,85,0|8,0:0|0:0,0:0:0:0:
306,229,591892,1,0,0:0:0:0:
144,136,592110,6,0,P|92:95|150:1,1,170,0|8,0:0|0:0,0:0:0:0:
306,26,592764,2,0,P|311:80|310:121,1,85,0|0,0:0|0:0,0:0:0:0:
306,229,593201,1,0,0:0:0:0:
224,75,593419,1,8,0:0:0:0:
412,120,593637,1,0,0:0:0:0:
382,248,593855,6,0,P|345:299|233:248,1,170,0|8,0:0|0:0,0:0:0:0:
109,231,594510,2,0,P|99:273|103:315,1,85,0|0,0:0|0:0,0:0:0:0:
306,229,594946,2,0,P|315:187|311:145,1,85,0|8,0:0|0:0,0:0:0:0:
140,72,595382,6,0,P|89:81|22:97,1,85,0|0,0:0|0:0,0:0:0:0:
79,2,595819,1,0,0:0:0:0:
112,158,596037,1,8,0:0:0:0:
249,83,596255,2,0,L|264:-6,1,85,0|0,0:0|0:0,0:0:0:0:
221,221,596692,2,0,L|206:304,1,85,0|8,0:0|0:0,0:0:0:0:
348,348,597128,1,0,0:0:0:0:
348,348,597237,1,0,0:0:0:0:
348,348,597346,6,0,P|401:337|414:221,1,170,4|8,0:0|0:0,0:0:0:0:
333,72,598001,2,0,P|271:80|236:84,1,85,0|0,0:0|0:0,0:0:0:0:
221,221,598437,2,0,P|263:215|305:210,1,85,0|8,0:0|0:0,0:0:0:0:
102,158,598873,2,0,P|77:224|131:307,1,170,0|0,0:0|0:0,0:0:0:0:
255,360,599528,5,8,0:0:0:0:
305,210,599746,2,0,P|311:149|310:117,1,85,0|0,0:0|0:0,0:0:0:0:
208,38,600183,2,0,P|131:54|92:58,2,85,0|8|0,0:0|0:0|0:0,0:0:0:0:
408,29,600837,6,0,P|421:105|420:215,1,170,0|8,0:0|0:0,0:0:0:0:
352,342,601492,2,0,P|299:327|245:314,1,85,0|0,0:0|0:0,0:0:0:0:
114,330,601928,1,0,0:0:0:0:
192,203,602146,2,0,P|233:192|274:180,1,85,8|0,0:0|0:0,0:0:0:0:
176,18,602583,5,0,0:0:0:0:
93,119,602801,2,0,L|83:219,1,85,0|8,0:0|0:0,0:0:0:0:
189,382,603237,2,0,L|197:297,1,85,0|0,0:0|0:0,0:0:0:0:
323,271,603673,1,0,0:0:0:0:
323,271,603783,1,0,0:0:0:0:
323,271,603892,1,8,0:0:0:0:
217,178,604110,1,0,0:0:0:0:
359,77,604328,6,0,P|419:67|488:147,1,170,0|8,0:0|0:0,0:0:0:0:
406,242,604983,2,0,P|402:200|405:158,1,85,0|0,0:0|0:0,0:0:0:0:
257,48,605419,2,0,P|192:68|144:74,1,85,0|8,0:0|0:0,0:0:0:0:
147,190,605855,6,0,P|206:171|329:143,1,170,0|0,0:0|0:0,0:0:0:0:
337,272,606510,1,8,0:0:0:0:
337,272,606728,2,0,L|322:369,1,85,0|0,0:0|0:0,0:0:0:0:
147,190,607164,2,0,L|162:93,1,85,0|8,0:0|0:0,0:0:0:0:
244,288,607601,2,0,L|235:349,1,42.5,0|0,0:0|0:0,0:0:0:0:
158,354,607819,6,0,P|104:333|-4:377,1,170,0|8,0:0|0:0,0:0:0:0:
8,209,608473,2,0,P|62:202|100:191,1,85,0|0,0:0|0:0,0:0:0:0:
265,209,608910,1,0,0:0:0:0:
180,57,609128,2,0,P|118:49|24:44,1,127.5,8|0,0:0|0:0,0:0:0:0:
28,43,609564,6,0,L|39:134,1,85,0|0,0:0|0:0,0:0:0:0:
265,209,610001,2,0,L|276:300,1,85,8|0,0:0|0:0,0:0:0:0:
280,326,610328,1,0,0:0:0:0:
285,359,610437,1,8,0:0:0:0:
160,244,610655,1,0,0:0:0:0:
422,135,610873,2,0,L|472:143,1,42.5,8|0,0:0|0:0,0:0:0:0:
512,232,611092,2,0,L|470:225,1,42.5,8|0,0:0|0:0,0:0:0:0:
333,91,611310,6,0,P|274:112|272:218,2,170,4|8|0,0:0|0:0|0:0,0:0:0:0:
132,125,612401,1,0,0:0:0:0:
331,170,612619,1,8,0:0:0:0:
226,272,612837,1,0,0:0:0:0:
281,4,613055,6,0,P|332:14|476:35,2,170,0|8|0,0:0|0:0|0:0,0:0:0:0:
176,161,614146,1,0,0:0:0:0:
129,33,614364,1,8,0:0:0:0:
176,161,614583,6,0,L|146:368,1,170,0|0,0:0|0:0,0:0:0:0:
76,226,615237,1,8,0:0:0:0:
257,201,615455,1,0,0:0:0:0:
257,201,615564,1,0,0:0:0:0:
257,201,615673,1,0,0:0:0:0:
165,89,615892,1,0,0:0:0:0:
332,63,616110,1,8,0:0:0:0:
110,22,616328,6,0,P|73:93|123:163,1,170
421,130,616983,2,0,P|493:113|514:104,2,85,8|0|0,0:0|0:0|0:0,0:0:0:0:
299,259,617637,1,0,0:0:0:0:
227,115,617855,1,8,0:0:0:0:
195,108,617964,1,0,0:0:0:0:
164,103,618073,1,0,0:0:0:0:
132,98,618182,1,0,0:0:0:0:
101,94,618292,6,0,P|101:36|103:-3,1,85,0|0,0:0|0:0,0:0:0:0:
313,40,618728,1,8,0:0:0:0:
313,40,618946,2,0,P|354:76|317:171,1,170,0|0,0:0|0:0,0:0:0:0:
159,348,619601,1,8,0:0:0:0:
159,348,619819,6,0,P|161:263|172:179,1,170,0|0,0:0|0:0,0:0:0:0:
30,212,620473,1,8,0:0:0:0:
30,212,620692,2,0,P|26:140|20:108,1,85,0|0,0:0|0:0,0:0:0:0:
185,23,621128,1,0,0:0:0:0:
272,206,621346,1,8,0:0:0:0:
406,132,621564,6,0,L|238:113,1,170,0|0,0:0|0:0,0:0:0:0:
511,100,622219,1,8,0:0:0:0:
421,220,622437,1,0,0:0:0:0:
397,37,622655,1,0,0:0:0:0:
305,211,622873,1,0,0:0:0:0:
406,132,623092,1,8,0:0:0:0:
361,304,623310,1,0,0:0:0:0:
174,210,623528,6,0,P|116:197|57:195,1,85,8|0,0:0|0:0,0:0:0:0:
57,203,623855,1,0,0:0:0:0:
25,214,623964,1,8,0:0:0:0:
262,334,624183,2,0,L|267:378,2,42.5,8|0|0,0:0|0:0|0:0,0:0:0:0:
251,140,624619,1,8,0:0:0:0:
285,145,624728,1,0,0:0:0:0:
321,150,624837,1,0,0:0:0:0:
356,152,624946,1,0,0:0:0:0:
391,153,625055,1,8,0:0:0:0:
427,153,625164,1,8,0:0:0:0:
462,150,625273,6,0,P|467:95|463:15,2,127.5,8|8|8,0:0|0:0|0:0,0:0:0:0:
454,282,627019,6,0,P|372:274|274:261,1,170,4|8,0:0|0:0,0:0:0:0:
88,308,627673,1,0,0:0:0:0:
213,189,627892,1,0,0:0:0:0:
9,103,628110,2,0,P|9:145|11:188,1,85,0|8,0:0|0:0,0:0:0:0:
268,88,628546,6,0,P|268:46|266:3,1,85,0|0,0:0|0:0,0:0:0:0:
128,135,628983,1,0,0:0:0:0:
199,273,629201,1,8,0:0:0:0:
320,169,629419,2,0,P|377:156|431:151,1,85,0|0,0:0|0:0,0:0:0:0:
255,345,629855,2,0,P|198:358|144:363,1,85,0|8,0:0|0:0,0:0:0:0:
13,286,630292,1,0,0:0:0:0:
13,286,630401,1,0,0:0:0:0:
13,286,630510,6,0,P|0:354|0:403,1,85,0|0,0:0|0:0,0:0:0:0:
134,203,630946,1,8,0:0:0:0:
29,124,631164,1,0,0:0:0:0:
102,300,631383,1,0,0:0:0:0:
205,128,631601,2,0,P|228:59|235:28,1,85,0|8,0:0|0:0,0:0:0:0:
129,94,632037,6,0,P|106:163|99:194,1,85,0|0,0:0|0:0,0:0:0:0:
222,286,632473,1,0,0:0:0:0:
310,142,632692,1,8,0:0:0:0:
178,208,632910,1,0,0:0:0:0:
387,186,633128,1,0,0:0:0:0:
230,47,633346,1,0,0:0:0:0:
311,243,633564,1,8,0:0:0:0:
446,110,633783,1,0,0:0:0:0:
230,47,634001,6,0,P|173:57|48:82,1,170,0|8,0:0|0:0,0:0:0:0:
176,213,634655,1,0,0:0:0:0:
176,213,634873,2,0,P|115:219|99:337,1,170,0|8,0:0|0:0,0:0:0:0:
282,337,635528,1,0,0:0:0:0:
282,337,635746,6,0,P|339:327|464:302,1,170,0|8,0:0|0:0,0:0:0:0:
336,171,636400,1,0,0:0:0:0:
336,171,636618,2,0,P|397:165|413:47,1,170,0|8,0:0|0:0,0:0:0:0:
223,23,637273,2,0,L|211:80,1,42.5,0|0,0:0|0:0,0:0:0:0:
235,179,637492,5,0,0:0:0:0:
96,109,637710,1,0,0:0:0:0:
175,268,637928,1,8,0:0:0:0:
288,106,638146,1,0,0:0:0:0:
87,186,638364,1,0,0:0:0:0:
287,248,638583,1,0,0:0:0:0:
184,50,638801,1,8,0:0:0:0:
241,340,639019,1,0,0:0:0:0:
378,201,639237,6,0,L|473:186,2,85,0|0|8,0:0|0:0|0:0,0:0:0:0:
178,232,639892,2,0,L|1:261,1,170,0|0,0:0|0:0,0:0:0:0:
94,163,640546,1,8,0:0:0:0:
130,337,640764,1,0,0:0:0:0:
284,211,640983,6,0,P|288:137|288:23,1,170,4|8,0:0|0:0,0:0:0:0:
102,69,641637,2,0,P|42:93|14:110,1,85,0|0,0:0|0:0,0:0:0:0:
206,245,642073,2,0,P|266:221|294:204,1,85,0|8,0:0|0:0,0:0:0:0:
420,116,642510,6,0,P|419:200|415:285,1,170,0|0,0:0|0:0,0:0:0:0:
184,332,643164,1,8,0:0:0:0:
184,332,643383,2,0,P|128:324|92:311,1,85,0|0,0:0|0:0,0:0:0:0:
153,204,643819,2,0,P|110:171|85:137,1,85,0|8,0:0|0:0,0:0:0:0:
263,45,644255,1,0,0:0:0:0:
263,45,644473,6,0,P|343:48|378:131,1,170,0|8,0:0|0:0,0:0:0:0:
342,289,645128,1,0,0:0:0:0:
468,180,645346,1,0,0:0:0:0:
300,116,645564,2,0,L|310:213,1,85,0|8,0:0|0:0,0:0:0:0:
241,357,646001,6,0,P|187:343|139:328,1,85,0|0,0:0|0:0,0:0:0:0:
85,194,646437,1,0,0:0:0:0:
22,332,646655,1,8,0:0:0:0:
85,194,646873,2,0,P|125:181|166:171,1,85,0|0,0:0|0:0,0:0:0:0:
390,96,647310,1,0,0:0:0:0:
198,39,647528,1,8,0:0:0:0:
254,222,647746,1,0,0:0:0:0:
471,138,647964,6,0,P|478:72|403:-1,1,170,0|8,0:0|0:0,0:0:0:0:
336,215,648619,1,0,0:0:0:0:
336,215,648837,2,0,P|345:302|355:389,1,170,0|8,0:0|0:0,0:0:0:0:
446,285,649492,1,0,0:0:0:0:
228,214,649710,6,0,P|158:200|87:280,1,170,0|8,0:0|0:0,0:0:0:0:
181,320,650364,1,0,0:0:0:0:
139,97,650583,2,0,P|209:110|239:120,1,85,0|0,0:0|0:0,0:0:0:0:
283,264,651019,1,8,0:0:0:0:
336,48,651237,1,0,0:0:0:0:
139,97,651455,6,0,P|60:77|21:75,1,85,0|0,0:0|0:0,0:0:0:0:
106,229,651892,2,0,P|27:209|-11:207,1,85,8|0,0:0|0:0,0:0:0:0:
84,353,652328,2,0,P|5:333|-33:331,1,85,0|0,0:0|0:0,0:0:0:0:
282,306,652764,1,8,0:0:0:0:
282,306,652983,6,0,P|354:289|481:305,1,170,0|0,0:0|0:0,0:0:0:0:
490,185,653637,2,0,P|429:172|392:156,1,85,8|0,0:0|0:0,0:0:0:0:
375,154,653964,1,0,0:0:0:0:
342,143,654073,2,0,P|300:135|260:121,1,85,0|0,0:0|0:0,0:0:0:0:
138,180,654510,1,8,0:0:0:0:
74,43,654728,1,0,0:0:0:0:
74,43,654837,1,0,0:0:0:0:
74,43,654946,6,0,P|114:29|155:21,1,85,4|0,0:0|0:0,0:0:0:0:
345,258,655383,2,0,P|304:244|263:236,1,85,8|0,0:0|0:0,0:0:0:0:
38,265,655819,2,0,L|44:312,3,42.5,0|0|0|0,0:0|0:0|0:0|0:0,0:0:0:0:
131,308,656255,2,0,L|137:355,3,42.5,8|0|0|0,0:0|0:0|0:0|0:0,0:0:0:0:
226,369,656692,6,0,P|284:360|330:354,1,85,0|0,0:0|0:0,0:0:0:0:
343,359,657019,1,0,0:0:0:0:
376,364,657128,1,8,0:0:0:0:
496,234,657346,2,0,P|436:211|363:282,1,170,0|0,0:0|0:0,0:0:0:0:
250,144,658001,2,0,P|244:195|243:237,1,85,8|0,0:0|0:0,0:0:0:0:
226,369,658437,5,4,0:0:0:0:
102,193,667996,6,0,P|62:155|139:67,1,191.250007295609,2|0,0:0|2:1,2:1:0:0:
226,65,668885,1,2,0:0:0:0:
194,138,669107,1,2,0:0:0:0:
268,169,669330,1,2,0:0:0:0:
299,96,669552,2,0,P|361:88|447:72,1,127.500004863739,2|0,0:0|0:0,0:0:0:0:
278,293,670441,1,2,0:0:0:0:
278,293,670663,6,0,P|220:278|194:282,1,63.7500024318696,2|0,0:0|0:0,0:0:0:0:
142,300,671107,1,0,0:0:0:0:
62,257,671330,2,0,P|56:223|60:111,1,127.500004863739,2|0,0:0|0:0,0:0:0:0:
139,78,671996,1,0,0:0:0:0:
139,78,672219,2,0,P|145:112|141:224,1,127.500004863739,2|0,0:0|0:0,0:0:0:0:
257,196,672885,1,0,0:0:0:0:
257,196,673107,2,0,P|352:187|372:275,1,191.250007295609,2|0,0:0|0:0,0:0:0:0:
369,361,673996,6,0,L|442:348,2,63.7500024318696,2|0|0,0:0|0:0|0:0,0:0:0:0:
277,380,674663,1,2,0:0:0:0:
191,338,674885,1,2,0:0:0:0:
191,338,674996,1,0,0:0:0:0:
191,338,675107,6,0,P|184:289|187:198,1,127.500004863739
334,37,675996,2,0,L|410:22,2,63.7500024318696,2|2|0,0:0|0:0|0:0,0:0:0:0:
241,55,676663,5,2,0:0:0:0:
393,177,677107,1,2,0:0:0:0:
271,329,677551,1,2,0:0:0:0:
119,207,677996,2,0,P|186:195|274:181,1,127.500004863739,2|0,0:0|0:0,0:0:0:0:
335,269,678663,6,0,L|353:335,1,63.7500024318696,6|0,0:0|0:0,0:0:0:0:
436,287,679107,2,0,L|420:226,1,63.7500024318696
395,137,679552,1,2,0:0:0:0:
504,174,679774,1,2,0:0:0:0:
475,69,679996,2,0,L|400:33,1,63.7500024318696
250,25,680441,5,12,0:0:0:0:
250,25,680552,2,0,L|267:136,1,85,0|0,0:0|0:0,0:0:0:0:
269,136,680885,2,0,P|211:133|102:126,1,127.5,8|0,0:0|0:0,0:0:0:0:
107,127,681330,6,0,L|115:180,1,42.5,12|0,0:0|0:0,0:0:0:0:
116,263,681552,2,0,L|122:305,1,42.5,0|0,0:0|0:0,0:0:0:0:
216,206,681774,2,0,L|224:259,1,42.5,12|0,0:0|0:0,0:0:0:0:
225,342,681996,2,0,L|231:384,1,42.5
336,294,682219,6,0,P|391:268|388:156,1,170,4|8,0:2|0:0,0:0:0:0:
257,38,682885,2,0,P|247:100|245:139,1,85,0|0,0:0|0:0,0:0:0:0:
167,293,683330,1,0,0:0:0:0:
336,211,683552,1,8,0:0:0:0:
169,106,683774,1,0,0:0:0:0:
167,293,683996,6,0,P|232:281|262:274,1,85,0|0,0:0|0:0,0:0:0:0:
210,192,684441,1,8,0:0:0:0:
80,327,684663,1,0,0:0:0:0:
9,133,684885,1,0,0:0:0:0:
107,226,685107,1,0,0:0:0:0:
163,60,685330,1,8,0:0:0:0:
107,226,685552,6,0,L|16:236,1,85,0|0,0:0|0:0,0:0:0:0:
163,60,685996,2,0,L|254:50,1,85,0|8,0:0|0:0,0:0:0:0:
224,171,686441,1,0,0:0:0:0:
367,56,686663,1,0,0:0:0:0:
327,252,686885,1,0,0:0:0:0:
427,157,687107,1,8,0:0:0:0:
218,283,687330,1,0,0:0:0:0:
218,283,687441,1,0,0:0:0:0:
218,283,687552,5,0,0:0:0:0:
299,124,687774,1,0,0:0:0:0:
347,340,687996,1,8,0:0:0:0:
447,230,688219,1,0,0:0:0:0:
447,230,688330,1,0,0:0:0:0:
447,230,688441,2,0,P|391:214|334:201,1,85,0|0,0:0|0:0,0:0:0:0:
65,154,688885,2,0,P|121:170|178:183,1,85,8|0,0:0|0:0,0:0:0:0:
268,40,689330,6,0,P|255:119|246:218,1,170,0|8,0:0|0:0,0:0:0:0:
234,368,689996,2,0,P|299:350|333:343,1,85,0|0,0:0|0:0,0:0:0:0:
447,230,690441,1,0,0:0:0:0:
146,176,690663,2,0,P|138:229|136:275,1,85,8|0,0:0|0:0,0:0:0:0:
317,348,691107,6,0,P|364:357|406:367,1,85,0|0,0:0|0:0,0:0:0:0:
475,147,691552,2,0,L|482:100,3,42.5,8|0|0|0,0:0|0:0|0:0|0:0,0:0:0:0:
396,62,691996,2,0,P|354:71|312:79,1,85,0|0,0:0|0:0,0:0:0:0:
146,176,692441,2,0,P|139:115|137:41,1,127.5,8|0,0:0|0:0,0:0:0:0:
137,25,692885,5,12,0:0:0:0:
268,140,693107,1,0,0:0:0:0:
142,268,693330,1,0,0:0:0:0:
142,268,693441,2,0,P|77:257|35:255,1,85,8|0,0:0|0:0,0:0:0:0:
27,256,693774,2,0,L|35:309,2,42.5,0|0|8,0:0|0:0|0:0,0:0:0:0:
236,50,694219,2,0,L|228:-3,2,42.5,8|0|0,0:0|0:0|0:0,0:0:0:0:
310,308,694663,5,4,0:0:0:0:
310,308,694774,2,0,L|413:291,1,85,8|0,0:0|0:0,0:0:0:0:
423,288,695107,1,8,0:0:0:0:
267,203,695330,1,0,0:0:0:0:
238,210,695441,1,0,0:0:0:0:
209,216,695552,1,8,0:0:0:0:
52,98,695774,1,0,0:0:0:0:
52,98,695885,1,0,0:0:0:0:
52,98,695996,2,0,L|59:35,1,42.5,8|0,0:0|0:0,0:0:0:0:
156,56,696219,2,0,L|149:-7,1,42.5,8|0,0:0|0:0,0:0:0:0:
301,63,696441,6,0,P|349:89|372:205,1,170,4|8,0:0|0:0,0:0:0:0:
213,350,697107,2,0,P|150:337|99:332,1,85,0|0,0:0|0:0,0:0:0:0:
35,240,697552,1,0,0:0:0:0:
232,165,697774,1,8,0:0:0:0:
56,55,697996,1,0,0:0:0:0:
56,55,698107,1,0,0:0:0:0:
56,55,698219,6,0,P|54:105|57:168,1,85,0|0,0:0|0:0,0:0:0:0:
211,269,698663,1,8,0:0:0:0:
236,83,698885,1,0,0:0:0:0:
130,192,699107,1,0,0:0:0:0:
330,143,699330,1,0,0:0:0:0:
185,9,699552,1,8,0:0:0:0:
130,192,699774,6,0,P|120:262|115:293,1,85,0|0,0:0|0:0,0:0:0:0:
379,254,700219,2,0,P|395:311|400:339,1,85,0|8,0:0|0:0,0:0:0:0:
131,176,700663,2,0,P|84:156|42:132,1,85,0|0,0:0|0:0,0:0:0:0:
391,87,701107,2,0,P|453:65|491:45,1,85,0|8,0:0|0:0,0:0:0:0:
240,23,701552,6,0,P|234:92|233:219,1,170,0|0,0:0|0:0,0:0:0:0:
241,322,702219,1,8,0:0:0:0:
319,142,702441,1,0,0:0:0:0:
319,142,702552,1,0,0:0:0:0:
319,142,702663,1,0,0:0:0:0:
156,239,702885,1,0,0:0:0:0:
389,196,703107,1,8,0:0:0:0:
240,23,703330,1,0,0:0:0:0:
240,23,703441,1,0,0:0:0:0:
240,23,703552,6,0,P|168:34|57:61,1,170,0|8,0:0|0:0,0:0:0:0:
40,211,704219,1,0,0:0:0:0:
212,251,704441,1,0,0:0:0:0:
143,138,704663,1,0,0:0:0:0:
107,316,704885,1,8,0:0:0:0:
107,316,705107,6,0,P|59:323|4:336,1,85,0|0,0:0|0:0,0:0:0:0:
360,255,705552,2,0,P|408:262|463:275,1,85,0|8,0:0|0:0,0:0:0:0:
143,138,705996,2,0,P|95:131|40:118,1,85,0|0,0:0|0:0,0:0:0:0:
253,43,706441,1,0,0:0:0:0:
264,215,706663,1,8,0:0:0:0:
406,131,706885,1,0,0:0:0:0:
264,215,707107,6,0,P|259:277|256:329,1,85,4|0,0:0|0:0,0:0:0:0:
63,204,707552,2,0,P|51:151|66:110,1,85,8|0,0:0|0:0,0:0:0:0:
264,106,707996,1,0,0:0:0:0:
135,151,708219,1,0,0:0:0:0:
163,22,708441,1,8,0:0:0:0:
228,202,708663,1,0,0:0:0:0:
370,115,708885,5,4,0:0:0:0:
370,115,708996,2,0,L|477:105,1,85,8|0,0:0|0:0,0:0:0:0:
484,105,709330,1,8,0:0:0:0:
371,293,709552,1,0,0:0:0:0:
343,295,709663,2,0,L|258:302,1,85,8|0,0:0|0:0,0:0:0:0:
229,307,709996,1,8,0:0:0:0:
199,313,710107,2,0,L|203:374,1,42.5,0|8,0:0|0:0,0:0:0:0:
124,276,710330,2,0,L|117:171,1,85,8|0,0:0|0:0,0:0:0:0:
119,161,710663,6,0,P|166:175|214:190,1,85,4|0,0:0|0:0,0:0:0:0:
368,197,711107,2,0,P|365:121|355:13,1,170,8|0,0:0|0:0,0:0:0:0:
100,81,711774,1,0,0:0:0:0:
13,212,711996,1,8,0:0:0:0:
142,324,712219,1,0,0:0:0:0:
142,324,712441,6,0,P|210:308|326:280,1,170,0|8,0:0|0:0,0:0:0:0:
244,193,713107,1,0,0:0:0:0:
290,367,713330,1,0,0:0:0:0:
138,215,713552,1,0,0:0:0:0:
342,137,713774,1,8,0:0:0:0:
200,35,713996,6,0,P|128:46|102:156,1,170,0|0,0:0|0:0,0:0:0:0:
142,324,714663,1,8,0:0:0:0:
20,232,714885,1,0,0:0:0:0:
182,121,715107,2,0,P|197:185|204:230,1,85,0|0,0:0|0:0,0:0:0:0:
222,347,715552,1,8,0:0:0:0:
320,181,715774,1,0,0:0:0:0:
320,181,715885,1,0,0:0:0:0:
320,181,715996,5,4,0:0:0:0:
92,128,716219,2,0,P|28:106|5:88,1,85,0|8,0:0|0:0,0:0:0:0:
262,16,716663,2,0,L|271:62,1,42.5,0|0,0:0|0:0,0:0:0:0:
365,86,716885,2,0,P|401:64|442:54,1,85,0|0,0:0|0:0,0:0:0:0:
429,188,717330,2,0,P|483:181|523:190,1,85,8|0,0:0|0:0,0:0:0:0:
452,313,717774,6,0,P|393:329|291:291,1,170,4|8,0:0|0:0,0:0:0:0:
97,252,718441,1,0,0:0:0:0:
97,252,718663,2,0,P|92:314|94:349,1,85,0|0,0:0|0:0,0:0:0:0:
78,112,719107,2,0,P|15:136|-25:162,1,85,8|0,0:0|0:0,0:0:0:0:
210,32,719552,5,0,0:0:0:0:
226,172,719774,1,0,0:0:0:0:
362,110,719996,2,0,P|416:117|455:125,1,85,8|0,0:0|0:0,0:0:0:0:
475,129,720330,1,0,0:0:0:0:
503,137,720441,2,0,P|513:80|512:41,1,85,0|0,0:0|0:0,0:0:0:0:
338,231,720885,2,0,P|328:288|329:327,1,85,8|0,0:0|0:0,0:0:0:0:
326,344,721219,6,0,P|268:331|231:329,1,85,8|0,0:0|0:0,0:0:0:0:
212,326,721552,1,8,0:0:0:0:
31,246,721774,1,8,0:0:0:0:
31,246,721885,2,0,B|23:201|23:201|41:152,1,85
51,136,722219,2,0,L|39:81,2,42.5,8|8|0,0:0|0:0|0:0,0:0:0:0:
207,193,722663,1,0,0:0:0:0:
207,193,722774,2,0,L|320:178,1,85,8|0,0:0|0:0,0:0:0:0:
408,72,723219,5,8,0:0:0:0:
408,72,723330,2,0,L|323:60,1,85,8|0,0:0|0:0,0:0:0:0:
294,55,723663,2,0,L|209:43,1,85,8|0,0:0|0:0,0:0:0:0:
180,39,723996,1,8,0:0:0:0:
110,227,724219,1,8,0:0:0:0:
112,248,724330,1,0,0:0:0:0:
114,269,724441,1,0,0:0:0:0:
116,290,724552,1,0,0:0:0:0:
118,311,724663,1,8,0:0:0:0:
120,332,724774,1,0,0:0:0:0:
123,355,724885,6,0,P|171:340|235:325,1,85,4|0,0:1|0:0,0:0:0:0:
332,307,725330,1,8,0:0:0:0:
254,203,725552,2,0,P|183:194|147:190,1,85,0|0,0:0|0:0,0:0:0:0:
36,175,725996,1,0,0:0:0:0:
114,71,726218,2,0,P|185:62|221:58,1,85,8|0,0:0|0:0,0:0:0:0:
334,101,726663,6,0,L|355:11,2,85,0|0|8,0:0|0:0|0:0,0:0:0:0:
285,271,727330,2,0,L|264:361,1,85,0|0,0:0|0:0,0:0:0:0:
203,179,727774,1,0,0:0:0:0:
400,219,727996,1,8,0:0:0:0:
265,353,728219,1,0,0:0:0:0:
203,179,728441,6,0,P|198:129|198:90,1,85,0|0,0:0|0:0,0:0:0:0:
70,153,728885,1,8,0:0:0:0:
90,273,729107,1,0,0:0:0:0:
203,179,729330,2,0,P|261:163|317:155,1,85,0|0,0:0|0:0,0:0:0:0:
399,281,729774,1,8,0:0:0:0:
399,281,729996,6,0,P|357:289|212:323,1,170,0|0,0:0|0:0,0:0:0:0:
122,370,730663,1,8,0:0:0:0:
12,272,730885,2,0,L|5:228,1,42.5,0|0,0:0|0:0,0:0:0:0:
74,187,731107,2,0,P|124:197|169:200,1,85,0|0,0:0|0:0,0:0:0:0:
132,94,731552,1,8,0:0:0:0:
262,237,731774,1,0,0:0:0:0:
352,46,731996,6,0,P|289:60|251:78,1,85,4|0,0:0|0:0,0:0:0:0:
144,14,732441,1,8,0:0:0:0:
103,178,732663,2,0,P|166:192|204:210,1,85,0|0,0:0|0:0,0:0:0:0:
311,146,733108,1,0,0:0:0:0:
350,310,733330,2,0,P|287:324|249:342,1,85,8|0,0:0|0:0,0:0:0:0:
113,268,733774,6,0,P|52:251|19:232,2,85,0|0|8,0:0|0:0|0:0,0:0:0:0:
307,230,734441,2,0,P|309:175|312:130,1,85,0|0,0:0|0:0,0:0:0:0:
398,206,734885,1,0,0:0:0:0:
201,166,735107,1,8,0:0:0:0:
335,31,735330,6,0,P|415:24|507:17,1,170,0|0,0:0|0:0,0:0:0:0:
181,80,735996,1,8,0:0:0:0:
181,80,736218,2,0,P|127:75|90:66,1,85,0|0,0:0|0:0,0:0:0:0:
314,194,736663,1,0,0:0:0:0:
314,194,736885,2,0,P|368:199|405:208,1,85,8|0,0:0|0:0,0:0:0:0:
196,339,737330,6,0,L|185:286,3,42.5,0|0|0|0,0:0|0:0|0:0|0:0,0:0:0:0:
102,268,737774,2,0,L|119:174,1,85,8|0,0:0|0:0,0:0:0:0:
32,61,738218,2,0,L|17:145,1,85,0|0,0:0|0:0,0:0:0:0:
99,359,738663,1,8,0:0:0:0:
255,262,738885,1,0,0:0:0:0:
117,184,739107,5,4,0:0:0:0:
196,339,739330,1,0,0:0:0:0:
355,217,739552,2,0,P|415:206|500:305,1,170,8|0,0:0|0:0,0:0:0:0:
366,106,740218,1,0,0:0:0:0:
366,106,740441,2,0,P|324:115|286:132,1,85,8|0,0:0|0:0,0:0:0:0:
40,154,740885,5,0,0:0:0:0:
85,41,741107,1,0,0:0:0:0:
167,135,741330,2,0,L|133:335,1,170,8|0,0:0|0:0,0:0:0:0:
248,215,741996,1,0,0:0:0:0:
66,284,742218,1,8,0:0:0:0:
196,377,742441,1,0,0:0:0:0:
248,215,742663,6,0,L|264:122,1,85,0|0,0:0|0:0,0:0:0:0:
434,58,743107,2,0,P|495:104|462:213,1,170,8|0,0:0|0:0,0:0:0:0:
373,297,743774,1,0,0:0:0:0:
417,138,743996,1,8,0:0:0:0:
248,215,744218,1,0,0:0:0:0:
281,59,744441,5,0,0:0:0:0:
365,209,744663,1,0,0:0:0:0:
171,267,744885,2,0,P|151:210|247:125,1,170,8|0,0:0|0:0,0:0:0:0:
267,351,745552,1,0,0:0:0:0:
150,376,745774,2,0,P|95:362|53:347,1,85,8|0,0:0|0:0,0:0:0:0:
360,293,746218,6,0,P|415:307|457:322,1,85,4|0,0:0|0:0,0:0:0:0:
402,171,746663,2,0,P|318:170|248:215,1,170,8|0,0:0|0:0,0:0:0:0:
119,278,747330,1,0,2:0:0:0:
55,148,747552,1,8,2:0:0:0:
185,84,747774,1,0,2:0:0:0:
248,214,747996,6,0,L|237:316,1,85,0|0,0:0|0:0,0:0:0:0:
55,148,748441,2,0,L|66:46,1,85,8|0,0:0|0:0,0:0:0:0:
292,113,748885,1,0,0:0:0:0:
138,193,749107,1,0,0:0:0:0:
182,15,749330,1,8,0:0:0:0:
249,214,749552,1,0,0:0:0:0:
414,84,749774,6,0,P|352:93|314:104,1,85,0|0,0:0|0:0,0:0:0:0:
204,142,750218,1,8,0:0:0:0:
98,0,750441,2,0,P|160:9|198:20,1,85,0|0,0:0|0:0,0:0:0:0:
426,193,750885,2,0,P|384:202|342:207,1,85,0|8,0:0|0:0,0:0:0:0:
251,309,751330,1,0,0:0:0:0:
112,252,751552,5,0,3:2:0:0:
115,220,751663,1,0,3:2:0:0:
118,188,751774,1,0,3:2:0:0:
121,156,751885,1,0,3:2:0:0:
124,125,751996,2,0,L|129:69,3,42.5,8|0|0|0,3:2|3:2|3:2|3:2,3:2:0:0:
241,106,752441,1,0,3:2:0:0:
246,112,752552,1,0,3:2:0:0:
250,118,752663,2,0,L|300:127,1,42.5,0|0,3:2|3:2,3:2:0:0:
387,208,752885,1,8,3:2:0:0:
382,214,752996,1,0,3:2:0:0:
378,220,753107,2,0,L|328:229,1,42.5,0|0,3:2|3:2,3:2:0:0:
208,275,753330,6,0,L|198:369,1,85,0|0,0:0|0:0,0:0:0:0:
