osu file format v14

[General]
AudioFilename: Serment.mp3
AudioLeadIn: 0
PreviewTime: 68457
Countdown: 0
SampleSet: Soft
StackLeniency: 0.7
Mode: 0
LetterboxInBreaks: 0
WidescreenStoryboard: 1

[Editor]
DistanceSpacing: 0.5
BeatDivisor: 4
GridSize: 4
TimelineZoom: 1.2

[Metadata]
Title:Serment
TitleUnicode:Serment
Artist:Kawada Mami
ArtistUnicode:川田まみ
Creator:captin1
Version:Extra
Source:灼眼のシャナⅢ-FINAL-
Tags:giralda deca shakugan no shana square the circle j.c staff japanese anime rock op opening
BeatmapID:1121983
BeatmapSetID:529079

[Difficulty]
HPDrainRate:5
CircleSize:4.2
OverallDifficulty:8.5
ApproachRate:9.3
SliderMultiplier:1.8
SliderTickRate:1

[Events]
//Background and Video events
0,0,"shana.jpg",0,0
//Break Periods
2,190226,196465
//Storyboard Layer 0 (Background)
//Storyboard Layer 1 (Fail)
//Storyboard Layer 2 (Pass)
//Storyboard Layer 3 (Foreground)
//Storyboard Layer 4 (Overlay)
//Storyboard Sound Samples

[TimingPoints]
1170,283.018867924528,4,2,1,70,1,0
8103,-133.333333333333,4,2,1,70,0,0
19283,-200,4,2,1,70,0,0
20415,-100,4,2,1,80,0,0
38528,-100,4,2,1,70,0,0
38811,-133.333333333333,4,2,1,70,0,0
54377,-111.111111111111,4,2,1,70,0,0
63717,-100,4,2,1,70,0,0
65981,-133.333333333333,4,2,1,70,0,0
67962,-100,4,2,1,90,0,1
80698,-90.9090909090909,4,2,1,90,0,1
80981,-83.3333333333333,4,2,1,90,0,1
81547,-100,4,2,1,90,0,1
98386,-166.666666666667,4,2,1,90,0,1
99660,-166.666666666667,4,2,1,80,0,0
99943,-100,4,2,1,80,0,0
108717,-100,4,2,1,70,0,0
109000,-133.333333333333,4,2,1,70,0,0
124566,-111.111111111111,4,2,1,70,0,0
133622,-100,4,2,1,70,0,0
136170,-166.666666666667,4,2,1,70,0,0
138151,-100,4,2,1,90,0,1
150886,-90.9090909090909,4,2,1,90,0,1
151170,-83.3333333333333,4,2,1,90,0,1
151736,-100,4,2,1,90,0,1
168575,-166.666666666667,4,2,1,90,0,1
169849,-166.666666666667,4,2,1,80,0,0
169990,-133.333333333333,4,2,1,80,0,0
187962,-133.333333333333,4,2,1,50,0,0
188245,-166.666666666667,4,2,1,50,0,0
200415,-90.9090909090909,4,2,1,90,0,1
204094,-83.3333333333333,4,2,1,90,0,1
204377,-76.9230769230769,4,2,1,90,0,1
204943,-90.9090909090909,4,2,1,90,0,1
221783,-166.666666666667,4,2,1,90,0,1
222349,-100,4,2,1,90,0,1
223056,-100,4,2,1,80,0,0
235368,-166.666666666667,4,2,1,80,0,0
236783,-133.333333333333,4,2,1,80,0,0

[Colours]
Combo1 : 255,94,55
Combo2 : 202,4,54
Combo3 : 128,128,128
Combo4 : 255,88,100

[HitObjects]
75,325,5698,5,8,1:0:0:0:
75,325,5839,1,0,1:0:0:0:
165,285,7962,5,8,1:0:0:0:
165,285,8103,2,0,L|254:301,1,67.5000000000002,0|0,1:0|2:0,2:0:0:0:
422,315,8386,2,0,P|371:331|337:347,1,67.5000000000002,0|0,1:0|2:0,2:0:0:0:
243,198,8670,1,0,1:0:0:0:
407,237,8811,1,0,1:0:0:0:
288,361,8953,1,0,1:0:0:0:
288,361,9660,6,0,L|292:206,1,135,2|0,2:0|1:0,2:0:0:0:
437,62,10226,5,0,1:0:0:0:
437,62,10368,1,0,1:0:0:0:
305,202,10509,2,0,L|224:194,1,67.5000000000002,2|0,2:0|1:0,2:0:0:0:
87,136,10792,2,0,P|145:93|217:117,1,135,8|0,2:0|1:0,2:0:0:0:
166,255,11217,6,0,L|172:324,1,67.5000000000002,0|0,1:0|2:0,2:0:0:0:
305,202,11500,1,0,1:0:0:0:
305,202,11641,2,0,L|311:133,1,67.5000000000002,2|0,2:0|1:0,2:0:0:0:
494,283,11924,2,0,P|459:273|424:257,1,67.5000000000002,8|0,2:0|2:0,2:0:0:0:
259,295,12207,2,0,P|224:305|189:321,1,67.5000000000002,0|0,1:0|2:0,2:0:0:0:
37,252,12490,5,0,1:0:0:0:
37,252,12632,1,0,1:0:0:0:
175,109,12773,2,0,L|168:196,1,67.5000000000002,0|0,1:0|2:0,2:0:0:0:
120,363,13056,2,0,L|113:276,1,67.5000000000002,8|0,1:0|2:0,2:0:0:0:
251,162,13339,1,0,1:0:0:0:
93,111,13481,6,0,B|49:96|49:96|50:152|82:194,1,135,0|0,1:0|1:0,2:0:0:0:
207,269,13905,2,0,L|279:260,1,67.5000000000002,0|0,1:0|2:0,2:0:0:0:
406,324,14188,2,0,P|438:283|421:190,1,135,8|0,2:0|1:0,2:0:0:0:
182,55,14754,5,0,1:0:0:0:
182,55,14896,1,0,1:0:0:0:
258,194,15037,2,0,L|273:259,1,67.5000000000002,2|0,2:0|1:0,2:0:0:0:
406,324,15320,2,0,P|347:289|262:310,1,135,8|0,2:0|1:0,2:0:0:0:
134,352,15745,6,0,L|47:336,1,67.5000000000002,0|0,1:0|2:0,2:0:0:0:
174,212,16028,1,0,1:0:0:0:
174,212,16170,2,0,L|87:228,1,67.5000000000002,2|0,2:0|1:0,2:0:0:0:
14,70,16453,2,0,P|49:83|82:99,1,67.5000000000002,8|0,2:0|2:0,2:0:0:0:
227,171,16736,2,0,P|198:194|167:215,1,67.5000000000002,0|0,1:0|2:0,2:0:0:0:
81,317,17019,5,0,1:0:0:0:
81,317,17160,1,0,1:0:0:0:
249,252,17302,2,0,L|326:257,1,67.5000000000002,0|0,1:0|2:0,2:0:0:0:
454,106,17585,2,0,P|440:140|428:177,1,67.5000000000002,8|0,1:0|2:0,2:0:0:0:
357,355,17868,1,0,1:0:0:0:
245,174,18009,6,0,B|277:145|277:145|324:155|369:203,1,135,0|0,1:0|1:0,2:0:0:0:
184,300,18434,2,0,L|100:289,1,67.5000000000002,0|0,1:0|2:0,2:0:0:0:
6,82,18717,2,0,P|15:121|26:154,1,67.5000000000002,8|0,2:0|2:0,2:0:0:0:
100,356,19000,2,0,P|110:323|117:290,1,67.5000000000002,0|0,1:0|2:0,2:0:0:0:
155,160,19283,6,0,B|204:161|229:204|229:204|262:184|262:184|323:169|371:195|371:195|379:227,1,270,2|0,2:0|2:0,2:0:0:0:
315,346,20273,1,0,1:0:0:0:
315,346,20344,1,0,1:0:0:0:
315,346,20415,6,0,L|306:224,1,90,4|0,1:0|2:0,2:0:0:0:
422,44,20698,2,0,P|451:121|402:204,1,180,8|0,2:0|1:0,2:0:0:0:
217,263,21122,1,0,1:0:0:0:
352,117,21264,1,8,2:0:0:0:
483,333,21405,6,0,L|304:313,1,180,0|0,1:0|1:0,2:0:0:0:
43,262,21830,2,0,P|90:246|138:223,1,90,8|0,2:0|2:0,2:0:0:0:
224,70,22113,1,0,1:0:0:0:
94,133,22254,1,0,1:0:0:0:
214,320,22396,2,0,L|208:226,1,90,8|0,2:0|2:0,2:0:0:0:
331,21,22679,6,0,P|323:68|307:119,1,90,0|0,1:0|2:0,2:0:0:0:
56,86,22962,2,0,B|93:55|93:55|235:71,1,180,8|0,2:0|1:0,2:0:0:0:
437,160,23386,2,0,L|450:252,1,90,0|8,1:0|2:0,2:0:0:0:
346,374,23670,6,0,P|312:332|352:239,1,135,0|0,1:0|2:0,2:0:0:0:
389,203,23953,1,0,1:0:0:0:
508,252,24094,2,0,L|453:243,1,45,8|2,2:0|2:0,2:0:0:0:
376,104,24236,1,2,2:0:0:0:
376,104,24306,1,2,2:0:0:0:
376,104,24377,2,0,L|285:93,1,90,2|0,1:2|1:0,2:0:0:0:
203,226,24660,1,8,2:0:0:0:
86,77,24802,1,0,1:0:0:0:
83,330,24943,6,0,P|111:286|128:242,1,90,2|0,1:2|2:0,2:0:0:0:
32,21,25226,2,0,P|40:112|54:209,1,180,8|0,2:0|1:0,2:0:0:0:
254,231,25651,1,0,1:0:0:0:
151,90,25792,1,10,2:0:0:0:
193,310,25934,6,0,P|252:332|347:253,1,180,0|0,1:0|1:0,2:0:0:0:
445,123,26358,2,0,L|346:114,1,90,8|0,2:0|2:0,2:0:0:0:
175,181,26641,1,0,1:0:0:0:
342,271,26783,1,0,1:0:0:0:
357,87,26924,2,0,P|311:99|266:123,1,90,8|0,2:0|2:0,2:0:0:0:
235,358,27207,6,0,L|242:260,1,90,2|0,1:2|2:0,2:0:0:0:
117,58,27490,2,0,B|60:44|60:44|31:98|68:179,1,180,8|0,2:0|1:0,2:0:0:0:
241,268,27915,2,0,L|234:163,1,90,0|8,1:0|2:0,2:0:0:0:
456,121,28198,2,0,P|388:106|350:93,1,90,2|0,1:2|2:0,2:0:0:0:
136,31,28481,5,4,1:2:0:0:
169,249,28622,1,8,2:0:0:0:
257,150,28764,1,0,2:0:0:0:
96,35,28905,2,0,L|83:124,1,90,14|0,1:2|2:0,2:0:0:0:
266,345,29188,1,12,2:0:0:0:
166,157,29330,1,0,2:0:0:0:
31,371,29471,6,0,L|121:347,1,90,4|0,1:0|2:0,2:0:0:0:
257,150,29754,2,0,P|291:230|222:301,1,180,8|0,2:0|1:0,2:0:0:0:
47,294,30179,1,0,1:0:0:0:
207,216,30320,1,8,2:0:0:0:
105,360,30462,6,0,B|75:306|75:306|85:177,1,180,0|0,1:0|1:0,2:0:0:0:
230,128,30886,2,0,P|243:80|249:28,1,90,8|0,2:0|2:0,2:0:0:0:
86,101,31170,1,0,1:0:0:0:
186,253,31311,1,0,1:0:0:0:
319,117,31453,2,0,L|221:129,1,90,8|0,2:0|2:0,2:0:0:0:
13,239,31736,6,0,P|63:254|112:262,1,90,0|0,1:0|2:0,2:0:0:0:
384,250,32019,2,0,B|356:214|356:214|285:199|220:231,1,180,8|0,2:0|1:0,2:0:0:0:
93,365,32443,2,0,L|114:266,1,90,0|8,1:0|2:0,2:0:0:0:
208,69,32726,6,0,P|163:35|81:65,1,135,0|0,1:0|2:0,2:0:0:0:
40,104,33009,1,0,1:0:0:0:
85,242,33151,2,0,L|94:198,1,45,8|2,2:0|2:0,2:0:0:0:
213,246,33292,1,2,2:0:0:0:
213,246,33363,1,2,2:0:0:0:
213,246,33434,2,0,L|314:228,1,90,2|0,1:2|1:0,2:0:0:0:
477,255,33717,1,8,2:0:0:0:
288,198,33858,1,0,1:0:0:0:
414,373,34000,6,0,L|406:269,1,90,2|0,1:2|2:0,2:0:0:0:
429,28,34283,2,0,B|383:69|383:69|378:210,1,180,8|0,2:0|1:0,2:0:0:0:
270,314,34707,1,0,1:0:0:0:
503,344,34849,1,10,2:0:0:0:
378,187,34990,6,0,P|320:172|184:154,1,180,0|0,1:0|1:0,2:0:0:0:
20,274,35415,2,0,L|110:260,1,90,8|0,2:0|2:0,2:0:0:0:
200,72,35698,1,0,1:0:0:0:
84,177,35839,1,0,1:0:0:0:
282,203,35981,2,0,L|183:189,1,90,8|0,2:0|2:0,2:0:0:0:
74,361,36264,6,0,P|100:317|116:271,1,90,2|0,1:2|2:0,2:0:0:0:
87,62,36547,2,0,B|44:23|44:23|17:88|61:163,1,180,8|0,2:0|1:0,2:0:0:0:
231,206,36971,2,0,P|274:191|323:163,1,90,0|8,1:0|2:0,2:0:0:0:
502,83,37254,6,0,L|363:52,1,135,2|0,1:2|2:0,2:0:0:0:
306,91,37537,1,0,1:0:0:0:
340,280,37679,1,8,1:0:0:0:
436,68,37820,1,0,1:0:0:0:
267,82,37962,1,2,1:2:0:0:
487,8,38103,1,0,1:0:0:0:
417,301,38245,1,8,2:0:0:0:
355,114,38386,1,8,2:0:0:0:
486,238,38528,5,6,1:2:0:0:
486,238,38670,1,2,1:2:0:0:
325,289,38811,2,0,P|270:284|169:263,1,135,8|0,2:0|2:0,2:0:0:0:
62,292,39236,1,0,1:0:0:0:
63,60,39377,1,10,2:0:0:0:
142,103,39519,6,0,P|151:165|104:239,1,135,2|0,1:2|1:0,2:0:0:0:
232,361,39943,2,0,L|217:235,1,101.25,10|0,2:0|2:0,2:0:0:0:
268,198,40226,1,2,1:2:0:0:
456,242,40368,1,0,1:0:0:0:
339,320,40509,2,0,L|351:239,1,67.5000000000002,10|0,2:0|2:0,2:0:0:0:
443,76,40792,5,2,1:2:0:0:
443,76,40934,1,2,1:2:0:0:
329,44,41075,2,0,B|351:95|351:95|345:187,1,135,8|0,2:0|2:0,2:0:0:0:
390,258,41500,1,0,1:0:0:0:
178,112,41641,1,10,2:0:0:0:
137,208,41783,6,0,P|174:204|276:162,1,135,2|0,1:2|1:0,2:0:0:0:
64,140,42207,2,0,P|28:131|-6:120,1,67.5000000000002,10|0,2:0|2:0,2:0:0:0:
210,276,42490,2,0,P|225:309|236:340,1,67.5000000000002,2|0,1:2|1:0,2:0:0:0:
172,82,42773,2,0,P|162:40|155:7,1,67.5000000000002,8|0,2:0|1:0,2:0:0:0:
347,167,43056,5,2,1:2:0:0:
347,167,43198,1,2,1:2:0:0:
255,205,43339,2,0,L|119:193,1,135,8|0,2:0|2:0,2:0:0:0:
57,255,43764,1,0,1:0:0:0:
259,359,43905,1,10,2:0:0:0:
309,266,44047,6,0,B|266:253|266:253|226:258|165:290,1,135,2|0,1:2|1:0,2:0:0:0:
402,342,44471,2,0,L|411:237,1,101.25,10|0,2:0|2:0,2:0:0:0:
475,187,44754,1,2,1:2:0:0:
297,114,44896,1,0,1:0:0:0:
440,44,45037,2,0,L|434:116,1,67.5000000000002,10|0,2:0|2:0,2:0:0:0:
309,266,45320,5,2,1:2:0:0:
309,266,45462,1,2,1:2:0:0:
223,216,45603,2,0,P|173:220|76:253,1,135,8|0,2:0|2:0,2:0:0:0:
148,179,46028,1,0,1:0:0:0:
242,336,46170,1,10,2:0:0:0:
309,266,46311,6,0,L|327:116,1,135,2|0,1:2|1:0,2:0:0:0:
203,16,46736,2,0,P|211:59|219:92,1,67.5000000000002,8|2,2:0|2:0,2:0:0:0:
306,294,47019,1,0,1:0:0:0:
163,157,47160,1,0,1:0:0:0:
308,99,47302,2,0,L|299:175,1,67.5000000000002,8|8,2:0|2:0,2:0:0:0:
371,352,47585,5,6,1:2:0:0:
371,352,47726,1,2,1:2:0:0:
291,294,47868,2,0,L|146:284,1,135,8|0,2:0|2:0,2:0:0:0:
70,322,48292,1,0,1:0:0:0:
211,104,48434,1,10,2:0:0:0:
131,63,48575,6,0,P|113:129|149:203,1,135,2|0,1:2|1:0,2:0:0:0:
273,278,49000,2,0,L|382:268,1,101.25,10|0,2:0|2:0,2:0:0:0:
433,323,49283,1,2,1:2:0:0:
460,120,49424,1,0,1:0:0:0:
494,272,49566,2,0,L|479:202,1,67.5000000000002,10|0,2:0|2:0,2:0:0:0:
309,68,49849,5,2,1:2:0:0:
309,68,49990,1,2,1:2:0:0:
395,30,50132,2,0,B|410:77|410:77|407:123|389:179,1,135,8|0,2:0|2:0,2:0:0:0:
350,239,50556,1,0,1:0:0:0:
106,180,50698,1,10,2:0:0:0:
211,233,50839,6,0,L|200:87,1,135,2|0,1:2|1:0,2:0:0:0:
123,278,51264,2,0,P|114:311|96:349,1,67.5000000000002,10|0,2:0|2:0,2:0:0:0:
301,153,51547,2,0,P|334:144|375:140,1,67.5000000000002,2|0,1:2|1:0,2:0:0:0:
104,62,51830,2,0,P|79:37|56:3,1,67.5000000000002,10|0,2:0|1:0,2:0:0:0:
212,291,52113,6,0,B|231:329|231:329|268:304|282:241,1,135,2|8,1:2|2:0,2:0:0:0:
245,27,52537,2,0,P|238:76|229:178,1,135,0|0,2:0|1:0,2:0:0:0:
455,282,52962,2,0,L|384:256,1,67.5000000000002,10|2,2:0|1:2,2:0:0:0:
91,265,53245,6,0,P|51:221|73:131,1,135,0|8,2:0|2:0,2:0:0:0:
342,88,53670,1,0,2:0:0:0:
342,88,53811,2,0,L|330:169,1,67.5000000000002,2|0,1:2|1:0,2:0:0:0:
255,362,54094,2,0,L|243:281,1,67.5000000000002,10|0,2:0|1:0,2:0:0:0:
126,72,54377,6,0,P|210:60|270:121,1,162,0|8,1:0|2:0,2:0:0:0:
169,315,54802,1,0,2:0:0:0:
120,167,54943,1,0,1:0:0:0:
243,198,55085,1,0,1:0:0:0:
167,351,55226,2,0,L|152:255,1,81.0000000000001,8|0,2:0|2:0,2:0:0:0:
39,118,55509,6,0,P|97:134|133:151,1,81.0000000000001,0|0,1:0|2:0,2:0:0:0:
324,289,55792,2,0,P|286:303|246:313,1,81.0000000000001,8|0,2:0|2:0,2:0:0:0:
231,63,56075,1,8,2:0:0:0:
189,249,56217,1,8,2:0:0:0:
111,33,56358,1,8,2:0:0:0:
181,286,56500,1,8,2:0:0:0:
404,134,56641,6,0,L|229:164,1,162,4|8,1:0|2:3,2:0:0:0:
131,316,57066,1,0,1:0:0:0:
92,207,57207,1,8,2:0:0:0:
205,227,57349,1,8,2:3:0:0:
117,312,57490,1,8,2:3:0:0:
102,197,57632,1,0,1:0:0:0:
208,240,57773,6,0,L|212:332,1,81.0000000000001,0|8,2:0|2:3,2:0:0:0:
316,363,58056,1,0,1:0:0:0:
420,313,58198,1,0,1:0:0:0:
434,200,58339,2,0,L|442:34,1,162,8|0,2:0|2:0,2:0:0:0:
340,111,58764,1,8,2:3:0:0:
340,111,58835,1,8,2:3:0:0:
340,111,58905,6,0,L|246:103,1,81.0000000000001,0|0,1:0|1:0,2:0:0:0:
168,174,59188,1,8,2:3:0:0:
10,138,59330,1,0,1:0:0:0:
98,209,59471,2,0,L|203:202,1,81.0000000000001,8|0,2:0|2:0,2:0:0:0:
269,272,59754,1,0,1:0:0:0:
220,72,59896,6,0,P|168:118|191:217,1,162,8|0,1:3|1:0,2:0:0:0:
280,251,60320,1,0,1:0:0:0:
374,187,60462,1,8,2:3:0:0:
194,177,60603,2,0,L|177:275,1,81.0000000000001,8|8,2:0|2:0,2:0:0:0:
81,86,60886,1,0,1:0:0:0:
120,338,61028,1,8,2:0:0:0:
44,151,61170,6,0,B|77:127|77:127|136:123|188:188,1,162,4|4,1:0|1:3,2:0:0:0:
249,262,61594,1,0,1:0:0:0:
353,249,61736,1,8,2:0:0:0:
255,281,61877,1,8,1:3:0:0:
222,380,62019,1,0,1:0:0:0:
169,198,62160,6,0,L|191:37,1,162,4|8,1:3|1:3,2:0:0:0:
76,186,62585,1,0,1:0:0:0:
263,113,62726,1,4,1:3:0:0:
156,26,62868,2,0,L|163:116,1,81.0000000000001,8|0,2:0|2:0,2:0:0:0:
192,354,63151,2,0,P|210:307|218:275,1,81.0000000000001,8|0,1:3|2:0,2:0:0:0:
342,47,63434,5,0,1:0:0:0:
342,47,63575,1,0,1:0:0:0:
342,47,63717,2,0,L|434:59,1,90,0|2,1:0|2:0,2:0:0:0:
467,277,64000,2,0,P|440:220|426:178,1,90,8|0,2:0|2:0,2:0:0:0:
227,125,64283,2,0,P|276:141|318:163,1,90,0|0,1:0|1:0,2:0:0:0:
485,314,64566,6,0,P|434:302|395:296,1,90,0|0,2:0|1:0,2:0:0:0:
96,338,64849,2,0,P|141:322|182:300,1,90,0|0,1:0|2:0,2:0:0:0:
252,106,65132,1,8,2:0:0:0:
140,231,65273,1,8,2:0:0:0:
314,301,65415,1,0,1:0:0:0:
214,24,65556,1,8,2:0:0:0:
108,244,65698,5,0,1:0:0:0:
108,244,65839,1,0,1:0:0:0:
220,203,65981,2,0,B|276:188|276:188|305:221|305:221|357:240|416:221|416:221|403:159,1,270.000000000001,0|0,1:0|2:0,2:0:0:0:
349,39,66688,6,0,B|313:18|313:18|294:62|329:125,1,135,2|2,2:0|2:0,2:0:0:0:
486,201,67113,2,0,L|476:290,1,67.5000000000002,0|2,2:0|2:0,2:0:0:0:
261,268,67396,2,0,L|271:348,1,67.5000000000002,0|0,1:0|1:0,2:0:0:0:
206,374,67608,1,0,1:0:0:0:
206,374,67679,1,8,2:0:0:0:
108,132,67820,1,0,1:0:0:0:
108,132,67891,1,0,1:0:0:0:
108,132,67962,6,0,L|252:156,1,135,4|0,1:0|2:0,2:0:0:0:
301,202,68245,2,0,P|324:156|335:99,1,90,8|0,2:0|2:0,2:0:0:0:
220,46,68528,1,2,1:2:0:0:
177,259,68670,1,0,1:0:0:0:
324,193,68811,1,8,2:0:0:0:
146,156,68953,6,0,L|135:343,1,180,2|0,1:2|1:0,2:0:0:0:
364,306,69377,2,0,P|321:291|277:280,1,90,8|2,2:0|2:0,2:0:0:0:
11,235,69660,2,0,L|116:222,1,90,0|0,1:0|1:0,2:0:0:0:
251,149,69943,1,10,2:0:0:0:
61,104,70085,1,0,1:0:0:0:
113,305,70226,6,0,B|145:268|145:268|157:167,1,135,2|0,1:2|2:0,2:0:0:0:
180,160,70509,2,0,P|168:108|162:60,1,90,8|0,2:0|2:0,2:0:0:0:
268,140,70792,1,0,1:0:0:0:
69,96,70934,1,0,1:0:0:0:
202,295,71075,1,10,2:0:0:0:
336,82,71217,6,0,P|254:53|187:106,1,180,2|0,1:2|1:0,2:0:0:0:
247,311,71641,2,0,B|279:293|279:293|315:307|383:308,1,135,10|0,2:0|2:0,2:0:0:0:
406,292,71924,1,2,1:2:0:0:
275,160,72066,1,0,1:0:0:0:
436,276,72207,1,10,2:0:0:0:
232,347,72349,1,2,1:2:0:0:
310,91,72490,6,0,L|295:273,1,180,4|8,1:2|2:0,2:0:0:0:
295,270,73056,1,0,1:0:0:0:
144,162,73198,2,0,P|154:212|168:253,1,90,0|10,1:0|2:0,2:0:0:0:
363,347,73481,6,0,B|393:299|393:299|383:163,1,180,2|0,1:2|1:0,2:0:0:0:
278,26,73905,2,0,P|264:83|333:147,1,135,10|0,2:0|2:0,2:0:0:0:
433,84,74188,2,0,L|326:65,1,90,2|0,1:2|1:0,2:0:0:0:
97,63,74471,1,10,2:0:0:0:
235,103,74613,1,0,1:0:0:0:
83,96,74754,6,0,B|36:103|36:103|10:174|62:239,1,180,2|8,1:2|2:0,2:0:0:0:
261,223,75179,1,2,2:0:0:0:
112,191,75320,2,0,L|100:294,1,90,0|0,1:0|1:0,2:0:0:0:
335,240,75603,1,10,2:0:0:0:
191,185,75745,6,0,P|257:209|358:139,1,180,4|0,1:2|1:0,2:0:0:0:
244,15,76170,2,0,L|233:108,1,90,8|0,2:0|2:0,2:0:0:0:
253,330,76453,1,0,1:0:0:0:
165,159,76594,1,0,1:0:0:0:
328,185,76736,1,10,2:0:0:0:
256,360,76877,1,10,2:0:0:0:
98,164,77019,6,0,L|245:153,1,135,4|0,1:0|2:0,2:0:0:0:
292,213,77302,1,10,2:0:0:0:
408,29,77443,2,0,P|343:53|308:74,1,90,2|0,2:0|1:0,2:0:0:0:
232,270,77726,1,0,1:0:0:0:
453,159,77868,2,0,L|349:147,1,90,10|0,2:0|1:0,2:0:0:0:
158,3,78151,6,0,P|136:48|115:112,1,90,2|0,2:0|1:0,2:0:0:0:
136,236,78434,1,10,2:0:0:0:
224,155,78575,2,0,L|44:169,1,180,2|0,1:2|1:0,2:0:0:0:
319,234,79000,2,0,P|371:249|421:258,1,90,10|8,2:0|2:0,2:0:0:0:
135,260,79283,6,0,P|90:207|121:96,1,180,2|8,1:2|2:0,2:0:0:0:
413,19,79707,2,0,B|468:34|468:34|482:105|429:148,1,180,2|2,1:2|1:2,2:0:0:0:
202,306,80132,1,8,2:0:0:0:
331,60,80273,6,0,B|371:99|371:99|348:243,1,180,6|0,1:2|1:0,2:0:0:0:
103,209,80698,2,0,L|263:229,1,148.5,10|0,2:0|2:0,2:0:0:0:
343,343,80981,2,0,P|282:339|246:295,1,108,2|0,1:2|1:0,2:0:0:0:
299,70,81264,1,10,2:0:0:0:
319,269,81405,1,0,1:0:0:0:
29,173,81547,6,0,P|95:165|181:146,1,135,6|0,1:2|2:0,2:0:0:0:
209,87,81830,2,0,L|199:194,1,90,8|0,2:0|2:0,2:0:0:0:
248,344,82113,1,0,1:0:0:0:
103,209,82254,1,0,1:0:0:0:
306,180,82396,1,8,2:0:0:0:
230,367,82537,6,0,B|208:352|181:345|181:345|212:292|206:202,1,180,0|0,1:0|1:0,2:0:0:0:
103,15,82962,2,0,P|113:66|126:113,1,90,8|0,2:0|2:0,2:0:0:0:
293,213,83245,1,0,1:0:0:0:
103,209,83386,1,0,1:0:0:0:
324,143,83528,2,0,L|311:259,1,90,10|0,2:0|1:0,2:0:0:0:
443,358,83811,6,0,P|457:315|462:259,1,90,2|0,1:2|2:0,2:0:0:0:
262,74,84094,2,0,P|280:115|306:158,1,90,14|0,2:0|2:0,2:0:0:0:
454,174,84377,1,2,1:2:0:0:
230,78,84519,1,4,1:2:0:0:
371,264,84660,1,10,2:0:0:0:
312,27,84802,6,0,L|291:215,1,180,2|0,1:2|1:0,2:0:0:0:
183,353,85226,2,0,P|160:305|162:246,1,90,10|8,2:0|2:0,2:0:0:0:
344,154,85509,1,10,2:0:0:0:
259,328,85651,1,0,1:0:0:0:
158,92,85792,1,10,2:0:0:0:
363,243,85934,1,8,2:0:0:0:
363,243,86004,1,8,2:0:0:0:
363,243,86075,6,0,B|273:236|273:236|219:261,1,135,4|0,1:0|2:0,2:0:0:0:
184,314,86358,2,0,P|136:302|91:280,1,90,8|0,2:0|2:0,2:0:0:0:
123,77,86641,1,2,1:2:0:0:
172,202,86783,1,0,1:0:0:0:
10,149,86924,2,0,L|119:156,1,90,8|2,2:0|1:2,2:0:0:0:
339,149,87207,6,0,P|290:161|241:182,1,90,0|0,2:0|1:0,2:0:0:0:
143,348,87490,2,0,B|170:311|170:311|178:270|165:206,1,135,8|0,2:0|2:0,2:0:0:0:
99,154,87773,1,0,1:0:0:0:
314,120,87915,1,0,1:0:0:0:
204,255,88056,2,0,L|212:158,1,90,10|0,2:0|1:0,2:0:0:0:
385,48,88339,6,0,P|406:91|411:150,1,90,2|0,1:2|1:0,2:0:0:0:
376,314,88622,2,0,P|327:276|357:163,1,180,8|0,2:0|1:0,2:0:0:0:
474,296,89047,1,0,1:0:0:0:
278,246,89188,1,10,2:0:0:0:
406,100,89330,6,0,L|391:253,1,135,2|0,1:2|2:0,2:0:0:0:
424,304,89613,1,0,1:0:0:0:
258,262,89754,2,0,P|239:210|230:156,1,90,10|0,2:0|2:0,2:0:0:0:
340,18,90037,2,0,L|329:115,1,90,2|0,1:2|1:0,2:0:0:0:
92,362,90320,2,0,L|103:265,1,90,10|0,2:0|1:0,2:0:0:0:
190,38,90603,6,0,P|120:36|75:146,1,180,6|8,1:2|2:0,2:0:0:0:
204,298,91028,1,0,2:0:0:0:
243,124,91170,2,0,L|147:113,1,90,0|0,1:0|1:0,2:0:0:0:
224,274,91453,1,10,2:0:0:0:
276,97,91594,6,0,B|347:88|347:88|383:93|383:93|462:80,1,180,2|0,1:2|1:0,2:0:0:0:
499,244,92019,2,0,L|352:218,1,135,8|0,2:0|2:0,2:0:0:0:
307,277,92302,1,0,1:0:0:0:
346,116,92443,1,0,1:0:0:0:
321,318,92585,1,10,2:0:0:0:
218,133,92726,1,0,1:0:0:0:
89,275,92868,6,0,B|135:292|135:292|246:273,1,135,6|0,1:2|2:0,2:0:0:0:
289,301,93151,2,0,P|305:248|311:207,1,90,8|0,2:0|2:0,2:0:0:0:
237,22,93434,1,0,1:0:0:0:
229,194,93575,1,0,1:0:0:0:
361,146,93717,1,10,2:0:0:0:
184,77,93858,6,0,L|197:273,1,180,6|0,1:2|1:0,2:0:0:0:
91,354,94283,2,0,P|69:310|67:262,1,90,10|0,2:0|2:0,2:0:0:0:
275,187,94566,2,0,P|297:231|299:279,1,90,2|0,1:2|1:0,2:0:0:0:
189,279,94849,1,14,2:0:0:0:
209,123,94990,1,0,1:0:0:0:
277,297,95132,6,0,P|212:283|81:265,1,180,4|8,1:0|2:0,2:0:0:0:
100,265,95698,1,0,1:0:0:0:
70,82,95839,2,0,P|58:123|55:179,1,90,0|8,1:0|2:0,2:0:0:0:
166,175,96122,6,0,B|223:157|223:157|281:168|344:152,1,180,0|0,1:0|1:0,2:0:0:0:
502,103,96547,2,0,L|405:89,1,90,10|0,2:0|2:0,2:0:0:0:
291,290,96830,2,0,P|352:268|387:250,1,90,2|0,1:2|1:0,2:0:0:0:
309,40,97113,2,0,L|321:130,1,90,10|0,2:0|1:0,2:0:0:0:
280,339,97396,5,10,1:2:0:0:
374,256,97537,1,0,1:0:0:0:
257,153,97679,1,2,1:2:0:0:
267,369,97820,1,10,1:2:0:0:
330,103,97962,2,0,L|338:12,1,90,0|0,1:0|1:0,2:0:0:0:
186,215,98245,1,8,1:0:0:0:
403,164,98386,6,0,B|445:151|445:151|462:91|423:28,1,162,4|0,1:0|2:0,2:0:0:0:
259,48,98953,1,8,2:0:0:0:
259,48,99023,1,8,2:0:0:0:
259,48,99094,1,8,1:0:0:0:
282,257,99236,1,8,2:0:0:0:
172,116,99377,1,8,2:0:0:0:
345,71,99519,1,8,2:0:0:0:
270,284,99660,5,4,1:0:0:0:
30,251,99943,2,0,P|107:201|198:230,1,180,8|0,2:0|1:0,2:0:0:0:
272,359,100368,1,0,1:0:0:0:
236,163,100509,1,8,2:0:0:0:
405,326,100651,6,0,L|214:293,1,180,0|0,1:0|1:0,2:0:0:0:
20,177,101075,2,0,P|62:163|107:155,1,90,8|0,2:0|2:0,2:0:0:0:
207,325,101358,1,0,1:0:0:0:
80,243,101500,1,0,1:0:0:0:
196,79,101641,2,0,L|186:183,1,90,8|0,2:0|2:0,2:0:0:0:
338,292,101924,6,0,P|348:248|338:195,1,90,0|0,1:0|2:0,2:0:0:0:
221,48,102207,2,0,B|210:172|210:172|237:229,1,180,8|0,2:0|1:0,2:0:0:0:
435,108,102632,2,0,L|337:89,1,90,0|8,1:0|2:0,2:0:0:0:
170,170,102915,6,0,P|108:204|28:177,1,135,0|0,1:0|2:0,2:0:0:0:
10,125,103198,1,0,1:0:0:0:
138,36,103339,2,0,L|132:85,1,45,8|2,2:0|2:0,2:0:0:0:
260,159,103481,1,2,2:0:0:0:
260,159,103552,1,2,2:0:0:0:
260,159,103622,2,0,L|247:262,1,90,2|0,1:2|1:0,2:0:0:0:
387,370,103905,1,8,2:0:0:0:
333,195,104047,1,0,1:0:0:0:
156,292,104188,6,0,P|201:287|258:269,1,90,6|0,1:2|2:0,2:0:0:0:
368,95,104471,2,0,L|345:291,1,180,8|0,2:0|1:0,2:0:0:0:
432,337,104896,1,0,1:0:0:0:
285,178,105037,1,10,2:0:0:0:
471,67,105179,6,0,B|465:132|465:132|445:179|445:179|437:248,1,180,0|0,1:0|1:0,2:0:0:0:
274,347,105603,2,0,P|222:334|178:314,1,90,8|0,2:0|2:0,2:0:0:0:
221,113,105886,1,0,1:0:0:0:
253,265,106028,1,0,1:0:0:0:
43,172,106170,2,0,L|155:183,1,90,8|0,2:0|2:0,2:0:0:0:
428,141,106453,5,2,1:2:0:0:
296,77,106594,1,0,2:0:0:0:
345,282,106736,2,0,L|354:178,1,90,8|2,2:0|2:0,2:0:0:0:
265,109,107019,1,0,1:0:0:0:
437,109,107160,1,0,1:0:0:0:
259,150,107302,1,8,2:0:0:0:
399,35,107443,1,2,1:2:0:0:
462,205,107585,5,0,1:0:0:0:
459,231,107655,1,0,2:0:0:0:
456,257,107726,1,0,1:0:0:0:
454,284,107797,1,0,1:0:0:0:
452,311,107868,1,8,1:0:0:0:
352,192,108009,1,0,1:0:0:0:
330,365,108151,1,2,1:2:0:0:
413,292,108292,1,0,1:0:0:0:
262,185,108434,2,0,L|271:287,1,90,8|8,2:0|2:0,2:0:0:0:
71,333,108717,5,6,1:2:0:0:
71,333,108858,1,2,1:2:0:0:
138,270,109000,2,0,B|170:239|170:239|180:183|140:131,1,135,8|0,2:0|2:0,2:0:0:0:
75,113,109424,1,0,1:0:0:0:
307,50,109566,1,10,2:0:0:0:
165,118,109707,6,0,L|323:134,1,135,2|0,1:2|1:0,2:0:0:0:
446,190,110132,2,0,P|461:233|429:293,1,101.25,10|0,2:0|2:0,2:0:0:0:
385,329,110415,1,2,1:2:0:0:
309,157,110556,1,0,1:0:0:0:
427,105,110698,2,0,L|415:194,1,67.5000000000002,10|0,2:0|2:0,2:0:0:0:
296,340,110981,5,2,1:2:0:0:
296,340,111122,1,2,1:2:0:0:
234,264,111264,2,0,P|186:240|108:281,1,135,8|0,2:0|2:0,2:0:0:0:
40,234,111688,1,0,1:0:0:0:
211,373,111830,1,10,2:0:0:0:
296,340,111971,6,0,B|273:293|273:293|282:189,1,135,2|0,1:2|1:0,2:0:0:0:
420,64,112396,2,0,P|399:113|385:139,1,67.5000000000002,10|0,2:0|2:0,2:0:0:0:
167,272,112679,2,0,P|208:265|242:263,1,67.5000000000002,2|0,1:2|1:0,2:0:0:0:
491,241,112962,2,0,P|457:238|424:232,1,67.5000000000002,8|0,2:0|1:0,2:0:0:0:
239,146,113245,5,2,1:2:0:0:
239,146,113386,1,2,1:2:0:0:
314,106,113528,2,0,P|329:173|292:249,1,135,8|0,2:0|2:0,2:0:0:0:
249,293,113953,1,0,1:0:0:0:
428,177,114094,1,10,2:0:0:0:
339,222,114236,6,0,L|353:367,1,135,2|0,1:2|1:0,2:0:0:0:
218,285,114660,2,0,B|179:302|179:302|104:295,1,101.25,10|0,2:0|2:0,2:0:0:0:
49,334,114943,1,2,1:2:0:0:
30,159,115085,1,0,1:0:0:0:
166,224,115226,2,0,L|94:218,1,67.5000000000002,10|0,2:0|2:0,2:0:0:0:
229,363,115509,5,2,1:2:0:0:
229,363,115651,1,2,1:2:0:0:
293,297,115792,2,0,L|279:150,1,135,8|0,2:0|2:0,2:0:0:0:
355,92,116217,1,0,1:0:0:0:
175,241,116358,1,10,2:0:0:0:
101,132,116500,6,0,P|148:89|241:107,1,135,2|0,1:2|1:0,2:0:0:0:
336,200,116924,1,8,2:0:0:0:
189,251,117066,1,2,2:0:0:0:
240,107,117207,2,0,L|233:195,1,67.5000000000002,0|0,1:0|1:0,2:0:0:0:
351,359,117490,2,0,L|344:271,1,67.5000000000002,8|8,2:0|2:0,2:0:0:0:
424,111,117773,5,6,1:2:0:0:
424,111,117915,1,0,2:0:0:0:
296,67,119471,2,0,L|298:39,6,16.875,2|0|0|0|0|0|0,1:2|2:0|2:0|2:0|1:0|2:0|2:0,2:0:0:0:
240,132,119754,2,0,L|255:239,1,101.25,10|0,2:0|2:0,2:0:0:0:
211,297,120037,5,6,1:2:0:0:
326,163,120179,1,2,1:2:0:0:
222,107,120320,1,8,2:0:0:0:
210,328,120462,2,0,L|356:314,1,135,4|0,2:0|1:0,2:0:0:0:
500,345,120886,1,10,2:0:0:0:
415,164,121028,6,0,P|393:214|436:288,1,135,2|0,1:2|1:0,2:0:0:0:
500,110,121453,2,0,P|509:65|512:39,1,67.5000000000002,10|0,2:0|2:0,2:0:0:0:
281,207,121736,2,0,P|319:200|351:191,1,67.5000000000002,2|0,1:2|1:0,2:0:0:0:
500,345,122019,2,0,P|467:336|434:330,1,67.5000000000002,10|0,2:0|1:0,2:0:0:0:
223,344,122302,6,0,B|129:331|129:331|66:345,1,135,2|8,1:2|2:0,2:0:0:0:
0,139,122726,2,0,P|57:103|129:126,1,135,0|0,2:0|1:0,2:0:0:0:
299,238,123151,2,0,L|229:251,1,67.5000000000002,10|2,2:0|1:2,2:0:0:0:
222,38,123434,6,0,B|270:21|270:21|295:55|278:112,1,135,0|8,2:0|2:0,2:0:0:0:
399,332,123858,1,0,2:0:0:0:
399,332,124000,2,0,L|391:251,1,67.5000000000002,2|0,1:2|1:0,2:0:0:0:
480,68,124283,2,0,L|472:149,1,67.5000000000002,10|0,2:0|1:0,2:0:0:0:
316,338,124566,6,0,P|257:357|146:356,1,162,0|8,1:0|2:0,2:0:0:0:
20,225,124990,1,0,2:0:0:0:
188,275,125132,1,0,1:0:0:0:
6,259,125273,1,0,1:0:0:0:
158,119,125415,2,0,L|146:219,1,81.0000000000001,8|0,2:0|2:0,2:0:0:0:
294,298,125698,6,0,P|305:252|308:209,1,81.0000000000001,0|0,1:0|2:0,2:0:0:0:
229,10,125981,2,0,P|233:50|242:89,1,81.0000000000001,8|0,2:0|2:0,2:0:0:0:
461,177,126264,1,8,2:0:0:0:
229,173,126405,1,8,2:0:0:0:
391,285,126547,1,8,2:0:0:0:
387,95,126688,1,8,2:0:0:0:
199,156,126830,6,0,L|183:321,1,162,4|8,1:0|2:3,2:0:0:0:
44,264,127254,1,0,1:0:0:0:
154,239,127396,1,8,2:0:0:0:
58,177,127537,1,8,2:3:0:0:
146,251,127679,1,8,2:3:0:0:
140,138,127820,6,0,L|308:149,1,162,0|8,1:0|2:3,2:0:0:0:
402,98,128245,1,0,1:0:0:0:
369,206,128386,1,0,1:0:0:0:
457,278,128528,2,0,L|446:360,1,81.0000000000001,8|0,2:0|2:0,2:0:0:0:
340,196,128811,2,0,L|329:114,1,81.0000000000001,0|8,2:0|2:3,2:0:0:0:
268,69,129023,1,8,2:3:0:0:
268,69,129094,6,0,P|223:61|171:44,1,81.0000000000001,0|0,1:0|1:0,2:0:0:0:
28,160,129377,2,0,L|124:141,1,81.0000000000001,8|0,2:3|1:0,2:0:0:0:
168,296,129660,1,8,2:0:0:0:
276,268,129802,1,0,2:0:0:0:
198,189,129943,1,0,1:0:0:0:
179,302,130085,6,0,B|242:312|242:312|267:305|267:305|350:316,1,162,8|0,1:3|1:0,2:0:0:0:
483,359,130509,2,0,P|471:314|457:278,1,81.0000000000001,0|8,1:0|2:3,2:0:0:0:
349,153,130792,1,8,2:0:0:0:
324,348,130934,1,8,2:0:0:0:
477,276,131075,2,0,L|484:182,1,81.0000000000001,0|8,1:0|2:0,2:0:0:0:
277,82,131358,5,4,1:0:0:0:
277,82,131500,1,8,1:3:0:0:
348,193,131641,2,0,P|371:144|382:105,1,81.0000000000001,4|0,1:3|1:0,2:0:0:0:
185,25,131924,2,0,L|198:113,1,81.0000000000001,8|8,2:0|1:3,2:0:0:0:
222,252,132207,1,0,1:0:0:0:
23,193,132349,6,0,P|67:162|178:193,1,162,4|8,1:3|1:3,2:0:0:0:
55,309,132773,1,0,1:0:0:0:
91,156,132915,1,4,1:3:0:0:
217,245,133056,2,0,L|211:344,1,81.0000000000001,8|0,2:0|2:0,2:0:0:0:
402,275,133339,2,0,P|345:281|305:291,1,81.0000000000001,8|0,1:3|2:0,2:0:0:0:
172,168,133622,6,0,P|226:156|266:142,1,90,0|0,1:0|1:0,2:0:0:0:
441,195,133905,2,0,L|339:178,1,90,0|2,1:0|2:0,2:0:0:0:
213,30,134188,2,0,P|240:72|275:113,1,90,8|0,2:0|2:0,2:0:0:0:
313,338,134471,2,0,P|329:291|340:242,1,90,0|0,1:0|1:0,2:0:0:0:
434,59,134754,6,0,P|388:75|349:94,1,90,0|0,2:0|1:0,2:0:0:0:
99,216,135037,2,0,P|139:235|182:249,1,90,0|0,1:0|2:0,2:0:0:0:
325,170,135320,1,8,2:0:0:0:
191,111,135462,1,8,2:0:0:0:
234,344,135603,1,0,1:0:0:0:
350,92,135745,1,8,2:0:0:0:
231,256,135886,5,0,1:0:0:0:
231,256,136028,1,0,1:0:0:0:
316,292,136170,2,0,B|360:271|360:271|396:285|444:291|444:291|458:254,1,162,0|0,1:0|1:0,2:0:0:0:
487,159,136736,1,8,2:0:0:0:
246,347,137019,5,0,1:0:0:0:
346,179,137160,1,10,2:0:0:0:
346,179,137231,1,8,2:0:0:0:
346,179,137302,1,8,2:0:0:0:
197,270,137443,1,0,1:0:0:0:
308,95,137585,1,2,1:2:0:0:
374,272,137726,1,0,1:0:0:0:
153,198,137868,1,10,2:0:0:0:
328,70,138009,1,0,1:0:0:0:
328,70,138080,1,0,1:0:0:0:
328,70,138151,6,0,B|356:101|356:101|338:212,1,135,4|0,1:0|2:0,2:0:0:0:
323,281,138434,2,0,P|376:265|414:232,1,90,8|0,2:0|2:0,2:0:0:0:
252,88,138717,1,2,1:2:0:0:
234,303,138858,1,0,1:0:0:0:
352,173,139000,1,8,2:0:0:0:
204,288,139141,6,0,L|24:268,1,180,2|0,1:2|1:0,2:0:0:0:
16,73,139566,2,0,P|59:93|97:122,1,90,8|2,2:0|2:0,2:0:0:0:
135,323,139849,1,0,1:0:0:0:
34,175,139990,1,0,1:0:0:0:
269,237,140132,2,0,L|164:254,1,90,10|0,2:0|1:0,2:0:0:0:
331,341,140415,6,0,P|400:344|475:358,1,135,2|0,1:2|2:0,2:0:0:0:
489,282,140698,2,0,P|497:238|494:179,1,90,8|0,2:0|2:0,2:0:0:0:
433,42,140981,1,0,1:0:0:0:
379,255,141122,1,0,1:0:0:0:
512,180,141264,1,10,2:0:0:0:
392,36,141405,6,0,B|351:55|351:55|330:122|367:187,1,180,2|0,1:2|1:0,2:0:0:0:
255,354,141830,2,0,L|273:215,1,135,10|0,2:0|2:0,2:0:0:0:
213,136,142113,1,2,1:2:0:0:
114,282,142254,1,0,1:0:0:0:
301,293,142396,1,10,2:0:0:0:
193,154,142537,1,2,1:2:0:0:
45,320,142679,6,0,P|119:360|186:308,1,180,4|8,1:2|2:0,2:0:0:0:
186,308,143245,1,0,1:0:0:0:
118,123,143386,2,0,L|130:237,1,90,0|10,1:0|2:0,2:0:0:0:
307,291,143670,6,0,P|398:270|494:274,1,180,2|0,1:2|1:0,2:0:0:0:
426,44,144094,2,0,L|409:182,1,135,10|0,2:0|2:0,2:0:0:0:
357,234,144377,1,2,1:2:0:0:
496,126,144519,1,0,1:0:0:0:
332,54,144660,2,0,L|341:147,1,90,10|0,2:0|1:0,2:0:0:0:
249,317,144943,6,0,B|199:345|199:345|153:302|173:218,1,180,2|8,1:2|2:0,2:0:0:0:
235,61,145368,1,2,2:0:0:0:
338,249,145509,2,0,L|227:234,1,90,0|0,1:0|1:0,2:0:0:0:
97,285,145792,1,10,2:0:0:0:
203,28,145934,6,0,L|180:218,1,180,4|0,1:2|1:0,2:0:0:0:
392,323,146358,2,0,P|415:281|426:230,1,90,8|0,2:0|2:0,2:0:0:0:
406,86,146641,1,0,1:0:0:0:
233,152,146783,1,0,1:0:0:0:
432,218,146924,1,10,2:0:0:0:
237,122,147066,1,10,2:0:0:0:
376,15,147207,6,0,L|351:169,1,135,4|0,1:0|2:0,2:0:0:0:
301,207,147490,1,10,2:0:0:0:
63,169,147632,2,0,P|105:147|160:149,1,90,2|0,2:0|1:0,2:0:0:0:
224,350,147915,1,0,1:0:0:0:
121,223,148056,2,0,L|104:324,1,90,10|0,2:0|1:0,2:0:0:0:
335,308,148339,6,0,P|349:261|353:203,1,90,2|0,2:0|1:0,2:0:0:0:
178,65,148622,1,10,2:0:0:0:
271,263,148764,2,0,L|454:241,1,180,2|0,1:2|1:0,2:0:0:0:
434,37,149188,2,0,P|418:83|407:128,1,90,10|8,2:0|2:0,2:0:0:0:
355,357,149471,6,0,B|307:344|307:344|246:369|166:366,1,180,2|8,1:2|2:0,2:0:0:0:
46,111,149896,2,0,P|98:56|215:89,1,180,2|2,1:2|1:2,2:0:0:0:
291,305,150320,1,8,2:0:0:0:
91,349,150462,6,0,B|55:314|55:314|49:251|84:182,1,180,6|0,1:2|1:0,2:0:0:0:
286,41,150886,2,0,L|266:193,1,148.5,10|0,2:0|2:0,2:0:0:0:
331,330,151170,2,0,P|356:274|345:217,1,108,2|0,1:2|1:0,2:0:0:0:
165,88,151453,1,10,2:0:0:0:
217,310,151594,1,0,1:0:0:0:
409,182,151736,6,0,L|251:203,1,135,6|0,1:2|2:0,2:0:0:0:
205,227,152019,2,0,P|185:174|180:131,1,90,8|0,2:0|2:0,2:0:0:0:
331,47,152302,1,0,1:0:0:0:
314,273,152443,1,0,1:0:0:0:
290,67,152585,1,8,2:0:0:0:
447,103,152726,6,0,B|456:176|456:176|440:208|440:208|451:289,1,180,0|0,1:0|1:0,2:0:0:0:
273,372,153151,2,0,L|287:274,1,90,8|0,2:0|2:0,2:0:0:0:
356,130,153434,1,0,1:0:0:0:
431,301,153575,1,0,1:0:0:0:
253,280,153717,1,10,2:0:0:0:
379,149,153858,1,0,1:0:0:0:
319,341,154000,6,0,P|275:364|208:368,1,90,2|0,1:2|2:0,2:0:0:0:
24,256,154283,2,0,L|120:273,1,90,14|0,2:0|2:0,2:0:0:0:
257,99,154566,1,2,1:2:0:0:
200,286,154707,1,4,1:2:0:0:
166,57,154849,1,10,2:0:0:0:
355,102,154990,6,0,B|340:233|340:233|304:277,1,180,2|0,1:2|1:0,2:0:0:0:
105,232,155415,1,10,2:0:0:0:
263,194,155556,1,8,2:0:0:0:
59,319,155698,1,10,2:0:0:0:
92,138,155839,1,0,1:0:0:0:
225,259,155981,1,10,2:0:0:0:
23,196,156122,1,8,2:0:0:0:
23,196,156193,1,8,2:0:0:0:
23,196,156264,6,0,L|9:37,1,135,4|0,1:0|2:0,2:0:0:0:
110,15,156547,2,0,P|101:62|89:112,1,90,8|0,2:0|2:0,2:0:0:0:
131,313,156830,1,2,1:2:0:0:
246,145,156971,1,0,1:0:0:0:
63,182,157113,1,8,2:0:0:0:
146,346,157254,6,0,B|208:335|208:335|247:348|335:348,1,180,2|0,1:2|1:0,2:0:0:0:
433,274,157679,2,0,L|416:140,1,135,8|0,2:0|2:0,2:0:0:0:
459,71,157962,1,0,1:0:0:0:
338,186,158103,1,0,1:0:0:0:
507,295,158245,2,0,L|410:306,1,90,10|0,2:0|1:0,2:0:0:0:
130,247,158528,6,0,P|175:229|223:222,1,90,2|0,1:2|1:0,2:0:0:0:
446,341,158811,2,0,L|247:317,1,180,8|0,2:0|1:0,2:0:0:0:
107,171,159236,1,0,1:0:0:0:
134,343,159377,1,10,2:0:0:0:
177,114,159519,6,0,P|88:86|24:150,1,180,2|0,1:2|1:0,2:0:0:0:
286,258,159943,2,0,B|332:267|332:267|377:260|418:227,1,135,10|0,2:0|2:0,2:0:0:0:
381,71,160226,2,0,L|368:170,1,90,2|0,1:2|1:0,2:0:0:0:
495,358,160509,2,0,L|482:259,1,90,10|0,2:0|1:0,2:0:0:0:
224,27,160792,6,0,P|201:110|260:173,1,180,6|8,1:2|2:0,2:0:0:0:
468,126,161217,1,0,2:0:0:0:
291,90,161358,2,0,L|280:190,1,90,0|0,1:0|1:0,2:0:0:0:
221,318,161641,1,10,2:0:0:0:
401,215,161783,6,0,B|346:226|346:226|314:217|314:217|223:233,1,180,2|0,1:2|1:0,2:0:0:0:
35,275,162207,2,0,B|80:258|80:258|128:268|169:303,1,135,8|0,2:0|2:0,2:0:0:0:
208,370,162490,1,0,1:0:0:0:
174,163,162632,1,0,1:0:0:0:
292,278,162773,1,10,2:0:0:0:
84,342,162915,1,0,1:0:0:0:
134,132,163056,6,0,L|299:146,1,135,6|0,1:2|2:0,2:0:0:0:
327,202,163339,2,0,P|346:153|354:113,1,90,8|0,2:0|2:0,2:0:0:0:
178,28,163622,1,0,1:0:0:0:
206,217,163764,1,0,1:0:0:0:
344,89,163905,1,10,2:0:0:0:
140,57,164047,6,0,B|87:69|87:69|72:136|125:199,1,180,6|0,1:2|1:0,2:0:0:0:
303,360,164471,2,0,B|285:318|285:318|302:272|306:224,1,135,10|0,2:0|2:0,2:0:0:0:
228,196,164754,1,2,1:2:0:0:
397,192,164896,1,0,1:0:0:0:
264,39,165037,2,0,L|279:141,1,90,14|0,2:0|1:0,2:0:0:0:
197,337,165320,6,0,P|146:313|145:193,1,180,4|8,1:0|2:0,2:0:0:0:
138,201,165886,1,0,1:0:0:0:
281,283,166028,2,0,L|381:288,1,90,0|8,1:0|2:0,2:0:0:0:
507,165,166311,6,0,P|446:144|355:204,1,180,0|0,1:0|1:0,2:0:0:0:
424,365,166736,2,0,P|446:317|456:273,1,90,10|0,2:0|2:0,2:0:0:0:
372,91,167019,2,0,L|358:195,1,90,2|0,1:2|1:0,2:0:0:0:
233,321,167302,2,0,P|291:312|335:296,1,90,10|0,2:0|1:0,2:0:0:0:
454,116,167585,5,10,1:2:0:0:
269,182,167726,1,0,1:0:0:0:
367,363,167868,1,2,1:2:0:0:
372,91,168009,1,10,1:2:0:0:
188,232,168151,2,0,L|169:327,1,90,0|0,1:0|1:0,2:0:0:0:
359,180,168434,1,8,1:0:0:0:
98,198,168575,6,0,B|59:227|59:227|52:288|86:342,1,162,4|0,1:0|2:0,2:0:0:0:
281,300,169141,1,8,2:0:0:0:
281,300,169212,1,8,2:0:0:0:
281,300,169283,1,8,1:0:0:0:
140,270,169424,1,8,2:0:0:0:
365,234,169566,1,8,2:0:0:0:
200,329,169707,1,8,2:0:0:0:
242,94,169849,5,4,1:2:0:0:
242,94,169990,2,0,B|263:138|263:138|247:234,1,135,4|8,1:2|1:3,2:0:0:0:
365,344,170415,2,0,L|348:197,1,135,8|8,1:0|1:3,2:0:0:0:
457,52,170839,6,0,P|445:95|431:127,1,67.5000000000002,8|0,1:3|1:0,2:0:0:0:
270,286,171122,1,4,1:3:0:0:
270,286,171264,2,0,P|253:242|246:209,1,67.5000000000002,4|0,1:3|2:0,2:0:0:0:
29,227,171547,2,0,P|90:218|153:177,1,135,8|0,1:0|1:0,2:0:0:0:
203,26,172113,5,8,1:3:0:0:
203,26,172254,1,0,1:0:0:0:
318,133,172396,2,0,L|228:126,1,67.5000000000002,4|0,1:3|1:0,2:0:0:0:
174,227,172679,2,0,P|187:269|196:369,1,135,8|0,1:0|1:0,2:0:0:0:
65,222,173103,6,0,L|72:144,1,67.5000000000002,8|0,1:3|2:0,2:0:0:0:
251,58,173386,1,8,1:0:0:0:
251,58,173528,2,0,L|244:136,1,67.5000000000002,0|0,1:0|1:0,2:0:0:0:
314,323,173811,2,0,L|321:245,1,67.5000000000002,8|0,1:0|1:0,2:0:0:0:
494,142,174094,2,0,P|456:153|420:169,1,67.5000000000002,4|8,1:2|1:2,2:0:0:0:
203,229,174377,5,4,1:0:0:0:
203,229,174519,2,0,L|348:242,1,135,0|8,1:0|1:3,2:0:0:0:
508,311,174943,2,0,P|467:351|383:338,1,135,8|8,1:0|1:3,2:0:0:0:
273,196,175368,6,0,L|266:113,1,67.5000000000002,8|0,1:3|1:0,2:0:0:0:
40,29,175651,1,4,1:3:0:0:
40,29,175792,2,0,P|26:77|19:115,1,67.5000000000002,4|0,1:3|2:0,2:0:0:0:
133,289,176075,2,0,B|146:252|146:252|138:147,1,135,8|8,1:0|1:3,2:0:0:0:
381,70,176641,5,4,1:3:0:0:
381,70,176783,1,0,1:0:0:0:
446,135,176924,2,0,L|515:122,1,67.5000000000002,8|4,1:3|1:2,2:0:0:0:
423,317,177207,2,0,P|381:278|389:192,1,135,8|0,1:0|1:0,2:0:0:0:
290,49,177632,6,0,P|255:48|203:38,1,67.5000000000002,0|8,1:0|2:0,2:0:0:0:
38,157,177915,1,8,1:3:0:0:
38,157,178056,2,0,P|73:156|125:146,1,67.5000000000002,4|0,1:3|1:0,2:0:0:0:
293,76,178339,1,8,1:0:0:0:
279,177,178481,1,8,1:3:0:0:
336,56,178622,1,4,1:2:0:0:
322,157,178764,1,8,1:0:0:0:
196,101,178905,5,4,1:0:0:0:
402,168,179047,1,8,1:3:0:0:
254,274,179188,2,0,L|249:188,1,67.5000000000002,8|0,1:3|1:0,2:0:0:0:
401,16,179471,2,0,P|391:58|380:93,1,67.5000000000002,8|8,1:0|1:3,2:0:0:0:
414,291,179754,1,4,1:3:0:0:
414,291,179896,6,0,P|395:240|384:202,1,67.5000000000002,8|0,1:3|2:0,2:0:0:0:
132,117,180179,1,4,1:2:0:0:
180,189,180320,2,0,L|329:170,1,135,8|8,1:3|1:0,2:0:0:0:
475,308,180745,1,0,2:0:0:0:
248,288,180886,2,0,P|293:272|335:264,1,67.5000000000002,4|0,1:2|2:0,2:0:0:0:
395,108,181170,5,8,1:3:0:0:
441,186,181311,1,0,2:0:0:0:
310,146,181453,2,0,L|305:64,1,67.5000000000002,0|8,1:0|1:3,2:0:0:0:
161,23,181736,2,0,B|167:114|167:114|190:150,1,135,8|8,1:0|1:3,2:0:0:0:
154,329,182160,6,0,L|165:254,1,67.5000000000002,4|0,1:3|2:0,2:0:0:0:
74,82,182443,1,12,1:2:0:0:
21,147,182585,2,0,P|31:183|45:215,1,67.5000000000002,0|8,1:0|1:3,2:0:0:0:
244,88,182868,2,0,P|257:56|265:24,1,67.5000000000002,8|8,1:0|1:0,2:0:0:0:
374,229,183151,2,0,P|364:265|350:297,1,67.5000000000002,8|4,1:3|1:2,2:0:0:0:
150,199,183434,5,8,1:3:0:0:
274,152,183575,1,0,1:0:0:0:
222,320,183717,2,0,L|213:238,1,67.5000000000002,8|4,1:3|1:3,2:0:0:0:
61,114,184000,2,0,B|103:127|103:127|145:108|199:115,1,135,8|0,1:0|1:0,2:0:0:0:
381,219,184424,6,0,P|338:232|303:238,1,67.5000000000002,8|0,1:3|2:0,2:0:0:0:
261,48,184707,1,8,1:0:0:0:
261,48,184849,2,0,L|269:117,1,67.5000000000002,0|0,1:0|2:0,2:0:0:0:
182,300,185132,2,0,P|200:250|208:223,1,67.5000000000002,8|0,1:0|2:0,2:0:0:0:
104,31,185415,2,0,L|112:100,1,67.5000000000002,8|0,1:3|1:0,2:0:0:0:
284,295,185698,5,8,1:3:0:0:
464,220,185839,2,0,P|417:224|383:235,1,67.5000000000002,4|0,2:0|1:0,2:0:0:0:
361,350,186122,1,4,1:3:0:0:
347,93,186264,2,0,P|335:133|326:173,1,67.5000000000002,12|8,1:2|1:3,2:0:0:0:
278,335,186547,1,8,1:3:0:0:
475,295,186688,6,0,L|488:143,1,135,4|0,1:2|1:0,2:0:0:0:
299,29,187113,2,0,L|317:153,1,101.25,8|0,1:3|2:0,2:0:0:0:
273,152,187396,1,8,1:0:0:0:
431,204,187537,1,8,1:0:0:0:
187,213,187679,1,8,1:3:0:0:
393,180,187820,1,8,1:0:0:0:
241,119,187962,5,0,1:0:0:0:
149,303,188245,6,0,L|195:311,2,26.9999999999999,2|2|0,2:0|2:0|1:0,2:0:0:0:
66,259,188528,2,0,L|56:335,1,53.9999999999999,0|2,1:0|2:0,2:0:0:0:
75,343,188740,1,0,1:0:0:0:
75,343,188811,1,0,1:0:0:0:
201,313,188953,5,0,1:0:0:0:
256,192,197019,12,0,199283,2:0:0:0:
393,137,200132,6,0,L|384:203,1,53.9999999999999,2|0,2:0|2:0,2:0:0:0:
426,263,200415,6,0,B|385:228|385:228|313:216|242:274,1,198,4|10,1:0|2:0,2:0:0:0:
100,315,200839,2,0,P|150:332|203:342,1,99,2|0,2:0|1:0,2:0:0:0:
236,102,201122,1,0,1:0:0:0:
147,220,201264,1,10,2:0:0:0:
337,134,201405,1,0,1:0:0:0:
222,15,201547,6,0,L|199:171,1,148.5,2|0,2:0|2:0,2:0:0:0:
123,224,201830,1,10,2:0:0:0:
292,149,201971,2,0,P|316:99|329:49,1,99,2|0,1:2|2:0,2:0:0:0:
123,62,202254,1,0,1:0:0:0:
173,292,202396,2,0,L|280:304,1,99,10|8,2:0|2:0,2:0:0:0:
434,189,202679,6,0,B|490:163|490:163|498:89|438:24,1,198,2|8,1:2|2:0,2:0:0:0:
120,221,203103,2,0,P|85:279|151:380,1,198,2|2,1:2|1:2,2:0:0:0:
402,204,203528,1,8,2:0:0:0:
158,53,203670,6,0,B|127:99|127:99|162:155|148:244,1,198,6|0,1:2|1:0,2:0:0:0:
67,368,204094,2,0,P|22:323|39:212,1,162,10|0,2:0|2:0,2:0:0:0:
182,111,204377,2,0,L|169:229,1,117,2|0,1:2|1:0,2:0:0:0:
356,360,204660,1,10,2:0:0:0:
295,76,204802,1,0,1:0:0:0:
113,285,204943,6,0,P|165:267|262:249,1,148.5,6|0,1:2|2:0,2:0:0:0:
320,291,205226,2,0,P|342:236|351:189,1,99,8|0,2:0|2:0,2:0:0:0:
303,44,205509,1,0,1:0:0:0:
161,226,205651,1,0,1:0:0:0:
389,259,205792,1,8,2:0:0:0:
264,60,205934,6,0,B|240:103|240:103|241:154|273:223,1,148.5,0|0,1:0|2:0,2:0:0:0:
345,188,206217,1,0,1:0:0:0:
495,111,206358,2,0,L|390:123,1,99,8|0,2:0|2:0,2:0:0:0:
257,297,206641,1,0,1:0:0:0:
193,104,206783,1,0,1:0:0:0:
374,212,206924,1,10,2:0:0:0:
202,80,207066,1,0,1:0:0:0:
110,273,207207,6,0,P|120:328|137:379,1,99,2|0,1:2|2:0,2:0:0:0:
353,187,207490,2,0,P|367:139|376:90,1,99,14|0,2:0|2:0,2:0:0:0:
184,206,207773,1,2,1:2:0:0:
445,230,207915,1,4,1:2:0:0:
265,144,208056,1,10,2:0:0:0:
355,350,208198,6,0,B|401:313|401:313|418:244|387:154,1,198,2|0,1:2|1:0,2:0:0:0:
253,71,208622,1,10,2:0:0:0:
332,269,208764,1,8,2:0:0:0:
336,28,208905,1,10,2:0:0:0:
248,249,209047,1,0,1:0:0:0:
238,36,209188,1,10,2:0:0:0:
358,256,209330,1,8,2:0:0:0:
358,256,209401,1,8,2:0:0:0:
358,256,209471,6,0,B|347:316|333:363|333:363|290:326,1,148.5,4|0,1:0|2:0,2:0:0:0:
232,351,209754,2,0,L|126:334,1,99,8|0,2:0|2:0,2:0:0:0:
62,135,210037,1,2,1:2:0:0:
189,292,210179,1,0,1:0:0:0:
0,222,210320,1,8,2:0:0:0:
84,46,210462,6,0,B|142:60|142:60|203:29|302:38,1,198,2|0,1:2|1:0,2:0:0:0:
488,168,210886,2,0,L|340:147,1,148.5,8|0,2:0|2:0,2:0:0:0:
285,205,211170,2,0,P|229:216|183:232,1,99,0|0,1:0|1:0,2:0:0:0:
301,76,211453,1,10,2:0:0:0:
346,297,211594,1,0,1:0:0:0:
170,251,211736,6,0,L|161:131,1,99,2|0,1:2|1:0,2:0:0:0:
74,44,212019,2,0,B|27:26|27:26|-12:105|51:178,1,198,8|0,2:0|1:0,2:0:0:0:
177,324,212443,1,0,1:0:0:0:
96,115,212585,1,10,2:0:0:0:
256,161,212726,6,0,B|245:238|245:238|260:279|260:279|252:360,1,198,2|0,1:2|1:0,2:0:0:0:
368,160,213151,2,0,P|386:107|399:50,1,99,10|0,2:0|2:0,2:0:0:0:
148,229,213434,2,0,P|159:277|176:323,1,99,2|0,1:2|1:0,2:0:0:0:
369,192,213717,1,10,2:0:0:0:
183,54,213858,1,0,1:0:0:0:
211,265,214000,6,0,P|271:320|382:284,1,198,6|8,1:2|2:0,2:0:0:0:
459,80,214424,1,0,2:0:0:0:
277,138,214566,2,0,P|288:196|302:243,1,99,0|0,1:0|1:0,2:0:0:0:
480,70,214849,1,10,2:0:0:0:
267,51,214990,1,2,1:2:0:0:
202,247,215132,6,0,P|189:297|171:350,1,99,0|0,2:0|1:0,2:0:0:0:
118,141,215415,1,8,2:0:0:0:
300,78,215556,2,0,B|310:154|310:154|299:198|299:198|311:278,1,198,0|0,2:0|1:0,2:0:0:0:
428,236,215981,1,10,2:0:0:0:
214,151,216122,1,0,1:0:0:0:
359,335,216264,6,0,P|388:270|353:208,1,148.5,6|0,1:2|2:0,2:0:0:0:
257,213,216547,2,0,L|154:200,1,99,8|0,2:0|2:0,2:0:0:0:
38,142,216830,1,0,1:0:0:0:
156,65,216971,1,0,1:0:0:0:
108,302,217113,1,10,2:0:0:0:
60,118,217254,6,0,B|110:92|110:92|253:110,1,198,6|0,1:2|1:0,2:0:0:0:
475,197,217679,2,0,P|428:220|380:228,1,99,10|0,2:0|2:0,2:0:0:0:
322,54,217962,2,0,P|369:31|417:23,1,99,2|0,1:2|1:0,2:0:0:0:
372,301,218245,1,14,2:0:0:0:
323,148,218386,1,0,1:0:0:0:
471,177,218528,6,0,P|455:277|445:376,1,198,4|8,1:0|2:0,2:0:0:0:
445,373,218953,1,0,2:0:0:0:
193,230,219094,2,0,L|297:216,1,99,0|0,1:0|1:0,2:0:0:0:
412,298,219377,1,8,2:0:0:0:
151,303,219519,6,0,P|109:233|188:143,1,198,0|0,1:0|1:0,2:0:0:0:
360,134,219943,2,0,L|459:116,1,99,10|0,2:0|2:0,2:0:0:0:
181,113,220226,2,0,P|129:91|91:69,1,99,2|0,1:2|1:0,2:0:0:0:
309,204,220509,1,10,2:0:0:0:
255,55,220651,1,0,1:0:0:0:
151,281,220792,6,0,L|257:268,1,99,14|0,1:2|1:0,2:0:0:0:
427,346,221075,1,2,1:2:0:0:
292,164,221217,1,14,1:2:0:0:
277,359,221358,1,0,1:0:0:0:
397,197,221500,1,0,1:0:0:0:
207,106,221641,1,8,1:0:0:0:
346,315,221783,6,0,B|390:298|390:298|427:313|463:313|463:313|457:281,1,135,4|0,1:0|2:0,2:0:0:0:
430,222,222207,1,0,1:0:0:0:
473,68,222349,2,0,L|484:157,1,90,8|8,2:0|1:0,2:0:0:0:
284,234,222632,1,8,2:0:0:0:
379,86,222773,1,8,2:0:0:0:
377,329,222915,1,8,2:0:0:0:
183,204,223056,6,0,B|146:169|146:169|142:103|174:39,1,180,4|8,1:0|2:0,2:0:0:0:
315,228,223481,1,0,2:0:0:0:
379,86,223622,2,0,P|398:133|406:176,1,90,0|0,1:0|1:0,2:0:0:0:
235,345,223905,1,8,2:0:0:0:
300,258,224047,6,0,B|290:200|290:200|266:163|266:163|254:72,1,180,2|0,1:2|1:0,2:0:0:0:
89,13,224471,2,0,P|38:58|56:128,1,135,8|0,2:0|2:0,2:0:0:0:
69,144,224754,1,0,1:0:0:0:
211,237,224896,1,0,1:0:0:0:
178,41,225037,1,10,2:0:0:0:
31,216,225179,1,0,1:0:0:0:
190,134,225320,6,0,P|272:117|349:181,1,180,2|8,1:2|2:0,2:0:0:0:
241,345,225745,2,0,P|251:285|263:249,1,90,2|0,2:0|1:0,2:0:0:0:
375,59,226028,1,0,1:0:0:0:
472,222,226170,1,10,2:0:0:0:
323,198,226311,6,0,L|159:220,1,135,0|0,1:0|2:0,2:0:0:0:
168,239,226594,1,0,1:0:0:0:
21,134,226736,2,0,P|69:115|120:110,1,90,8|0,2:0|2:0,2:0:0:0:
152,326,227019,1,0,1:0:0:0:
60,241,227160,1,0,1:0:0:0:
199,138,227302,1,10,2:0:0:0:
179,351,227443,1,0,1:0:0:0:
23,202,227585,6,0,B|42:156|42:156|26:112|42:63,1,135,4|0,1:2|2:0,2:0:0:0:
110,6,227868,2,0,L|125:121,1,90,8|0,2:0|2:0,2:0:0:0:
270,312,228151,1,0,1:0:0:0:
296,116,228292,1,0,1:0:0:0:
136,206,228434,1,8,2:0:0:0:
382,290,228575,6,0,P|428:245|402:115,1,180,0|0,1:0|1:0,2:0:0:0:
244,13,229000,2,0,L|268:183,1,135,8|0,2:0|2:0,2:0:0:0:
242,165,229283,1,2,1:2:0:0:
337,73,229424,1,0,1:0:0:0:
275,260,229566,1,8,2:0:0:0:
156,110,229707,1,0,1:0:0:0:
336,37,229849,6,0,P|382:51|437:58,1,90,2|0,1:2|2:0,2:0:0:0:
469,310,230132,2,0,P|426:296|381:289,1,90,8|2,2:0|2:0,2:0:0:0:
257,172,230415,1,0,1:0:0:0:
285,359,230556,1,0,1:0:0:0:
409,211,230698,1,10,2:0:0:0:
231,155,230839,6,0,L|246:305,1,135,4|0,1:2|2:0,2:0:0:0:
225,315,231122,1,0,1:0:0:0:
61,296,231264,2,0,P|106:273|147:263,1,90,8|0,2:0|2:0,2:0:0:0:
315,199,231547,1,0,1:0:0:0:
127,147,231688,1,0,1:0:0:0:
300,40,231830,1,8,2:0:0:0:
244,289,231971,1,0,1:0:0:0:
48,153,232113,6,0,P|78:86|183:90,1,180,4|8,1:2|2:0,2:0:0:0:
244,289,232679,1,0,1:0:0:0:
127,147,232820,2,0,P|117:202|116:243,1,90,0|8,1:0|2:0,2:0:0:0:
356,357,233103,6,0,B|366:291|366:291|389:266|389:266|401:166,1,180,0|0,1:0|1:0,2:0:0:0:
450,20,233528,2,0,P|465:65|473:113,1,90,8|0,2:0|2:0,2:0:0:0:
298,206,233811,1,0,1:0:0:0:
349,85,233953,1,0,1:0:0:0:
499,218,234094,2,0,L|384:238,1,90,8|0,2:0|1:0,2:0:0:0:
136,269,234377,5,12,1:2:0:0:
249,150,234519,1,0,1:0:0:0:
361,334,234660,1,0,1:0:0:0:
167,271,234802,1,12,1:2:0:0:
340,169,234943,2,0,P|317:222|305:271,1,90,0|0,1:0|1:0,2:0:0:0:
206,355,235226,1,8,1:0:0:0:
264,118,235368,6,0,P|218:68|117:89,1,162,8|0,1:0|2:0,2:0:0:0:
43,157,235934,1,8,2:0:0:0:
43,157,236004,1,8,2:0:0:0:
43,157,236075,1,8,2:0:0:0:
191,185,236217,5,8,2:0:0:0:
49,64,236358,1,8,2:0:0:0:
87,253,236500,1,8,2:0:0:0:
267,88,236641,5,4,1:2:0:0:
467,132,236783,2,0,L|316:150,1,135,4|8,1:2|1:3,2:0:0:0:
152,322,237207,2,0,B|179:349|179:349|224:350|268:301,1,135,8|8,1:0|1:3,2:0:0:0:
450,248,237632,6,0,P|409:238|369:237,1,67.5000000000002,8|0,1:3|1:0,2:0:0:0:
205,197,237915,1,4,1:3:0:0:
205,197,238056,2,0,P|196:160|193:122,1,67.5000000000002,4|0,1:3|2:0,2:0:0:0:
371,16,238339,2,0,B|355:55|355:55|374:85|382:161,1,135,8|0,1:0|1:0,2:0:0:0:
156,344,238905,5,8,1:3:0:0:
156,344,239047,1,0,1:0:0:0:
323,262,239188,2,0,L|256:272,1,67.5000000000002,4|0,1:3|1:0,2:0:0:0:
90,234,239471,2,0,P|103:198|112:85,1,135,8|0,1:0|1:0,2:0:0:0:
310,35,239896,6,0,P|284:83|200:92,1,135,8|8,1:3|1:0,2:0:0:0:
40,45,240320,1,0,1:0:0:0:
40,45,240462,1,0,1:0:0:0:
192,174,240603,2,0,P|200:214|205:257,1,67.5000000000002,8|0,1:0|1:0,2:0:0:0:
136,38,240886,1,4,1:2:0:0:
60,251,241028,1,8,1:2:0:0:
271,194,241170,6,0,P|321:202|348:209,1,67.5000000000002,4|0,1:0|1:0,2:0:0:0:
508,63,241453,2,0,P|458:55|431:48,1,67.5000000000002,0|8,2:0|1:3,2:0:0:0:
305,285,241736,2,0,P|349:289|417:227,1,135,8|8,1:0|1:3,2:0:0:0:
349,46,242160,6,0,P|358:86|362:122,1,67.5000000000002,8|0,1:3|1:0,2:0:0:0:
464,323,242443,1,4,1:3:0:0:
380,257,242585,2,0,P|389:215|401:181,1,67.5000000000002,4|0,1:3|2:0,2:0:0:0:
222,170,242868,2,0,P|259:179|294:179,1,67.5000000000002,8|0,1:0|2:0,2:0:0:0:
365,347,243151,1,8,1:3:0:0:
365,347,243292,1,0,2:0:0:0:
140,246,243434,5,4,1:3:0:0:
344,268,243575,1,0,1:0:0:0:
179,341,243717,2,0,L|109:331,1,67.5000000000002,4|8,1:2|1:3,2:0:0:0:
323,170,244000,2,0,L|407:156,1,67.5000000000002,8|0,1:0|2:0,2:0:0:0:
230,258,244283,1,0,1:0:0:0:
81,175,244424,6,0,P|48:133|71:33,1,135,0|4,1:0|1:2,2:0:0:0:
187,13,244849,2,0,L|178:96,1,67.5000000000002,4|0,1:3|1:0,2:0:0:0:
259,331,245132,1,8,1:0:0:0:
162,209,245273,1,8,1:3:0:0:
294,192,245415,1,4,1:2:0:0:
240,364,245556,1,8,1:0:0:0:
173,230,245698,5,0,1:0:0:0:
340,276,245839,1,0,1:0:0:0:
134,304,245981,5,0,1:0:0:0:
378,197,246122,1,0,1:0:0:0:
