osu file format v14

[General]
AudioFilename: audio.mp3
AudioLeadIn: 0
PreviewTime: 68515
Countdown: 0
SampleSet: Soft
StackLeniency: 0.4
Mode: 2
LetterboxInBreaks: 0
WidescreenStoryboard: 1

[Editor]
DistanceSpacing: 1.2
BeatDivisor: 8
GridSize: 8
TimelineZoom: 2.4

[Metadata]
Title:Serment
TitleUnicode:Serment
Artist:Kawada Mami
ArtistUnicode:川田まみ
Creator:Secre
Version:Deluge
Source:灼眼のシャナIII-FINAL-
Tags:chickenbible -Joakh shakugan no shana III -best- 3rd season 2nd opening full version generasia square the circle anime jrock j-rock rock japanese pop
BeatmapID:4351009
BeatmapSetID:2077934

[Difficulty]
HPDrainRate:5
CircleSize:4.3
OverallDifficulty:9.7
ApproachRate:9.7
SliderMultiplier:1.8
SliderTickRate:2

[Events]
//Background and Video events
0,0,"younger marine.jpg",0,0
//Break Periods
//Storyboard Layer 0 (Background)
//Storyboard Layer 1 (Fail)
//Storyboard Layer 2 (Pass)
//Storyboard Layer 3 (Foreground)
//Storyboard Layer 4 (Overlay)
//Storyboard Sound Samples

[TimingPoints]
1157,283.018867924528,4,2,1,30,1,0
1157,-100,4,2,1,30,0,0
5685,-100,4,2,1,30,0,0
10213,-100,4,2,1,50,0,0
11416,-100,4,2,1,5,0,0
11487,-100,4,2,1,50,0,0
12973,-100,4,2,1,5,0,0
13043,-100,4,2,1,50,0,0
17501,-100,4,2,1,5,0,0
17572,-100,4,2,1,50,0,0
19270,-100,4,2,1,35,0,0
20260,-100,4,2,1,65,0,0
20614,-100,4,2,1,5,0,0
20685,-100,4,2,1,65,0,0
22595,-100,4,2,1,5,0,0
22666,-100,4,2,1,65,0,0
23161,-100,4,2,1,5,0,0
23232,-100,4,2,1,65,0,0
25142,-100,4,2,1,5,0,0
25213,-100,4,2,1,65,0,0
27123,-100,4,2,1,5,0,0
27194,-100,4,2,1,65,0,0
27690,-100,4,2,1,5,0,0
27760,-100,4,2,1,65,0,0
28397,-100,4,2,1,5,0,0
28468,-100,4,2,1,65,0,0
29458,-100,4,2,1,65,0,0
29671,-100,4,2,1,5,0,0
29741,-100,4,2,1,65,0,0
31652,-100,4,2,1,5,0,0
31723,-100,4,2,1,65,0,0
31935,-100,4,2,1,5,0,0
32006,-100,4,2,1,65,0,0
33987,-100,4,2,1,65,0,0
34199,-100,4,2,1,5,0,0
34270,-100,4,2,1,65,0,0
34482,-100,4,2,1,5,0,0
34553,-100,4,2,1,65,0,0
36180,-100,4,2,1,5,0,0
36251,-100,4,2,1,65,0,0
36746,-100,4,2,1,5,0,0
36817,-100,4,2,1,65,0,0
38515,-100,4,2,1,50,0,0
53727,-100,4,2,1,5,0,0
53798,-100,4,2,1,50,0,0
54364,-100,4,2,1,50,0,0
54576,-100,4,2,1,5,0,0
54647,-100,4,2,1,50,0,0
55425,-100,4,2,1,5,0,0
55496,-100,4,2,1,55,0,0
56628,-100,4,2,1,60,0,0
63421,-100,4,2,1,65,0,0
65048,-100,4,2,1,5,0,0
65119,-100,4,2,1,65,0,0
67949,-100,4,2,1,80,0,1
68161,-100,4,2,1,5,0,1
68232,-100,4,2,1,80,0,1
70425,-100,4,2,1,5,0,1
70496,-100,4,2,1,80,0,1
72690,-100,4,2,1,5,0,1
72760,-100,4,2,1,80,0,1
74954,-100,4,2,1,5,0,1
75024,-100,4,2,1,80,0,1
79482,-100,4,2,1,5,0,1
79553,-100,4,2,1,80,0,1
81463,-100,4,2,1,5,0,1
81534,-100,4,2,1,80,0,1
81746,-100,4,2,1,5,0,1
81817,-100,4,2,1,80,0,1
86274,-100,4,2,1,5,0,1
86345,-100,4,2,1,80,0,1
88256,-100,4,2,1,5,0,1
88326,-100,4,2,1,80,0,1
90803,-100,4,2,1,5,0,1
90873,-100,4,2,1,80,0,1
91652,-100,4,2,1,5,0,1
91723,-100,4,2,1,80,0,1
93067,-100,4,2,1,5,0,1
93138,-100,4,2,1,80,0,1
95331,-100,4,2,1,5,0,1
95402,-100,4,2,1,80,0,1
98373,-100,4,2,1,80,0,1
99647,-100,4,2,1,65,0,0
99859,-100,4,2,1,5,0,0
99930,-100,4,2,1,65,0,0
101840,-100,4,2,1,5,0,0
101911,-100,4,2,1,65,0,0
104175,-100,4,2,1,65,0,0
104388,-100,4,2,1,5,0,0
104458,-100,4,2,1,65,0,0
108704,-100,4,2,1,50,0,0
118185,-100,4,2,1,50,0,0
119105,-100,4,2,1,5,0,0
119175,-100,4,2,1,50,0,0
119458,-100,4,2,1,50,0,0
119954,-100,4,2,1,5,0,0
120024,-100,4,2,1,50,0,0
124553,-100,4,2,1,50,0,0
125614,-100,4,2,1,5,0,0
125685,-100,4,2,1,55,0,0
126817,-100,4,2,1,60,0,0
133609,-100,4,2,1,65,0,0
136156,-100,4,2,1,65,0,0
138138,-100,4,2,1,80,0,1
138350,-100,4,2,1,5,0,1
138421,-100,4,2,1,80,0,1
140614,-100,4,2,1,5,0,1
140685,-100,4,2,1,80,0,1
142878,-100,4,2,1,5,0,1
142949,-100,4,2,1,80,0,1
145142,-100,4,2,1,5,0,1
145213,-100,4,2,1,80,0,1
149671,-100,4,2,1,5,0,1
149741,-100,4,2,1,80,0,1
151935,-100,4,2,1,5,0,1
152006,-100,4,2,1,80,0,1
154482,-100,4,2,1,5,0,1
154553,-100,4,2,1,80,0,1
156463,-100,4,2,1,5,0,1
156534,-100,4,2,1,80,0,1
158444,-100,4,2,1,5,0,1
158515,-100,4,2,1,80,0,1
160991,-100,4,2,1,5,0,1
161062,-100,4,2,1,80,0,1
163256,-100,4,2,1,5,0,1
163326,-100,4,2,1,80,0,1
165520,-100,4,2,1,5,0,1
165590,-100,4,2,1,80,0,1
168562,-100,4,2,1,80,0,1
169836,-100,4,2,1,70,0,0
171534,-100,4,2,1,70,0,0
172100,-100,4,2,1,70,0,0
173798,-100,4,2,1,70,0,0
174364,-100,4,2,1,70,0,0
175355,-100,4,2,1,70,0,0
176062,-100,4,2,1,70,0,0
176628,-100,4,2,1,70,0,0
177619,-100,4,2,1,70,0,0
178256,-100,4,2,1,5,0,0
178326,-100,4,2,1,70,0,0
178892,-100,4,2,1,70,0,0
180590,-100,4,2,1,70,0,0
181156,-100,4,2,1,70,0,0
181652,-100,4,2,1,5,0,0
181723,-100,4,2,1,70,0,0
182430,-100,4,2,1,70,0,0
182572,-100,4,2,1,70,0,0
182855,-100,4,2,1,70,0,0
183279,-100,4,2,1,70,0,0
183421,-100,4,2,1,70,0,0
185119,-100,4,2,1,70,0,0
185685,-100,4,2,1,70,0,0
187383,-100,4,2,1,70,0,0
187949,-100,4,2,1,50,0,0
190213,-100,4,2,1,35,0,0
194105,-100,4,2,1,5,0,0
194175,-100,4,2,1,35,0,0
196935,-100,4,2,1,5,0,0
197006,-100,4,2,1,35,0,0
199270,-100,4,2,1,5,0,0
200119,-100,4,2,1,65,0,0
200402,-100,4,2,1,80,0,1
200614,-100,4,2,1,5,0,1
200685,-100,4,2,1,80,0,1
201746,-100,4,2,1,5,0,1
201817,-100,4,2,1,80,0,1
202878,-100,4,2,1,5,0,1
202949,-100,4,2,1,80,0,1
205142,-100,4,2,1,5,0,1
205213,-100,4,2,1,80,0,1
207406,-100,4,2,1,5,0,1
207477,-100,4,2,1,80,0,1
209671,-100,4,2,1,5,0,1
209741,-100,4,2,1,80,0,1
212218,-100,4,2,1,5,0,1
212289,-100,4,2,1,80,0,1
214199,-100,4,2,1,5,0,1
214270,-100,4,2,1,80,0,1
216463,-100,4,2,1,5,0,1
216534,-100,4,2,1,80,0,1
218727,-100,4,2,1,5,0,1
218798,-100,4,2,1,80,0,1
221770,-100,4,2,1,70,0,0
223043,-100,4,2,1,80,0,1
223256,-100,4,2,1,5,0,1
223326,-100,4,2,1,80,0,1
223539,-100,4,2,1,5,0,1
223609,-100,4,2,1,80,0,1
225520,-100,4,2,1,5,0,1
225590,-100,4,2,1,80,0,1
225803,-100,4,2,1,5,0,1
225873,-100,4,2,1,80,0,1
227784,-100,4,2,1,5,0,1
227855,-100,4,2,1,80,0,1
230048,-100,4,2,1,5,0,1
230119,-100,4,2,1,80,0,1
232312,-100,4,2,1,5,0,1
232383,-100,4,2,1,80,0,1
232595,-100,4,2,1,5,0,1
232666,-100,4,2,1,80,0,1
234293,-100,4,2,1,5,0,1
234364,-100,4,2,1,80,0,1
235355,-100,4,2,1,80,0,1
235425,-100,4,2,1,5,0,1
235921,-100,4,2,1,80,0,1
236628,-100,4,2,1,70,0,0
238326,-100,4,2,1,70,0,0
238892,-100,4,2,1,70,0,0
239388,-100,4,2,1,5,0,0
239458,-100,4,2,1,70,0,0
239671,-100,4,2,1,5,0,0
239741,-100,4,2,1,70,0,0
240095,-100,4,2,1,5,0,0
240166,-100,4,2,1,70,0,0
240590,-100,4,2,1,70,0,0
241156,-100,4,2,1,70,0,0
242855,-100,4,2,1,70,0,0
243421,-100,4,2,1,70,0,0
243916,-100,4,2,1,5,0,0
243987,-100,4,2,1,70,0,0
244270,-100,4,2,1,70,0,0
245119,-100,4,2,1,70,0,0

[Colours]
Combo1 : 200,203,223
Combo2 : 198,51,77
Combo3 : 57,95,155
Combo4 : 120,114,173

[HitObjects]
300,171,1157,6,0,L|181:154,1,90
382,105,1440,2,0,L|270:92,1,90
441,128,1723,1,0,0:0:0:0:
306,93,1864,2,0,L|301:202,1,90
161,225,2147,1,0,0:0:0:0:
308,92,2289,6,0,L|214:91,2,90
162,182,2713,2,0,L|289:173,2,90
304,96,3138,2,0,L|193:92,1,90
350,45,3421,6,0,L|461:40,1,90
299,159,3704,2,0,L|420:159,2,90
159,67,4128,2,0,L|280:67,2,90
298,83,4553,6,0,L|297:207,1,90
157,250,4836,2,0,L|289:244,1,90
111,160,5119,2,0,L|229:152,1,90
58,76,5402,2,0,L|184:67,1,90
370,67,5685,5,0,3:0:0:0:
236,72,5826,2,0,L|238:180,1,90,0|0,3:0|0:0,0:0:0:0:
102,216,6109,1,0,0:0:0:0:
236,73,6251,2,0,L|121:71,3,90
288,158,6817,6,0,L|165:150,2,90
426,91,7241,2,0,L|319:78,2,90
289,32,7666,2,0,L|407:29,1,90
164,191,7949,5,0,3:0:0:0:
294,130,8090,2,0,L|301:5,1,90,0|0,3:0|0:0,0:0:0:0:
55,84,8373,2,0,L|182:80,1,90,0|0,3:0|0:0,0:0:0:0:
387,78,8656,1,0,3:0:0:0:
156,82,8798,1,0,3:0:0:0:
387,78,8940,1,0,3:0:0:0:
257,26,9081,6,0,L|362:14,2,90
387,149,9506,1,0,0:0:0:0:
74,217,9647,2,0,P|42:162|111:102,1,135
294,102,9930,2,0,L|467:82,1,135,0|0,3:0|0:0,0:0:0:0:
220,84,10213,5,0,3:0:0:0:
356,51,10355,2,0,L|361:165,1,90,0|0,3:0|0:0,0:0:0:0:
485,227,10638,1,0,0:0:0:0:
199,183,10779,2,0,L|199:68,1,90,8|0,0:0|0:0,0:0:0:0:
321,72,11062,1,0,0:0:0:0:
199,93,11204,1,0,3:0:0:0:
436,56,11345,6,0,L|315:45,2,90,0|0|0,0:0|3:0|3:0,0:0:0:0:
300,138,11770,1,0,0:0:0:0:
437,57,11911,2,0,L|325:55,1,90,8|0,0:0|0:0,0:0:0:0:
190,67,12194,1,0,3:0:0:0:
347,55,12336,1,0,0:0:0:0:
73,154,12477,5,0,3:0:0:0:
214,115,12619,1,0,3:0:0:0:
73,154,12760,1,0,3:0:0:0:
304,95,12902,1,0,0:0:0:0:
73,154,13043,2,0,L|70:37,1,90,8|0,0:0|0:0,0:0:0:0:
311,24,13326,1,0,3:0:0:0:
177,25,13468,1,0,3:0:0:0:
463,117,13609,6,0,L|311:96,1,135
171,83,13892,2,0,L|300:72,1,90,0|0,3:0|0:0,0:0:0:0:
25,68,14175,2,0,L|135:51,1,90,8|0,0:0|0:0,0:0:0:0:
265,44,14458,2,0,L|386:27,1,90
74,211,14741,5,0,3:0:0:0:
198,160,14883,2,0,L|204:41,1,90,0|0,3:0|0:0,0:0:0:0:
340,55,15166,1,0,0:0:0:0:
87,95,15307,2,0,L|217:79,1,90,8|0,0:0|0:0,0:0:0:0:
310,84,15590,2,0,L|206:65,1,90,0|0,0:0|3:0,0:0:0:0:
469,134,15873,6,0,L|376:115,2,90,0|0|0,0:0|3:0|3:0,0:0:0:0:
330,157,16298,1,0,0:0:0:0:
469,134,16440,2,0,L|337:132,1,90,8|0,0:0|0:0,0:0:0:0:
241,157,16723,1,0,3:0:0:0:
379,132,16864,1,0,0:0:0:0:
133,92,17006,5,0,3:0:0:0:
270,69,17147,1,0,3:0:0:0:
410,52,17289,1,0,3:0:0:0:
133,92,17430,1,0,0:0:0:0:
410,52,17572,2,0,L|296:52,1,90,8|0,0:0|0:0,0:0:0:0:
181,137,17855,1,0,3:0:0:0:
320,52,17996,1,0,3:0:0:0:
73,97,18138,5,0,3:0:0:0:
211,78,18279,1,0,3:0:0:0:
73,97,18421,1,0,3:0:0:0:
374,57,18562,1,0,3:0:0:0:
157,102,18704,2,0,L|278:97,1,90,8|0,0:0|0:0,0:0:0:0:
129,176,18987,2,0,L|20:171,1,90,0|8,3:0|0:0,0:0:0:0:
348,134,19270,6,0,L|176:116,1,168.75,2|0,0:0|0:0,0:0:0:0:
193,81,19553,2,0,L|363:72,1,168.75,2|0,0:0|0:0,0:0:0:0:
345,151,19836,2,0,L|173:133,1,168.75,2|0,0:0|0:0,0:0:0:0:
196,84,20119,2,0,L|286:78,1,90,2|0,0:0|3:0,0:0:0:0:
140,207,20331,1,0,3:0:0:0:
376,209,20402,6,0,L|380:119,1,90,4|0,3:2|0:0,0:0:0:0:
154,96,20685,2,0,L|55:92,1,90,8|0,0:0|0:0,0:0:0:0:
315,202,20968,1,0,3:0:0:0:
75,163,21109,2,0,L|175:168,1,90,0|8,3:0|0:0,0:0:0:0:
455,136,21392,6,0,L|291:117,1,135,0|0,3:0|0:0,0:0:0:0:
152,107,21675,1,0,3:0:0:0:
286,102,21817,2,0,L|288:217,1,90,8|0,0:0|0:0,0:0:0:0:
41,195,22100,1,0,3:0:0:0:
264,127,22241,2,0,L|160:126,1,90,0|8,3:0|0:0,0:0:0:0:
316,67,22524,1,0,0:0:0:0:
56,152,22666,6,0,L|51:38,1,90,0|0,3:0|0:0,0:0:0:0:
310,82,22949,2,0,L|146:77,1,135,8|0,0:0|0:0,0:0:0:0:
361,197,23232,1,0,3:0:0:0:
222,154,23373,2,0,L|335:145,1,90,0|8,3:0|0:0,0:0:0:0:
49,116,23656,6,0,L|216:97,1,135,0|0,3:0|0:0,0:0:0:0:
349,76,23940,1,0,3:0:0:0:
221,156,24081,2,0,L|214:258,1,90,8|0,0:0|0:0,0:0:0:0:
488,277,24364,2,0,L|397:269,1,90,0|0,3:0|3:0,0:0:0:0:
266,209,24647,1,8,0:0:0:0:
398,269,24789,1,0,3:0:0:0:
151,195,24930,6,0,L|263:193,1,90,0|0,3:0|0:0,0:0:0:0:
491,185,25213,1,8,0:0:0:0:
249,100,25355,2,0,L|362:100,1,90,0|0,0:0|3:0,0:0:0:0:
203,35,25638,1,0,3:0:0:0:
478,39,25779,2,0,L|358:34,1,90,8|0,0:0|3:0,0:0:0:0:
250,84,26062,5,0,0:0:0:0:
388,35,26204,1,0,3:0:0:0:
148,153,26345,2,0,L|146:271,1,90,8|0,0:0|0:0,0:0:0:0:
440,293,26628,1,0,3:0:0:0:
297,205,26770,2,0,L|420:195,2,90,0|8|0,3:0|0:0|0:0,0:0:0:0:
46,200,27194,6,0,L|43:94,1,90,0|0,3:0|0:0,0:0:0:0:
289,96,27477,2,0,L|418:89,1,90,8|0,0:0|0:0,0:0:0:0:
138,202,27760,1,0,3:0:0:0:
273,143,27902,2,0,L|152:130,1,90,0|8,3:0|0:0,0:0:0:0:
473,135,28185,6,0,L|321:116,1,135,0|0,3:0|0:0,0:0:0:0:
154,96,28468,1,2,3:2:0:0:
396,57,28609,2,0,L|279:49,1,90,8|0,0:0|3:0,0:0:0:0:
44,57,28892,2,0,L|167:55,1,90,2|0,3:2|3:0,0:0:0:0:
389,110,29175,1,4,3:2:0:0:
100,128,29317,1,8,0:0:0:0:
423,97,29458,6,0,L|427:-14,1,90,4|0,3:2|0:0,0:0:0:0:
169,182,29741,2,0,L|58:183,1,90,8|0,0:0|0:0,0:0:0:0:
341,129,30024,1,0,3:0:0:0:
205,88,30166,2,0,L|334:80,1,90,0|8,3:0|0:0,0:0:0:0:
16,45,30449,6,0,L|216:38,1,180,0|0,3:0|3:0,0:0:0:0:
470,52,30873,2,0,L|472:168,1,90,8|0,0:0|0:0,0:0:0:0:
207,184,31156,1,0,3:0:0:0:
335,116,31298,2,0,L|228:104,2,90,0|8|0,3:0|0:0|0:0,0:0:0:0:
77,180,31723,6,0,L|70:59,1,90,0|0,3:0|0:0,0:0:0:0:
334,67,32006,2,0,L|461:60,1,90,8|0,0:0|0:0,0:0:0:0:
185,158,32289,1,0,3:0:0:0:
299,96,32430,2,0,L|188:99,1,90,0|8,3:0|0:0,0:0:0:0:
455,93,32713,6,0,L|246:91,1,180,0|0,3:0|3:0,0:0:0:0:
27,139,33138,2,0,L|25:12,1,90,8|0,0:0|0:0,0:0:0:0:
330,91,33421,1,0,3:0:0:0:
200,86,33562,1,0,3:0:0:0:
330,91,33704,1,8,0:0:0:0:
200,86,33845,1,0,3:0:0:0:
476,182,33987,6,0,L|356:175,1,90,4|0,3:2|0:0,0:0:0:0:
93,122,34270,1,8,0:0:0:0:
234,85,34411,2,0,L|113:76,1,90,0|0,0:0|3:0,0:0:0:0:
283,32,34694,1,0,3:0:0:0:
10,61,34836,1,8,0:0:0:0:
137,52,34977,6,0,L|142:150,1,90,0|0,3:0|0:0,0:0:0:0:
268,210,35260,1,0,3:0:0:0:
18,144,35402,2,0,L|126:134,1,90,8|0,0:0|0:0,0:0:0:0:
372,116,35685,1,0,3:0:0:0:
238,55,35826,2,0,L|353:55,2,90,0|8|0,3:0|0:0|0:0,0:0:0:0:
481,108,36251,6,0,L|482:220,1,90,0|0,3:0|0:0,0:0:0:0:
208,217,36534,2,0,L|113:213,1,90,8|0,0:0|0:0,0:0:0:0:
358,140,36817,1,0,3:0:0:0:
221,117,36958,1,0,3:0:0:0:
456,69,37100,1,8,0:0:0:0:
153,65,37241,6,0,L|356:52,1,180,2|0,3:2|3:0,0:0:0:0:
200,134,37666,2,0,L|218:132,1,11.25,8|0,0:0|0:0,0:0:0:0:
322,68,37807,2,0,L|269:68,1,45,0|0,3:0|0:0,0:0:0:0:
426,33,37949,1,8,3:2:0:0:
301,15,38090,1,8,3:2:0:0:
92,62,38232,1,8,0:0:0:0:
423,115,38373,1,0,3:0:0:0:
202,117,38515,5,4,3:2:0:0:
318,102,38656,2,0,L|317:-1,1,90,0|8,3:0|0:0,0:0:0:0:
200,216,38940,2,0,L|393:184,1,180,0|0,0:0|3:0,0:0:0:0:
109,153,39364,1,8,0:0:0:0:
237,130,39506,6,0,L|239:20,1,90,0|0,3:0|0:0,0:0:0:0:
353,39,39789,1,0,3:0:0:0:
126,80,39930,2,0,L|16:66,1,90,8|0,0:0|0:0,0:0:0:0:
288,184,40213,2,0,L|198:178,1,90,0|0,3:0|3:0,0:0:0:0:
412,110,40496,2,0,L|507:105,1,90,8|0,0:0|0:0,0:0:0:0:
256,100,40779,5,0,3:0:0:0:
371,98,40921,2,0,L|381:-9,1,90,0|8,3:0|0:0,0:0:0:0:
485,40,41204,1,0,0:0:0:0:
369,36,41345,2,0,L|371:-62,1,90,0|0,0:0|3:0,0:0:0:0:
151,194,41628,1,8,0:0:0:0:
293,155,41770,6,0,L|296:52,1,90,0|0,3:0|0:0,0:0:0:0:
419,42,42053,1,0,3:0:0:0:
131,68,42194,2,0,P|81:82|73:125,1,90,8|8,0:0|0:0,0:0:0:0:
118,148,42406,1,0,0:0:0:0:
278,186,42477,2,0,L|181:174,1,90,0|0,3:0|3:0,0:0:0:0:
466,124,42760,2,0,L|358:100,1,90,8|0,0:0|3:0,0:0:0:0:
143,145,43043,5,0,3:0:0:0:
268,102,43185,1,0,3:0:0:0:
62,97,43326,1,8,0:0:0:0:
199,62,43468,2,0,L|20:45,1,180,0|0,0:0|3:0,0:0:0:0:
291,196,43892,1,8,0:0:0:0:
179,150,44034,6,0,L|178:46,1,90,0|0,3:0|0:0,0:0:0:0:
45,64,44317,1,0,3:0:0:0:
331,103,44458,2,0,L|457:87,1,90,8|0,0:0|0:0,0:0:0:0:
188,60,44741,2,0,L|301:48,1,90,0|0,3:0|3:0,0:0:0:0:
24,19,45024,2,0,L|131:11,1,90,8|0,0:0|3:0,0:0:0:0:
419,182,45307,5,0,3:0:0:0:
294,129,45449,1,0,3:0:0:0:
421,188,45590,1,8,0:0:0:0:
166,165,45732,2,0,L|368:141,1,180,0|0,0:0|3:0,0:0:0:0:
77,93,46156,1,8,0:0:0:0:
323,88,46298,6,0,P|392:93|411:194,1,180,0|0,3:0|3:0,0:0:0:0:
281,202,46723,2,0,L|301:200,1,11.25,8|0,0:0|0:0,0:0:0:0:
421,169,46864,2,0,L|401:162,1,11.25,0|0,3:0|0:0,0:0:0:0:
114,123,47006,6,0,L|132:114,12,11.25,0|0|0|0|0|0|0|0|0|0|0|0|0,3:0|0:0|0:0|0:0|0:0|0:0|0:0|0:0|3:0|0:0|0:0|0:0|0:0,0:0:0:0:
321,128,47289,1,10,0:0:0:0:
114,123,47430,1,10,0:0:0:0:
419,77,47572,5,4,3:2:0:0:
287,74,47713,2,0,L|280:171,1,90,0|8,3:0|0:0,0:0:0:0:
409,233,47996,2,0,L|198:223,1,180,0|0,0:0|3:0,0:0:0:0:
483,172,48421,1,8,0:0:0:0:
361,122,48562,6,0,L|358:12,1,90,0|0,3:0|0:0,0:0:0:0:
224,38,48845,1,0,3:0:0:0:
443,58,48987,2,0,P|463:117|413:207,1,135,8|0,0:0|0:0,0:0:0:0:
249,212,49270,2,0,L|353:207,1,90,0|0,3:0|3:0,0:0:0:0:
118,129,49553,2,0,L|230:122,1,90,8|8,0:0|0:0,0:0:0:0:
448,112,49836,5,0,3:0:0:0:
321,81,49977,2,0,L|313:180,1,90,0|8,3:0|0:0,0:0:0:0:
174,202,50260,2,0,L|374:187,1,180,0|0,0:0|3:0,0:0:0:0:
80,145,50685,1,8,0:0:0:0:
209,133,50826,6,0,L|219:26,1,90,0|0,3:0|0:0,0:0:0:0:
346,39,51109,1,0,3:0:0:0:
99,187,51251,2,0,L|196:172,1,90,8|8,0:0|0:0,0:0:0:0:
236,154,51463,1,0,0:0:0:0:
464,145,51534,2,0,L|351:126,1,90,0|0,3:0|3:0,0:0:0:0:
146,96,51817,1,8,0:0:0:0:
369,73,51958,1,8,0:0:0:0:
46,76,52100,6,0,L|142:68,2,90,0|0|8,3:0|3:0|0:0,0:0:0:0:
181,146,52524,2,0,L|83:135,2,90,0|0|0,0:0|0:0|3:0,0:0:0:0:
479,131,52949,2,0,L|382:115,1,90,8|0,0:0|3:0,0:0:0:0:
119,103,53232,5,0,0:0:0:0:
242,77,53373,1,0,3:0:0:0:
119,103,53515,1,8,0:0:0:0:
424,96,53656,1,0,0:0:0:0:
194,47,53797,1,0,3:0:0:0:
424,96,53939,1,0,3:0:0:0:
194,47,54081,1,8,0:0:0:0:
327,73,54223,1,0,3:0:0:0:
61,165,54364,6,0,L|203:136,1,135,0|0,3:0|0:0,0:0:0:0:
408,117,54647,1,8,0:0:0:0:
176,61,54789,1,0,0:0:0:0:
416,50,54930,1,0,3:0:0:0:
290,30,55072,1,0,3:0:0:0:
64,84,55213,1,10,0:0:0:0:
340,81,55355,1,0,0:0:0:0:
21,162,55496,6,0,L|188:135,1,135,2|0,3:2|0:0,0:0:0:0:
284,116,55779,2,0,L|175:101,1,90,10|0,0:0|0:0,0:0:0:0:
409,94,56062,1,2,3:2:0:0:
160,182,56204,1,0,3:0:0:0:
441,247,56345,1,10,0:0:0:0:
99,271,56487,1,0,3:0:0:0:
489,181,56628,5,0,3:0:0:0:
353,152,56770,2,0,L|350:56,1,90,0|0,3:0|3:0,0:0:0:0:
101,80,57053,2,0,L|209:63,2,90,0|8|0,3:0|3:2|3:0,0:0:0:0:
241,141,57477,2,0,L|134:125,1,90,0|8,3:0|3:0,0:0:0:0:
386,115,57760,6,0,L|267:106,2,90,0|4|0,3:0|3:0|3:0,0:0:0:0:
254,69,58185,1,0,3:0:0:0:
482,72,58326,2,0,L|368:61,1,90,8|0,3:2|3:0,0:0:0:0:
192,215,58609,1,2,3:2:0:0:
332,191,58751,1,8,3:0:0:0:
56,121,58892,6,0,L|171:112,3,90,0|0|0|0,3:0|3:0|3:0|3:0,0:0:0:0:
359,74,59458,2,0,L|251:66,1,90,8|0,3:2|3:2,0:0:0:0:
55,57,59741,1,8,3:2:0:0:
194,108,59883,6,0,L|6:89,1,180,8|2,3:2|3:2,0:0:0:0:
157,183,60307,2,0,L|64:179,1,90,0|0,3:0|3:0,0:0:0:0:
355,119,60590,2,0,L|243:114,1,90,8|0,3:2|3:0,0:0:0:0:
498,82,60873,2,0,L|379:73,1,90,10|8,3:2|3:2,0:0:0:0:
112,185,61156,5,4,3:2:0:0:
242,147,61298,1,0,3:0:0:0:
112,185,61440,1,0,3:0:0:0:
416,170,61581,1,0,3:0:0:0:
286,132,61723,1,8,3:2:0:0:
416,170,61865,1,0,3:0:0:0:
188,88,62006,1,8,3:2:0:0:
330,83,62147,1,0,3:0:0:0:
33,77,62289,5,0,3:0:0:0:
171,45,62430,1,8,3:0:0:0:
437,27,62572,1,0,3:0:0:0:
100,129,62713,1,0,3:0:0:0:
238,97,62854,1,8,3:2:0:0:
492,71,62996,1,0,3:0:0:0:
170,179,63138,1,4,3:0:0:0:
400,145,63279,1,4,3:0:0:0:
100,114,63421,5,0,3:0:0:0:
232,83,63562,1,0,3:0:0:0:
116,49,63704,1,0,3:0:0:0:
405,46,63845,1,0,3:0:0:0:
174,140,63987,1,0,3:0:0:0:
311,143,64128,1,8,3:2:0:0:
94,233,64270,1,0,3:0:0:0:
457,234,64411,1,8,3:2:0:0:
249,146,64553,6,0,L|247:22,1,90,0|8,3:0|3:2,0:0:0:0:
495,79,64836,2,0,L|397:76,1,90,0|0,3:0|3:0,0:0:0:0:
58,91,65119,2,0,L|172:86,1,90,0|0,3:2|3:0,0:0:0:0:
380,79,65402,1,8,3:2:0:0:
141,87,65543,1,8,3:2:0:0:
396,47,65685,6,0,L|376:44,1,11.25,0|0,3:2|3:2,0:0:0:0:
259,32,65826,2,0,L|276:28,1,11.25,0|0,3:2|3:2,0:0:0:0:
469,42,65968,2,0,P|489:64|419:168,1,180,8|0,0:0|0:0,0:0:0:0:
243,119,66534,1,0,0:0:0:0:
377,123,66675,6,0,L|381:225,1,90,0|2,0:0|0:0,0:0:0:0:
153,279,66958,2,0,L|368:256,1,180,0|0,0:0|3:0,0:0:0:0:
215,186,67383,6,0,L|309:171,1,90,10|0,0:0|3:0,0:0:0:0:
453,125,67595,1,0,3:0:0:0:
303,171,67666,1,8,3:2:0:0:
303,171,67736,1,0,3:0:0:0:
166,76,67807,1,0,3:0:0:0:
114,74,67877,1,0,3:0:0:0:
348,42,67949,6,0,P|395:50|388:147,1,135,4|0,3:2|0:0,0:0:0:0:
197,184,68232,2,0,L|91:182,1,90,8|0,0:0|0:0,0:0:0:0:
399,134,68515,1,0,3:0:0:0:
264,78,68656,1,0,3:0:0:0:
489,76,68798,2,0,L|498:192,1,90,8|0,0:0|3:0,0:0:0:0:
147,203,69081,6,0,L|254:190,2,90,0|0|8,0:0|3:0|0:0,0:0:0:0:
443,93,69506,1,0,0:0:0:0:
312,61,69647,1,0,3:0:0:0:
443,93,69789,1,0,3:0:0:0:
157,89,69930,1,8,0:0:0:0:
388,38,70072,1,0,3:0:0:0:
54,141,70213,6,0,P|34:93|126:52,1,135,0|0,3:0|0:0,0:0:0:0:
283,63,70496,2,0,L|167:53,1,90,8|0,0:0|0:0,0:0:0:0:
341,147,70779,2,0,L|458:122,1,90,0|0,3:0|3:0,0:0:0:0:
156,103,71062,1,8,0:0:0:0:
472,86,71204,6,0,L|275:73,1,180,0|0,3:0|3:0,0:0:0:0:
33,66,71628,2,0,L|146:53,1,90,8|0,0:0|0:0,0:0:0:0:
353,89,71911,1,0,3:0:0:0:
214,74,72053,1,0,3:0:0:0:
447,136,72194,1,8,0:0:0:0:
116,92,72336,1,0,3:0:0:0:
496,71,72477,6,0,L|362:57,1,135,4|0,3:2|0:0,0:0:0:0:
182,158,72760,2,0,L|176:273,1,90,8|0,0:0|0:0,0:0:0:0:
456,249,73043,2,0,L|330:242,1,90,0|0,3:0|3:0,0:0:0:0:
115,158,73326,1,8,0:0:0:0:
250,117,73468,6,0,L|50:102,1,180,0|0,3:0|3:0,0:0:0:0:
211,60,73892,2,0,L|102:50,1,90,8|0,0:0|0:0,0:0:0:0:
390,50,74175,2,0,L|501:40,1,90,0|0,3:0|3:0,0:0:0:0:
329,175,74458,2,0,L|456:159,1,90,8|0,0:0|3:0,0:0:0:0:
106,121,74741,6,0,L|196:111,1,90,0|0,3:0|0:0,0:0:0:0:
431,82,75024,1,8,0:0:0:0:
293,35,75166,2,0,L|423:26,2,90,0|0|0,0:0|3:0|3:0,0:0:0:0:
49,153,75590,1,8,0:0:0:0:
297,125,75732,6,0,L|110:110,1,180,4|0,3:2|3:0,0:0:0:0:
403,103,76156,2,0,L|405:231,1,90,8|0,0:0|0:0,0:0:0:0:
267,247,76440,2,0,L|387:232,1,90,0|0,3:0|3:0,0:0:0:0:
131,163,76723,1,12,0:0:0:0:
434,95,76864,1,8,0:0:0:0:
91,101,77006,6,0,L|250:77,1,135,4|0,3:2|0:0,0:0:0:0:
402,57,77289,1,8,0:0:0:0:
201,125,77430,2,0,L|197:237,1,90,0|0,0:0|3:0,0:0:0:0:
456,272,77713,1,0,3:0:0:0:
191,205,77855,2,0,L|301:196,1,90,8|0,0:0|3:0,0:0:0:0:
26,118,78138,6,0,L|182:102,1,135
361,73,78421,1,8,0:0:0:0:
62,195,78562,2,0,L|59:65,1,90,0|0,0:0|3:0,0:0:0:0:
389,99,78845,1,0,3:0:0:0:
128,87,78987,2,0,L|234:78,1,90,8|0,0:0|3:0,0:0:0:0:
491,80,79270,6,0,L|330:66,1,135,0|0,3:0|0:0,0:0:0:0:
162,167,79553,1,8,0:0:0:0:
436,113,79694,2,0,L|336:108,1,90,0|0,0:0|3:0,0:0:0:0:
41,83,79977,2,0,L|152:74,1,90,0|8,3:0|0:0,0:0:0:0:
490,58,80260,6,0,L|274:52,1,180,4|0,3:2|3:0,0:0:0:0:
52,176,80685,2,0,P|42:125|111:72,1,135,8|0,0:0|0:0,0:0:0:0:
303,130,80968,1,0,3:0:0:0:
30,57,81109,1,4,3:2:0:0:
321,50,81251,2,0,L|206:46,1,90,8|0,0:0|3:0,0:0:0:0:
453,59,81534,6,0,P|490:88|430:157,1,135,4|0,3:2|0:0,0:0:0:0:
231,185,81817,2,0,L|126:178,1,90,8|0,0:0|0:0,0:0:0:0:
401,110,82100,2,0,L|303:104,2,90,0|0|8,3:0|3:0|0:0,0:0:0:0:
158,270,82524,6,0,L|367:258,1,180,0|0,3:0|3:0,0:0:0:0:
206,189,82949,2,0,L|310:182,1,90,8|0,0:0|0:0,0:0:0:0:
36,111,83232,2,0,L|135:104,1,90,0|0,3:0|3:0,0:0:0:0:
347,99,83515,1,8,0:0:0:0:
111,188,83656,1,0,3:0:0:0:
414,107,83798,6,0,L|248:87,1,135,0|0,3:0|0:0,0:0:0:0:
54,72,84081,2,0,L|168:62,1,90,12|0,0:0|0:0,0:0:0:0:
400,71,84364,1,0,3:0:0:0:
271,39,84506,1,4,3:2:0:0:
495,100,84647,1,8,0:0:0:0:
204,208,84789,6,0,L|408:196,1,180,0|0,3:0|3:0,0:0:0:0:
144,99,85213,2,0,L|41:94,1,90,8|0,0:0|0:0,0:0:0:0:
365,71,85496,2,0,L|488:60,1,90,0|0,3:0|3:0,0:0:0:0:
142,179,85779,1,8,0:0:0:0:
376,183,85921,1,0,3:0:0:0:
40,160,86062,6,0,P|13:125|83:71,1,135,4|0,3:2|0:0,0:0:0:0:
289,92,86345,2,0,L|401:83,1,90,8|0,0:0|0:0,0:0:0:0:
64,188,86628,2,0,L|166:177,1,90,0|0,3:0|3:0,0:0:0:0:
359,125,86911,1,8,0:0:0:0:
221,81,87053,1,0,3:0:0:0:
490,82,87194,6,0,L|376:71,2,90,0|0|8,0:0|3:0|0:0,0:0:0:0:
144,212,87619,1,0,0:0:0:0:
269,177,87760,1,0,3:0:0:0:
142,217,87902,1,0,3:0:0:0:
409,99,88043,1,8,0:0:0:0:
138,75,88185,1,0,3:0:0:0:
482,57,88326,6,0,L|346:44,1,135,0|0,3:0|0:0,0:0:0:0:
190,76,88609,2,0,L|308:73,1,90,8|0,0:0|0:0,0:0:0:0:
137,32,88892,2,0,L|42:26,1,90,0|0,3:0|3:0,0:0:0:0:
318,193,89175,1,8,0:0:0:0:
81,154,89317,6,0,L|299:134,1,180,0|0,3:0|3:0,0:0:0:0:
33,79,89741,2,0,L|138:66,1,90,8|0,0:0|0:0,0:0:0:0:
397,55,90024,2,0,L|496:44,1,90,0|0,3:0|3:0,0:0:0:0:
140,149,90307,2,0,L|21:136,1,90,8|0,0:0|3:0,0:0:0:0:
399,112,90590,6,0,L|239:100,1,135,4|0,3:2|0:0,0:0:0:0:
64,67,90873,2,0,L|166:55,1,90,8|0,0:0|0:0,0:0:0:0:
356,44,91156,2,0,L|467:35,1,90,0|0,3:0|3:0,0:0:0:0:
192,187,91440,1,8,0:0:0:0:
327,187,91581,1,0,3:0:0:0:
65,117,91723,6,0,L|166:108,2,90,0|0|8,0:0|3:0|0:0,0:0:0:0:
386,98,92147,1,0,0:0:0:0:
257,53,92289,1,0,3:0:0:0:
386,98,92430,1,0,3:0:0:0:
146,185,92572,2,0,L|265:180,1,90,8|0,0:0|3:0,0:0:0:0:
37,120,92855,6,0,P|23:74|93:24,1,135,4|0,3:2|0:0,0:0:0:0:
288,56,93138,2,0,L|401:47,1,90,8|0,0:0|0:0,0:0:0:0:
238,139,93421,2,0,L|340:131,1,90,0|0,3:0|3:0,0:0:0:0:
109,97,93704,1,8,0:0:0:0:
357,177,93845,6,0,L|149:166,1,180,4|0,3:2|3:0,0:0:0:0:
456,188,94270,2,0,L|465:295,1,90,8|0,0:0|0:0,0:0:0:0:
310,299,94553,2,0,L|299:175,1,90,0|0,3:0|3:0,0:0:0:0:
29,111,94836,2,0,L|20:15,1,90,12|0,0:0|3:0,0:0:0:0:
325,99,95119,6,0,L|109:95,1,180,4|8,3:2|0:0,0:0:0:0:
287,194,95543,1,0,0:0:0:0:
59,114,95685,2,0,L|179:108,1,90,0|0,3:0|3:0,0:0:0:0:
284,51,95968,2,0,L|179:44,1,90,8|0,0:0|3:0,0:0:0:0:
421,129,96251,6,0,L|430:257,1,90,0|0,0:0|3:0,0:0:0:0:
288,296,96534,2,0,L|382:287,1,90,8|0,0:0|0:0,0:0:0:0:
236,194,96817,2,0,L|347:180,1,90,0|0,3:0|3:0,0:0:0:0:
187,103,97100,2,0,L|285:90,1,90,8|8,0:0|0:0,0:0:0:0:
33,79,97383,6,0,L|138:62,1,90,4|0,3:2|3:0,0:0:0:0:
404,67,97666,1,0,3:0:0:0:
201,174,97807,2,0,L|316:167,1,90,4|0,3:2|3:0,0:0:0:0:
39,94,98090,1,0,3:0:0:0:
345,115,98232,1,8,3:2:0:0:
136,72,98373,6,0,L|350:57,1,180,8|0,3:2|0:0,0:0:0:0:
178,154,98798,2,0,L|231:152,1,45,2|0,0:0|0:0,0:0:0:0:
365,150,98940,1,0,3:0:0:0:
222,152,99010,1,0,3:0:0:0:
365,150,99081,2,0,L|296:154,1,45,0|0,3:0|0:0,0:0:0:0:
115,87,99223,2,0,L|1:85,2,90,0|8|0,3:0|3:2|3:0,0:0:0:0:
377,88,99647,6,0,P|427:99|438:201,1,135,4|0,3:2|0:0,0:0:0:0:
239,202,99930,2,0,L|360:203,1,90,8|0,0:0|0:0,0:0:0:0:
80,80,100213,1,0,3:0:0:0:
299,73,100355,2,0,L|168:74,1,90,0|8,3:0|0:0,0:0:0:0:
456,168,100638,6,0,L|284:155,1,135,0|0,3:0|0:0,0:0:0:0:
96,115,100921,1,0,3:0:0:0:
215,112,101062,2,0,L|221:228,1,90,8|0,0:0|0:0,0:0:0:0:
456,278,101345,1,0,3:0:0:0:
324,215,101487,2,0,L|498:163,1,180,0|0,3:0|0:0,0:0:0:0:
374,133,101911,6,0,L|372:18,1,90,0|0,3:0|0:0,0:0:0:0:
111,100,102194,2,0,L|9:98,1,90,8|0,0:0|0:0,0:0:0:0:
261,205,102477,1,0,3:0:0:0:
141,122,102619,2,0,L|258:120,1,90,0|8,3:0|0:0,0:0:0:0:
21,190,102902,6,0,L|173:187,1,135,0|0,3:0|0:0,0:0:0:0:
371,169,103185,1,0,3:0:0:0:
255,120,103326,2,0,L|252:-6,1,90,8|0,0:0|0:0,0:0:0:0:
29,47,103609,1,0,3:0:0:0:
149,42,103751,1,0,3:0:0:0:
362,150,103892,1,8,0:0:0:0:
238,93,104034,1,0,3:0:0:0:
496,129,104175,6,0,L|388:121,1,90,4|0,3:2|0:0,0:0:0:0:
173,117,104458,1,8,0:0:0:0:
298,71,104600,1,0,0:0:0:0:
173,117,104741,1,0,3:0:0:0:
433,105,104883,2,0,L|323:100,1,90,0|8,3:0|0:0,0:0:0:0:
119,236,105166,6,0,L|286:224,1,135,0|0,3:0|0:0,0:0:0:0:
458,188,105449,1,0,3:0:0:0:
332,130,105590,2,0,L|325:18,1,90,8|0,0:0|0:0,0:0:0:0:
88,76,105873,1,0,3:0:0:0:
201,31,106015,2,0,L|12:15,1,180,0|0,3:0|0:0,0:0:0:0:
256,90,106440,6,0,L|260:150,1,45,0|0,3:0|0:0,0:0:0:0:
208,169,106581,1,0,3:0:0:0:
440,168,106723,1,8,0:0:0:0:
343,101,106864,2,0,L|340:35,1,45,0|0,3:0|0:0,0:0:0:0:
398,27,107006,1,0,0:0:0:0:
155,83,107147,1,0,3:0:0:0:
281,43,107289,1,8,0:0:0:0:
68,37,107430,2,0,L|144:33,1,45,8|0,0:0|0:0,0:0:0:0:
260,141,107572,6,0,L|265:208,1,45,8|8,0:0|0:0,0:0:0:0:
406,224,107713,2,0,L|415:301,1,45,8|8,0:0|0:0,0:0:0:0:
259,289,107855,2,0,L|154:280,1,90,8|0,0:0|3:0,0:0:0:0:
424,126,108138,1,0,3:0:0:0:
301,86,108279,1,8,0:0:0:0:
177,56,108421,1,8,3:2:0:0:
54,37,108562,1,8,3:2:0:0:
335,198,108704,5,4,3:2:0:0:
221,146,108845,2,0,L|215:42,1,90,0|8,3:0|0:0,0:0:0:0:
341,57,109128,2,0,L|130:44,1,180,0|0,0:0|3:0,0:0:0:0:
392,156,109553,1,8,0:0:0:0:
259,148,109694,6,0,L|260:267,1,90,0|0,3:0|0:0,0:0:0:0:
350,289,109977,1,0,3:0:0:0:
113,211,110119,2,0,P|79:177|131:117,1,135,8|0,0:0|0:0,0:0:0:0:
283,108,110402,2,0,L|285:217,1,90,0|0,3:0|3:0,0:0:0:0:
415,200,110685,2,0,L|504:211,1,90,8|0,0:0|0:0,0:0:0:0:
266,100,110968,5,0,3:0:0:0:
146,129,111110,2,0,L|136:22,1,90,0|8,3:0|0:0,0:0:0:0:
21,46,111393,1,0,0:0:0:0:
150,104,111534,2,0,L|148:6,1,90,0|0,0:0|3:0,0:0:0:0:
356,196,111817,1,8,0:0:0:0:
228,151,111959,6,0,L|225:48,1,90,0|0,3:0|0:0,0:0:0:0:
99,43,112242,1,0,3:0:0:0:
381,68,112383,2,0,P|431:82|431:157,1,135,8|0,0:0|0:0,0:0:0:0:
234,186,112666,2,0,L|331:174,1,90,0|0,3:0|3:0,0:0:0:0:
46,124,112949,2,0,L|154:100,1,90,8|0,0:0|3:0,0:0:0:0:
389,144,113232,5,0,3:0:0:0:
264,101,113374,1,0,3:0:0:0:
470,96,113515,1,8,0:0:0:0:
333,61,113657,2,0,L|518:45,1,180,0|0,0:0|3:0,0:0:0:0:
221,196,114081,1,8,0:0:0:0:
333,150,114223,6,0,L|334:46,1,90,0|0,3:0|0:0,0:0:0:0:
467,64,114506,1,0,3:0:0:0:
181,103,114647,2,0,L|55:87,1,90,8|0,0:0|0:0,0:0:0:0:
324,60,114930,2,0,L|211:48,1,90,0|0,3:0|3:0,0:0:0:0:
488,19,115213,2,0,L|381:11,1,90,8|8,0:0|0:0,0:0:0:0:
93,182,115496,5,0,3:0:0:0:
218,129,115638,1,0,3:0:0:0:
91,188,115779,1,8,0:0:0:0:
346,165,115921,2,0,L|144:141,1,180,0|0,0:0|3:0,0:0:0:0:
435,93,116345,1,8,0:0:0:0:
189,88,116487,6,0,P|120:93|101:194,1,180,0|0,3:0|3:0,0:0:0:0:
231,202,116912,2,0,L|211:200,1,11.25,8|0,0:0|0:0,0:0:0:0:
91,169,117053,2,0,L|111:162,1,11.25,0|0,3:0|0:0,0:0:0:0:
398,123,117195,6,0,L|380:114,12,11.25,0|0|0|0|0|0|0|0|0|0|0|0|0,3:0|0:0|0:0|0:0|0:0|0:0|0:0|0:0|3:0|0:0|0:0|0:0|0:0,0:0:0:0:
191,128,117478,1,10,0:0:0:0:
398,123,117619,1,10,0:0:0:0:
93,77,117761,5,4,3:2:0:0:
225,74,117902,2,0,L|232:171,1,90,0|2,3:0|0:0,0:0:0:0:
103,233,118185,2,0,L|314:223,1,180
193,168,118609,2,0,L|193:42,1,90,2|0,0:0|0:0,0:0:0:0:
282,76,118892,6,0,L|181:78,1,90,2|0,0:0|0:0,0:0:0:0:
53,59,119176,2,0,P|33:118|83:208,1,135,2|0,0:0|0:0,0:0:0:0:
155,217,119459,1,0,3:0:0:0:
154,261,119529,1,0,0:0:0:0:
153,306,119600,1,0,3:0:0:0:
284,234,119742,2,0,L|373:239,1,90,8|2,0:0|0:0,0:0:0:0:
64,112,120025,5,4,3:2:0:0:
191,81,120166,2,0,L|199:180,1,90,0|8,3:0|0:0,0:0:0:0:
338,202,120449,2,0,L|138:187,1,180,2|0,0:0|3:0,0:0:0:0:
432,145,120874,1,8,0:0:0:0:
303,133,121015,6,0,L|293:26,1,90,0|0,3:0|0:0,0:0:0:0:
166,39,121298,1,0,3:0:0:0:
413,187,121440,2,0,L|264:157,1,135,8|0,0:0|0:0,0:0:0:0:
48,145,121723,2,0,L|161:126,1,90,0|0,3:0|3:0,0:0:0:0:
366,96,122006,1,8,0:0:0:0:
143,73,122147,1,8,3:2:0:0:
466,76,122289,6,0,L|370:68,2,90,0|0|8,3:0|3:0|0:0,0:0:0:0:
331,146,122713,2,0,L|429:135,2,90,0|0|0,0:0|0:0|3:0,0:0:0:0:
33,131,123138,2,0,L|130:115,1,90,8|0,0:0|3:0,0:0:0:0:
393,103,123421,5,0,0:0:0:0:
270,77,123562,1,0,3:0:0:0:
393,103,123704,1,8,0:0:0:0:
88,96,123845,1,0,0:0:0:0:
223,74,123986,1,0,3:0:0:0:
88,96,124128,1,0,3:0:0:0:
318,47,124270,1,8,0:0:0:0:
185,73,124412,1,0,3:0:0:0:
451,165,124553,6,0,L|309:136,1,135,0|0,3:0|0:0,0:0:0:0:
104,117,124836,1,8,0:0:0:0:
336,61,124978,1,0,0:0:0:0:
96,50,125119,1,0,3:0:0:0:
222,30,125261,1,0,3:0:0:0:
448,84,125402,1,8,0:0:0:0:
172,81,125544,1,0,0:0:0:0:
491,162,125685,6,0,L|324:135,1,135,2|0,3:2|0:0,0:0:0:0:
228,116,125968,2,0,L|337:101,1,90,10|0,0:0|0:0,0:0:0:0:
103,94,126251,1,10,3:2:0:0:
352,182,126393,1,8,3:2:0:0:
71,247,126534,1,8,3:2:0:0:
413,271,126676,1,8,3:2:0:0:
23,181,126817,5,4,3:2:0:0:
159,152,126959,2,0,L|162:56,1,90,0|0,3:0|3:0,0:0:0:0:
411,80,127242,2,0,L|303:63,2,90,0|8|0,3:0|3:2|3:0,0:0:0:0:
271,141,127666,2,0,L|378:125,1,90,8|4,3:2|3:0,0:0:0:0:
126,115,127949,6,0,L|245:106,2,90,0|8|0,0:0|3:0|3:0,0:0:0:0:
258,69,128374,1,0,3:0:0:0:
30,72,128515,2,0,L|144:61,1,90,8|0,3:2|3:0,0:0:0:0:
320,215,128798,1,2,3:2:0:0:
180,191,128940,1,8,3:0:0:0:
456,121,129081,6,0,L|341:112,3,90,0|0|8|0,3:0|3:0|3:2|3:0,0:0:0:0:
153,74,129647,2,0,L|261:66,1,90,8|0,3:2|3:0,0:0:0:0:
457,57,129930,1,8,3:2:0:0:
318,108,130072,6,0,L|506:89,1,180,8|0,3:2|3:0,0:0:0:0:
355,183,130496,2,0,L|448:179,1,90,2|0,3:2|3:0,0:0:0:0:
157,119,130779,2,0,L|269:114,1,90,8|8,3:2|3:2,0:0:0:0:
16,82,131062,2,0,L|135:73,1,90,10|10,3:2|3:2,0:0:0:0:
400,185,131345,5,4,3:2:0:0:
270,147,131487,1,0,3:0:0:0:
400,185,131629,1,0,3:0:0:0:
96,170,131770,1,0,3:0:0:0:
226,132,131912,1,8,3:2:0:0:
96,170,132054,1,0,3:0:0:0:
324,88,132195,1,8,3:0:0:0:
182,83,132336,1,8,3:0:0:0:
479,77,132478,5,0,0:0:0:0:
341,45,132619,1,8,3:0:0:0:
75,27,132761,1,0,3:0:0:0:
412,129,132902,1,0,3:0:0:0:
274,97,133043,1,8,3:2:0:0:
20,71,133185,1,0,0:0:0:0:
342,179,133327,1,0,3:0:0:0:
112,145,133468,1,0,3:0:0:0:
412,114,133610,5,0,3:0:0:0:
280,83,133751,1,0,3:0:0:0:
396,49,133893,1,0,3:0:0:0:
107,46,134034,1,0,3:0:0:0:
338,140,134176,1,8,3:2:0:0:
201,143,134317,1,0,3:0:0:0:
418,233,134459,1,0,3:0:0:0:
55,234,134600,1,8,3:2:0:0:
263,146,134742,6,0,L|265:22,1,90,0|8,3:0|3:2,0:0:0:0:
17,79,135025,2,0,L|115:76,1,90,0|0,3:0|3:0,0:0:0:0:
454,91,135308,2,0,L|340:86,1,90,8|0,3:2|3:0,0:0:0:0:
132,79,135591,1,8,3:2:0:0:
371,87,135732,1,8,3:2:0:0:
116,47,135874,6,0,L|136:44,1,11.25,0|0,3:0|3:0,0:0:0:0:
253,32,136015,2,0,L|236:28,1,11.25,0|0,3:0|3:0,0:0:0:0:
43,42,136157,2,0,P|23:64|93:168,1,180,0|0,3:0|0:0,0:0:0:0:
269,119,136723,1,8,0:0:0:0:
135,123,136864,6,0,L|131:225,1,90,0|0,0:0|3:0,0:0:0:0:
359,279,137147,1,0,3:0:0:0:
291,251,137218,1,0,3:0:0:0:
359,279,137289,1,0,3:0:0:0:
486,236,137430,1,0,3:0:0:0:
363,196,137572,6,0,L|359:85,1,90,8|0,0:0|3:0,0:0:0:0:
177,110,137784,1,0,3:0:0:0:
231,184,137855,1,8,3:2:0:0:
177,110,137925,1,0,3:0:0:0:
323,68,137996,1,8,3:2:0:0:
375,66,138066,1,0,3:0:0:0:
164,42,138138,6,0,P|117:50|124:147,1,135,4|0,3:2|0:0,0:0:0:0:
315,184,138421,2,0,L|421:182,1,90,8|0,0:0|0:0,0:0:0:0:
113,134,138704,1,0,3:0:0:0:
248,78,138845,1,0,3:0:0:0:
23,76,138987,2,0,L|14:192,1,90,8|0,0:0|3:0,0:0:0:0:
365,203,139270,6,0,L|258:190,2,90,0|0|8,0:0|3:0|0:0,0:0:0:0:
69,93,139695,1,0,0:0:0:0:
200,61,139836,1,0,3:0:0:0:
69,93,139978,1,0,3:0:0:0:
355,89,140119,1,8,0:0:0:0:
124,38,140261,1,0,3:0:0:0:
458,141,140402,6,0,P|478:93|386:52,1,135,0|0,3:0|0:0,0:0:0:0:
229,63,140685,2,0,L|345:53,1,90,8|0,0:0|0:0,0:0:0:0:
171,147,140968,2,0,L|54:122,1,90,0|0,3:0|3:0,0:0:0:0:
356,103,141251,1,8,0:0:0:0:
40,86,141393,6,0,L|237:73,1,180,0|0,3:0|3:0,0:0:0:0:
479,66,141817,2,0,L|366:53,1,90,8|0,0:0|0:0,0:0:0:0:
159,89,142100,1,0,3:0:0:0:
298,74,142242,1,0,3:0:0:0:
65,136,142383,1,8,0:0:0:0:
396,92,142525,1,0,3:0:0:0:
16,71,142666,6,0,L|150:57,1,135,4|0,3:2|0:0,0:0:0:0:
330,158,142949,2,0,L|336:273,1,90,8|0,0:0|0:0,0:0:0:0:
56,249,143232,2,0,L|182:242,1,90,0|0,3:0|3:0,0:0:0:0:
397,158,143515,1,8,0:0:0:0:
262,117,143657,6,0,L|462:102,1,180,0|0,3:0|3:0,0:0:0:0:
301,60,144081,2,0,L|410:50,1,90,8|0,0:0|0:0,0:0:0:0:
122,50,144364,2,0,L|11:40,1,90,0|0,3:0|3:0,0:0:0:0:
183,175,144647,2,0,L|56:159,1,90,8|0,0:0|3:0,0:0:0:0:
406,121,144930,6,0,L|316:111,1,90,0|0,3:0|0:0,0:0:0:0:
81,82,145213,1,8,0:0:0:0:
219,35,145355,2,0,L|89:26,2,90,0|0|0,0:0|3:0|3:0,0:0:0:0:
463,153,145779,1,8,0:0:0:0:
215,125,145921,6,0,L|402:110,1,180,4|0,3:2|3:0,0:0:0:0:
109,103,146345,2,0,L|107:231,1,90,8|0,0:0|0:0,0:0:0:0:
245,247,146629,2,0,L|125:232,1,90,0|0,3:0|3:0,0:0:0:0:
381,163,146912,1,12,0:0:0:0:
78,95,147053,1,8,0:0:0:0:
421,101,147195,6,0,L|262:77,1,135,4|0,3:2|0:0,0:0:0:0:
110,57,147478,1,8,0:0:0:0:
311,125,147619,2,0,L|315:237,1,90,0|0,0:0|3:0,0:0:0:0:
56,272,147902,1,0,3:0:0:0:
321,205,148044,2,0,L|211:196,1,90,8|0,0:0|3:0,0:0:0:0:
486,118,148327,6,0,L|330:102,1,135
151,73,148610,1,8,0:0:0:0:
450,195,148751,2,0,L|453:65,1,90,0|0,0:0|3:0,0:0:0:0:
123,99,149034,1,0,3:0:0:0:
384,87,149176,2,0,L|278:78,1,90,8|0,0:0|3:0,0:0:0:0:
21,80,149459,6,0,L|182:66,1,135,0|0,3:0|0:0,0:0:0:0:
350,167,149742,1,8,0:0:0:0:
76,113,149883,2,0,L|176:108,1,90,0|0,0:0|3:0,0:0:0:0:
471,83,150166,2,0,L|360:74,1,90,0|8,3:0|0:0,0:0:0:0:
22,58,150449,6,0,L|238:52,1,180,4|0,3:2|3:0,0:0:0:0:
460,176,150874,2,0,P|470:125|401:72,1,135,8|0,0:0|0:0,0:0:0:0:
209,130,151157,1,0,3:0:0:0:
482,57,151298,1,4,3:2:0:0:
191,50,151440,2,0,L|306:46,1,90,8|0,0:0|3:0,0:0:0:0:
59,59,151723,6,0,P|22:88|82:157,1,135,4|0,3:2|0:0,0:0:0:0:
281,185,152006,2,0,L|386:178,1,90,8|0,0:0|0:0,0:0:0:0:
111,110,152289,2,0,L|209:104,2,90,0|0|8,3:0|3:0|0:0,0:0:0:0:
354,270,152713,6,0,L|145:258,1,180,0|0,3:0|3:0,0:0:0:0:
306,189,153138,2,0,L|202:182,1,90,8|0,0:0|0:0,0:0:0:0:
476,111,153421,2,0,L|377:104,1,90,0|0,3:0|3:0,0:0:0:0:
165,99,153704,1,8,0:0:0:0:
401,188,153845,1,0,3:0:0:0:
98,107,153987,6,0,L|264:87,1,135,0|0,3:0|0:0,0:0:0:0:
458,72,154270,2,0,L|344:62,1,90,12|0,0:0|0:0,0:0:0:0:
112,71,154553,1,0,3:0:0:0:
241,39,154695,1,4,3:2:0:0:
17,100,154836,1,8,0:0:0:0:
308,208,154978,6,0,L|104:196,1,180,0|0,3:0|3:0,0:0:0:0:
368,99,155402,2,0,L|471:94,1,90,8|0,0:0|0:0,0:0:0:0:
147,71,155685,2,0,L|24:60,1,90,0|0,3:0|3:0,0:0:0:0:
370,179,155968,1,8,0:0:0:0:
136,183,156110,1,0,3:0:0:0:
472,160,156251,6,0,P|499:125|429:71,1,135,4|0,3:2|0:0,0:0:0:0:
223,92,156534,2,0,L|111:83,1,90,8|0,0:0|0:0,0:0:0:0:
448,188,156817,2,0,L|346:177,1,90,0|0,3:0|3:0,0:0:0:0:
153,125,157100,1,8,0:0:0:0:
291,81,157242,1,0,3:0:0:0:
22,82,157383,6,0,L|136:71,2,90,0|0|8,0:0|3:0|0:0,0:0:0:0:
368,212,157808,1,0,0:0:0:0:
243,177,157949,1,0,3:0:0:0:
370,217,158091,1,0,3:0:0:0:
103,99,158232,1,8,0:0:0:0:
374,75,158374,1,0,3:0:0:0:
30,57,158515,6,0,L|166:44,1,135,0|0,3:0|0:0,0:0:0:0:
322,76,158798,2,0,L|204:73,1,90,8|0,0:0|0:0,0:0:0:0:
375,32,159081,2,0,L|470:26,1,90,0|0,3:0|3:0,0:0:0:0:
194,193,159364,1,8,0:0:0:0:
431,154,159506,6,0,L|213:134,1,180,0|0,3:0|3:0,0:0:0:0:
479,79,159930,2,0,L|374:66,1,90,8|0,0:0|0:0,0:0:0:0:
115,55,160213,2,0,L|16:44,1,90,0|0,3:0|3:0,0:0:0:0:
372,149,160496,2,0,L|491:136,1,90,8|0,0:0|3:0,0:0:0:0:
113,112,160779,6,0,L|273:100,1,135,4|0,3:2|0:0,0:0:0:0:
448,67,161062,2,0,L|346:55,1,90,8|0,0:0|0:0,0:0:0:0:
156,44,161345,2,0,L|45:35,1,90,0|0,3:0|3:0,0:0:0:0:
320,187,161629,2,0,L|207:182,1,90,8|0,0:0|3:0,0:0:0:0:
447,117,161912,6,0,L|346:108,2,90,0|0|8,0:0|3:0|0:0,0:0:0:0:
126,98,162336,1,0,0:0:0:0:
255,53,162478,1,0,3:0:0:0:
126,98,162619,1,0,3:0:0:0:
366,185,162761,2,0,L|247:180,1,90,8|0,0:0|3:0,0:0:0:0:
475,120,163044,6,0,P|489:74|419:24,1,135,4|0,3:2|0:0,0:0:0:0:
224,56,163327,2,0,L|111:47,1,90,8|0,0:0|0:0,0:0:0:0:
274,139,163610,2,0,L|172:131,1,90,0|0,3:0|3:0,0:0:0:0:
403,97,163893,1,8,0:0:0:0:
155,177,164034,6,0,L|363:166,1,180,4|0,3:2|3:0,0:0:0:0:
56,188,164459,2,0,L|47:295,1,90,8|0,0:0|0:0,0:0:0:0:
202,299,164742,2,0,L|213:175,1,90,0|0,3:0|3:0,0:0:0:0:
483,111,165025,2,0,L|492:15,1,90,12|0,0:0|3:0,0:0:0:0:
187,99,165308,6,0,L|403:95,1,180,4|8,3:2|0:0,0:0:0:0:
225,194,165732,1,0,0:0:0:0:
453,114,165874,2,0,L|333:108,1,90,0|0,3:0|3:0,0:0:0:0:
228,51,166157,2,0,L|333:44,1,90,8|0,0:0|3:0,0:0:0:0:
91,129,166440,6,0,L|82:257,1,90,0|0,0:0|3:0,0:0:0:0:
224,296,166723,2,0,L|130:287,1,90,8|0,0:0|0:0,0:0:0:0:
276,194,167006,2,0,L|165:180,1,90,0|0,3:0|3:0,0:0:0:0:
325,103,167289,2,0,L|227:90,1,90,8|8,0:0|0:0,0:0:0:0:
479,79,167572,6,0,L|374:62,1,90,4|0,3:2|3:0,0:0:0:0:
108,67,167855,1,0,3:0:0:0:
311,174,167996,2,0,L|196:167,1,90,4|0,3:2|3:0,0:0:0:0:
473,94,168279,1,0,3:0:0:0:
167,115,168421,1,8,3:2:0:0:
376,72,168562,6,0,L|162:57,1,180,8|0,3:2|0:0,0:0:0:0:
334,154,168987,2,0,L|281:152,1,45,2|0,0:0|0:0,0:0:0:0:
147,150,169129,1,0,3:0:0:0:
290,152,169199,1,0,3:0:0:0:
147,150,169270,2,0,L|216:154,1,45,0|0,3:0|0:0,0:0:0:0:
391,68,169411,2,0,L|458:67,2,45,0|0|8,3:0|0:0|3:2,0:0:0:0:
256,73,169694,1,0,3:0:0:0:
488,192,169836,5,0,3:0:0:0:
190,137,169977,2,0,L|394:121,1,180,4|0,3:2|3:0,0:0:0:0:
64,93,170402,2,0,L|197:86,1,90,8|0,0:0|0:0,0:0:0:0:
280,80,170685,1,8,3:0:0:0:
64,93,170826,6,0,L|197:86,1,90,4|0,3:0|0:0,0:0:0:0:
280,80,171109,1,8,3:0:0:0:
153,88,171251,2,0,L|47:92,1,90,0|0,3:0|3:0,0:0:0:0:
356,156,171534,2,0,L|370:283,1,90,8|0,0:0|0:0,0:0:0:0:
295,270,171746,1,0,0:0:0:0:
472,194,171817,2,0,L|382:190,1,90,0|0,3:0|3:0,0:0:0:0:
93,126,172100,5,0,3:0:0:0:
319,91,172241,2,0,L|190:86,1,90,0|0,0:0|3:0,0:0:0:0:
359,166,172524,1,0,3:0:0:0:
117,213,172666,1,8,0:0:0:0:
244,156,172807,1,0,0:0:0:0:
117,213,172949,1,0,3:0:0:0:
336,93,173090,6,0,L|144:91,1,180,0|8,3:0|0:0,0:0:0:0:
381,188,173515,1,0,0:0:0:0:
255,157,173656,1,0,3:0:0:0:
455,142,173798,2,0,L|506:143,2,45,8|0|0,0:0|0:0|3:0,0:0:0:0:
212,61,174081,1,2,3:2:0:0:
349,52,174223,1,8,0:0:0:0:
48,177,174364,5,4,3:2:0:0:
282,151,174506,2,0,L|284:38,1,90,0|0,0:0|3:0,0:0:0:0:
161,41,174789,1,0,3:0:0:0:
444,83,174930,1,8,0:0:0:0:
319,40,175072,1,0,0:0:0:0:
444,83,175213,1,0,3:0:0:0:
209,182,175355,6,0,L|341:170,1,90,2|0,3:2|0:0,0:0:0:0:
50,109,175638,1,0,3:0:0:0:
304,71,175779,2,0,L|185:70,1,90,8|0,3:0|0:0,0:0:0:0:
466,105,176062,2,0,L|303:83,1,135,8|0,0:0|0:0,0:0:0:0:
158,94,176345,1,0,3:0:0:0:
286,98,176487,1,0,3:0:0:0:
70,189,176628,6,0,L|67:85,1,90,0|0,3:0|3:0,0:0:0:0:
335,54,176911,1,8,0:0:0:0:
72,57,177053,1,0,3:0:0:0:
335,54,177194,2,0,L|223:55,1,90,8|0,0:0|0:0,0:0:0:0:
372,148,177477,1,0,3:0:0:0:
153,98,177619,6,0,L|360:89,1,180,0|2,3:0|3:2,0:0:0:0:
104,30,178043,2,0,L|6:26,1,90,0|0,0:0|3:0,0:0:0:0:
285,176,178326,1,8,0:0:0:0:
155,124,178468,1,8,3:0:0:0:
396,93,178609,1,2,3:2:0:0:
107,83,178751,1,0,3:0:0:0:
456,37,178892,5,4,3:2:0:0:
330,26,179034,1,0,3:0:0:0:
456,37,179175,2,0,L|454:151,1,90,0|0,3:0|0:0,0:0:0:0:
195,182,179458,1,8,0:0:0:0:
322,128,179600,1,0,3:0:0:0:
448,98,179741,1,8,3:0:0:0:
102,157,179883,6,0,P|146:131|75:47,1,180,8|2,3:0|3:2,0:0:0:0:
354,46,180307,2,0,L|463:42,1,90,0|0,3:0|3:0,0:0:0:0:
212,115,180590,2,0,L|281:113,2,45,8|0|0,0:0|0:0|3:0,0:0:0:0:
341,220,180873,1,8,3:0:0:0:
77,155,181015,1,0,0:0:0:0:
377,102,181156,5,0,3:0:0:0:
251,106,181298,2,0,L|246:-7,1,90,0|0,0:0|3:0,0:0:0:0:
118,39,181581,1,0,0:0:0:0:
405,167,181723,1,8,0:0:0:0:
275,81,181864,1,0,0:0:0:0:
405,167,182006,1,8,3:0:0:0:
94,187,182147,6,0,L|240:155,1,135,0|0,3:0|0:0,0:0:0:0:
381,87,182430,1,10,0:0:0:0:
128,69,182572,2,0,L|125:197,1,90,0|0,0:0|3:0,0:0:0:0:
351,238,182855,2,0,L|226:229,1,90,10|0,0:0|3:0,0:0:0:0:
490,163,183138,1,2,3:2:0:0:
238,146,183279,1,8,0:0:0:0:
490,163,183421,5,0,3:0:0:0:
369,123,183562,1,0,0:0:0:0:
490,163,183704,1,0,3:0:0:0:
238,146,183845,1,0,0:0:0:0:
369,123,183987,2,0,L|368:29,1,90,8|0,0:0|0:0,0:0:0:0:
496,24,184270,1,0,3:0:0:0:
192,226,184411,6,0,L|405:210,1,180,0|8,3:0|0:0,0:0:0:0:
249,152,184836,2,0,L|246:42,1,90,0|0,3:0|0:0,0:0:0:0:
26,76,185119,2,0,L|177:66,1,135,8|0,0:0|0:0,0:0:0:0:
343,52,185402,1,0,3:0:0:0:
480,46,185543,1,0,3:0:0:0:
209,166,185685,5,0,3:0:0:0:
336,117,185826,1,4,3:2:0:0:
49,135,185968,2,0,L|51:37,1,90,0|0,3:0|3:0,0:0:0:0:
345,37,186251,1,4,3:2:0:0:
216,28,186392,1,0,3:0:0:0:
442,173,186534,1,0,3:0:0:0:
167,37,186675,1,4,3:2:0:0:
296,28,186816,5,0,3:0:0:0:
70,173,186958,1,0,3:0:0:0:
319,101,187100,1,8,3:0:0:0:
192,100,187241,1,0,3:0:0:0:
470,91,187383,2,0,L|352:90,1,90,8|8,3:2|3:2,0:0:0:0:
129,94,187666,1,8,3:2:0:0:
484,182,187807,5,8,3:2:0:0:
412,112,187949,2,0,L|411:61,1,45,2|0,0:0|0:0,0:0:0:0:
350,85,188090,2,0,L|349:22,1,45
409,14,188232,2,0,L|461:14,2,45,2|2|2,0:0|0:0|0:0,0:0:0:0:
182,138,188515,1,10,0:0:0:0:
264,73,188656,2,0,L|213:75,1,45,2|0,0:0|0:0,0:0:0:0:
278,118,188798,2,0,L|217:125,1,45,2|0,3:2|0:0,0:0:0:0:
43,220,188940,5,10,0:0:0:0:
256,159,190213,5,4,0:0:0:0:
130,221,192477,5,0,0:0:0:0:
382,221,194741,5,0,0:0:0:0:
256,192,197006,12,0,199270,0:0:0:0:
161,140,200119,5,0,3:0:0:0:
290,78,200260,1,0,3:0:0:0:
115,61,200331,1,0,3:0:0:0:
376,42,200402,6,0,L|211:30,1,135,4|0,3:2|0:0,0:0:0:0:
391,178,200685,1,8,0:0:0:0:
293,122,200826,2,0,L|286:3,1,90,0|0,0:0|3:0,0:0:0:0:
43,104,201109,1,0,3:0:0:0:
251,40,201251,2,0,L|140:37,1,90,8|0,0:0|3:0,0:0:0:0:
443,133,201534,6,0,L|285:114,1,135
145,134,201817,1,8,0:0:0:0:
267,93,201958,2,0,L|268:-9,1,90,0|0,0:0|3:0,0:0:0:0:
22,63,202241,1,0,3:0:0:0:
253,83,202383,2,0,B|257:175|257:175|311:196,1,135,8|0,0:0|0:0,0:0:0:0:
506,255,202666,6,0,L|392:236,1,90,0|0,3:0|0:0,0:0:0:0:
155,133,202949,1,8,0:0:0:0:
378,126,203090,2,0,L|503:113,1,90,0|0,0:0|3:0,0:0:0:0:
213,70,203373,2,0,L|82:59,1,90,0|8,3:0|0:0,0:0:0:0:
370,190,203656,6,0,L|167:185,1,180,4|0,3:2|3:0,0:0:0:0:
323,104,204010,1,0,0:0:0:0:
190,185,204081,2,0,L|191:295,1,90,8|0,0:0|0:0,0:0:0:0:
451,285,204364,2,0,L|326:275,1,90,0|0,3:0|3:0,0:0:0:0:
132,150,204647,1,10,0:0:0:0:
366,118,204789,1,0,3:0:0:0:
35,167,204930,6,0,P|18:250|40:340,1,135,4|0,3:2|0:0,0:0:0:0:
231,305,205213,1,8,0:0:0:0:
117,214,205355,1,0,0:0:0:0:
336,176,205496,2,0,L|270:157,1,45,0|0,3:0|0:0,0:0:0:0:
141,99,205638,2,0,L|200:92,1,45,0|0,3:0|0:0,0:0:0:0:
339,68,205779,2,0,L|263:59,1,45,8|0,0:0|0:0,0:0:0:0:
84,123,205921,6,0,P|145:105|86:36,1,180,0|0,3:0|3:0,0:0:0:0:
350,97,206345,2,0,L|360:212,1,90,8|0,0:0|0:0,0:0:0:0:
238,264,206628,2,0,L|329:246,1,90,0|0,3:0|3:0,0:0:0:0:
91,162,206911,1,8,0:0:0:0:
358,118,207053,1,0,3:0:0:0:
56,96,207194,6,0,L|212:83,1,135,0|0,3:0|0:0,0:0:0:0:
474,78,207477,1,12,3:2:0:0:
77,224,207760,1,0,3:0:0:0:
209,158,207902,1,2,3:2:0:0:
474,78,208043,1,8,0:0:0:0:
69,102,208185,6,0,L|196:91,1,90,4|0,3:2|0:0,0:0:0:0:
285,84,208468,1,0,3:0:0:0:
27,41,208609,2,0,L|130:39,1,90,8|0,0:0|3:0,0:0:0:0:
251,159,208892,2,0,L|141:151,1,90,0|0,3:0|3:0,0:0:0:0:
460,101,209175,1,8,0:0:0:0:
341,44,209317,1,8,0:0:0:0:
398,42,209387,1,0,0:0:0:0:
152,86,209458,6,0,P|106:90|94:171,1,135,4|0,3:2|0:0,0:0:0:0:
272,207,209741,2,0,L|282:301,1,90,8|0,0:0|0:0,0:0:0:0:
65,247,210024,1,0,3:0:0:0:
190,189,210166,1,0,3:0:0:0:
433,159,210307,1,8,0:0:0:0:
371,92,210449,1,0,3:0:0:0:
136,83,210590,5,0,0:0:0:0:
245,24,210732,1,0,3:0:0:0:
29,24,210873,1,8,0:0:0:0:
320,152,211015,1,0,0:0:0:0:
198,98,211156,1,0,3:0:0:0:
73,78,211298,1,0,3:0:0:0:
350,59,211440,1,8,0:0:0:0:
41,160,211581,1,0,0:0:0:0:
356,119,211723,6,0,L|233:103,1,90,0|0,3:0|3:0,0:0:0:0:
392,124,212006,2,0,P|414:194|400:263,1,135,8|0,0:0|0:0,0:0:0:0:
298,307,212289,2,0,L|397:288,1,90,0|0,3:0|3:0,0:0:0:0:
107,185,212572,1,8,0:0:0:0:
375,117,212713,6,0,L|179:107,1,180,0|0,3:0|3:0,0:0:0:0:
483,192,213138,1,8,0:0:0:0:
32,79,213421,1,0,3:0:0:0:
169,57,213562,1,0,3:0:0:0:
442,70,213704,1,8,0:0:0:0:
123,115,213845,1,8,0:0:0:0:
426,147,213987,6,0,L|281:136,1,135,4|0,3:2|0:0,0:0:0:0:
101,84,214270,1,8,0:0:0:0:
234,43,214411,1,0,0:0:0:0:
367,56,214553,1,0,3:0:0:0:
234,43,214694,1,0,3:0:0:0:
483,181,214836,2,0,L|361:171,1,90,8|0,0:0|0:0,0:0:0:0:
120,144,215119,5,0,0:0:0:0:
245,107,215260,1,0,3:0:0:0:
30,62,215402,1,8,0:0:0:0:
392,144,215543,1,0,0:0:0:0:
267,107,215684,1,0,3:0:0:0:
482,62,215826,1,0,3:0:0:0:
188,55,215968,1,8,0:0:0:0:
326,50,216109,1,0,3:0:0:0:
41,194,216251,6,0,P|20:115|59:45,1,135,4|0,3:2|0:0,0:0:0:0:
224,108,216534,2,0,L|230:208,1,90,8|0,0:0|0:0,0:0:0:0:
364,248,216817,2,0,L|463:238,1,90,0|0,3:0|3:0,0:0:0:0:
105,156,217100,1,8,0:0:0:0:
345,94,217241,6,0,L|143:78,1,180,4|0,3:2|3:0,0:0:0:0:
379,184,217666,1,8,0:0:0:0:
155,108,217949,1,0,3:0:0:0:
282,57,218090,1,0,3:0:0:0:
51,44,218232,1,10,0:0:0:0:
366,132,218373,1,0,3:0:0:0:
155,66,218515,6,0,L|359:61,1,180,4|8,3:2|0:0,0:0:0:0:
87,151,219081,2,0,L|116:148,1,22.5,0|0,3:0|0:0,0:0:0:0:
210,116,219223,1,0,3:0:0:0:
94,68,219364,1,8,0:0:0:0:
309,207,219506,6,0,L|116:194,1,180,0|0,3:0|3:0,0:0:0:0:
391,140,219930,1,8,0:0:0:0:
179,91,220213,1,0,3:0:0:0:
303,70,220355,1,0,3:0:0:0:
83,185,220496,1,8,0:0:0:0:
401,190,220638,1,8,0:0:0:0:
184,153,220779,6,0,L|214:152,1,22.5,4|0,3:2|3:0,0:0:0:0:
295,150,220921,1,0,3:0:0:0:
411,141,221062,1,8,0:0:0:0:
125,225,221204,2,0,L|155:224,1,22.5,4|0,3:2|3:0,0:0:0:0:
247,224,221346,1,0,3:0:0:0:
380,219,221487,1,0,3:0:0:0:
77,151,221628,2,0,L|103:151,1,22.5,12|0,3:2|3:0,0:0:0:0:
384,139,221770,6,0,P|423:127|395:53,1,135,4|0,3:2|0:0,0:0:0:0:
236,56,222053,2,0,L|235:109,1,45,0|0,3:0|3:0,0:0:0:0:
90,178,222194,1,0,3:0:0:0:
163,138,222336,1,8,0:0:0:0:
71,103,222477,1,0,3:0:0:0:
178,56,222619,1,8,3:2:0:0:
42,37,222760,1,8,3:2:0:0:
195,6,222902,1,8,3:2:0:0:
487,163,223043,6,0,P|427:149|401:78,1,135,4|0,3:2|0:0,0:0:0:0:
494,67,223326,2,0,L|394:62,1,90,8|0,0:0|0:0,0:0:0:0:
195,155,223609,1,0,3:0:0:0:
315,154,223751,1,0,3:0:0:0:
182,148,223892,1,8,0:0:0:0:
326,146,224034,1,0,3:0:0:0:
46,69,224175,5,0,0:0:0:0:
176,62,224317,1,0,3:0:0:0:
36,27,224458,1,8,0:0:0:0:
181,19,224600,1,0,0:0:0:0:
466,69,224741,1,0,3:0:0:0:
336,62,224883,1,0,3:0:0:0:
476,27,225024,1,8,0:0:0:0:
331,19,225166,1,0,3:0:0:0:
137,172,225307,5,0,3:0:0:0:
256,145,225449,1,0,0:0:0:0:
376,136,225590,1,8,0:0:0:0:
114,181,225732,1,0,0:0:0:0:
256,149,225874,1,0,3:0:0:0:
397,139,226015,1,0,3:0:0:0:
43,80,226156,1,8,0:0:0:0:
255,60,226298,1,0,3:0:0:0:
26,17,226440,5,0,0:0:0:0:
273,8,226581,1,0,3:0:0:0:
153,96,226723,1,8,0:0:0:0:
409,93,226864,1,0,0:0:0:0:
285,50,227006,1,0,3:0:0:0:
409,93,227147,1,0,3:0:0:0:
94,182,227289,1,8,0:0:0:0:
421,183,227430,1,0,3:0:0:0:
31,106,227572,6,0,L|135:100,1,90,4|0,3:2|0:0,0:0:0:0:
355,98,227855,1,8,0:0:0:0:
228,65,227996,1,0,0:0:0:0:
481,106,228138,2,0,L|377:100,1,90,0|0,3:0|3:0,0:0:0:0:
157,98,228421,1,8,0:0:0:0:
284,65,228562,1,0,3:0:0:0:
41,169,228704,5,0,0:0:0:0:
281,173,228845,1,0,3:0:0:0:
41,169,228987,1,8,0:0:0:0:
172,169,229128,1,0,0:0:0:0:
471,169,229270,1,0,3:0:0:0:
231,173,229411,1,0,3:0:0:0:
471,169,229553,1,8,0:0:0:0:
340,169,229694,1,0,3:0:0:0:
42,88,229836,6,0,L|147:87,1,90,0|0,3:0|0:0,0:0:0:0:
436,78,230119,1,8,0:0:0:0:
196,183,230260,2,0,L|295:184,1,90,0|0,0:0|3:0,0:0:0:0:
157,116,230543,1,0,3:0:0:0:
442,160,230685,1,8,0:0:0:0:
146,222,230826,6,0,L|341:224,1,180,4|0,3:2|3:0,0:0:0:0:
92,148,231251,2,0,L|86:50,1,90,8|0,0:0|0:0,0:0:0:0:
420,148,231534,2,0,L|426:50,1,90,0|0,3:0|3:0,0:0:0:0:
78,38,231817,1,12,0:0:0:0:
441,32,231958,1,8,0:0:0:0:
46,125,232100,5,4,3:2:0:0:
182,115,232241,1,0,0:0:0:0:
319,113,232383,1,8,0:0:0:0:
182,115,232524,1,0,0:0:0:0:
466,125,232666,1,0,3:0:0:0:
330,115,232807,1,0,3:0:0:0:
193,113,232949,1,8,0:0:0:0:
330,115,233090,1,0,3:0:0:0:
78,223,233232,5,0,0:0:0:0:
358,232,233373,1,0,3:0:0:0:
60,226,233515,1,8,0:0:0:0:
368,236,233656,1,0,0:0:0:0:
40,229,233798,1,0,3:0:0:0:
379,240,233939,1,0,3:0:0:0:
19,233,234081,1,8,0:0:0:0:
391,245,234222,1,8,0:0:0:0:
136,138,234364,5,4,3:2:0:0:
266,106,234506,1,0,3:0:0:0:
296,102,234541,1,0,0:0:0:0:
398,100,234647,1,8,0:0:0:0:
18,88,234789,1,4,3:2:0:0:
235,63,234931,1,0,3:0:0:0:
325,57,234966,1,0,0:0:0:0:
494,57,235072,1,0,3:0:0:0:
144,156,235213,1,12,3:2:0:0:
454,197,235355,6,0,P|402:172|495:39,1,270,4|0,3:2|0:0,0:0:0:0:
339,131,235921,2,0,L|400:130,1,45,8|8,3:2|3:2,0:0:0:0:
205,100,236062,2,0,L|112:101,1,90,8|8,3:2|3:2,0:0:0:0:
252,197,236345,1,8,3:2:0:0:
115,100,236487,1,8,3:2:0:0:
404,103,236628,5,4,3:2:0:0:
286,118,236770,2,0,L|309:231,1,90,0|0,3:0|0:0,0:0:0:0:
181,235,237053,1,0,3:0:0:0:
432,176,237194,2,0,L|398:78,1,90,8|0,0:0|0:0,0:0:0:0:
167,92,237477,1,8,3:0:0:0:
294,64,237619,6,0,L|199:55,2,90,4|0|8,3:0|0:0|3:0,0:0:0:0:
170,170,238043,2,0,L|211:68,1,90,0|0,3:0|3:0,0:0:0:0:
437,156,238326,2,0,P|389:164|374:264,1,135,8|0,0:0|0:0,0:0:0:0:
259,275,238609,2,0,L|372:248,1,90,0|0,3:0|3:0,0:0:0:0:
97,187,238892,5,0,3:0:0:0:
219,120,239034,2,0,L|184:27,1,90,0|0,3:0|3:0,0:0:0:0:
320,18,239317,1,0,3:0:0:0:
91,93,239458,2,0,L|210:73,2,90,8|0|0,0:0|3:0|3:0,0:0:0:0:
315,85,239883,6,0,L|102:85,1,180,0|8,3:0|0:0,0:0:0:0:
266,143,240307,2,0,L|212:243,1,90,0|0,3:0|3:0,0:0:0:0:
474,247,240590,2,0,L|320:226,1,135,8|0,0:0|0:0,0:0:0:0:
485,159,240873,2,0,L|362:142,1,90,2|8,3:2|0:0,0:0:0:0:
174,147,241156,5,4,3:2:0:0:
303,92,241298,2,0,L|247:17,1,90,0|0,3:0|3:0,0:0:0:0:
382,119,241581,1,0,3:0:0:0:
154,203,241723,2,0,L|264:202,1,90,8|0,0:0|0:0,0:0:0:0:
371,212,242006,1,0,3:0:0:0:
99,127,242147,6,0,L|213:119,1,90,2|0,3:2|0:0,0:0:0:0:
322,92,242430,1,0,3:0:0:0:
193,59,242572,2,0,L|246:-28,1,90,8|0,3:0|0:0,0:0:0:0:
23,153,242855,2,0,P|76:151|103:243,1,135,8|0,0:0|0:0,0:0:0:0:
296,276,243138,2,0,L|418:274,1,90,0|0,3:0|3:0,0:0:0:0:
250,192,243421,6,0,L|325:129,1,90,0|0,3:0|3:0,0:0:0:0:
68,108,243704,2,0,L|104:106,1,22.5,8|0,3:2|0:0,0:0:0:0:
189,100,243845,1,0,3:0:0:0:
462,96,243987,1,8,3:2:0:0:
341,49,244128,1,0,3:0:0:0:
462,96,244270,1,2,3:2:0:0:
186,223,244411,6,0,L|378:204,1,180,0|2,3:0|3:2,0:0:0:0:
237,157,244836,2,0,L|291:71,1,90,8|0,3:2|3:0,0:0:0:0:
35,91,245119,2,0,L|129:85,1,90,8|8,3:2|3:2,0:0:0:0:
351,223,245402,1,12,3:2:0:0:
205,149,245543,1,8,3:2:0:0:
476,118,245685,5,0,3:0:0:0:
345,72,245826,1,8,3:2:0:0:
476,118,245968,1,0,3:0:0:0:
345,72,246109,5,0,3:0:0:0:
