osu file format v14

[General]
AudioFilename: audio.mp3
AudioLeadIn: 0
PreviewTime: 190213
Countdown: 0
SampleSet: Soft
StackLeniency: 0.4
Mode: 0
LetterboxInBreaks: 0
WidescreenStoryboard: 1

[Editor]
DistanceSpacing: 1
BeatDivisor: 4
GridSize: 4
TimelineZoom: 1.7

[Metadata]
Title:Serment
TitleUnicode:Serment
Artist:Kawada Mami
ArtistUnicode:川田まみ
Creator:Flame Haze
Version:Reiji Maigo's Hard
Source:灼眼のシャナIII-FINAL-
Tags:shakugan no shana III -best- 3rd season 2nd opening full version generasia square the circle anime jrock j-rock rock japanese pop kerupt reiji maigo reiji_maigo mariko sakuragi mariko_sakuragi
BeatmapID:2984717
BeatmapSetID:1125776

[Difficulty]
HPDrainRate:5
CircleSize:4
OverallDifficulty:6
ApproachRate:8
SliderMultiplier:1.5
SliderTickRate:1

[Events]
//Background and Video events
0,0,"Shanaaaaa.jpg",0,0
//Break Periods
2,108904,114746
2,190213,196256
//Storyboard Layer 0 (Background)
//Storyboard Layer 1 (Fail)
//Storyboard Layer 2 (Pass)
//Storyboard Layer 3 (Foreground)
//Storyboard Layer 4 (Overlay)
//Storyboard Sound Samples

[TimingPoints]
1157,283.018867924528,4,2,1,30,1,0
5685,-100,4,2,1,30,0,0
9647,-133.333333333333,4,2,2,30,0,0
10213,-133.333333333333,4,2,2,50,0,0
20402,-100,4,2,1,65,0,0
38515,-133.333333333333,4,2,1,50,0,0
66958,-200,4,2,1,65,0,0
67949,-83.3333333333333,4,2,1,80,0,1
98373,-133.333333333333,4,2,1,80,0,1
99647,-100,4,2,1,65,0,0
115496,-100,4,2,1,50,0,0
119175,-133.333333333333,4,2,1,50,0,0
126817,-133.333333333333,4,2,1,60,0,0
138138,-83.3333333333333,4,2,1,80,0,1
169836,-100,4,2,2,70,0,0
170685,-133.333333333333,4,2,2,70,0,0
178326,-133.333333333333,4,2,1,70,0,0
178892,-133.333333333333,4,2,2,70,0,0
183279,-133.333333333333,4,2,1,70,0,0
183421,-133.333333333333,4,2,2,70,0,0
187949,-133.333333333333,4,2,1,70,0,0
199270,-133.333333333333,4,2,2,5,0,0
200119,-133.333333333333,4,2,2,70,0,0
200402,-83.3333333333333,4,2,1,80,0,1
221770,-117.647058823529,4,2,1,70,0,0
223043,-100,4,2,1,80,0,1
236628,-99.9999999999999,4,2,2,70,0,0
237477,-133.333333333333,4,2,2,70,0,0
245119,-133.333333333333,4,2,1,70,0,0

[Colours]
Combo1 : 200,203,223
Combo2 : 198,51,77
Combo3 : 57,95,155
Combo4 : 120,114,173

[HitObjects]
116,244,5685,6,0,L|123:169,1,75,0|0,1:2|1:2,0:0:0:0:
148,236,7949,2,0,L|155:161,1,75,0|0,1:2|1:0,0:0:0:0:
304,132,8373,1,0,1:0:0:0:
304,132,8656,2,0,L|297:57,1,75,0|0,1:0|1:0,0:0:0:0:
298,57,8940,1,0,1:0:0:0:
298,57,9647,2,0,P|240:56|180:12,2,112.500004291535,0|0|0,0:0|1:0|1:0,0:0:0:0:
404,24,10496,1,0,0:0:0:0:
476,112,10779,6,0,L|462:243,1,112.500004291535,8|0,0:0|0:0,0:0:0:0:
408,272,11204,1,0,1:2:0:0:
408,272,11345,2,0,P|360:248|284:236,2,112.500004291535,0|0|8,0:0|1:2|0:0,0:0:0:0:
324,348,12194,2,0,L|256:355,1,56.2500021457673,0|0,1:2|0:0,0:0:0:0:
196,364,12477,5,0,1:0:0:0:
124,344,12619,1,0,1:0:0:0:
80,284,12760,2,0,P|68:224|84:160,1,112.500004291535,0|8,1:2|0:0,0:0:0:0:
168,60,13326,1,0,1:2:0:0:
240,80,13468,1,0,1:2:0:0:
284,140,13609,2,0,P|296:200|280:264,2,112.500004291535,0|0|8,0:0|1:2|0:0,0:0:0:0:
188,196,14458,2,0,L|112:188,1,56.2500021457673
60,180,14741,5,0,1:0:0:0:
60,180,14883,2,0,P|48:120|64:56,1,112.500004291535,0|0,1:0|1:0,0:0:0:0:
128,4,15307,2,0,P|140:64|124:128,1,112.500004291535,8|0,0:0|0:0,0:0:0:0:
216,196,15873,1,0,0:0:0:0:
328,156,16156,1,0,0:0:0:0:
412,236,16440,2,0,L|406:291,1,56.2500021457673,8|0,0:0|0:0,0:0:0:0:
328,292,16723,2,0,L|333:347,1,56.2500021457673
264,376,17006,5,0,1:0:0:0:
196,348,17147,1,0,1:0:0:0:
160,284,17289,2,0,P|108:264|32:272,1,112.500004291535,0|8,1:0|0:0,0:0:0:0:
196,216,17855,1,0,1:0:0:0:
264,188,17996,1,0,1:0:0:0:
300,124,18138,2,0,P|352:104|428:112,2,112.500004291535,0|0|8,0:0|1:0|0:0,0:0:0:0:
232,36,18987,2,0,L|160:43,1,56.2500021457673,0|0,1:0|0:0,0:0:0:0:
100,52,19270,6,0,P|140:188|264:92,1,337.500012874604
320,52,20260,1,0,1:2:0:0:
320,52,20331,1,0,1:2:0:0:
320,52,20402,6,0,B|372:36|372:36|412:76|480:64,1,150,4|10,1:2|0:0,0:0:0:0:
508,208,20968,1,2,0:0:0:0:
436,232,21109,2,0,L|426:319,1,75,2|8,1:2|0:0,0:0:0:0:
368,352,21392,2,0,B|320:324|320:324|220:344,1,150,2|0,1:2|1:0,0:0:0:0:
164,384,21817,2,0,L|88:384,1,75,10|0,0:0|0:0,0:0:0:0:
32,336,22100,2,0,P|12:268|36:188,2,150,2|8|0,1:2|0:0|1:0,0:0:0:0:
164,264,22949,6,0,L|146:96,1,150,10|2,0:0|0:0,0:0:0:0:
200,60,23373,2,0,B|236:80|236:80|288:76,1,75,2|10,1:2|0:0,0:0:0:0:
328,28,23656,2,0,B|372:16|372:16|384:56|424:60|424:60|416:120,1,150,2|0,1:2|1:0,0:0:0:0:
356,132,24081,2,0,B|344:168|344:168|356:212,1,75,10|0,0:0|0:0,0:0:0:0:
408,256,24364,2,0,P|348:232|240:240,1,150,2|8,1:2|0:0,0:0:0:0:
204,280,24789,1,0,1:2:0:0:
204,280,24930,1,0,1:2:0:0:
352,312,25213,6,0,B|324:264|324:264|348:160,1,150,10|2,0:0|0:0,0:0:0:0:
288,124,25638,2,0,L|196:133,1,75,2|10,1:2|0:0,0:0:0:0:
184,200,25921,2,0,B|132:172|132:172|16:216,1,150,2|0,1:2|1:0,0:0:0:0:
8,140,26345,2,0,L|17:48,1,75,10|0,0:0|0:0,0:0:0:0:
80,24,26628,2,0,P|152:56|228:48,2,150,2|8|0,0:0|0:0|1:0,0:0:0:0:
132,172,27477,6,0,L|115:327,1,150,10|2,0:0|0:0,0:0:0:0:
188,348,27902,2,0,B|224:328|224:328|272:336,1,75,2|10,1:2|0:0,0:0:0:0:
320,372,28185,2,0,B|396:384|396:384|472:308,1,150,2|4,1:2|1:2,0:0:0:0:
476,264,28609,2,0,B|466:172,1,75,14|0,0:0|0:0,0:0:0:0:
412,140,28892,5,6,1:2:0:0:
344,172,29034,1,2,1:2:0:0:
288,124,29175,2,0,B|248:132|248:132|212:120,1,75,12|8,0:0|0:0,0:0:0:0:
168,64,29458,1,4,1:2:0:0:
308,4,29741,6,0,L|325:175,1,150,10|2,0:0|0:0,0:0:0:0:
400,192,30166,2,0,L|408:108,1,75,2|10,1:2|0:0,0:0:0:0:
480,240,30449,2,0,B|432:212|432:212|328:244,1,150,2|0,1:2|1:0,0:0:0:0:
280,288,30873,2,0,B|240:300|240:300|200:284,1,75,10|0,0:0|0:0,0:0:0:0:
184,216,31156,2,0,P|232:152|220:68,2,150,2|8|0,0:0|0:0|1:0,0:0:0:0:
36,192,32006,6,0,B|8:244|8:244|44:364,1,150,10|2,0:0|0:0,0:0:0:0:
104,360,32430,2,0,B|140:336|140:336|192:344,1,75,2|10,1:2|0:0,0:0:0:0:
240,272,32713,2,0,B|164:260|164:260|132:168,1,150,2|0,1:2|1:0,0:0:0:0:
204,148,33138,2,0,L|212:68,1,75,10|0,0:0|0:0,0:0:0:0:
276,32,33421,2,0,P|332:72|440:72,1,150,2|8,1:2|0:0,0:0:0:0:
476,40,33845,1,0,1:2:0:0:
476,40,33987,1,4,1:2:0:0:
508,188,34270,6,0,L|332:206,1,150,10|2,0:0|0:0,0:0:0:0:
284,212,34694,2,0,B|272:260|272:260|292:308,1,75,2|10,1:2|0:0,0:0:0:0:
200,232,34977,2,0,B|216:172|216:172|164:84,1,150,2|0,1:2|1:0,0:0:0:0:
224,44,35402,2,0,B|264:56|264:56|296:44,1,75,10|0,0:0|0:0,0:0:0:0:
360,4,35685,2,0,P|420:36|436:124,2,150,2|8|0,0:2|0:2|1:0,0:0:0:0:
312,148,36534,6,0,B|244:128|244:128|172:184,1,150,10|2,0:0|0:0,0:0:0:0:
112,204,36958,2,0,B|76:180|76:180|68:140,1,75,2|10,1:2|0:0,0:0:0:0:
4,208,37241,2,0,L|21:371,1,150,6|0,1:2|1:2,0:0:0:0:
96,380,37666,1,8,0:0:0:0:
96,380,37807,1,2,0:3:0:0:
156,336,37949,2,0,B|196:328|196:328|248:344,1,75,10|10,0:0|0:0,0:0:0:0:
296,372,38232,1,8,0:0:0:0:
360,332,38373,1,8,0:0:0:0:
344,256,38515,6,0,P|320:212|332:136,2,112.500004291535,6|8|2,1:2|0:0|0:0,0:0:0:0:
244,312,39364,2,0,L|180:305,1,56.2500021457673,8|0,0:0|1:0,0:0:0:0:
28,248,39930,5,10,0:0:0:0:
94,154,40213,1,2,1:2:0:0:
205,173,40496,1,10,0:0:0:0:
292,100,40779,2,0,L|411:87,1,112.500004291535,2|8,1:2|0:0,0:0:0:0:
420,12,41204,2,0,L|308:23,1,112.500004291535,0|0,0:0|1:2,0:0:0:0:
236,32,41628,1,10,0:0:0:0:
236,32,41770,1,2,1:2:0:0:
52,152,42194,6,0,L|52:228,2,56.2500021457673,8|0|0,0:0|0:0|1:0,0:0:0:0:
128,208,42619,2,0,L|128:151,2,56.2500021457673,0|8|8,1:0|0:0|0:0,0:0:0:0:
128,284,43043,6,0,P|184:292|240:344,2,112.500004291535,2|10|0,1:2|0:0|0:0,0:0:0:0:
256,208,43892,2,0,L|256:136,1,56.2500021457673,8|0,0:0|1:0,0:0:0:0:
380,40,44458,5,10,0:0:0:0:
476,100,44741,1,2,1:2:0:0:
448,208,45024,1,10,0:0:0:0:
348,248,45307,5,2,1:2:0:0:
348,248,45449,1,0,1:2:0:0:
348,248,45590,2,0,L|228:248,2,112.500004291535,8|0|10,0:0|0:0|0:0,0:0:0:0:
420,248,46298,2,0,P|448:196|404:160,1,112.500004291535,2|0,1:2|1:2,0:0:0:0:
344,168,46723,2,0,P|308:172|272:156,1,56.2500021457673,8|0,0:0|0:0,0:0:0:0:
244,108,47006,2,0,P|208:104|172:120,2,56.2500021457673,0|0|8,1:0|1:0|0:0,0:0:0:0:
300,60,47430,1,8,0:0:0:0:
356,12,47572,6,0,L|480:12,2,112.500004291535,6|10|0,1:2|0:0|0:0,0:0:0:0:
244,108,48421,2,0,L|244:164,1,56.2500021457673,8|0,0:0|1:0,0:0:0:0:
132,292,48987,5,10,0:0:0:0:
36,232,49270,1,2,1:2:0:0:
64,124,49553,1,10,0:0:0:0:
176,116,49836,2,0,L|295:103,1,112.500004291535,2|8,1:2|0:0,0:0:0:0:
304,28,50261,2,0,L|192:39,1,112.500004291535,0|0,0:0|1:0,0:0:0:0:
120,48,50685,1,10,0:0:0:0:
120,48,50827,1,2,1:2:0:0:
44,188,51251,6,0,L|111:195,2,56.2500021457673,8|0|0,0:0|0:0|1:0,0:0:0:0:
36,263,51675,1,0,1:0:0:0:
36,263,51817,2,0,L|107:270,1,56.2500021457673,10|8,0:0|0:0,0:0:0:0:
164,268,52100,6,0,P|204:228|212:152,1,112.500004291535,2|8,0:0|0:0,0:0:0:0:
296,174,52524,2,0,P|308:228|348:268,1,112.500004291535,2|0,0:0|1:0,0:0:0:0:
420,268,52949,1,10,0:0:0:0:
256,348,53232,6,0,L|140:348,1,112.500004291535,2|8,0:0|0:0,0:0:0:0:
256,348,53656,2,0,L|372:348,1,112.500004291535,2|0,0:0|1:0,0:0:0:0:
440,348,54081,1,10,0:0:0:0:
256,192,54364,12,0,56062,0:0:0:0:
356,228,56628,5,6,1:2:0:0:
356,228,56770,1,0,1:2:0:0:
356,228,56911,2,0,L|356:152,2,56.2500021457673,0|2|8,1:2|1:2|0:0,0:0:0:0:
288,260,57336,2,0,L|288:336,2,56.2500021457673,8|10|8,0:3|0:0|1:3,0:0:0:0:
216,240,57760,2,0,B|168:260|168:260|88:236,1,112.500004291535,2|0,0:0|1:2,0:0:0:0:
52,200,58185,2,0,L|33:24,1,168.750006437302,2|2,0:0|0:2,0:0:0:0:
180,8,58892,6,0,L|172:83,1,56.2500021457673,2|0,1:2|1:0,0:0:0:0:
252,88,59175,2,0,L|207:149,1,56.2500021457673,0|0,1:0|1:0,0:0:0:0:
274,193,59458,2,0,L|204:223,1,56.2500021457673,8|0,0:0|1:0,0:0:0:0:
152,240,59741,1,10,0:0:0:0:
172,312,59883,2,0,L|287:324,1,112.500004291535,2|0,1:2|1:2,0:0:0:0:
356,332,60307,1,0,1:2:0:0:
476,248,60590,6,0,B|484:216|484:216|464:180,1,56.2500021457673,10|8,0:0|0:0,0:0:0:0:
404,168,60873,2,0,B|396:136|396:136|416:100,1,56.2500021457673,6|8,1:2|0:0,0:0:0:0:
464,68,61156,2,2,B|408:84|408:84|336:56,1,112.500004291535,6|0,1:2|1:2,0:0:0:0:
304,12,61581,1,2,1:2:0:0:
304,12,61723,2,0,L|236:12,1,56.2500021457673,8|8,0:0|0:3,0:0:0:0:
176,12,62006,1,10,0:0:0:0:
52,88,62289,6,0,B|48:128|48:128|68:156|68:156|68:216,1,112.500004291535,2|0,0:0|1:0,0:0:0:0:
28,256,62713,1,2,1:2:0:0:
28,256,62855,1,8,0:0:0:0:
236,344,63138,1,2,0:0:0:0:
380,172,63421,5,2,1:2:0:0:
380,172,63562,1,0,1:2:0:0:
324,216,63704,2,0,P|272:200|192:208,1,112.500004291535,2|10,1:2|0:0,0:0:0:0:
140,208,64128,2,0,L|140:136,1,56.2500021457673,2|0,1:2|0:0,0:0:0:0:
64,208,64411,2,0,L|64:340,1,112.500004291535,2|10,1:2|0:2,0:0:0:0:
12,372,64836,1,2,1:2:0:0:
212,280,65119,1,10,0:0:0:0:
416,372,65402,6,0,L|422:308,1,56.2500021457673,2|2,0:0|0:0,0:0:0:0:
364,268,65685,1,2,1:2:0:0:
304,308,65826,1,2,1:2:0:0:
304,308,65968,1,2,1:2:0:0:
304,308,66958,6,0,P|284:352|336:344,1,112.5,2|2,0:0|0:0,0:0:0:0:
160,256,67666,1,10,0:0:0:0:
160,256,67807,1,0,1:2:0:0:
92,300,67949,6,0,B|48:216|140:208|76:112,1,179.999994506836,6|8,1:2|0:0,0:0:0:0:
20,76,68373,1,0,0:0:0:0:
20,76,68515,2,0,P|64:48|124:52,2,89.9999972534181,2|0|8,1:2|1:2|0:0,0:0:0:0:
168,104,68940,1,0,1:2:0:0:
168,104,69081,2,0,B|196:71|184:20|184:20|236:47|299:20,1,179.999994506836,2|8,0:0|0:0,0:0:0:0:
352,24,69506,2,0,L|333:203,1,179.999994506836,2|0,0:0|1:0,0:0:0:0:
260,256,69930,2,0,L|249:160,1,89.9999972534181,10|0,0:0|1:2,0:0:0:0:
176,220,70213,2,0,B|128:184|128:184|0:228,2,179.999994506836,2|8|0,1:2|0:0|1:0,0:0:0:0:
116,276,70921,6,0,L|125:367,1,89.9999972534181,0|10,1:0|0:0,0:0:0:0:
204,380,71204,2,0,P|281:335|376:336,1,179.999994506836,2|0,1:2|1:2,0:0:0:0:
448,352,71628,2,0,P|460:300|448:256,1,89.9999972534181,10|0,0:0|0:0,0:0:0:0:
376,256,71911,2,0,P|364:204|376:160,1,89.9999972534181,2|0,1:2|1:0,0:0:0:0:
440,128,72194,1,10,0:0:0:0:
420,48,72336,1,2,1:2:0:0:
420,48,72406,1,2,1:2:0:0:
420,48,72477,2,0,L|237:67,1,179.999994506836,6|8,1:2|0:0,0:0:0:0:
84,84,73043,6,0,P|54:133|52:193,1,89.9999972534181,0|0,1:2|1:2,0:0:0:0:
49,164,73326,1,10,0:0:0:0:
108,216,73468,2,0,P|180:184|292:192,1,179.999994506836,2|0,1:2|1:0,0:0:0:0:
336,244,73892,2,0,L|326:335,1,89.9999972534181,10|0,0:0|0:0,0:0:0:0:
256,368,74175,1,2,1:2:0:0:
196,316,74317,1,0,1:2:0:0:
117,307,74458,2,0,P|109:255|126:209,1,89.9999972534181,10|0,0:0|1:0,0:0:0:0:
196,196,74741,6,0,P|272:164|224:88,1,179.999994506836,2|8,1:2|0:0,0:0:0:0:
124,44,75166,2,0,P|48:76|96:152,1,179.999994506836,2|0,0:0|1:2,0:0:0:0:
119,219,75590,1,10,0:0:0:0:
196,196,75732,1,4,1:2:0:0:
196,196,76015,5,0,1:0:0:0:
232,264,76156,2,0,L|323:273,1,89.9999972534181,8|0,0:0|0:0,0:0:0:0:
380,336,76440,1,0,1:2:0:0:
380,336,76581,1,0,1:2:0:0:
452,308,76723,2,0,B|472:268|472:268|456:220,1,89.9999972534181,10|10,0:0|0:0,0:0:0:0:
412,160,77006,6,0,B|332:196|332:196|220:140,1,179.999994506836,6|10,1:2|0:0,0:0:0:0:
212,84,77430,2,0,L|116:84,1,89.9999972534181,2|0,0:0|1:0,0:0:0:0:
48,112,77713,1,2,1:2:0:0:
12,184,77855,1,10,0:0:0:0:
52,252,77996,1,0,1:2:0:0:
124,284,78138,6,0,B|204:248|204:248|316:304,1,179.999994506836,2|10,0:0|0:0,0:0:0:0:
324,360,78562,2,0,L|420:360,1,89.9999972534181,2|0,0:0|0:0,0:0:0:0:
472,304,78845,1,2,1:2:0:0:
424,240,78987,1,10,0:0:0:0:
464,172,79128,1,0,1:0:0:0:
440,96,79270,6,0,P|352:92|360:184,1,179.999994506836,2|10,1:2|0:0,0:0:0:0:
288,224,79694,2,0,L|172:211,2,89.9999972534181,2|0|2,0:0|1:0|1:2,0:0:0:0:
352,272,80119,1,8,0:0:0:0:
424,240,80260,1,6,1:2:0:0:
424,240,80543,5,0,1:0:0:0:
496,272,80685,2,0,L|505:363,1,89.9999972534181,10|0,0:0|0:0,0:0:0:0:
424,240,80968,2,0,L|433:148,1,89.9999972534181,2|4,1:2|1:2,0:0:0:0:
340,88,81251,2,0,L|349:179,1,89.9999972534181,14|0,0:0|1:2,0:0:0:0:
288,224,81534,2,0,P|208:188|80:192,1,179.999994506836,6|8,1:2|0:0,0:0:0:0:
116,183,82100,6,0,P|92:112|132:0,1,179.999994506836,0|8,1:2|0:0,0:0:0:0:
40,16,82524,2,0,L|232:16,1,179.999994506836,0|0,1:2|1:0,0:0:0:0:
300,16,82949,1,8,0:0:0:0:
116,183,83232,1,0,1:0:0:0:
256,352,83515,5,10,0:0:0:0:
256,352,83656,1,2,1:2:0:0:
192,296,83798,2,0,P|248:268|340:340,1,179.999994506836,2|14,1:2|0:0,0:0:0:0:
412,368,84223,1,0,0:0:0:0:
412,368,84364,2,0,L|423:256,2,89.9999972534181,2|0|14,1:2|1:0|0:0,0:0:0:0:
504,324,84789,6,0,L|482:121,1,179.999994506836,2|0,1:2|1:2,0:0:0:0:
428,92,85213,2,0,P|368:108|312:104,1,89.9999972534181,10|8,0:0|0:0,0:0:0:0:
272,72,85496,1,10,0:0:0:0:
220,16,85638,1,10,1:2:0:0:
220,16,85779,2,0,P|175:18|132:32,1,89.9999972534181,10|8,0:0|1:2,0:0:0:0:
76,88,86062,1,4,1:2:0:0:
76,88,86628,6,0,P|60:148|96:288,1,179.999994506836,2|8,1:2|0:0,0:0:0:0:
148,316,87053,1,0,1:2:0:0:
148,316,87194,2,0,P|108:344|40:344,2,89.9999972534181,2|0|8,0:0|1:2|0:0,0:0:0:0:
156,236,87619,2,0,P|228:216|356:228,1,179.999994506836,2|0,0:0|1:0,0:0:0:0:
404,188,88043,2,0,P|412:124|396:84,1,89.9999972534181,10|0,0:0|0:0,0:0:0:0:
492,164,88326,2,0,L|471:354,2,179.999994506836,2|8|0,1:2|0:0|1:0,0:0:0:0:
404,188,89034,6,0,L|391:307,1,89.9999972534181,0|10,1:0|0:0,0:0:0:0:
324,312,89317,2,0,B|268:280|268:280|148:316,1,179.999994506836,2|0,1:2|1:2,0:0:0:0:
84,336,89741,2,0,P|44:296|32:232,1,89.9999972534181,10|0,0:0|0:0,0:0:0:0:
100,224,90024,2,0,P|114:169|164:126,1,89.9999972534181,2|0,1:2|1:0,0:0:0:0:
216,120,90307,1,10,0:0:0:0:
216,120,90449,1,0,1:0:0:0:
216,120,90590,6,0,P|320:124|452:32,1,269.999991760254,6|0,1:2|0:0,0:0:0:0:
508,88,91156,2,0,L|496:195,1,89.9999972534181,0|0,1:0|1:0,0:0:0:0:
440,232,91440,1,10,0:0:0:0:
368,196,91581,1,0,0:0:0:0:
300,236,91723,2,0,L|204:246,1,89.9999972534181,2|0,0:0|1:0,0:0:0:0:
152,300,92006,1,8,0:0:0:0:
72,296,92147,2,0,P|40:212|60:112,1,179.999994506836,2|0,0:0|1:0,0:0:0:0:
120,84,92572,2,0,P|164:104|224:108,1,89.9999972534181,10|0,0:0|1:0,0:0:0:0:
248,44,92855,2,0,B|312:44|312:44|360:64|360:64|444:64,1,179.999994506836,6|8,1:2|0:0,0:0:0:0:
496,204,93421,6,0,P|420:212|416:320,1,179.999994506836,0|10,1:0|0:0,0:0:0:0:
344,356,93845,2,0,P|276:324|148:328,1,179.999994506836,6|0,1:2|1:0,0:0:0:0:
116,376,94270,1,10,0:0:0:0:
32,216,94553,1,2,1:2:0:0:
188,128,94836,1,10,0:0:0:0:
256,192,95119,12,8,95968,0:0:0:0:
124,264,96534,6,0,P|141:218|176:188,1,89.9999972534181,10|0,0:0|0:0,0:0:0:0:
132,120,96817,2,0,P|180:111|224:127,1,89.9999972534181,2|0,1:2|1:2,0:0:0:0:
260,54,97100,2,0,P|291:91|299:137,1,89.9999972534181,10|8,0:0|0:0,0:0:0:0:
352,192,97383,6,0,L|456:192,2,89.9999972534181,12|0|2,0:0|1:0|1:2,0:0:0:0:
304,256,97807,2,0,L|200:256,2,89.9999972534181,14|0|0,0:0|1:0|1:0,0:0:0:0:
352,320,98232,1,12,0:0:0:0:
352,320,98373,2,0,P|508:209|349:101,1,450.000017166138,8|0,0:0|0:0,0:0:0:0:
280,132,99647,6,0,B|264:180|264:180|300:216|284:296,1,150,4|10,1:2|0:0,0:0:0:0:
160,356,100213,1,2,0:0:0:0:
88,332,100355,2,0,P|76:280|84:236,1,75,2|8,1:2|0:0,0:0:0:0:
148,228,100638,2,0,P|164:156|148:76,1,150,2|0,1:2|1:0,0:0:0:0:
196,24,101062,2,0,L|279:32,1,75,10|0,0:0|0:0,0:0:0:0:
328,80,101345,2,0,L|499:62,2,150,2|8|0,0:0|0:0|1:0,0:0:0:0:
236,192,102194,6,0,L|64:209,1,150,10|2,0:0|0:0,0:0:0:0:
28,256,102619,2,0,B|16:296|16:296|32:348,1,75,2|10,1:2|0:0,0:0:0:0:
92,364,102902,2,0,B|148:312|148:312|236:336,1,150,2|0,1:2|1:0,0:0:0:0:
280,376,103326,2,0,L|384:376,1,75,10|0,0:0|0:0,0:0:0:0:
432,376,103609,5,2,1:2:0:0:
504,212,103892,1,8,0:0:0:0:
432,48,104175,1,4,1:2:0:0:
432,48,104458,6,0,P|400:72|280:68,1,150,10|2,0:0|0:0,0:0:0:0:
240,20,104883,2,0,L|148:20,1,75,2|10,1:2|0:0,0:0:0:0:
96,52,105166,2,0,P|80:124|92:212,1,150,2|0,1:2|1:0,0:0:0:0:
160,260,105590,2,0,P|168:204|160:172,1,75,10|0,0:0|0:0,0:0:0:0:
236,156,105873,2,0,P|308:180|396:172,2,150,2|8|2,0:0|0:0|1:2,0:0:0:0:
196,92,106581,1,2,0:0:0:0:
272,88,106723,2,0,L|272:12,2,75,8|2|2,0:0|0:0|0:0,0:0:0:0:
348,84,107147,2,0,L|348:172,1,75,0|8,1:2|0:0,0:0:0:0:
416,212,107430,1,2,1:2:0:0:
416,212,107501,1,0,0:0:0:0:
416,212,107572,6,0,L|472:212,3,37.5,10|10|10|10,0:0|0:0|0:0|0:0,0:0:0:0:
396,240,107855,2,0,L|340:240,3,37.5,10|0|10|0,0:0|0:0|0:0|0:0,0:0:0:0:
332,268,108138,2,0,L|240:268,1,75,0|2,1:2|1:2,0:0:0:0:
220,268,108350,1,0,1:2:0:0:
220,268,108421,2,0,P|180:304|168:344,1,75,10|10,0:0|1:2,0:0:0:0:
224,380,108704,1,6,1:2:0:0:
156,132,115496,6,0,P|144:205|158:279,2,150,2|8|0,1:2|0:0|0:0,0:0:0:0:
296,84,116345,1,10,0:0:0:0:
356,132,116487,2,0,P|367:205|353:279,1,150,2|0,1:2|1:0,0:0:0:0:
292,320,116911,2,0,B|269:290|269:290|221:284,1,75,8|0,0:0|0:0,0:0:0:0:
158,279,117194,2,0,L|147:374,2,75,0|0|12,1:0|1:0|0:0,0:0:0:0:
108,224,117619,1,10,0:0:0:0:
108,224,117760,1,6,1:2:0:0:
356,132,118185,1,2,0:0:0:0:
356,132,119175,6,0,P|368:192|352:248,2,112.500004291535,2|2|14,0:0|3:2|0:0,0:0:0:0:
292,96,119883,1,0,0:0:0:0:
292,96,119954,1,0,0:0:0:0:
292,96,120024,2,0,L|180:107,1,112.500004291535,6|8,1:2|0:0,0:0:0:0:
176,180,120449,2,0,L|64:168,1,112.500004291535,4|0,0:0|1:0,0:0:0:0:
16,112,120873,1,10,0:0:0:0:
16,112,121015,1,2,1:2:0:0:
72,248,121298,5,0,1:0:0:0:
72,248,121440,2,0,P|128:276|160:340,1,112.500004291535,8|0,0:0|1:2,0:0:0:0:
304,364,122006,1,10,0:0:0:0:
304,364,122147,1,8,0:0:0:0:
304,364,122289,6,0,B|304:324|304:324|316:292|316:292|316:240,1,112.500004291535,2|8,1:2|0:0,0:0:0:0:
316,180,122713,1,2,0:0:0:0:
160,20,123138,1,8,0:0:0:0:
160,20,123279,2,0,B|160:60|160:60|172:92|172:92|172:144,1,112.500004291535,0|0,1:2|1:0,0:0:0:0:
116,176,123704,1,8,0:0:0:0:
116,176,123845,2,0,L|116:252,2,56.2500021457673,2|0|0,0:0|1:0|1:0,0:0:0:0:
56,128,124270,1,10,0:0:0:0:
56,128,124411,1,0,1:0:0:0:
256,192,124553,12,0,126251,0:0:0:0:
156,268,126817,5,6,1:2:0:0:
156,268,126958,1,0,1:2:0:0:
156,268,127100,2,0,L|80:268,2,56.2500021457673,0|2|8,1:2|1:2|0:0,0:0:0:0:
192,204,127524,2,0,L|268:204,2,56.2500021457673,0|10|8,1:0|0:0|1:3,0:0:0:0:
132,160,127949,2,0,B|104:124|104:124|136:40,1,112.500004291535,2|0,0:0|1:2,0:0:0:0:
196,32,128373,2,0,P|264:56|380:48,1,168.750006437302,2|2,0:0|0:0,0:0:0:0:
472,148,129081,6,0,L|452:216,1,56.2500021457673,2|0,1:2|1:0,0:0:0:0:
484,272,129364,2,0,L|415:288,1,56.2500021457673,0|0,1:0|1:0,0:0:0:0:
381,344,129647,2,0,L|332:292,1,56.2500021457673,8|0,0:0|0:0,0:0:0:0:
372,236,129930,1,10,0:0:0:0:
272,328,130072,2,0,L|152:328,1,112.500004291535,2|0,1:2|0:0,0:0:0:0:
88,324,130496,1,0,1:2:0:0:
28,192,130779,6,0,B|16:164|16:164|28:132,1,56.2500021457673,10|8,0:0|0:0,0:0:0:0:
92,108,131062,2,0,B|104:80|104:80|92:48,1,56.2500021457673,6|8,1:2|0:0,0:0:0:0:
40,8,131345,2,0,B|92:32|92:32|142:8,1,112.500004291535,6|0,1:2|1:0,0:0:0:0:
220,8,131770,1,2,1:2:0:0:
220,8,131911,2,0,L|226:71,1,56.2500021457673,8|0,0:0|0:0,0:0:0:0:
180,124,132194,1,2,1:2:0:0:
280,232,132477,6,0,P|328:200|396:200,1,112.500004291535,2|0,0:0|1:0,0:0:0:0:
444,244,132902,1,2,1:2:0:0:
444,244,133043,1,8,0:0:0:0:
504,48,133326,1,2,0:0:0:0:
308,16,133609,5,2,1:2:0:0:
308,16,133751,1,2,1:2:0:0:
240,44,133892,2,0,B|216:76|216:76|240:156,1,112.500004291535,2|10,1:2|0:0,0:0:0:0:
304,180,134317,2,0,P|344:172|372:176,1,56.2500021457673,2|0,1:2|0:0,0:0:0:0:
424,212,134600,2,0,B|419:255|419:255|432:281|432:281|426:340,1,112.500004291535,2|10,1:2|0:0,0:0:0:0:
484,368,135024,1,2,1:2:0:0:
288,284,135307,1,2,1:2:0:0:
92,368,135590,6,0,L|84:300,1,56.2500021457673,2|10,0:0|0:0,0:0:0:0:
20,280,135873,1,2,1:2:0:0:
56,216,136015,1,2,1:2:0:0:
56,216,136156,1,2,1:2:0:0:
56,216,137147,5,10,0:0:0:0:
56,216,137218,1,10,0:0:0:0:
56,216,137289,2,0,P|41:163|54:109,1,112.500004291535,10|10,0:0|0:0,0:0:0:0:
192,36,137855,1,10,0:2:0:0:
192,36,137996,1,0,1:2:0:0:
252,88,138138,6,0,B|336:84|364:20|364:20|408:52,1,179.999994506836,6|8,1:2|0:0,0:0:0:0:
468,92,138562,1,0,0:0:0:0:
468,92,138704,2,0,P|480:44|456:-12,2,89.9999972534181,2|0|8,1:2|1:0|0:0,0:0:0:0:
400,124,139128,1,0,1:0:0:0:
400,124,139270,2,0,P|384:212|408:300,1,179.999994506836,2|8,0:0|0:0,0:0:0:0:
480,276,139694,2,0,P|395:306|331:370,1,179.999994506836,2|0,0:0|1:2,0:0:0:0:
252,368,140119,2,0,P|216:324|212:276,1,89.9999972534181,10|0,0:0|1:0,0:0:0:0:
284,260,140402,2,0,L|303:77,2,179.999994506836,2|8|0,1:2|0:0|1:0,0:0:0:0:
208,216,141109,6,0,B|164:200|164:200|112:224,1,89.9999972534181,0|10,1:0|0:0,0:0:0:0:
64,268,141392,2,0,B|112:220|112:220|72:92,1,179.999994506836,2|0,1:2|1:2,0:0:0:0:
116,44,141817,2,0,L|207:53,1,89.9999972534181,10|0,0:0|0:0,0:0:0:0:
248,120,142100,2,0,L|339:110,1,89.9999972534181,2|0,1:2|1:0,0:0:0:0:
392,52,142383,1,10,0:0:0:0:
472,88,142524,1,2,1:2:0:0:
472,88,142595,1,2,1:2:0:0:
472,88,142666,2,0,P|504:156|496:260,1,179.999994506836,6|8,1:2|0:0,0:0:0:0:
372,356,143232,6,0,P|340:324|332:264,1,89.9999972534181,0|0,1:0|1:0,0:0:0:0:
329,281,143515,1,10,0:0:0:0:
396,236,143656,2,0,P|312:200|252:272,1,179.999994506836,2|0,1:2|1:0,0:0:0:0:
208,316,144081,1,10,0:0:0:0:
132,296,144223,1,0,0:0:0:0:
60,336,144364,2,0,P|104:284|88:160,1,179.999994506836,2|10,1:2|0:0,0:0:0:0:
24,156,144789,1,0,1:0:0:0:
80,84,144930,6,0,B|176:124|164:32|272:92,1,179.999994506836,2|8,1:2|0:0,0:0:0:0:
212,152,145355,2,0,B|308:192|296:100|404:160,1,179.999994506836,2|0,0:0|1:2,0:0:0:0:
436,208,145779,1,10,0:0:0:0:
512,176,145921,1,4,1:2:0:0:
512,176,146204,5,0,1:2:0:0:
464,112,146345,2,0,P|476:68|456:20,1,89.9999972534181,8|0,0:0|0:0,0:0:0:0:
396,72,146628,1,0,1:0:0:0:
396,72,146770,1,0,1:0:0:0:
332,24,146911,2,0,B|284:40|284:40|246:26,1,89.9999972534181,10|10,0:0|0:0,0:0:0:0:
168,28,147194,6,0,B|88:72|88:72|128:160,1,179.999994506836,6|10,1:2|0:0,0:0:0:0:
196,188,147619,2,0,L|185:287,1,89.9999972534181,2|0,0:0|1:0,0:0:0:0:
212,352,147902,1,2,1:2:0:0:
288,372,148043,1,10,0:0:0:0:
356,332,148185,1,2,1:2:0:0:
412,276,148326,6,0,B|450:193|450:193|366:145,1,179.999994506836,2|10,1:2|0:0,0:0:0:0:
308,104,148751,2,0,L|318:4,1,89.9999972534181,2|0,0:0|1:0,0:0:0:0:
240,4,149034,1,2,1:2:0:0:
184,60,149175,1,10,0:0:0:0:
108,40,149317,1,2,1:2:0:0:
40,80,149458,6,0,P|40:164|128:152,1,179.999994506836,2|10,1:2|0:0,0:0:0:0:
196,184,149883,2,0,P|208:232|184:288,2,89.9999972534181,2|0|2,0:0|1:2|1:2,0:0:0:0:
256,136,150307,1,8,0:0:0:0:
332,164,150449,1,6,1:2:0:0:
332,164,150732,5,0,1:0:0:0:
400,128,150873,2,0,L|409:36,1,89.9999972534181,10|0,0:0|0:0,0:0:0:0:
480,120,151156,2,0,L|499:302,1,179.999994506836,2|14,1:2|0:0,0:0:0:0:
440,352,151581,1,0,1:2:0:0:
368,324,151723,2,0,P|280:300|176:316,1,179.999994506836,6|8,1:2|0:0,0:0:0:0:
192,310,152289,6,0,P|133:245|117:138,1,179.999994506836,0|8,1:0|0:0,0:0:0:0:
52,211,152713,2,0,P|116:152|223:135,1,179.999994506836,0|0,1:2|1:0,0:0:0:0:
260,192,153138,1,8,0:0:0:0:
384,16,153421,1,0,1:0:0:0:
504,196,153704,5,10,0:0:0:0:
504,196,153845,1,2,1:2:0:0:
456,260,153987,2,0,B|364:224|376:308|256:268,1,179.999994506836,2|12,1:2|0:0,0:0:0:0:
224,232,154411,1,0,0:0:0:0:
224,232,154553,2,0,P|145:255|130:353,1,179.999994506836,2|14,1:2|0:0,0:0:0:0:
40,312,154977,6,0,L|19:117,1,179.999994506836,2|0,1:2|1:0,0:0:0:0:
84,84,155402,2,0,P|141:103|183:92,1,89.9999972534181,10|8,0:0|0:0,0:0:0:0:
228,48,155685,1,10,0:0:0:0:
300,92,155826,1,8,1:2:0:0:
300,92,155968,2,0,P|288:152|304:200,1,89.9999972534181,10|8,0:0|1:2,0:0:0:0:
360,220,156251,1,4,1:2:0:0:
360,220,156817,6,0,B|424:236|424:236|436:180|512:156,1,179.999994506836,2|8,1:2|0:0,0:0:0:0:
468,92,157241,1,0,1:0:0:0:
468,92,157383,2,0,L|468:0,2,89.9999972534181,2|0|8,0:0|1:2|0:0,0:0:0:0:
392,48,157807,2,0,P|304:28|208:56,1,179.999994506836,2|0,0:0|1:0,0:0:0:0:
164,108,158232,2,0,B|180:152|180:152|160:208,1,89.9999972534181,10|0,0:0|0:0,0:0:0:0:
104,244,158515,2,0,B|56:216|56:216|8:260|24:360,2,179.999994506836,2|8|0,1:2|0:0|1:0,0:0:0:0:
176,272,159223,6,0,L|284:272,1,89.9999972534181,0|10,1:0|0:0,0:0:0:0:
344,272,159506,2,0,P|400:220|428:96,1,179.999994506836,2|0,1:2|1:2,0:0:0:0:
384,60,159930,2,0,P|336:76|276:72,1,89.9999972534181,10|0,0:0|0:0,0:0:0:0:
248,140,160213,2,0,P|202:117|163:72,1,89.9999972534181,2|0,1:2|1:0,0:0:0:0:
100,60,160496,1,10,0:0:0:0:
100,60,160638,1,0,1:2:0:0:
100,60,160779,6,0,P|16:144|48:304,1,269.999991760254,6|0,1:2|0:0,0:0:0:0:
104,316,161345,2,0,L|194:264,1,89.9999972534181,0|0,1:2|0:0,0:0:0:0:
260,256,161628,1,10,0:0:0:0:
324,300,161770,1,0,0:0:0:0:
400,296,161911,2,0,L|490:244,1,89.9999972534181,2|0,0:0|1:2,0:0:0:0:
508,180,162194,1,8,0:0:0:0:
444,136,162336,2,0,B|356:116|356:116|320:8,1,179.999994506836,2|0,0:0|1:2,0:0:0:0:
252,12,162760,2,0,L|241:107,1,89.9999972534181,10|0,0:0|1:2,0:0:0:0:
164,112,163043,2,0,B|170:175|170:175|195:221|195:221|204:304,1,179.999994506836,6|8,1:2|0:0,0:0:0:0:
356,380,163609,6,0,L|375:193,1,179.999994506836,0|10,1:0|0:0,0:0:0:0:
432,140,164034,2,0,P|360:204|272:160,1,179.999994506836,6|0,1:2|1:0,0:0:0:0:
264,108,164458,1,10,0:0:0:0:
92,168,164741,1,2,1:2:0:0:
156,336,165024,1,14,0:0:0:0:
256,192,165307,12,0,166156,0:0:0:0:
396,120,166723,6,0,L|335:186,1,89.9999972534181,10|0,0:0|0:0,0:0:0:0:
358,270,167006,2,0,L|260:249,1,89.9999972534181,2|0,1:2|1:0,0:0:0:0:
208,312,167289,2,0,L|177:216,1,89.9999972534181,10|8,0:0|0:0,0:0:0:0:
116,180,167572,6,0,P|68:172|16:188,2,89.9999972534181,14|0|2,0:0|1:0|1:2,0:0:0:0:
172,124,167996,2,0,P|220:116|272:132,2,89.9999972534181,14|0|0,0:0|1:0|1:0,0:0:0:0:
100,96,168421,1,8,0:0:0:0:
100,96,168562,1,12,0:0:0:0:
100,96,169128,5,8,0:0:0:0:
100,96,169199,1,8,0:0:0:0:
100,96,169270,2,0,P|68:144|60:180,2,89.9999972534181,8|8|8,0:0|0:0|0:0,0:0:0:0:
172,68,169694,1,8,0:0:0:0:
228,132,169836,1,4,1:2:0:0:
228,132,169977,2,0,B|304:132|304:132|360:184|360:184|452:184,1,225,12|8,0:0|0:0,0:0:0:0:
496,316,170685,5,0,1:0:0:0:
428,344,170826,2,0,P|384:300|260:300,1,168.750006437302,8|4,1:3|1:3,0:0:0:0:
156,364,171534,1,8,0:0:0:0:
70,247,171817,1,0,1:0:0:0:
184,152,172100,5,0,1:2:0:0:
184,152,172241,1,0,1:2:0:0:
184,152,172383,1,0,1:0:0:0:
184,152,172524,1,0,1:2:0:0:
232,208,172666,2,0,L|232:280,2,56.2500021457673,8|0|0,0:0|1:0|1:0,0:0:0:0:
304,180,173090,2,0,P|368:180|460:260,1,168.750006437302,0|0,1:0|1:0,0:0:0:0:
376,368,173798,1,8,0:0:0:0:
260,296,174081,1,4,1:2:0:0:
260,296,174223,1,8,0:1:0:0:
260,296,174364,5,4,1:2:0:0:
292,152,174647,1,0,1:0:0:0:
176,60,174930,2,0,L|48:60,1,112.500004291535,8|0,0:0|0:0,0:0:0:0:
28,124,175355,2,0,P|92:172|120:280,1,168.750006437302,8|0,0:1|1:0,0:0:0:0:
20,356,176062,1,8,0:0:0:0:
164,368,176345,6,0,L|170:308,2,56.2500021457673,4|4|0,1:3|1:3|1:3,0:0:0:0:
240,380,176770,1,0,1:3:0:0:
240,380,176911,2,0,B|295:374|295:374|335:333|335:333|403:326,1,168.750006437302,8|0,1:3|0:0,0:0:0:0:
460,348,177477,1,0,1:0:0:0:
504,288,177619,1,0,1:2:0:0:
504,288,177690,1,0,1:2:0:0:
504,288,177760,6,0,B|504:232|504:232|464:192|464:192|504:152|504:152|504:84,1,225.000008583069,0|8,1:2|0:0,0:0:0:0:
384,12,178609,1,12,0:0:0:0:
324,56,178751,1,8,0:0:0:0:
252,36,178892,6,0,L|124:49,1,112.500004291535,4|8,1:2|1:3,0:0:0:0:
36,152,179458,2,0,L|155:164,1,112.500004291535,8|0,0:0|1:0,0:0:0:0:
220,168,179883,2,0,P|240:208|236:340,1,168.750006437302,0|0,1:0|1:0,0:0:0:0:
100,376,180590,1,8,0:0:0:0:
12,260,180873,1,0,1:0:0:0:
12,260,181156,6,0,L|12:184,1,56.2500021457673,0|0,1:0|1:0,0:0:0:0:
84,188,181440,2,0,L|84:112,1,56.2500021457673,0|0,1:0|1:0,0:0:0:0:
24,88,181723,1,8,0:0:0:0:
24,88,181864,1,0,1:2:0:0:
24,88,182006,1,8,0:1:0:0:
80,40,182147,2,0,B|132:64|132:64|248:36,1,168.750006437302,0|0,1:0|1:2,0:0:0:0:
404,40,182855,1,8,0:0:0:0:
404,40,182996,1,8,0:1:0:0:
464,84,183138,2,0,L|470:143,1,56.2500021457673,0|12,1:0|0:0,0:0:0:0:
396,160,183421,6,0,B|390:215|390:215|416:266|416:266|409:338,1,168.750006437302,4|0,1:2|0:0,0:0:0:0:
344,356,183987,2,0,P|300:320|228:316,1,112.500004291535,8|0,0:0|1:0,0:0:0:0:
216,380,184411,2,0,L|40:380,1,168.750006437302,8|0,0:1|1:0,0:0:0:0:
0,240,185119,1,8,0:0:0:0:
116,148,185402,1,8,1:3:0:0:
256,192,185685,5,0,0:2:0:0:
328,172,185826,2,0,P|348:120|344:56,1,112.500004291535,4|0,1:2|1:0,0:0:0:0:
275,8,186251,2,0,P|255:60|257:116,1,112.500004291535,4|0,0:0|1:0,0:0:0:0:
192,152,186675,2,0,P|140:132|76:136,1,112.500004291535,4|0,1:2|1:0,0:0:0:0:
28,184,187100,1,0,1:0:0:0:
72,324,187383,1,8,0:1:0:0:
132,364,187524,1,8,0:1:0:0:
204,344,187666,2,0,L|327:356,1,112.500004291535,8|2,0:1|0:3,0:0:0:0:
256,192,197006,12,0,199270,0:0:0:0:
88,228,200119,6,0,L|99:173,1,56.2500021457673,2|2,0:0|0:0,0:0:0:0:
160,124,200402,2,0,B|236:176|236:176|305:122,1,179.999994506836,6|10,1:2|0:0,0:0:0:0:
356,60,200826,2,0,L|452:60,2,89.9999972534181,2|0|2,0:0|1:2|1:2,0:0:0:0:
288,20,201251,1,10,0:0:0:0:
236,76,201392,1,0,1:2:0:0:
305,121,201534,6,0,B|357:197|357:197|304:267,1,179.999994506836,2|10,0:0|0:0,0:0:0:0:
232,296,201958,2,0,L|136:296,1,89.9999972534181,2|0,0:0|1:0,0:0:0:0:
76,256,202241,1,2,1:2:0:0:
116,188,202383,1,10,0:0:0:0:
56,136,202524,1,0,1:0:0:0:
112,80,202666,6,0,P|196:64|264:144,1,179.999994506836,2|10,1:2|0:0,0:0:0:0:
232,200,203090,2,0,L|125:211,2,89.9999972534181,2|0|2,0:2|1:0|1:2,0:0:0:0:
292,248,203515,1,8,0:0:0:0:
364,216,203656,1,6,1:2:0:0:
364,216,203940,5,0,1:0:0:0:
432,176,204081,2,0,L|421:80,1,89.9999972534181,10|0,0:0|0:0,0:0:0:0:
352,32,204364,2,0,L|341:127,1,89.9999972534181,2|4,1:2|1:2,0:0:0:0:
272,176,204647,2,0,L|261:80,1,89.9999972534181,14|0,0:0|1:0,0:0:0:0:
196,48,204930,2,0,P|140:84|8:88,1,179.999994506836,6|8,1:2|0:0,0:0:0:0:
29,93,205496,6,0,L|89:279,1,179.999994506836,0|8,1:0|0:0,0:0:0:0:
12,268,205921,2,0,P|101:270|178:313,1,179.999994506836,0|0,1:0|1:0,0:0:0:0:
136,380,206345,1,8,0:0:0:0:
336,252,206628,1,0,1:0:0:0:
192,68,206911,5,10,0:0:0:0:
192,68,207053,1,2,1:2:0:0:
248,120,207194,2,0,B|300:100|328:32|328:32|360:72|396:80,1,179.999994506836,2|14,1:2|0:0,0:0:0:0:
452,80,207619,1,0,0:0:0:0:
452,80,207760,2,0,P|468:128|512:160,2,89.9999972534181,2|0|14,1:2|1:0|0:0,0:0:0:0:
388,144,208185,6,0,L|388:324,1,179.999994506836,2|0,0:0|1:0,0:0:0:0:
316,356,208609,2,0,P|264:336|212:336,1,89.9999972534181,10|8,0:0|0:0,0:0:0:0:
156,360,208892,1,10,0:0:0:0:
84,328,209034,1,8,1:2:0:0:
84,328,209175,2,0,P|72:284|84:228,1,89.9999972534181,10|8,0:0|1:2,0:0:0:0:
144,200,209458,1,4,1:2:0:0:
144,200,210024,6,0,P|204:224|224:120,1,179.999994506836,2|8,1:2|0:0,0:0:0:0:
168,104,210449,1,0,1:2:0:0:
168,104,210590,2,0,L|177:12,1,89.9999972534181,2|0,0:0|1:0,0:0:0:0:
256,60,210873,1,8,0:0:0:0:
256,60,211015,2,0,P|316:44|448:68,1,179.999994506836,2|0,0:0|1:2,0:0:0:0:
500,100,211440,2,0,P|508:156|496:200,1,89.9999972534181,10|0,0:2|1:2,0:0:0:0:
433,232,211723,2,0,P|408:146|430:59,2,179.999994506836,2|8|0,1:2|0:0|1:0,0:0:0:0:
384,292,212430,6,0,L|288:292,1,89.9999972534181,0|10,1:0|0:0,0:0:0:0:
256,360,212713,2,0,B|200:324|200:324|88:364,1,179.999994506836,2|0,1:2|1:2,0:0:0:0:
32,316,213138,2,0,B|12:268|12:268|44:208,1,89.9999972534181,10|0,0:0|0:0,0:0:0:0:
108,244,213421,2,0,B|139:202|139:202|207:200,1,89.9999972534181,2|0,1:2|1:0,0:0:0:0:
260,224,213704,1,10,0:0:0:0:
260,224,213845,1,0,1:2:0:0:
260,224,213987,6,0,P|344:136|240:48,1,269.999991760254,6|0,1:2|0:0,0:0:0:0:
200,96,214553,2,0,P|152:104|88:84,1,89.9999972534181,0|0,1:0|1:0,0:0:0:0:
40,128,214836,1,8,0:0:0:0:
8,200,214977,1,0,0:0:0:0:
48,268,215119,2,0,B|92:296|88:344|88:344|124:316|188:336,1,179.999994506836,2|8,0:0|0:0,0:0:0:0:
240,372,215543,1,2,0:0:0:0:
316,352,215685,2,0,L|327:244,1,89.9999972534181,0|0,1:0|1:0,0:0:0:0:
404,252,215968,2,0,L|392:144,1,89.9999972534181,10|0,0:0|1:0,0:0:0:0:
328,124,216251,2,0,B|264:124|264:124|220:152|220:152|132:152,1,179.999994506836,6|8,1:2|0:0,0:0:0:0:
296,16,216817,6,0,P|388:28|440:116,1,179.999994506836,0|10,1:0|0:0,0:0:0:0:
394,162,217241,2,0,B|414:360,1,179.999994506836,6|0,1:2|1:0,0:0:0:0:
484,372,217666,1,10,0:0:0:0:
328,280,217949,1,2,1:2:0:0:
172,372,218232,1,10,0:0:0:0:
256,192,218515,12,0,219364,0:0:0:0:
84,228,219930,6,0,P|132:236|184:220,1,89.9999972534181,10|0,0:0|0:0,0:0:0:0:
188,312,220213,2,0,P|229:287|259:241,1,89.9999972534181,2|0,1:2|1:0,0:0:0:0:
324,308,220496,2,0,P|340:262|333:208,1,89.9999972534181,10|8,0:0|0:0,0:0:0:0:
300,148,220779,6,0,L|200:148,2,89.9999972534181,6|0|10,1:2|0:0|0:0,0:0:0:0:
324,72,221204,2,0,L|424:72,2,89.9999972534181,6|0|0,1:2|1:2|0:0,0:0:0:0:
380,148,221628,1,8,0:0:0:0:
256,192,221770,12,4,223043,1:2:0:0:
265,119,223609,6,0,P|253:163|257:199,2,75,0|0|8,1:0|1:0|0:0,0:0:0:0:
217,63,224034,2,0,P|161:83|65:79,1,150,0|0,1:0|1:0,0:0:0:0:
21,27,224458,1,8,0:0:0:0:
8,176,224741,2,0,L|17:267,1,75,0|0,1:0|1:0,0:0:0:0:
92,248,225024,2,0,L|129:332,1,75,8|0,0:0|1:0,0:0:0:0:
196,336,225307,6,0,P|256:304|360:312,1,150,0|8,1:0|0:0,0:0:0:0:
396,348,225732,1,0,0:0:0:0:
464,316,225873,1,0,1:0:0:0:
464,316,226156,2,0,P|496:256|488:152,2,150,8|0|8,0:0|0:0|0:0,0:0:0:0:
344,224,227006,2,0,L|351:148,1,75,0|0,1:0|1:0,0:0:0:0:
304,92,227289,1,8,0:0:0:0:
304,92,227430,1,0,1:2:0:0:
232,116,227572,2,0,P|152:104|108:24,1,150,4|8,1:2|0:0,0:0:0:0:
24,172,228138,6,0,L|41:335,1,150,0|8,1:0|0:0,0:0:0:0:
108,356,228562,2,0,P|168:324|276:332,1,150,0|0,1:0|1:0,0:0:0:0:
308,368,228987,1,8,0:0:0:0:
396,244,229270,2,0,L|492:244,2,75,0|0|8,1:0|1:0|0:0,0:0:0:0:
344,192,229694,1,0,1:0:0:0:
292,140,229836,2,0,P|228:156|236:236,1,150,0|8,1:2|0:0,0:0:0:0:
416,168,230402,6,0,L|416:16,1,150,0|8,1:2|0:0,0:0:0:0:
340,16,230826,2,0,P|280:52|200:52,1,150,4|0,1:2|1:0,0:0:0:0:
140,8,231251,1,8,0:0:0:0:
40,120,231534,2,0,P|24:176|24:212,1,75,0|0,1:0|1:0,0:0:0:0:
32,268,231817,1,12,0:0:0:0:
88,316,231958,1,8,0:0:0:0:
164,312,232100,2,0,P|252:312|328:360,1,150,4|8,1:2|0:0,0:0:0:0:
428,252,232666,6,0,L|419:172,2,75,0|0|8,1:0|1:0|0:0,0:0:0:0:
340,232,233090,2,0,L|356:76,1,150,0|0,1:0|1:0,0:0:0:0:
296,36,233515,1,8,0:0:0:0:
152,68,233798,1,0,1:0:0:0:
152,68,233940,1,0,1:0:0:0:
96,120,234081,2,0,B|84:164|84:164|104:208,1,75,8|0,0:0|1:0,0:0:0:0:
168,220,234364,6,0,L|168:320,2,75,12|0|0,0:0|1:0|1:0,0:0:0:0:
240,200,234789,2,0,L|240:112,2,75,12|0|0,0:0|1:0|1:0,0:0:0:0:
308,244,235213,1,12,0:0:0:0:
308,244,235355,1,12,0:0:0:0:
308,244,235921,5,8,0:0:0:0:
308,244,235991,1,8,0:0:0:0:
308,244,236062,2,0,P|368:240|404:248,2,75,8|8|8,0:0|0:0|0:0,0:0:0:0:
256,300,236487,1,8,0:0:0:0:
206,356,236628,1,4,1:2:0:0:
206,356,236770,2,0,B|151:342|151:342|163:226|163:226|104:208,1,225,4|8,1:2|0:0,0:0:0:0:
140,68,237477,5,0,1:0:0:0:
72,92,237619,2,0,P|36:156|44:268,1,168.750006437302,8|8,1:3|1:3,0:0:0:0:
152,340,238326,2,0,B|192:316|192:316|276:348,2,112.500004291535,8|0|0,0:0|1:0|1:2,0:0:0:0:
80,344,239034,1,0,1:0:0:0:
20,300,239175,2,0,L|20:220,1,56.2500021457673,0|0,1:0|1:0,0:0:0:0:
92,224,239458,2,0,L|92:148,1,56.2500021457673,8|0,0:0|0:0,0:0:0:0:
44,112,239741,1,0,1:0:0:0:
76,44,239883,2,0,B|160:44|160:44|160:132,1,168.750006437302,0|0,1:0|0:0,0:0:0:0:
264,232,240590,2,0,B|320:232|320:232|368:264|368:264|440:264,1,168.750006437302,8|8,0:1|0:1,0:0:0:0:
496,264,241156,5,4,1:2:0:0:
472,120,241440,1,0,0:0:0:0:
328,88,241723,1,8,0:0:0:0:
252,212,242006,1,0,1:0:0:0:
252,212,242147,2,0,B|180:172|180:172|104:213,1,168.750006437302,0|0,1:0|1:0,0:0:0:0:
12,100,242855,1,8,0:0:0:0:
12,100,242996,2,0,L|12:43,2,56.2500021457673,0|4|4,0:0|1:3|1:3,0:0:0:0:
72,140,243421,5,0,1:2:0:0:
136,104,243562,1,0,1:2:0:0:
208,92,243704,2,0,P|256:96|332:132,1,112.500004291535,4|8,1:2|0:0,0:0:0:0:
380,172,244128,1,0,0:0:0:0:
380,172,244270,1,0,1:0:0:0:
380,172,244411,2,0,P|391:218|380:302,1,112.500004291535,0|4,1:0|1:2,0:0:0:0:
328,328,244836,1,0,1:0:0:0:
196,232,245119,1,8,0:0:0:0:
256,192,245260,2,0,L|256:128,2,56.2500021457673,8|4|8,0:0|1:2|0:0,0:0:0:0:
332,112,245685,5,10,0:2:0:0:
332,112,245826,1,10,0:0:0:0:
332,112,245968,1,10,0:0:0:0:
332,112,246109,1,2,1:2:0:0:
