osu file format v14

[General]
AudioFilename: audio.mp3
AudioLeadIn: 0
PreviewTime: 190213
Countdown: 0
SampleSet: Soft
StackLeniency: 0.4
Mode: 0
LetterboxInBreaks: 0
WidescreenStoryboard: 1

[Editor]
DistanceSpacing: 1.2
BeatDivisor: 4
GridSize: 8
TimelineZoom: 2.4

[Metadata]
Title:Serment
TitleUnicode:Serment
Artist:Kawada Mami
ArtistUnicode:川田まみ
Creator:Flame Haze
Version:Reason
Source:灼眼のシャナIII-FINAL-
Tags:shakugan no shana III -best- 3rd season 2nd opening full version generasia square the circle anime jrock j-rock rock japanese pop kerupt reiji maigo reiji_maigo mariko sakuragi mariko_sakuragi
BeatmapID:2911065
BeatmapSetID:1125776

[Difficulty]
HPDrainRate:6
CircleSize:4.2
OverallDifficulty:9
ApproachRate:9.5
SliderMultiplier:1.8
SliderTickRate:1

[Events]
//Background and Video events
0,0,"Shanaaaaa.jpg",0,0
//Break Periods
//Storyboard Layer 0 (Background)
//Storyboard Layer 1 (Fail)
//Storyboard Layer 2 (Pass)
//Storyboard Layer 3 (Foreground)
//Storyboard Layer 4 (Overlay)
//Storyboard Sound Samples

[TimingPoints]
1157,283.018867924528,4,2,1,30,1,0
1157,-166.666666666667,4,2,2,30,0,0
5685,-133.333333333333,4,2,2,30,0,0
10213,-117.647058823529,4,2,2,50,0,0
11416,-117.647058823529,4,2,2,5,0,0
11487,-117.647058823529,4,2,2,50,0,0
12973,-117.647058823529,4,2,2,5,0,0
13043,-117.647058823529,4,2,2,50,0,0
17501,-117.647058823529,4,2,2,5,0,0
17572,-117.647058823529,4,2,2,50,0,0
19270,-222.222222222221,4,2,2,35,0,0
20260,-86.9565217391304,4,2,1,65,0,0
20614,-86.9565217391304,4,2,1,5,0,0
20685,-100,4,2,1,65,0,0
22595,-100,4,2,1,5,0,0
22666,-100,4,2,1,65,0,0
23161,-100,4,2,1,5,0,0
23232,-100,4,2,1,65,0,0
25142,-100,4,2,1,5,0,0
25213,-100,4,2,1,65,0,0
27123,-100,4,2,1,5,0,0
27194,-100,4,2,1,65,0,0
27690,-100,4,2,1,5,0,0
27760,-100,4,2,1,65,0,0
28397,-100,4,2,1,5,0,0
28468,-100,4,2,1,65,0,0
29458,-86.9565217391303,4,2,1,65,0,0
29671,-86.9565217391303,4,2,1,5,0,0
29741,-100,4,2,1,65,0,0
31652,-100,4,2,1,5,0,0
31723,-100,4,2,1,65,0,0
31935,-100,4,2,1,5,0,0
32006,-100,4,2,1,65,0,0
33987,-86.9565217391303,4,2,1,65,0,0
34199,-86.9565217391303,4,2,1,5,0,0
34270,-100,4,2,1,65,0,0
34482,-100,4,2,1,5,0,0
34553,-100,4,2,1,65,0,0
36180,-100,4,2,1,5,0,0
36251,-100,4,2,1,65,0,0
36746,-100,4,2,1,5,0,0
36817,-100,4,2,1,65,0,0
38515,-125,4,2,1,50,0,0
53727,-125,4,2,1,5,0,0
53798,-125,4,2,1,50,0,0
54364,-111.111111111111,4,2,1,50,0,0
54576,-111.111111111111,4,2,1,5,0,0
54647,-111.111111111111,4,2,1,50,0,0
55425,-111.111111111111,4,2,1,5,0,0
55496,-95.2380952380952,4,2,1,55,0,0
56628,-125,4,2,1,60,0,0
63421,-100,4,2,1,65,0,0
65048,-100,4,2,1,5,0,0
65119,-100,4,2,1,65,0,0
67949,-80,4,2,1,80,0,1
68161,-80,4,2,1,5,0,1
68232,-80,4,2,1,80,0,1
70425,-80,4,2,1,5,0,1
70496,-80,4,2,1,80,0,1
72690,-80,4,2,1,5,0,1
72760,-80,4,2,1,80,0,1
74954,-80,4,2,1,5,0,1
75024,-80,4,2,1,80,0,1
79482,-80,4,2,1,5,0,1
79553,-80,4,2,1,80,0,1
81463,-80,4,2,1,5,0,1
81534,-80,4,2,1,80,0,1
81746,-80,4,2,1,5,0,1
81817,-80,4,2,1,80,0,1
86274,-80,4,2,1,5,0,1
86345,-80,4,2,1,80,0,1
88256,-80,4,2,1,5,0,1
88326,-80,4,2,1,80,0,1
90803,-80,4,2,1,5,0,1
90873,-80,4,2,1,80,0,1
91652,-80,4,2,1,5,0,1
91723,-80,4,2,1,80,0,1
93067,-80,4,2,1,5,0,1
93138,-80,4,2,1,80,0,1
95331,-80,4,2,1,5,0,1
95402,-80,4,2,1,80,0,1
98373,-117.647058823529,4,2,1,80,0,1
99647,-86.9565217391302,4,2,1,65,0,0
99859,-86.9565217391302,4,2,1,5,0,0
99930,-100,4,2,1,65,0,0
101840,-100,4,2,1,5,0,0
101911,-100,4,2,1,65,0,0
104175,-86.9565217391303,4,2,1,65,0,0
104388,-86.9565217391303,4,2,1,5,0,0
104458,-100,4,2,1,65,0,0
108704,-125,4,2,1,50,0,0
118185,-166.666666666667,4,2,1,50,0,0
119105,-166.666666666667,4,2,1,5,0,0
119175,-166.666666666667,4,2,1,50,0,0
119458,-125,4,2,1,50,0,0
119954,-125,4,2,1,5,0,0
120024,-125,4,2,1,50,0,0
124553,-111.111111111111,4,2,1,50,0,0
125614,-111.111111111111,4,2,1,5,0,0
125685,-95.2380952380952,4,2,1,55,0,0
126817,-125,4,2,1,60,0,0
133609,-100,4,2,1,65,0,0
136156,-142.857142857143,4,2,1,65,0,0
138138,-80,4,2,1,80,0,1
138350,-80,4,2,1,5,0,1
138421,-80,4,2,1,80,0,1
140614,-80,4,2,1,5,0,1
140685,-80,4,2,1,80,0,1
142878,-80,4,2,1,5,0,1
142949,-80,4,2,1,80,0,1
145142,-80,4,2,1,5,0,1
145213,-80,4,2,1,80,0,1
149671,-80,4,2,1,5,0,1
149741,-80,4,2,1,80,0,1
151935,-80,4,2,1,5,0,1
152006,-80,4,2,1,80,0,1
154482,-80,4,2,1,5,0,1
154553,-80,4,2,1,80,0,1
156463,-80,4,2,1,5,0,1
156534,-80,4,2,1,80,0,1
158444,-80,4,2,1,5,0,1
158515,-80,4,2,1,80,0,1
160991,-80,4,2,1,5,0,1
161062,-80,4,2,1,80,0,1
163256,-80,4,2,1,5,0,1
163326,-80,4,2,1,80,0,1
165520,-80,4,2,1,5,0,1
165590,-80,4,2,1,80,0,1
168562,-117.647058823529,4,2,1,80,0,1
169836,-117.647058823529,4,2,2,70,0,0
171534,-95.238095238095,4,2,2,70,0,0
172100,-117.647058823529,4,2,2,70,0,0
173798,-95.238095238095,4,2,2,70,0,0
174364,-117.647058823529,4,2,2,70,0,0
175355,-117.647058823529,4,2,2,70,0,0
176062,-95.238095238095,4,2,2,70,0,0
176628,-117.647058823529,4,2,2,70,0,0
177619,-105.263157894737,4,2,2,70,0,0
178256,-105.263157894737,4,2,2,5,0,0
178326,-105.263157894737,4,2,1,70,0,0
178892,-111.111111111111,4,2,2,70,0,0
180590,-95.2380952380951,4,2,2,70,0,0
181156,-111.111111111111,4,2,2,70,0,0
181652,-111.111111111111,4,2,2,5,0,0
181723,-111.111111111111,4,2,2,70,0,0
182430,-111.111111111111,4,2,1,70,0,0
182572,-111.111111111111,4,2,2,70,0,0
182855,-95.2380952380951,4,2,2,70,0,0
183279,-95.2380952380951,4,2,1,70,0,0
183421,-105.263157894737,4,2,2,70,0,0
185119,-95.2380952380954,4,2,2,70,0,0
185685,-105.263157894737,4,2,2,70,0,0
187383,-105.263157894737,4,2,1,70,0,0
187949,-100,4,2,1,50,0,0
190213,-250.000000000001,4,2,1,35,0,0
194105,-250.000000000001,4,2,1,5,0,0
194175,-250.000000000001,4,2,1,35,0,0
196935,-250.000000000001,4,2,1,5,0,0
197006,-250.000000000001,4,2,1,35,0,0
199270,-250.000000000001,4,2,1,5,0,0
200119,-250.000000000001,4,2,1,65,0,0
200402,-79.9999999999999,4,2,1,80,0,1
200614,-79.9999999999999,4,2,1,5,0,1
200685,-79.9999999999999,4,2,1,80,0,1
201746,-79.9999999999999,4,2,1,5,0,1
201817,-79.9999999999999,4,2,1,80,0,1
202878,-79.9999999999999,4,2,1,5,0,1
202949,-79.9999999999999,4,2,1,80,0,1
205142,-79.9999999999999,4,2,1,5,0,1
205213,-79.9999999999999,4,2,1,80,0,1
207406,-79.9999999999999,4,2,1,5,0,1
207477,-79.9999999999999,4,2,1,80,0,1
209671,-79.9999999999999,4,2,1,5,0,1
209741,-79.9999999999999,4,2,1,80,0,1
212218,-79.9999999999999,4,2,1,5,0,1
212289,-79.9999999999999,4,2,1,80,0,1
214199,-79.9999999999999,4,2,1,5,0,1
214270,-79.9999999999999,4,2,1,80,0,1
216463,-79.9999999999999,4,2,1,5,0,1
216534,-79.9999999999999,4,2,1,80,0,1
218727,-79.9999999999999,4,2,1,5,0,1
218798,-79.9999999999999,4,2,1,80,0,1
221770,-117.647058823529,4,2,1,70,0,0
223043,-76.9230769230769,4,2,1,80,0,1
223256,-76.9230769230769,4,2,1,5,0,1
223326,-76.9230769230769,4,2,1,80,0,1
223539,-76.9230769230769,4,2,1,5,0,1
223609,-76.9230769230769,4,2,1,80,0,1
225520,-76.9230769230769,4,2,1,5,0,1
225590,-76.9230769230769,4,2,1,80,0,1
225803,-76.9230769230769,4,2,1,5,0,1
225873,-76.9230769230769,4,2,1,80,0,1
227784,-76.9230769230769,4,2,1,5,0,1
227855,-76.9230769230769,4,2,1,80,0,1
230048,-76.9230769230769,4,2,1,5,0,1
230119,-76.9230769230769,4,2,1,80,0,1
232312,-76.9230769230769,4,2,1,5,0,1
232383,-76.9230769230769,4,2,1,80,0,1
232595,-76.9230769230769,4,2,1,5,0,1
232666,-76.9230769230769,4,2,1,80,0,1
234293,-76.9230769230769,4,2,1,5,0,1
234364,-76.9230769230769,4,2,1,80,0,1
235355,-111.111111111111,4,2,1,80,0,1
235425,-111.111111111111,4,2,1,5,0,1
235921,-111.111111111111,4,2,1,80,0,1
236628,-99.9999999999999,4,2,2,70,0,0
238326,-86.9565217391304,4,2,2,70,0,0
238892,-90.9090909090909,4,2,2,70,0,0
239388,-90.9090909090909,4,2,2,5,0,0
239458,-100,4,2,2,70,0,0
239671,-100,4,2,2,5,0,0
239741,-100,4,2,2,70,0,0
240095,-100,4,2,2,5,0,0
240166,-100,4,2,2,70,0,0
240590,-86.9565217391304,4,2,2,70,0,0
241156,-100,4,2,2,70,0,0
242855,-86.9565217391304,4,2,2,70,0,0
243421,-90.9090909090909,4,2,2,70,0,0
243916,-90.9090909090909,4,2,2,5,0,0
243987,-90.9090909090909,4,2,2,70,0,0
244270,-100,4,2,2,70,0,0
245119,-86.9565217391303,4,2,1,70,0,0

[Colours]
Combo1 : 200,203,223
Combo2 : 198,51,77
Combo3 : 57,95,155
Combo4 : 120,114,173

[HitObjects]
441,46,5685,6,0,P|395:60|362:69,1,67.5000025749208,0|0,1:2|1:2,0:0:0:0:
376,65,7949,6,0,P|408:55|441:46,1,67.5000025749208,0|0,1:2|1:2,0:0:0:0:
299,14,8373,1,0,1:2:0:0:
299,14,8656,5,0,1:2:0:0:
383,84,8798,1,0,1:2:0:0:
314,225,8940,1,0,1:2:0:0:
314,225,9647,6,0,P|361:180|442:211,1,135.000005149842,0|0,0:0|1:2,0:0:0:0:
253,94,10213,5,0,1:2:0:0:
369,1,10355,2,0,P|391:66|434:142,1,153.000002918243,0|0,1:2|0:0,0:0:0:0:
416,226,10779,2,0,B|337:262|402:300|304:333,1,153.000002918243,8|0,0:0|0:0,0:0:0:0:
196,170,11204,6,0,P|232:167|273:211,1,76.5000014591217,0|0,1:2|0:0,0:0:0:0:
141,345,11487,1,0,1:2:0:0:
141,345,11628,2,0,P|156:294|164:254,1,76.5000014591217,0|0,1:2|0:0,0:0:0:0:
90,120,11911,5,8,0:0:0:0:
87,127,12053,1,0,0:0:0:0:
230,212,12194,1,0,0:0:0:0:
227,206,12336,1,0,0:0:0:0:
68,207,12477,5,0,1:2:0:0:
231,114,12619,1,0,1:2:0:0:
14,8,12760,2,0,P|47:52|102:54,1,114.750002188683,0|0,1:2|0:0,0:0:0:0:
110,45,13043,2,0,P|80:93|63:123,1,76.5000014591217,8|0,0:0|0:0,0:0:0:0:
161,264,13326,5,0,1:2:0:0:
161,264,13468,2,0,P|116:217|32:232,1,153.000002918243,0|0,1:2|0:0,0:0:0:0:
132,384,13892,2,0,P|176:369|213:360,1,76.5000014591217,0|0,1:2|0:0,0:0:0:0:
79,291,14175,5,8,0:0:0:0:
76,298,14317,1,0,0:0:0:0:
212,209,14458,1,0,0:0:0:0:
215,216,14600,1,0,0:0:0:0:
99,108,14741,5,0,1:2:0:0:
173,20,14883,2,0,B|221:16|250:55|234:59|257:99|316:94,1,153.000002918243,0|0,1:2|0:0,0:0:0:0:
360,150,15307,6,0,B|396:136|420:97|420:97|401:156|367:167,1,153.000002918243,8|0,0:0|0:0,0:0:0:0:
268,5,15732,2,0,P|323:6|363:38,1,76.5000014591217,0|0,1:2|0:0,0:0:0:0:
252,147,16015,1,0,1:2:0:0:
189,110,16156,2,0,P|149:135|133:166,1,76.5000014591217,0|0,1:2|0:0,0:0:0:0:
330,278,16440,5,8,0:0:0:0:
305,208,16581,1,0,0:0:0:0:
176,363,16723,5,0,0:2:0:0:
201,293,16864,1,0,0:0:0:0:
307,376,17006,6,0,P|348:380|396:355,1,76.5000014591217,0|0,1:2|1:2,0:0:0:0:
375,228,17289,2,0,P|407:181|465:184,1,114.750002188683,0|0,1:2|0:0,0:0:0:0:
465,189,17572,2,0,L|359:154,1,76.5000014591217,8|0,0:0|0:0,0:0:0:0:
279,52,17855,5,0,1:2:0:0:
95,65,17996,2,0,P|140:106|251:93,1,153.000002918243,0|0,1:2|1:2,0:2:0:0:
456,0,18421,2,0,P|410:1|361:30,1,76.5000014591217,0|0,1:2|0:0,0:0:0:0:
365,164,18704,5,8,0:0:0:0:
449,92,18845,1,0,0:0:0:0:
284,4,18987,5,0,0:0:0:0:
447,81,19128,1,0,0:0:0:0:
292,192,19270,6,0,P|281:236|295:271,3,80.9999975280763,2|2|2|2,0:3|0:3|0:3|0:3,0:0:0:0:
449,333,20260,5,0,1:2:0:0:
444,319,20331,1,0,1:2:0:0:
439,306,20402,2,0,B|353:312|390:368|299:375,1,155.250002961159,4|0,1:2|0:0,0:0:0:0:
252,325,20685,2,0,P|267:273|273:229,1,90,10|0,0:0|0:0,0:0:0:0:
364,89,20968,5,2,0:2:0:0:
405,205,21109,1,2,1:2:0:0:
198,69,21251,1,10,0:2:0:0:
363,0,21392,2,0,B|421:-12|456:30|456:30|470:91|539:87,1,180,2|0,1:2|1:2,0:0:0:0:
334,165,21817,6,0,P|303:195|300:239,1,90,10|0,0:0|0:0,0:0:0:0:
475,275,22100,1,2,0:0:0:0:
352,164,22241,1,2,1:2:0:0:
266,382,22383,6,0,P|209:361|206:287,1,135,8|0,0:0|0:0,0:0:0:0:
255,234,22666,2,0,P|296:251|339:263,1,90,0|0,1:2|0:0,0:0:0:0:
92,370,22949,6,0,P|81:305|66:206,1,135,10|0,0:0|0:0,0:0:0:0:
85,223,23232,1,2,0:2:0:0:
201,307,23373,1,2,1:2:0:0:
0,367,23515,1,10,0:2:0:0:
93,117,23656,6,0,B|70:108|45:90|45:90|-17:140|16:205,1,180,2|0,1:2|1:0,0:0:0:0:
199,64,24081,2,0,P|240:47|311:58,1,90,10|0,0:0|0:0,0:0:0:0:
248,246,24364,5,2,1:2:0:0:
112,193,24506,1,2,1:2:0:0:
105,377,24647,2,0,P|140:349|181:331,1,90,8|0,0:0|0:0,0:0:0:0:
368,143,24930,6,0,P|344:83|281:72,1,135,0|0,1:2|0:0,0:0:0:0:
231,130,25213,2,0,P|254:184|263:227,1,90,10|0,0:0|0:0,0:0:0:0:
222,374,25496,5,2,0:2:0:0:
401,252,25638,1,2,1:2:0:0:
205,162,25779,1,10,0:2:0:0:
483,264,25921,6,0,P|476:216|359:185,1,180,2|0,1:2|1:2,0:0:0:0:
321,384,26345,2,0,P|379:363|427:349,1,90,10|0,0:0|0:0,0:0:0:0:
360,171,26628,5,2,0:2:0:0:
322,276,26770,1,2,1:2:0:0:
167,18,26911,6,0,P|151:78|230:104,1,135,8|0,0:0|0:0,0:0:0:0:
265,74,27194,2,0,P|318:49|364:42,1,90,0|0,1:2|0:0,0:0:0:0:
464,129,27477,6,0,B|499:138|517:165|517:165|503:121|435:109,1,135,10|0,0:0|0:0,0:0:0:0:
394,142,27760,2,0,B|349:162|375:187|309:212,1,90,2|2,0:2|1:2,0:0:0:0:
234,152,28043,1,10,0:0:0:0:
372,320,28185,6,0,P|412:268|477:271,1,135,2|0,1:2|0:0,0:0:0:0:
491,287,28468,1,6,1:2:0:0:
347,113,28609,2,0,P|330:160|315:206,1,90,12|0,0:0|0:0,0:0:0:0:
156,346,28892,5,6,1:2:0:0:
260,268,29034,1,2,1:2:0:0:
319,367,29175,5,14,0:0:0:0:
144,227,29317,1,8,0:0:0:0:
278,11,29458,6,0,B|319:89|247:82|289:170,1,155.250002961159,4|0,1:2|0:0,0:0:0:0:
304,230,29741,2,0,P|343:210|358:169,1,90,10|0,0:0|0:0,0:0:0:0:
144,15,30024,5,2,0:2:0:0:
245,123,30166,1,2,1:2:0:0:
43,73,30307,1,10,0:2:0:0:
37,258,30449,2,0,B|83:247|88:199|88:199|127:164|179:182,1,180,2|0,1:2|1:0,0:0:0:0:
229,384,30873,6,0,P|177:362|117:341,1,90,10|0,0:0|0:0,0:0:0:0:
291,187,31156,2,0,P|312:253|326:291,1,90,2|2,0:0|1:2,0:0:0:0:
149,120,31440,2,0,P|83:125|47:180,1,135,8|0,0:0|0:0,0:0:0:0:
62,249,31723,6,0,B|137:266|100:308|185:325,1,135,0|0,1:2|0:0,0:0:0:0:
233,285,32006,2,0,P|217:243|170:241,1,90,10|0,0:0|0:0,0:0:0:0:
99,363,32289,1,2,0:2:0:0:
269,283,32430,1,2,1:2:0:0:
123,161,32572,1,10,0:2:0:0:
249,76,32713,6,0,B|265:-2|180:-15|180:-15|162:3|138:11,1,180,2|0,1:2|1:2,0:0:0:0:
17,212,33138,2,0,P|68:196|143:187,1,90,10|0,0:0|0:0,0:0:0:0:
184,120,33421,5,2,1:2:0:0:
13,224,33562,1,2,1:2:0:0:
32,88,33704,5,8,0:0:0:0:
187,224,33845,1,0,1:2:0:0:
158,378,33987,6,0,B|111:373|98:324|98:324|118:362|166:368,1,155.250002961159,4|0,1:2|0:0,0:0:0:0:
218,301,34270,2,0,B|137:317|182:358|102:378,1,135,10|0,0:0|0:0,0:0:0:0:
57,334,34553,5,2,0:2:0:0:
257,384,34694,1,2,1:2:0:0:
54,329,34836,1,10,0:2:0:0:
257,83,34977,6,0,P|286:167|318:252,1,180,2|0,1:2|1:2,0:0:0:0:
178,151,35402,2,0,P|136:135|81:159,1,90,10|0,0:0|0:0,0:0:0:0:
175,340,35685,2,0,P|195:290|215:248,1,90,2|2,0:0|1:2,0:0:0:0:
28,75,35968,6,0,P|99:42|187:61,1,135,8|0,0:0|0:0,0:0:0:0:
166,33,36251,2,0,P|113:23|65:41,1,90,0|0,1:2|0:0,0:0:0:0:
35,300,36534,6,0,P|96:322|184:359,1,135,10|0,0:0|0:0,0:0:0:0:
177,333,36817,1,2,0:2:0:0:
75,188,36958,1,2,1:2:0:0:
217,101,37100,1,10,0:2:0:0:
98,201,37241,6,0,P|135:278|221:276,1,180,6|0,1:2|1:2,0:0:0:0:
277,94,37666,5,10,0:0:0:0:
75,188,37807,1,2,0:3:0:0:
130,49,37949,5,10,0:0:0:0:
305,180,38090,1,10,0:0:0:0:
426,0,38232,5,8,0:0:0:0:
291,59,38373,1,8,0:0:0:0:
444,178,38515,6,0,P|474:159|494:129,1,72,6|2,1:2|1:2,0:0:0:0:
374,130,38798,2,0,P|424:179|433:250,1,144,8|0,0:0|0:0,0:0:0:0:
270,371,39223,5,0,1:2:0:0:
189,300,39364,1,8,0:0:0:0:
326,220,39506,2,0,B|241:237|299:293|190:311,1,144,0|0,1:2|1:2,0:0:0:0:
130,107,39930,6,0,P|171:128|190:176,1,72,10|0,0:0|0:0,0:0:0:0:
94,313,40213,2,0,P|83:268|70:225,1,72,2|0,1:2|1:0,0:0:0:0:
130,107,40496,2,0,P|171:128|190:176,1,72,10|0,0:0|0:0,0:0:0:0:
271,325,40779,6,0,P|226:328|197:357,1,72,2|0,1:2|1:2,0:0:0:0:
60,162,41062,2,0,P|112:173|145:269,1,144,8|0,0:0|0:0,0:0:0:0:
75,243,41487,5,0,1:2:0:0:
40,143,41628,1,10,0:0:0:0:
271,232,41770,2,0,B|191:258|246:297|147:326,1,144,2|0,1:2|1:2,0:0:0:0:
25,197,42194,5,8,0:0:0:0:
38,201,42336,1,0,0:0:0:0:
139,268,42477,5,0,1:2:0:0:
126,272,42619,1,0,1:2:0:0:
17,344,42760,6,0,P|47:376|89:373,1,72,8|0,0:0|1:0,0:0:0:0:
269,141,43043,6,0,P|207:164|132:192,1,144,2|10,1:2|0:0,0:0:0:0:
22,8,43468,2,0,B|101:29|53:82|166:90,1,144,2|0,0:0|1:2,0:0:0:0:
18,190,43892,5,8,0:0:0:0:
138,87,44034,2,0,B|198:102|198:102|210:125|210:125|274:141,1,144,0|0,1:2|1:2,0:2:0:0:
399,7,44458,6,0,P|335:24|324:55,1,72,10|0,0:0|0:0,0:0:0:0:
347,112,44741,2,0,P|377:150|392:181,1,72,2|0,1:2|1:0,0:0:0:0:
272,286,45024,2,0,P|279:250|292:217,1,72,10|0,0:0|0:0,0:0:0:0:
376,361,45307,6,0,P|426:374|467:361,1,72,2|0,1:2|1:2,0:0:0:0:
510,188,45590,2,0,B|456:212|456:212|444:246|444:246|392:270,1,144,8|0,0:0|0:0,0:0:0:0:
495,320,46015,1,0,1:2:0:0:
341,193,46156,5,10,0:0:0:0:
441,132,46298,1,2,1:2:0:0:
441,132,46369,1,2,0:2:0:0:
441,132,46440,1,2,0:2:0:0:
245,6,46581,6,0,P|264:38|285:76,1,72,0|8,1:2|0:0,0:0:0:0:
164,25,46864,1,0,0:0:0:0:
297,138,47006,2,0,P|341:115|362:78,1,72,0|0,1:0|1:0,0:0:0:0:
212,167,47289,5,12,0:0:0:0:
393,283,47430,1,12,0:0:0:0:
470,0,47572,6,0,B|398:5|423:63|345:73,1,144,6|10,1:2|0:0,0:0:0:0:
266,0,47996,1,2,0:0:0:0:
266,0,48279,5,0,1:0:0:0:
433,63,48421,1,8,0:0:0:0:
309,144,48562,2,0,P|284:190|327:282,1,144,0|0,1:2|1:2,0:0:0:0:
495,228,48987,6,0,P|461:198|419:201,1,72,10|0,0:0|0:0,0:0:0:0:
379,303,49270,2,0,P|406:341|427:378,1,72,2|0,1:2|1:0,0:0:0:0:
495,228,49553,2,0,P|461:198|419:201,1,72,10|8,0:0|0:0,0:0:0:0:
330,371,49836,5,2,1:2:0:0:
486,308,49977,1,0,1:2:0:0:
324,373,50119,2,0,P|289:345|187:334,1,144,8|0,0:0|0:0,0:0:0:0:
193,332,50543,5,0,1:2:0:0:
315,239,50685,1,10,0:0:0:0:
199,76,50826,2,0,B|185:126|185:126|156:145|156:145|148:191|137:223,1,144,2|0,1:2|1:2,0:0:0:0:
312,125,51251,5,8,0:0:0:0:
309,118,51392,1,0,0:0:0:0:
124,56,51534,2,0,P|175:86|214:87,1,72,0|0,1:2|1:2,0:0:0:0:
331,26,51817,5,10,0:0:0:0:
183,94,51958,1,8,0:0:0:0:
326,132,52100,6,0,P|358:164|352:266,1,144,2|8,1:2|0:0,0:0:0:0:
269,253,52524,2,0,B|225:259|207:297|217:298|206:343|145:338,1,144,2|0,0:0|1:2,0:0:0:0:
109,101,52949,6,0,P|128:150|146:186,1,72,10|0,0:0|1:2,0:0:0:0:
4,238,53232,2,0,P|18:205|31:171,1,72,2|0,0:0|1:2,0:0:0:0:
154,279,53515,2,0,P|121:320|69:332,1,108,8|0,0:0|0:0,0:0:0:0:
60,320,53798,5,0,1:2:0:0:
189,380,53940,1,0,1:2:0:0:
277,193,54081,6,0,P|242:230|243:272,1,72,10|0,0:0|0:0,0:0:0:0:
324,313,54364,2,0,P|374:296|452:277,1,121.499996292114,2|0,1:2|0:0,0:0:0:0:
452,286,54647,2,0,P|472:335|449:369,1,80.9999975280763,10|2,0:0|0:0,0:0:0:0:
319,233,54930,5,0,1:2:0:0:
319,233,55072,1,0,1:2:0:0:
419,136,55213,2,0,P|421:93|353:62,1,121.499996292114,8|0,0:0|0:0,0:0:0:0:
346,57,55496,6,0,P|393:73|451:62,1,94.499997116089,2|0,1:2|0:0,0:0:0:0:
251,224,55779,2,0,P|291:195|350:191,1,94.499997116089,10|0,0:0|0:0,0:0:0:0:
205,25,56062,5,8,0:0:0:0:
146,128,56204,1,8,0:0:0:0:
222,283,56345,5,8,0:0:0:0:
140,120,56487,1,8,0:0:0:0:
326,17,56628,5,6,1:2:0:0:
317,20,56770,1,0,1:2:0:0:
308,23,56911,1,0,1:2:0:0:
299,26,57053,1,2,1:2:0:0:
204,0,57194,1,8,0:0:0:0:
371,116,57336,1,0,1:2:0:0:
247,145,57477,2,0,P|222:190|232:226,1,72,10|8,0:0|1:3,0:0:0:0:
372,329,57760,5,2,0:0:0:0:
258,273,57902,1,8,1:3:0:0:
207,369,58043,1,0,1:2:0:0:
220,363,58185,1,2,1:2:0:0:
233,359,58326,1,8,0:0:0:0:
151,288,58468,1,0,0:0:0:0:
306,186,58609,2,0,P|271:213|239:220,1,72,2|0,0:0|1:2,0:0:0:0:
85,60,58892,5,2,1:2:0:0:
98,55,59034,1,0,1:2:0:0:
112,57,59175,1,0,1:2:0:0:
125,63,59317,1,0,1:2:0:0:
129,76,59458,1,8,0:0:0:0:
25,211,59600,1,0,1:0:0:0:
184,184,59741,1,10,0:0:0:0:
76,363,59883,6,0,P|65:315|35:213,1,144,2|0,1:2|1:2,0:0:0:0:
114,115,60307,2,0,P|159:125|184:176,1,72,8|0,1:3|1:0,0:0:0:0:
132,247,60590,5,10,0:0:0:0:
283,163,60732,1,8,0:0:0:0:
205,317,60873,1,6,1:2:0:0:
163,148,61015,1,8,0:0:0:0:
297,255,61156,2,0,P|346:253|371:237,1,72,6|8,1:2|0:3,0:0:0:0:
372,78,61440,5,0,0:0:0:0:
367,91,61581,1,2,0:0:0:0:
482,177,61723,2,0,P|469:140|457:88,1,72,8|0,0:0|1:2,0:0:0:0:
299,16,62006,5,10,0:0:0:0:
454,97,62147,1,8,0:0:0:0:
184,78,62289,5,2,0:0:0:0:
291,18,62430,1,8,0:3:0:0:
122,8,62572,6,0,B|78:18|60:52|71:52|55:93|0:89,1,144,0|8,1:2|0:0,0:0:0:0:
122,8,62996,1,0,0:0:0:0:
90,214,63138,2,0,P|77:173|64:132,1,72,2|8,0:0|0:3,0:0:0:0:
266,0,63421,5,2,1:2:0:0:
159,29,63562,1,0,1:2:0:0:
238,98,63704,2,0,P|278:117|322:120,1,90,2|0,1:2|1:2,0:0:0:0:
322,246,63987,5,8,0:0:0:0:
475,207,64128,2,0,P|415:203|377:212,1,90,2|0,1:2|0:0,0:0:0:0:
322,246,64411,1,2,1:2:0:0:
409,376,64553,5,0,1:2:0:0:
419,296,64694,1,10,0:0:0:0:
426,215,64836,2,0,B|343:210|377:279|277:272,1,135,2|0,1:2|0:0,0:0:0:0:
243,233,65119,2,0,P|261:187|274:142,1,90,10|0,0:0|0:0,0:0:0:0:
343,280,65402,5,10,0:0:0:0:
215,364,65543,1,10,0:0:0:0:
112,169,65685,5,2,1:2:0:0:
120,172,65756,1,2,1:2:0:0:
128,175,65826,1,2,1:2:0:0:
267,214,65968,1,2,1:2:0:0:
116,384,66958,5,2,0:0:0:0:
83,338,67099,1,0,0:0:0:0:
126,273,67241,1,0,0:0:0:0:
146,193,67382,1,2,1:2:0:0:
126,177,67524,1,0,1:2:0:0:
45,0,67666,5,10,3:2:0:0:
6,32,67736,1,0,3:2:0:0:
4,84,67807,1,0,3:2:0:0:
49,120,67878,1,0,3:2:0:0:
97,104,67949,6,0,B|151:85|185:115|178:117|216:156|276:120,1,168.75,6|0,1:2|0:0,0:0:0:0:
306,73,68232,2,0,P|288:37|222:49,1,112.5,8|0,0:0|0:0,0:0:0:0:
213,327,68515,5,2,1:2:0:0:
382,240,68656,1,0,1:2:0:0:
205,337,68798,2,0,P|146:332|107:292,1,112.5,8|0,0:0|1:0,0:0:0:0:
33,125,69081,6,0,P|99:132|124:192,1,112.5,2|0,0:0|1:2,0:0:0:0:
283,43,69364,1,8,0:0:0:0:
76,10,69506,2,0,P|119:44|182:46,1,112.5,2|0,0:0|1:2,0:0:0:0:
57,2,69789,1,0,1:2:0:0:
251,167,69930,5,10,0:0:0:0:
391,107,70072,1,0,1:2:0:0:
376,380,70213,6,0,B|396:335|371:289|366:303|325:263|351:198,1,168.75,2|0,1:2|0:0,0:0:0:0:
405,176,70496,2,0,P|461:214|452:278,1,112.5,8|0,0:0|0:0,0:0:0:0:
285,349,70779,1,0,1:2:0:0:
401,164,70921,1,0,1:2:0:0:
169,188,71062,5,10,0:0:0:0:
303,274,71204,2,0,B|266:256|233:265|207:304|207:304|208:310|208:310|188:357|136:367|103:342,1,225,2|0,1:2|1:2,0:0:0:0:
14,217,71628,6,0,P|73:217|121:260,1,112.5,10|0,0:0|0:0,0:0:0:0:
239,89,71911,1,2,1:2:0:0:
86,137,72053,1,0,1:2:0:0:
275,247,72194,1,10,0:0:0:0:
56,299,72336,5,2,1:2:0:0:
56,299,72406,1,2,1:2:0:0:
56,299,72477,2,0,P|80:360|174:349,1,168.75,6|0,1:2|0:0,0:0:0:0:
213,288,72760,2,0,P|187:236|169:182,1,112.5,8|0,0:0|0:0,0:0:0:0:
258,0,73043,5,0,1:2:0:0:
140,81,73185,1,0,1:2:0:0:
327,137,73326,1,10,0:0:0:0:
94,0,73468,2,0,B|39:-10|8:48|8:48|69:88|43:171,1,225,2|0,1:2|1:2,0:0:0:0:
196,381,73892,6,0,P|147:356|90:350,1,112.5,10|0,0:0|0:0,0:0:0:0:
344,175,74175,2,0,P|303:203|240:213,1,112.5,2|0,0:2|1:2,0:0:0:0:
390,369,74458,5,10,0:0:0:0:
479,290,74600,1,0,1:2:0:0:
275,103,74741,6,0,P|325:167|406:168,1,168.75,2|0,1:2|0:0,0:0:0:0:
422,152,75024,2,0,P|379:196|370:247,1,112.5,8|2,0:0|0:0,0:0:0:0:
194,16,75307,5,0,1:2:0:0:
364,94,75449,1,0,1:2:0:0:
187,16,75590,1,10,0:0:0:0:
113,261,75732,6,0,B|157:210|197:214|197:214|207:174|207:174|246:176|290:136,1,225,4|0,1:2|1:2,0:0:0:0:
422,152,76156,2,0,P|450:222|412:271,1,112.5,8|0,0:0|0:0,0:0:0:0:
264,345,76440,5,0,1:2:0:0:
346,244,76581,1,0,1:2:0:0:
410,366,76723,5,10,0:0:0:0:
240,195,76864,1,10,0:0:0:0:
149,375,77006,6,0,P|212:361|276:350,1,112.5,6|0,1:2|0:0,0:0:0:0:
93,323,77289,1,10,0:0:0:0:
129,157,77430,2,0,P|80:181|61:232,1,112.5,2|0,0:0|1:2,0:0:0:0:
216,245,77713,5,2,1:2:0:0:
15,137,77855,1,10,0:0:0:0:
221,248,77996,1,0,1:2:0:0:
266,71,78138,6,0,P|308:37|386:69,1,112.5,2|0,0:0|1:2,0:0:0:0:
244,142,78421,1,10,0:0:0:0:
337,247,78562,6,0,P|393:225|460:201,1,112.5,2|0,0:0|1:2,0:0:0:0:
300,310,78845,1,2,1:2:0:0:
224,176,78987,5,10,0:0:0:0:
448,284,79128,1,0,1:2:0:0:
460,42,79270,6,0,B|428:1|371:12|355:91|418:128,1,168.75,2|0,1:2|0:0,0:0:0:0:
413,122,79553,1,10,0:0:0:0:
251,184,79694,6,0,P|303:204|342:243,1,112.5,2|0,0:0|1:2,0:0:0:0:
486,319,79977,2,0,P|431:341|394:379,1,112.5,2|8,1:2|0:0,0:0:0:0:
251,276,80260,6,0,B|183:265|141:313|160:327|130:383|55:369,1,225,6|0,1:2|1:0,0:0:0:0:
50,193,80685,1,10,0:0:0:0:
235,372,80826,1,0,0:0:0:0:
240,137,80968,5,2,1:2:0:0:
175,242,81109,1,4,1:2:0:0:
2,7,81251,6,0,B|55:10|77:49|56:52|83:92|143:88,1,168.75,14|0,0:0|0:0,0:0:0:0:
189,34,81534,6,0,B|226:2|272:10|272:10|230:-7|196:15,1,168.75,6|0,1:2|0:0,0:0:0:0:
133,92,81817,2,0,P|166:143|196:227,1,112.5,8|0,0:0|0:0,0:0:0:0:
295,331,82100,5,0,1:2:0:0:
121,224,82241,1,0,1:2:0:0:
352,214,82383,5,8,0:0:0:0:
162,356,82524,2,0,B|153:320|133:297|133:297|196:366|303:354,1,225,0|0,1:2|1:2,0:0:0:0:
432,168,82949,6,0,B|372:161|372:161|323:228,1,112.5,8|0,0:0|0:0,0:0:0:0:
456,373,83232,2,0,P|475:314|499:266,1,112.5,0|0,1:0|1:0,0:0:0:0:
332,65,83515,5,10,0:0:0:0:
493,141,83656,1,2,1:2:0:0:
278,160,83798,6,0,P|260:214|306:266,1,112.5,2|0,1:2|0:0,0:0:0:0:
448,33,84081,2,0,P|393:47|338:57,1,112.5,14|0,0:0|0:0,0:0:0:0:
415,190,84364,5,2,1:2:0:0:
259,37,84506,1,0,1:2:0:0:
459,0,84647,1,14,0:0:0:0:
313,142,84789,6,0,B|249:160|219:111|219:111|179:53|110:81,1,225,2|0,1:2|1:2,0:0:0:0:
120,191,85213,5,10,0:0:0:0:
245,14,85355,1,8,0:0:0:0:
284,249,85496,5,10,0:0:0:0:
117,66,85638,1,8,1:2:0:0:
52,299,85779,5,10,0:0:0:0:
185,140,85921,1,8,1:2:0:0:
270,346,86062,6,0,B|282:325|304:305|304:305|166:343,1,168.75,4|0,1:2|0:0,0:0:0:0:
138,382,86345,2,0,P|97:346|33:342,1,112.5,8|0,0:0|0:0,0:0:0:0:
0,154,86628,5,2,1:2:0:0:
122,263,86770,1,0,1:2:0:0:
239,93,86911,2,0,P|174:111|126:127,1,112.5,8|0,0:0|1:2,0:0:0:0:
29,0,87194,6,0,P|93:12|119:53,1,112.5,2|0,0:0|1:0,0:0:0:0:
15,12,87477,1,8,0:0:0:0:
136,238,87619,2,0,P|158:181|195:121,1,112.5,2|0,0:0|1:2,0:0:0:0:
112,247,87902,1,0,1:2:0:0:
394,14,88043,6,0,B|338:8|313:46|327:50|306:96|234:81,1,168.75,10|0,0:0|0:0,0:0:0:0:
203,32,88326,1,2,1:2:0:0:
374,132,88468,1,0,1:0:0:0:
187,159,88609,6,0,P|149:218|171:278,1,112.5,8|0,0:0|0:0,0:0:0:0:
281,365,88892,1,0,1:0:0:0:
281,365,89034,1,0,1:0:0:0:
388,309,89175,5,10,0:0:0:0:
279,150,89317,2,0,P|381:150|423:268,1,225,2|0,1:2|1:2,0:0:0:0:
211,284,89741,6,0,P|179:338|191:388,1,112.5,10|0,0:0|0:0,0:0:0:0:
402,212,90024,1,2,1:2:0:0:
211,267,90166,1,0,1:2:0:0:
139,101,90307,5,10,0:0:0:0:
279,150,90449,1,0,1:0:0:0:
499,38,90590,6,0,B|464:29|444:-3|444:-3|438:54|394:115,1,168.75,6|0,1:2|0:0,0:0:0:0:
401,163,90873,2,0,P|351:132|337:77,1,112.5,8|0,0:0|0:0,0:0:0:0:
500,214,91156,5,0,1:0:0:0:
500,214,91298,1,0,1:0:0:0:
415,316,91440,2,0,B|367:314|349:277|357:277|333:221|268:232,1,168.75,10|0,0:0|0:0,0:0:0:0:
222,267,91723,6,0,P|243:328|260:383,1,112.5,2|0,0:0|1:2,0:0:0:0:
230,253,92006,1,8,0:0:0:0:
260,74,92147,6,0,P|330:51|378:23,1,112.5,2|0,0:0|1:2,0:0:0:0:
272,159,92430,1,0,1:2:0:0:
139,12,92572,2,0,P|78:10|41:81,1,112.5,10|0,0:0|1:2,0:0:0:0:
63,160,92855,6,0,B|128:187|128:187|144:220|144:220|229:252,1,168.75,6|0,1:2|0:0,0:0:0:0:
257,283,93138,2,0,B|274:283|305:244|305:244|289:290|230:303,1,112.5,8|0,0:0|0:0,0:0:0:0:
45,152,93421,5,0,1:2:0:0:
204,77,93562,1,0,1:2:0:0:
40,157,93704,1,10,0:0:0:0:
139,384,93845,6,0,B|202:335|189:248|146:220|72:238|74:307|99:327,1,225,6|0,1:2|1:2,0:0:0:0:
273,221,94270,2,0,P|332:200|395:185,1,112.5,10|0,0:0|0:0,0:0:0:0:
206,370,94553,2,0,P|147:349|84:334,1,112.5,2|0,1:2|1:0,0:0:0:0:
137,92,94836,5,14,0:2:0:0:
266,209,94977,1,0,1:2:0:0:
44,230,95119,6,0,P|20:277|123:322,1,168.75,6|0,1:2|0:0,0:0:0:0:
157,296,95402,2,0,P|215:279|279:282,1,112.5,8|0,0:0|0:0,0:0:0:0:
444,339,95685,6,0,P|399:363|337:350,1,112.5,0|0,1:0|1:0,0:0:0:0:
271,161,95968,1,8,0:0:0:0:
418,223,96109,2,0,P|467:185|413:47,1,225,0|0,1:2|1:2,0:0:0:0:
189,0,96534,6,0,P|243:24|301:17,1,112.5,10|0,0:0|0:0,0:0:0:0:
48,193,96817,2,0,P|92:159|161:154,1,112.5,2|0,1:2|1:0,0:0:0:0:
271,161,97100,5,8,0:0:0:0:
111,42,97241,1,8,0:0:0:0:
183,322,97383,5,14,0:0:0:0:
453,217,97524,1,0,1:2:0:0:
453,217,97666,1,2,1:2:0:0:
109,33,97807,5,12,0:0:0:0:
364,110,97949,1,0,1:2:0:0:
364,110,98090,1,0,1:2:0:0:
427,17,98232,5,12,0:0:0:0:
154,153,98373,1,8,0:0:0:0:
154,153,98940,5,8,0:0:0:0:
151,145,99010,1,8,0:0:0:0:
148,137,99081,1,8,0:0:0:0:
119,20,99223,1,8,0:0:0:0:
286,93,99364,5,8,0:0:0:0:
249,229,99506,1,8,0:0:0:0:
324,307,99647,6,0,B|413:324|358:368|455:378,1,155.250002961159,4|0,1:2|0:0,0:0:0:0:
505,323,99930,2,0,P|486:275|464:215,1,90,10|0,0:0|0:0,0:0:0:0:
406,61,100213,6,0,P|359:77|336:126,1,90,2|2,0:0|1:2,0:0:0:0:
457,155,100496,1,10,0:0:0:0:
242,0,100638,2,0,P|327:28|414:51,1,180,2|0,1:2|1:2,0:0:0:0:
285,249,101062,6,0,P|267:199|246:150,1,90,10|0,0:0|0:0,0:0:0:0:
386,274,101345,1,2,0:0:0:0:
386,274,101487,1,2,1:2:0:0:
275,249,101628,2,0,B|204:278|249:322|154:347,1,135,8|0,0:0|0:0,0:0:0:0:
167,331,101911,6,0,P|245:346|257:373,1,90,0|0,1:2|0:0,0:0:0:0:
115,153,102194,2,0,P|92:200|66:247,1,90,10|0,0:0|0:0,0:0:0:0:
187,207,102477,5,2,0:0:0:0:
82,75,102619,1,2,1:2:0:0:
214,37,102760,1,10,0:0:0:0:
38,140,102902,2,0,P|5:97|73:-3,1,180,2|0,1:2|1:0,0:0:0:0:
151,212,103326,6,0,P|206:210|264:193,1,90,10|0,0:0|0:0,0:0:0:0:
321,55,103609,1,2,1:2:0:0:
321,55,103751,1,2,1:2:0:0:
239,86,103892,2,0,P|198:67|165:36,1,90,8|0,0:0|1:0,0:0:0:0:
336,42,104175,6,0,B|366:128|289:103|334:214,1,155.250002961159,4|0,1:2|0:0,0:0:0:0:
371,244,104458,2,0,P|420:219|476:196,1,90,10|0,0:0|0:0,0:0:0:0:
429,363,104741,5,2,0:0:0:0:
299,316,104883,1,2,1:2:0:0:
196,369,105024,5,10,0:0:0:0:
306,306,105166,2,0,P|295:248|177:220,1,180,2|0,1:2|1:0,0:0:0:0:
35,226,105590,6,0,P|64:262|87:306,1,90,10|0,0:0|0:0,0:0:0:0:
98,150,105873,1,2,0:2:0:0:
98,150,106015,1,2,1:2:0:0:
170,92,106156,2,0,P|216:76|280:94,1,90,8|0,0:0|0:0,0:0:0:0:
305,194,106440,5,0,1:2:0:0:
256,291,106581,1,2,0:0:0:0:
401,263,106723,5,8,0:0:0:0:
301,115,106864,1,2,0:0:0:0:
346,14,107006,5,2,0:0:0:0:
284,123,107147,1,2,1:2:0:0:
407,138,107289,5,8,0:0:0:0:
212,38,107430,1,2,1:2:0:0:
211,258,107572,5,10,0:0:0:0:
216,245,107642,1,10,0:0:0:0:
221,232,107713,1,10,0:0:0:0:
226,219,107784,1,10,0:0:0:0:
231,206,107855,5,10,0:0:0:0:
90,292,107996,1,10,0:0:0:0:
109,165,108138,5,0,1:2:0:0:
311,282,108279,1,2,1:2:0:0:
306,112,108421,5,10,0:0:0:0:
298,117,108562,1,2,1:2:0:0:
172,312,108704,6,0,P|150:261|157:219,2,72,6|2|8,1:2|1:2|0:0,0:0:0:0:
311,303,109128,2,0,B|233:320|279:368|190:383,1,144,2|0,0:0|1:2,0:0:0:0:
86,322,109553,5,8,0:0:0:0:
200,377,109694,1,0,1:2:0:0:
45,228,109977,5,0,1:2:0:0:
45,228,110119,2,0,P|59:196|73:140,1,72,10|0,0:0|0:0,0:0:0:0:
155,54,110402,2,0,P|169:86|179:137,1,72,2|0,1:2|1:2,0:0:0:0:
36,31,110685,1,10,0:0:0:0:
36,31,110826,1,8,0:0:0:0:
145,78,110968,6,0,P|191:62|212:43,1,72,2|0,1:2|1:0,0:0:0:0:
321,191,111251,2,0,P|269:197|204:138,1,144,8|0,0:2|0:2,0:2:0:0:
297,7,111675,5,0,1:2:0:0:
204,57,111817,1,10,0:0:0:0:
302,0,111958,2,0,B|377:8|341:54|432:61,1,144,2|0,1:2|1:2,0:0:0:0:
330,191,112383,5,8,0:0:0:0:
325,179,112524,1,0,0:2:0:0:
476,90,112666,5,0,1:2:0:0:
471,102,112807,1,0,1:2:0:0:
325,69,112949,5,8,0:0:0:0:
493,195,113090,1,0,1:2:0:0:
358,194,113232,6,0,P|328:232|358:318,1,144,2|10,1:2|0:0,0:0:0:0:
471,382,113656,2,0,B|481:361|497:344|497:344|448:370|395:381,1,144,2|0,0:0|1:0,0:0:0:0:
286,192,114081,5,8,0:0:0:0:
411,245,114223,1,0,1:0:0:0:
206,360,114506,5,0,1:2:0:0:
275,324,114647,2,0,P|318:341|337:370,1,72,10|0,0:0|0:0,0:0:0:0:
186,236,114930,2,0,P|143:253|124:282,1,72,2|0,1:2|1:0,0:0:0:0:
250,130,115213,1,10,0:0:0:0:
333,225,115355,1,0,0:0:0:0:
373,87,115496,6,0,L|437:54,1,72,2|0,1:2|1:0,0:0:0:0:
336,12,115779,2,0,P|289:15|253:117,1,144,8|0,0:0|0:0,0:0:0:0:
178,24,116204,1,0,1:2:0:0:
329,92,116345,5,10,0:0:0:0:
179,171,116487,1,2,1:2:0:0:
179,171,116557,1,2,0:0:0:0:
179,171,116628,1,2,0:0:0:0:
284,254,116770,6,0,P|267:216|253:174,1,72,0|8,1:2|0:0,0:0:0:0:
355,68,117053,1,0,0:0:0:0:
354,67,117194,2,0,P|341:100|326:133,1,72,0|0,1:2|1:0,0:0:0:0:
141,33,117477,5,8,0:0:0:0:
267,0,117619,1,10,0:0:0:0:
127,153,117760,6,0,P|88:138|51:135,1,72,6|2,1:2|1:2,0:0:0:0:
153,145,118043,1,2,0:0:0:0:
72,303,118185,5,2,0:0:0:0:
72,303,118256,1,2,0:0:0:0:
72,303,118326,2,0,B|6:260|102:149|161:235|162:284|146:277|151:328|193:358|244:333,1,296.99999093628,2|0,0:0|0:0,0:0:0:0:
285,298,119175,6,0,P|273:272|258:244,1,53.9999983520508,2|0,0:0|0:0,0:0:0:0:
310,119,119458,2,0,P|318:104|321:90,4,18,2|0|0|0|0,3:2|3:0|3:0|3:0|3:0,0:0:0:0:
212,125,119741,6,0,B|146:141|181:173|102:186,1,108,14|0,0:0|0:0,0:0:0:0:
60,140,120024,2,0,P|79:88|85:67,1,72,6|0,1:2|1:2,0:0:0:0:
228,220,120307,1,8,0:0:0:0:
89,312,120449,2,0,P|118:283|229:242,1,144,4|0,0:0|1:0,0:0:0:0:
331,308,120873,6,0,P|314:346|307:383,1,72,10|2,0:0|1:2,0:0:0:0:
307,375,121298,1,0,1:0:0:0:
200,231,121440,5,8,0:0:0:0:
200,231,121581,1,0,0:0:0:0:
340,162,121723,1,0,1:2:0:0:
340,162,121864,1,0,1:2:0:0:
228,110,122006,6,0,P|220:75|205:43,1,72,10|8,0:0|1:2,0:0:0:0:
295,0,122289,2,0,B|386:14|333:56|427:69,1,144,2|8,1:2|0:0,0:0:0:0:
342,270,122713,2,0,P|329:236|339:124,1,144,2|0,0:0|1:2,0:0:0:0:
444,243,123138,6,0,B|475:261|514:258,1,72,10|0,0:0|1:0,0:0:0:0:
394,315,123421,2,0,P|334:322|281:396,1,144,2|8,0:0|0:0,0:0:0:0:
405,325,123845,5,2,0:0:0:0:
244,223,123987,1,0,1:2:0:0:
244,223,124128,1,0,1:2:0:0:
121,237,124270,2,0,P|154:259|191:265,1,72,10|0,0:0|1:0,0:0:0:0:
363,48,124553,6,0,B|302:71|302:71|294:104|294:104|226:129,1,161.999995056153,2|10,1:2|0:0,0:0:0:0:
333,190,124977,1,2,0:0:0:0:
166,80,125119,2,0,P|146:127|162:166,1,80.9999975280763,0|0,1:0|1:0,0:0:0:0:
275,52,125402,6,0,P|315:55|363:125,1,121.499996292114,8|0,0:0|0:0,0:0:0:0:
377,130,125685,6,0,P|370:81|326:45,1,94.499997116089,2|0,1:2|0:0,0:0:0:0:
214,0,125968,2,0,P|165:7|131:49,1,94.499997116089,10|0,0:0|0:0,0:0:0:0:
165,311,126251,5,8,0:0:0:0:
304,230,126392,1,8,0:0:0:0:
72,168,126534,1,8,0:0:0:0:
215,93,126675,1,8,0:0:0:0:
56,13,126817,5,6,1:2:0:0:
52,26,126958,1,0,1:2:0:0:
47,39,127100,1,0,1:2:0:0:
41,52,127241,1,2,1:2:0:0:
85,197,127383,1,8,0:0:0:0:
202,108,127524,1,0,1:2:0:0:
46,65,127666,1,10,0:0:0:0:
177,11,127807,6,0,P|225:7|302:85,1,144,8|0,1:3|1:2,0:0:0:0:
235,226,128232,2,0,P|223:185|206:132,1,72,8|0,1:3|0:0,0:0:0:0:
321,223,128515,2,0,B|237:242|281:286|192:301,1,144,10|2,0:0|0:0,0:0:0:0:
131,196,128940,5,8,1:3:0:0:
298,355,129081,1,2,1:2:0:0:
230,380,129223,1,0,1:2:0:0:
357,279,129364,5,0,1:2:0:0:
290,253,129506,1,0,1:2:0:0:
415,197,129647,2,0,P|462:239|441:326,1,144,8|10,0:0|0:0,0:0:0:0:
257,336,130072,6,0,B|312:349|312:349|327:375|327:375|396:386,1,144,2|0,1:2|1:2,0:0:0:0:
245,263,130496,2,0,P|215:305|179:325,1,72,0|0,1:2|0:0,0:0:0:0:
239,150,130779,5,10,0:0:0:0:
345,189,130921,1,8,0:0:0:0:
227,163,131062,2,0,P|216:121|203:88,1,72,6|8,1:2|0:0,0:0:0:0:
304,12,131345,5,6,1:2:0:0:
209,84,131487,1,0,1:2:0:0:
370,146,131628,1,0,1:2:0:0:
365,132,131770,1,2,1:2:0:0:
361,118,131911,1,8,0:0:0:0:
448,80,132053,1,8,0:3:0:0:
303,23,132194,1,2,1:2:0:0:
407,0,132336,1,0,1:2:0:0:
391,186,132477,5,2,0:0:0:0:
512,233,132619,2,0,P|476:173|407:171,1,144,8|2,0:3|1:2,0:0:0:0:
350,284,133043,2,0,P|379:325|393:356,1,72,8|0,0:0|0:0,0:0:0:0:
242,279,133326,2,0,P|268:231|273:205,1,72,2|8,0:0|0:3,0:0:0:0:
194,24,133609,6,0,P|245:46|281:44,1,90,2|2,1:2|1:2,0:0:0:0:
143,173,133892,2,0,P|133:127|115:68,1,90,2|0,1:2|0:0,0:0:0:0:
143,173,134175,1,8,0:0:0:0:
94,291,134317,6,0,P|52:267|4:259,1,90,2|0,1:2|1:0,0:0:0:0:
105,371,134600,2,0,B|168:384|191:343|179:341|209:295|294:328,1,180,2|10,1:2|0:0,0:0:0:0:
362,384,135024,5,2,1:2:0:0:
254,307,135166,1,0,1:2:0:0:
336,134,135307,2,0,P|334:195|299:242,1,90,10|0,0:2|1:2,0:0:0:0:
146,40,135590,5,2,1:2:0:0:
256,89,135732,1,10,0:0:0:0:
365,0,135873,5,2,1:2:0:0:
356,2,135944,1,2,1:2:0:0:
347,4,136015,1,2,1:2:0:0:
171,20,136156,6,0,B|229:7|261:50|248:55|281:104|360:74,1,188.999994232178,2|0,1:2|1:2,0:0:0:0:
237,207,136723,2,0,P|231:175|224:145,1,62.9999980773926,10|2,0:0|0:0,0:0:0:0:
371,227,137006,5,0,1:2:0:0:
255,293,137147,1,10,0:0:0:0:
255,293,137218,1,10,0:0:0:0:
255,293,137289,1,10,0:0:0:0:
402,355,137430,5,0,1:2:0:0:
342,236,137572,1,10,0:0:0:0:
509,100,137713,5,0,1:0:0:0:
458,212,137855,1,10,0:0:0:0:
290,19,137996,5,2,3:2:0:0:
306,9,138067,1,2,3:2:0:0:
320,1,138138,6,0,B|373:29|429:21|429:21|374:39|359:69,1,168.75,6|0,1:2|0:0,0:0:0:0:
323,95,138421,2,0,B|261:120|299:147|225:172,1,112.5,8|0,0:0|0:0,0:0:0:0:
182,92,138704,5,2,1:2:0:0:
395,209,138845,1,0,1:2:0:0:
252,315,138987,5,8,0:0:0:0:
414,208,139128,2,0,P|473:240|477:310,1,112.5,0|2,1:2|0:0,0:0:0:0:
364,346,139411,5,0,1:2:0:0:
201,226,139553,1,8,0:0:0:0:
256,384,139694,2,0,P|300:350|355:337,1,112.5,2|0,0:0|1:2,0:0:0:0:
231,380,139977,1,0,1:2:0:0:
141,268,140119,6,0,P|76:277|52:328,1,112.5,10|0,0:0|1:2,0:0:0:0:
10,95,140402,2,0,B|56:83|96:128|81:136|110:179|189:147,1,168.75,2|0,1:2|0:0,0:0:0:0:
219,117,140685,2,0,P|198:56|183:2,1,112.5,8|0,0:0|0:0,0:0:0:0:
1,112,140968,5,0,1:2:0:0:
147,66,141109,1,0,1:2:0:0:
0,240,141251,1,10,0:0:0:0:
191,309,141392,6,0,B|209:276|241:263|241:263|84:313,1,225,2|0,1:2|1:0,0:0:0:0:
263,335,141817,2,0,B|306:350|306:350|323:373|323:373|383:390,1,112.5,10|0,0:0|0:0,0:0:0:0:
476,181,142100,6,0,P|413:203|395:251,1,112.5,2|0,1:2|1:0,0:0:0:0:
492,187,142383,1,10,0:0:0:0:
239,22,142524,5,2,1:2:0:0:
239,22,142595,1,2,1:2:0:0:
239,22,142666,2,0,B|289:30|306:72|306:72|324:117|379:123,1,168.75,4|0,1:2|0:0,0:0:0:0:
436,128,142949,2,0,B|393:143|393:143|376:166|376:166|316:183,1,112.5,8|0,0:0|0:0,0:0:0:0:
247,279,143232,5,0,1:0:0:0:
177,155,143373,1,0,1:0:0:0:
376,261,143515,1,10,0:0:0:0:
477,20,143656,6,0,B|457:-20|395:-17|366:19|373:86|406:142|487:135,1,225,2|0,1:2|1:0,0:0:0:0:
409,347,144081,2,0,P|447:307|501:296,1,112.5,10|0,0:0|0:0,0:0:0:0:
295,68,144364,5,2,1:2:0:0:
434,148,144506,1,0,1:2:0:0:
183,310,144647,5,10,0:0:0:0:
321,258,144789,1,0,1:2:0:0:
173,318,144930,6,0,P|207:372|320:333,1,168.75,2|0,1:2|0:0,0:0:0:0:
329,295,145213,2,0,P|305:237|291:185,1,112.5,8|2,0:0|0:0,0:0:0:0:
313,8,145496,5,0,1:0:0:0:
185,33,145638,1,0,1:0:0:0:
390,118,145779,1,10,0:0:0:0:
184,291,145921,6,0,B|171:223|154:167|120:64,1,225,4|0,1:2|1:2,0:0:0:0:
308,198,146345,2,0,P|375:167|399:101,1,112.5,8|0,0:0|0:0,0:0:0:0:
185,33,146628,1,0,1:2:0:0:
298,214,146770,1,0,1:2:0:0:
72,196,146911,5,10,0:0:0:0:
194,146,147053,1,10,0:0:0:0:
301,338,147194,6,2,P|238:309|183:287,1,112.5,6|0,1:2|0:0,1:2:0:0:
374,304,147477,1,10,0:0:0:0:
456,109,147619,2,0,P|416:148|352:159,1,112.5,2|0,0:0|1:2,0:0:0:0:
499,179,147902,5,2,1:2:0:0:
289,87,148043,1,10,0:0:0:0:
502,185,148185,1,2,1:2:0:0:
304,6,148326,6,0,P|248:16|193:27,1,112.5,2|0,0:0|1:2,0:0:0:0:
373,45,148609,1,10,0:0:0:0:
221,228,148751,2,0,P|168:201|156:147,1,112.5,2|0,0:0|1:2,0:0:0:0:
259,101,149034,5,2,1:2:0:0:
75,167,149175,1,10,0:0:0:0:
296,276,149317,1,0,1:2:0:0:
31,374,149458,6,0,P|61:315|181:344,1,168.75,2|0,1:2|0:0,0:0:0:0:
161,322,149741,1,10,0:0:0:0:
259,101,149883,6,0,P|211:155|212:210,1,112.5,2|0,0:0|1:0,0:0:0:0:
387,180,150166,2,0,P|435:126|434:71,1,112.5,2|8,1:2|0:0,0:0:0:0:
67,13,150449,6,0,B|146:-4|186:58|163:60|190:117|286:96,1,225,6|0,1:2|1:0,0:0:0:0:
274,0,150873,1,10,0:0:0:0:
101,140,151015,1,0,0:0:0:0:
310,273,151156,5,2,1:2:0:0:
168,222,151298,1,4,1:2:0:0:
146,364,151440,6,0,P|189:324|245:319,1,112.5,14|0,0:0|1:2,0:0:0:0:
476,113,151723,2,0,B|435:88|393:113|393:113|421:155|399:197,1,168.75,6|0,1:2|0:0,0:0:0:0:
335,159,152006,2,0,B|299:174|299:174|287:197|287:197|241:215,1,112.5,8|0,0:0|0:0,0:0:0:0:
113,11,152289,5,0,1:0:0:0:
244,51,152430,1,0,1:0:0:0:
47,107,152572,1,8,0:0:0:0:
155,237,152713,6,0,B|94:231|61:178|61:178|55:243|-25:295,1,225,0|0,1:0|1:0,0:0:0:0:
120,319,153138,2,0,B|161:334|161:334|171:355|171:355|219:370,1,112.5,8|0,0:0|0:0,0:0:0:0:
338,175,153421,2,0,P|285:199|233:220,1,112.5,0|0,1:0|1:0,0:0:0:0:
376,270,153704,5,10,0:0:0:0:
214,208,153845,1,2,1:2:0:0:
374,383,153987,6,0,P|429:338|487:332,1,112.5,2|0,1:2|0:0,0:0:0:0:
435,49,154270,2,0,P|374:64|381:164,1,168.75,14|0,0:0|0:0,0:0:0:0:
441,167,154553,5,2,1:2:0:0:
253,88,154694,1,0,1:2:0:0:
448,169,154836,1,14,0:0:0:0:
305,303,154977,6,0,B|296:273|276:247|276:247|427:324,1,225,2|0,1:2|1:2,0:0:0:0:
223,311,155402,1,10,0:0:0:0:
412,230,155543,1,8,0:0:0:0:
157,241,155685,5,10,0:0:0:0:
360,363,155826,1,8,1:2:0:0:
338,64,155968,5,10,0:0:0:0:
192,124,156109,1,8,1:2:0:0:
349,54,156251,6,0,B|397:59|427:90|427:90|399:46|346:44,1,168.75,4|0,1:2|0:0,0:0:0:0:
296,3,156534,2,0,B|247:18|247:18|237:36|237:36|175:52,1,112.5,8|0,0:0|0:0,0:0:0:0:
109,119,156817,5,2,1:2:0:0:
288,181,156958,1,0,1:0:0:0:
139,330,157100,2,0,P|125:271|110:221,1,112.5,8|0,0:0|1:2,0:0:0:0:
196,47,157383,6,0,P|250:62|278:111,1,112.5,2|0,0:0|1:2,0:0:0:0:
175,34,157666,1,8,0:0:0:0:
304,269,157807,2,0,P|354:241|407:222,1,112.5,2|0,0:0|1:2,0:0:0:0:
286,263,158090,1,0,1:2:0:0:
472,384,158232,6,0,P|440:323|322:357,1,168.75,10|0,0:0|0:0,0:0:0:0:
291,375,158515,2,0,B|246:358|246:358|240:336|240:336|196:313,1,112.5,2|0,1:2|1:0,0:0:0:0:
177,79,158798,6,0,P|231:105|237:171,1,112.5,8|0,0:0|0:0,0:0:0:0:
96,85,159081,1,0,1:2:0:0:
96,85,159223,1,0,1:2:0:0:
40,162,159364,5,10,0:0:0:0:
188,74,159506,2,0,B|270:70|286:133|279:136|312:195|383:178,1,225,2|0,1:2|1:2,0:0:0:0:
190,195,159930,6,0,P|169:258|146:313,1,112.5,10|0,0:0|0:0,0:0:0:0:
387,107,160213,2,0,P|366:55|348:2,1,112.5,2|0,1:2|1:0,0:0:0:0:
306,308,160496,2,0,P|364:315|412:260,1,112.5,10|0,0:0|1:0,0:0:0:0:
423,9,160779,6,0,B|363:23|363:23|337:63|337:63|253:79,1,168.75,6|0,1:2|0:0,0:0:0:0:
222,117,161062,2,0,P|196:176|232:220,1,112.5,8|0,0:0|0:0,0:0:0:0:
289,83,161346,5,0,1:2:0:0:
143,22,161487,1,0,1:2:0:0:
120,254,161628,6,0,P|175:215|234:215,1,112.5,10|0,0:0|0:0,0:0:0:0:
0,42,161911,2,0,P|55:81|114:81,1,112.5,2|0,0:0|1:0,0:0:0:0:
6,162,162194,1,8,0:0:0:0:
244,109,162336,6,0,P|223:46|213:-1,1,112.5,2|0,0:0|1:0,0:0:0:0:
267,118,162619,1,0,1:2:0:0:
119,185,162760,2,0,P|97:248|126:296,1,112.5,10|0,0:0|1:2,0:0:0:0:
301,238,163043,6,0,P|363:235|410:345,1,168.75,6|0,1:2|0:0,0:0:0:0:
435,330,163326,2,0,P|435:282|389:229,1,112.5,8|0,0:0|0:0,0:0:0:0:
235,305,163609,5,0,1:2:0:0:
235,305,163751,1,0,1:2:0:0:
398,221,163892,1,10,0:0:0:0:
166,354,164034,6,0,B|132:291|169:236|174:249|235:206|159:101,1,225,6|0,1:2|1:2,0:0:0:0:
18,83,164458,2,0,P|34:145|98:154,1,112.5,10|0,0:0|0:0,0:0:0:0:
190,3,164741,1,2,1:2:0:0:
8,70,164883,1,0,1:0:0:0:
200,2,165024,6,0,B|249:9|249:9|265:26|265:26|316:34,1,112.5,14|0,0:0|1:0,0:2:0:0:
435,226,165307,2,0,P|492:183|448:86,1,168.75,6|0,1:2|0:0,0:0:0:0:
402,74,165590,2,0,P|356:98|280:120,1,112.5,8|0,0:0|0:0,0:0:0:0:
171,206,165873,6,0,P|228:229|257:293,1,112.5,0|0,1:0|1:0,0:0:0:0:
150,212,166156,1,8,0:0:0:0:
273,383,166298,2,0,P|337:307|471:351,1,225,0|0,1:0|1:0,0:0:0:0:
469,87,166723,6,0,P|409:109|385:164,1,112.5,10|0,0:0|0:0,0:0:0:0:
227,6,167006,2,0,P|287:28|311:83,1,112.5,2|0,1:2|1:0,0:0:0:0:
146,139,167289,1,10,0:0:0:0:
211,0,167430,1,8,0:0:0:0:
341,234,167572,5,14,0:0:0:0:
138,288,167713,1,0,1:2:0:0:
138,288,167855,1,2,1:2:0:0:
416,104,167996,5,14,0:0:0:0:
89,8,168137,1,0,1:2:0:0:
89,8,168279,1,0,1:2:0:0:
63,174,168421,5,12,0:0:0:0:
330,7,168562,1,8,0:0:0:0:
330,7,169128,5,8,0:0:0:0:
324,17,169199,1,8,0:0:0:0:
318,27,169270,1,8,0:0:0:0:
231,81,169411,1,8,0:0:0:0:
337,182,169553,1,8,0:0:0:0:
218,244,169694,1,8,0:0:0:0:
383,366,169836,6,0,P|389:347|396:329,1,38.2500007295609,4|0,1:2|0:0,0:0:0:0:
247,99,169977,2,0,P|286:165|293:247,1,153.000002918243,12|0,0:0|1:2,0:0:0:0:
497,18,170402,6,0,P|425:36|394:104,1,153.000002918243,8|8,0:0|1:3,0:0:0:0:
332,14,170826,1,8,1:3:0:0:
332,14,171109,5,8,1:3:0:0:
480,174,171251,2,0,P|460:209|448:250,1,76.5000014591217,4|0,1:3|0:0,0:0:0:0:
421,336,171534,6,0,P|367:352|320:376,1,94.499997116089,8|0,0:0|0:0,0:0:0:0:
182,173,171817,2,0,P|224:192|270:205,1,94.499997116089,0|0,1:2|1:0,0:0:0:0:
52,327,172100,6,0,P|44:292|36:274,1,38.2500007295609,0|0,1:2|0:0,0:0:0:0:
163,199,172241,2,0,P|157:217|154:236,1,38.2500007295609,0|0,1:2|0:0,0:0:0:0:
36,145,172383,2,0,P|55:111|67:76,1,76.5000014591217,0|0,1:0|1:2,0:0:0:0:
164,7,172666,6,0,P|176:43|194:76,1,76.5000014591217,8|0,0:0|1:0,0:0:0:0:
144,0,172949,1,0,1:0:0:0:
120,279,173090,2,0,P|107:228|13:160,1,153.000002918243,0|8,1:0|0:1,0:0:0:0:
205,337,173515,2,0,P|219:295|246:265,1,76.5000014591217,0|0,0:0|1:0,0:0:0:0:
253,140,173798,6,0,P|317:156|363:172,1,94.499997116089,0|0,0:0|1:0,0:0:0:0:
500,0,174081,2,0,P|454:14|408:24,1,94.499997116089,4|8,1:2|0:1,0:0:0:0:
219,0,174364,6,0,B|270:37|270:37|240:121,1,153.000002918243,4|0,1:2|1:0,0:0:0:0:
363,233,174789,1,0,1:0:0:0:
363,233,174930,2,0,P|334:176|322:139,1,76.5000014591217,8|0,0:0|0:0,0:0:0:0:
241,266,175213,1,0,1:0:0:0:
405,301,175355,6,0,P|333:318|296:383,1,153.000002918243,8|8,0:1|0:1,0:0:0:0:
221,114,175779,2,0,P|251:157|286:199,1,76.5000014591217,0|0,1:0|0:0,0:0:0:0:
395,62,176062,6,0,P|441:36|490:37,1,94.499997116089,8|0,0:0|0:0,0:0:0:0:
354,221,176345,2,0,P|307:218|267:194,1,94.499997116089,4|4,1:3|1:3,0:0:0:0:
196,15,176628,5,0,1:3:0:0:
238,75,176770,1,0,1:3:0:0:
58,160,176911,5,8,1:3:0:0:
100,100,177053,1,0,1:3:0:0:
164,266,177194,6,0,P|193:312|296:305,1,153.000002918243,8|0,0:0|1:2,0:0:0:0:
377,169,177619,2,0,P|347:114|327:65,1,85.4999977169037,0|0,1:0|0:0,0:0:0:0:
395,175,177902,1,0,1:0:0:0:
242,4,178043,2,0,P|227:53|164:115,1,128.249996575356,0|0,1:0|0:0,0:0:0:0:
151,106,178326,5,8,0:0:0:0:
118,34,178468,1,8,0:0:0:0:
264,109,178609,5,12,0:0:0:0:
163,243,178751,1,8,0:0:0:0:
246,379,178892,6,0,P|266:344|281:306,1,80.9999975280763,4|0,1:2|0:0,0:0:0:0:
394,186,179175,2,0,P|408:223|429:258,1,80.9999975280763,8|0,1:3|0:0,0:0:0:0:
291,81,179458,5,8,0:0:0:0:
219,63,179600,1,0,1:0:0:0:
158,102,179741,1,0,1:0:0:0:
144,173,179883,2,0,P|181:239|201:336,1,161.999995056153,0|4,1:0|1:2,0:0:0:0:
14,206,180307,2,0,P|45:155|57:115,1,80.9999975280763,0|0,1:0|1:0,0:0:0:0:
253,21,180590,6,0,P|207:9|162:19,1,94.499997116089,8|0,0:0|0:0,0:0:0:0:
283,145,180873,2,0,P|330:147|373:129,1,94.499997116089,4|0,1:3|0:0,0:0:0:0:
152,167,181156,6,0,P|174:213|183:265,1,80.9999975280763,0|0,1:2|1:2,0:0:0:0:
327,371,181440,2,0,P|306:318|328:227,1,121.499996292114,0|0,1:2|0:0,0:0:0:0:
305,243,181723,6,0,P|288:287|303:341,1,80.9999975280763,8|0,0:0|1:2,0:0:0:0:
460,223,182006,1,8,0:1:0:0:
423,77,182147,2,0,B|488:98|490:160|490:160|467:182|469:225,1,161.999995056153,0|12,1:0|1:2,0:0:0:0:
356,373,182572,2,0,P|370:327|363:277,1,80.9999975280763,0|8,1:2|1:3,0:0:0:0:
219,114,182855,6,0,P|276:135|326:137,1,94.499997116089,8|8,0:0|0:1,0:0:0:0:
135,295,183138,2,0,P|189:268|239:260,1,94.499997116089,8|12,0:3|0:0,0:0:0:0:
70,143,183421,6,0,P|56:182|39:205,1,42.7499988584519,4|0,1:2|0:0,0:0:0:0:
203,112,183562,1,0,1:2:0:0:
203,112,183704,2,0,P|187:68|193:29,1,85.4999977169037,8|0,1:3|0:0,0:0:0:0:
70,143,183987,6,0,B|175:150|121:223|254:212,1,170.999995433807,8|0,0:0|1:0,0:0:0:0:
92,379,184411,2,0,P|35:334|62:231,1,170.999995433807,8|8,1:1|0:1,0:0:0:0:
162,85,184836,2,0,P|195:131|185:179,1,85.4999977169037,0|0,1:0|0:0,0:0:0:0:
29,0,185119,6,0,P|75:16|146:23,1,94.499997116089,8|0,0:0|0:0,0:0:0:0:
292,137,185402,2,0,P|250:144|201:165,1,94.499997116089,4|0,1:3|0:0,0:0:0:0:
306,0,185685,5,0,1:0:0:0:
415,53,185826,1,4,0:0:0:0:
238,53,185968,5,0,1:2:0:0:
231,58,186109,1,0,1:2:0:0:
355,12,186251,1,12,0:0:0:0:
326,198,186392,6,0,P|317:149|290:111,1,85.4999977169037,8|8,0:1|0:1,0:0:0:0:
489,150,186675,2,0,P|442:192|457:306,1,170.999995433807,4|0,1:2|1:0,0:0:0:0:
300,298,187100,2,0,P|360:340|369:375,1,85.4999977169037,0|0,1:0|0:0,0:0:0:0:
194,318,187383,5,12,0:0:0:0:
359,232,187524,1,8,0:0:0:0:
305,308,187666,5,8,0:0:0:0:
131,221,187807,1,12,0:0:0:0:
290,94,187949,5,2,0:3:0:0:
290,94,188232,1,0,0:0:0:0:
351,131,188373,1,0,0:0:0:0:
410,89,188515,2,0,P|424:52|444:24,2,45,2|0|0,0:3|0:0|0:0,0:0:0:0:
472,155,188798,5,0,0:0:0:0:
317,32,188940,1,2,0:3:0:0:
46,348,190213,5,6,0:0:0:0:
54,349,190779,2,0,P|121:331|191:370,1,144,2|2,0:0|0:0,0:0:0:0:
70,243,191770,1,2,0:0:0:0:
70,243,192194,6,0,L|25:255,1,36,2|0,0:0|0:0,0:0:0:0:
132,174,192477,1,2,0:0:0:0:
132,174,193326,5,2,0:0:0:0:
185,301,193468,1,2,0:0:0:0:
64,111,193892,6,0,P|50:138|41:170,1,54,2|0,0:0|0:0,0:0:0:0:
79,104,194175,5,2,0:0:0:0:
383,95,194458,5,2,0:0:0:0:
306,131,194600,1,2,0:0:0:0:
453,54,194741,2,0,B|412:1|348:14|358:21|306:67|247:17,1,216,0|2,0:0|0:0,0:0:0:0:
383,95,195732,1,2,0:0:0:0:
383,95,196156,6,0,P|417:85|426:84,1,36,2|0,0:0|0:0,0:0:0:0:
261,170,196440,2,0,P|277:176|295:179,1,36,2|0,0:0|0:0,0:0:0:0:
170,77,196723,2,0,P|207:61|232:60,1,54,2|0,0:0|0:0,0:0:0:0:
235,52,197006,6,0,P|174:45|128:17,2,108,2|2|2,0:0|0:0|0:0,0:0:0:0:
89,131,198138,1,0,0:0:0:0:
256,192,198208,12,0,199270,0:0:0:0:
462,137,200119,5,2,0:0:0:0:
462,137,200260,1,2,0:0:0:0:
313,218,200402,6,0,B|375:216|393:257|382:260|409:302|488:292,1,168.75,6|0,1:2|0:0,0:0:0:0:
512,249,200685,2,0,P|474:249|451:265,1,56.25,10|0,0:0|0:0,0:0:0:0:
259,375,200826,6,0,P|205:348|196:289,1,112.5,2|0,0:0|1:0,0:0:0:0:
310,170,201109,1,2,1:2:0:0:
114,240,201251,1,10,0:0:0:0:
278,359,201392,1,0,1:2:0:0:
184,77,201534,6,0,B|123:75|105:116|116:119|92:163|10:151,1,168.75,2|0,1:2|0:0,0:0:0:0:
5,93,201817,2,0,P|12:67|49:43,1,56.25,10|0,0:0|0:0,0:0:0:0:
183,171,201958,2,0,P|246:153|270:105,1,112.5,2|0,0:0|1:2,0:0:0:0:
128,24,202241,5,2,1:2:0:0:
249,278,202383,1,10,0:0:0:0:
74,225,202524,1,0,1:2:0:0:
270,110,202666,6,0,B|324:103|355:144|347:146|376:187|445:164,1,168.75,2|0,1:2|0:0,0:0:0:0:
473,122,202949,1,10,0:0:0:0:
223,384,203090,6,0,P|171:360|108:343,1,112.5,2|0,0:0|1:0,0:0:0:0:
316,243,203373,2,0,P|367:219|421:204,1,112.5,2|8,1:2|0:0,0:0:0:0:
489,12,203656,6,0,B|444:-10|406:-1|384:27|384:27|383:36|383:36|365:78|331:90|277:69,1,225,6|0,1:2|1:2,0:0:0:0:
264,0,204081,1,10,0:0:0:0:
422,205,204223,1,0,0:0:0:0:
171,125,204364,1,2,1:2:0:0:
413,14,204506,1,4,1:2:0:0:
264,241,204647,2,0,P|256:313|302:353,1,112.5,14|0,0:0|1:2,0:0:0:0:
432,332,204930,6,0,B|475:310|517:325|517:325|467:299|425:327,1,168.75,6|0,1:2|0:0,0:0:0:0:
376,384,205213,2,0,B|331:370|331:370|320:351|320:351|265:336,1,112.5,8|0,0:0|0:0,0:0:0:0:
153,373,205496,5,0,1:0:0:0:
286,325,205638,1,0,1:0:0:0:
106,209,205779,1,8,0:0:0:0:
291,131,205921,6,0,B|374:66|355:-13|267:-27|249:25|253:48,1,225,0|0,1:2|1:0,0:0:0:0:
121,140,206345,2,0,P|54:121|23:67,1,112.5,8|0,0:0|0:0,0:0:0:0:
0,201,206628,5,0,1:0:0:0:
142,133,206770,1,0,1:0:0:0:
131,357,206911,2,0,P|78:338|12:316,1,112.5,10|2,0:0|1:2,0:0:0:0:
335,244,207194,6,0,P|292:186|187:217,1,168.75,2|0,1:2|0:0,0:0:0:0:
176,265,207477,2,0,P|199:317|211:382,1,112.5,12|0,0:0|0:0,0:0:0:0:
346,254,207760,5,2,1:2:0:0:
414,113,207902,1,4,1:2:0:0:
214,8,208043,5,10,0:0:0:0:
271,170,208185,2,0,B|324:177|359:139|359:139|384:148|384:148|414:111|487:107,1,225,2|0,1:2|1:2,0:0:0:0:
507,270,208609,5,10,0:0:0:0:
406,29,208751,1,8,0:0:0:0:
287,198,208892,5,10,0:0:0:0:
399,37,209034,1,8,1:2:0:0:
391,342,209175,5,10,0:0:0:0:
284,185,209317,1,8,1:2:0:0:
174,371,209458,6,0,B|196:326|248:324|248:324|203:334|184:368,1,168.75,4|0,1:2|0:0,0:0:0:0:
126,316,209741,2,0,P|93:267|98:215,1,112.5,8|0,0:0|0:0,0:0:0:0:
291,8,210024,6,0,B|254:34|254:34|164:15,1,112.5,2|0,1:2|1:0,0:0:0:0:
330,72,210307,1,8,0:0:0:0:
192,180,210449,5,0,1:2:0:0:
54,89,210590,2,0,P|108:81|159:117,1,112.5,2|0,0:0|1:2,0:0:0:0:
34,85,210873,1,8,0:0:0:0:
247,302,211015,6,0,B|290:314|290:314|347:278,1,112.5,2|0,0:0|1:2,0:0:0:0:
231,289,211298,1,0,1:2:0:0:
94,185,211440,6,0,P|31:194|-3:232,1,112.5,10|0,0:0|0:0,0:0:0:0:
133,384,211723,2,0,P|148:321|170:265,1,112.5,2|0,1:2|1:2,0:0:0:0:
71,28,212006,6,0,B|167:42|117:97|226:104,1,168.75,8|0,0:0|0:0,0:0:0:0:
271,62,212289,5,0,1:2:0:0:
95,127,212430,1,0,1:2:0:0:
279,64,212572,1,10,0:0:0:0:
361,122,212713,6,0,B|433:78|388:-21|388:-21|351:-4|316:6,1,225,2|0,1:2|1:0,0:0:0:0:
187,226,213138,2,0,P|249:243|311:282,1,112.5,10|0,0:0|0:0,0:0:0:0:
506,74,213421,2,0,P|456:100|402:114,1,112.5,2|0,1:2|1:0,0:0:0:0:
222,0,213704,2,0,B|275:-10|275:-10|341:45,1,112.5,10|0,0:0|1:2,0:0:0:0:
254,119,213987,6,0,P|187:166|185:248,1,168.75,6|0,1:2|0:0,0:0:0:0:
245,297,214270,2,0,B|288:286|288:286|311:297|311:297|357:284,1,112.5,8|0,0:0|0:0,0:0:0:0:
487,352,214553,1,0,1:2:0:0:
352,282,214694,1,0,1:2:0:0:
279,366,214836,6,0,P|211:370|172:317,1,112.5,10|0,0:0|0:0,0:0:0:0:
342,111,215119,2,0,P|362:169|383:230,1,112.5,2|0,0:0|1:2,0:0:0:0:
320,285,215402,1,8,0:0:0:0:
162,79,215543,6,0,B|116:92|116:92|104:112|104:112|55:128,1,112.5,2|0,0:0|1:2,0:0:0:0:
233,132,215826,1,0,1:2:0:0:
47,303,215968,6,0,P|73:247|79:193,1,112.5,10|0,0:0|1:2,0:0:0:0:
228,383,216251,2,0,P|196:336|208:216,1,168.75,6|0,1:2|0:0,0:0:0:0:
262,186,216534,2,0,P|313:222|290:273,1,112.5,8|0,0:0|0:0,0:0:0:0:
99,94,216817,5,0,1:2:0:0:
261,175,216958,1,0,1:2:0:0:
93,94,217100,1,8,0:0:0:0:
440,0,217241,6,0,B|392:-3|358:40|358:40|323:28|323:28|292:68|241:71,1,225,6|0,1:2|1:2,0:0:0:0:
97,183,217666,2,0,P|151:177|191:214,1,112.5,10|0,0:0|0:0,0:0:0:0:
296,379,217949,6,0,P|332:328|298:278,1,112.5,2|0,1:2|1:0,0:0:0:0:
194,324,218232,2,0,B|151:342|151:342|141:366|141:366|94:386,1,112.5,14|0,0:0|1:2,0:0:0:0:
88,87,218515,6,0,P|157:105|156:206,1,168.75,6|0,1:2|0:0,0:0:0:0:
102,230,218798,2,0,P|65:211|-3:189,1,112.5,8|0,0:0|0:0,0:0:0:0:
256,176,219081,5,0,1:0:0:0:
105,241,219223,1,0,1:0:0:0:
129,10,219364,5,8,0:0:0:0:
373,96,219506,2,0,B|385:82|419:74|419:74|368:65|331:102|338:103|323:154|257:144,1,225,0|0,1:2|1:2,0:0:0:0:
105,241,219930,6,0,B|142:238|158:265|154:266|167:294|227:289,1,112.5,10|0,0:0|0:0,0:0:0:0:
366,363,220213,2,0,P|284:374|230:393,1,112.5,2|0,1:2|1:0,0:0:0:0:
407,192,220496,2,0,P|474:209|528:238,1,112.5,10|8,0:0|0:0,0:0:0:0:
270,236,220779,5,6,1:2:0:0:
465,101,220921,1,0,0:0:0:0:
312,45,221062,1,10,0:0:0:0:
415,262,221204,5,6,1:2:0:0:
164,110,221345,1,0,1:2:0:0:
370,0,221487,1,0,0:0:0:0:
189,210,221628,5,8,0:0:0:0:
278,356,221770,2,0,B|337:306|337:306|314:219,1,153.000002918243,12|8,0:0|0:0,0:0:0:0:
262,185,222123,5,8,0:0:0:0:
249,191,222194,1,8,0:0:0:0:
106,239,222336,1,8,0:0:0:0:
74,167,222477,5,0,1:2:0:0:
214,303,222619,1,8,0:0:0:0:
131,57,222760,5,8,0:0:0:0:
10,264,222902,1,8,0:0:0:0:
231,88,223043,6,0,B|277:94|312:51|312:51|321:44|335:44|335:44|295:80|310:134,1,175.499991966248,4|0,1:2|0:0,0:0:0:0:
379,104,223326,2,0,B|395:190|321:157|304:236|351:283,1,175.499991966248,8|0,0:0|0:0,0:0:0:0:
397,296,223609,5,0,1:0:0:0:
265,359,223751,1,0,1:0:0:0:
420,384,223892,5,8,0:0:0:0:
260,212,224034,2,0,B|192:183|153:230|153:230|129:308|30:285,1,233.999989288331,0|0,1:0|1:0,0:0:0:0:
0,110,224458,6,0,B|28:133|33:161|33:161|42:134|89:97,1,116.999994644165,8|0,0:0|0:0,0:0:0:0:
233,0,224741,2,0,P|175:14|114:30,1,116.999994644165,0|0,1:0|1:0,0:0:0:0:
52,2,225024,1,8,0:0:0:0:
278,100,225166,1,0,1:2:0:0:
157,185,225307,6,0,B|197:163|237:186|240:226|240:226|251:262|281:275|327:259,1,175.499991966248,0|0,1:2|0:0,0:0:0:0:
358,269,225590,2,0,B|397:250|408:194|408:194|382:246|348:263,1,175.499991966248,8|0,0:0|0:0,0:0:0:0:
281,268,225873,6,0,B|236:292|236:292|230:315|230:315|172:347,1,116.999994644165,0|0,1:2|1:0,0:0:0:0:
281,268,226156,1,8,0:0:0:0:
16,60,226298,6,0,B|72:54|106:90|106:90|134:78|134:78|168:127|253:124,1,233.999989288331,0|0,1:2|1:2,0:0:0:0:
467,49,226723,2,0,P|404:40|363:80,1,116.999994644165,8|0,0:0|0:0,0:0:0:0:
219,230,227006,5,0,1:0:0:0:
296,96,227147,1,0,1:0:0:0:
429,357,227289,5,8,0:0:0:0:
227,238,227430,1,0,1:2:0:0:
227,238,227501,1,0,1:2:0:0:
227,238,227572,2,0,B|288:255|288:255|309:293|309:293|377:310,1,175.499991966248,4|0,1:2|0:0,0:0:0:0:
429,357,227855,6,0,P|450:302|411:253,1,116.999994644165,8|0,0:0|0:0,0:0:0:0:
254,353,228138,1,0,1:2:0:0:
428,254,228279,1,0,1:2:0:0:
264,59,228421,5,8,0:0:0:0:
498,132,228562,2,0,B|541:84|497:37|497:37|349:89,1,233.999989288331,0|0,1:0|1:0,0:0:0:0:
253,272,228987,6,0,P|210:230|220:157,1,116.999994644165,8|0,0:0|0:0,0:0:0:0:
393,195,229270,1,0,1:0:0:0:
261,284,229411,1,0,1:0:0:0:
149,21,229553,2,0,B|199:34|199:34|213:53|213:53|285:68,1,116.999994644165,8|0,0:0|1:0,0:0:0:0:
108,210,229765,5,0,1:2:0:0:
86,196,229836,2,0,P|78:136|44:14,1,175.499991966248,0|0,1:2|0:0,0:0:0:0:
60,12,230119,5,8,0:0:0:0:
304,151,230260,2,0,B|242:155|256:201|197:205,1,116.999994644165,0|0,0:0|1:2,0:0:0:0:
304,151,230543,1,0,1:2:0:0:
115,307,230685,5,8,0:0:0:0:
295,384,230826,2,0,B|406:372|379:265|379:265|335:253|324:239,1,233.999989288331,4|0,1:2|1:2,0:0:0:0:
119,0,231251,6,0,P|148:57|158:134,1,116.999994644165,8|0,0:0|0:0,0:0:0:0:
356,155,231534,2,0,P|325:204|307:259,1,116.999994644165,0|0,1:2|1:2,0:0:0:0:
115,307,231817,5,12,0:0:0:0:
315,268,231958,1,8,0:0:0:0:
315,268,232029,1,8,0:0:0:0:
315,268,232100,6,0,B|257:257|233:305|245:307|215:360|142:350,1,175.499991966248,4|0,1:2|0:0,0:0:0:0:
115,307,232383,2,0,B|66:284|62:231|62:231|73:273|125:296,1,175.499991966248,8|0,0:0|0:0,0:0:0:0:
175,356,232666,6,0,B|220:336|220:336|244:343|244:343|284:326,1,116.999994644165,0|0,1:2|1:2,0:0:0:0:
271,159,232949,5,8,0:0:0:0:
25,79,233090,2,0,B|95:73|132:136|112:142|145:213|228:197,1,233.999989288331,0|0,1:2|1:2,0:0:0:0:
370,305,233515,6,0,P|394:254|396:192,1,116.999994644165,8|0,0:0|0:0,0:0:0:0:
302,53,233798,1,0,1:2:0:0:
302,53,233940,1,0,1:2:0:0:
487,6,234081,6,0,B|445:-5|407:29|407:29|414:85|343:102,1,175.499991966248,8|0,0:0|0:0,0:0:0:0:
302,53,234364,5,12,0:0:0:0:
483,284,234506,1,0,1:0:0:0:
483,284,234647,1,0,1:0:0:0:
196,177,234789,5,12,0:0:0:0:
104,365,234930,1,0,1:0:0:0:
104,365,235072,1,0,1:0:0:0:
95,58,235213,5,12,0:0:0:0:
294,155,235355,2,0,B|314:112|265:45|150:81|162:240|287:193|256:304,1,323.999990112305,12|8,0:0|0:0,0:0:0:0:
258,300,235991,5,8,0:0:0:0:
258,300,236062,1,8,0:0:0:0:
96,356,236204,1,8,0:0:0:0:
55,191,236345,1,8,0:0:0:0:
221,152,236487,1,8,0:0:0:0:
466,320,236628,5,4,1:2:0:0:
370,251,236770,2,0,P|313:243|265:372,1,180,4|0,1:2|1:0,0:0:0:0:
383,259,237194,1,8,0:0:0:0:
179,126,237477,5,0,1:2:0:0:
302,166,237619,2,0,P|356:128|359:15,1,180,8|8,1:3|1:3,0:0:0:0:
211,14,238043,2,0,P|235:59|253:105,1,90,0|0,1:2|0:0,0:0:0:0:
263,333,238326,6,0,P|211:318|150:305,1,103.500001974106,8|0,0:0|0:0,0:0:0:0:
373,203,238609,2,0,P|423:191|473:177,1,103.500001974106,0|0,1:2|0:0,0:0:0:0:
348,384,238892,6,0,L|326:317,1,49.5000015106202,0|0,1:2|0:0,0:0:0:0:
408,317,239034,2,0,L|386:250,1,49.5000015106202,0|0,1:0|0:0,0:0:0:0:
271,76,239175,6,0,P|314:67|384:143,1,148.50000453186,0|0,1:2|0:0,0:0:0:0:
373,203,239458,2,0,B|292:217|342:263|246:284,1,135,8|0,0:0|0:0,0:0:0:0:
255,273,239741,5,0,1:2:0:0:
122,365,239883,2,0,P|82:312|98:249,1,135,0|0,1:2|0:0,0:0:0:0:
114,243,240166,1,8,0:1:0:0:
31,62,240307,5,0,0:0:0:0:
78,156,240449,1,0,1:0:0:0:
162,25,240590,6,0,P|206:0|277:8,1,103.500001974106,8|0,0:0|0:0,0:0:0:0:
407,130,240873,2,0,P|355:130|311:105,1,103.500001974106,4|8,1:2|0:1,0:0:0:0:
435,5,241156,5,4,1:2:0:0:
435,5,241298,1,0,1:2:0:0:
303,110,241440,2,0,L|331:209,1,90,0|0,0:0|1:0,0:0:0:0:
186,269,241723,6,0,B|289:279|235:350|345:352,1,180,8|8,0:0|0:1,0:0:0:0:
174,380,242147,2,0,P|128:364|81:355,1,90,0|0,1:0|0:0,0:0:0:0:
18,239,242430,5,8,0:1:0:0:
123,193,242572,2,0,P|78:202|36:217,1,90,0|0,1:2|0:0,0:0:0:0:
247,103,242855,6,0,P|280:151|286:205,1,103.500001974106,8|0,0:0|0:0,0:0:0:0:
343,358,243138,2,0,P|372:307|371:250,1,103.500001974106,4|4,1:3|1:3,0:0:0:0:
192,202,243421,6,0,L|210:247,1,49.5000015106202,0|0,1:2|0:0,0:0:0:0:
138,267,243562,2,0,L|156:312,1,49.5000015106202,0|0,1:0|0:0,0:0:0:0:
247,103,243704,2,0,B|192:124|192:124|181:158|181:158|118:184,1,148.50000453186,4|0,1:2|0:0,0:0:0:0:
116,199,243987,2,0,L|212:159,1,99.0000030212403,8|0,0:0|1:2,0:0:0:0:
343,266,244270,5,0,1:2:0:0:
504,342,244411,2,0,P|470:293|325:294,1,180,0|4,1:2|1:2,0:0:0:0:
233,251,244836,2,0,P|255:296|268:343,1,90,4|0,1:2|0:0,0:0:0:0:
434,151,245119,5,8,0:0:0:0:
131,261,245260,1,8,0:2:0:0:
227,54,245402,1,4,1:2:0:0:
337,357,245543,1,8,0:0:0:0:
428,23,245685,5,10,0:2:0:0:
337,137,245826,1,10,0:2:0:0:
239,47,245968,1,10,0:2:0:0:
168,185,246109,1,2,1:2:0:0:
