osu file format v14

[General]
AudioFilename: audio.mp3
AudioLeadIn: 0
PreviewTime: 190213
Countdown: 0
SampleSet: Soft
StackLeniency: 0.6
Mode: 0
LetterboxInBreaks: 0
WidescreenStoryboard: 1

[Editor]
Bookmarks: 1157,5685,20402,38515,56628,67949,99647,108704,117760,120024,126817,138138,169836,190213,200402,209458,221770,223043,236628,245685
DistanceSpacing: 1.2
BeatDivisor: 4
GridSize: 8
TimelineZoom: 2.4

[Metadata]
Title:Serment
TitleUnicode:Serment
Artist:Kawada Mami
ArtistUnicode:川田まみ
Creator:Flame Haze
Version:Kerupt's Insane
Source:灼眼のシャナIII-FINAL-
Tags:shakugan no shana III -best- 3rd season 2nd opening full version generasia square the circle anime jrock j-rock rock japanese pop kerupt reiji maigo reiji_maigo mariko sakuragi mariko_sakuragi
BeatmapID:2985544
BeatmapSetID:1125776

[Difficulty]
HPDrainRate:5
CircleSize:4
OverallDifficulty:8
ApproachRate:9
SliderMultiplier:1.8
SliderTickRate:1

[Events]
//Background and Video events
0,0,"Shanaaaaa.jpg",0,0
//Break Periods
2,6026,7349
2,190213,199270
//Storyboard Layer 0 (Background)
//Storyboard Layer 1 (Fail)
//Storyboard Layer 2 (Pass)
//Storyboard Layer 3 (Foreground)
//Storyboard Layer 4 (Overlay)
//Storyboard Sound Samples

[TimingPoints]
1157,283.018867924528,4,2,1,5,1,0
5402,-100,4,2,1,5,0,0
5685,-166.666666666667,4,2,1,50,0,0
10142,-166.666666666667,4,2,1,5,0,0
10213,-166.666666666667,4,2,2,50,0,0
14175,-142.857142857143,4,2,2,50,0,0
14741,-166.666666666667,4,2,2,50,0,0
18704,-142.857142857143,4,2,2,50,0,0
19270,-500,4,2,2,35,0,0
20260,-500,4,2,1,65,0,0
20402,-111.111111111111,4,2,1,65,0,0
20614,-111.111111111111,4,2,1,5,0,0
20685,-111.111111111111,4,2,1,65,0,0
23161,-111.111111111111,4,2,1,5,0,0
23232,-111.111111111111,4,2,1,65,0,0
27690,-111.111111111111,4,2,1,5,0,0
27760,-111.111111111111,4,2,1,65,0,0
28822,-111.111111111111,4,2,1,5,0,0
28892,-111.111111111111,4,2,1,65,0,0
30661,-111.111111111111,4,2,1,5,0,0
30732,-111.111111111111,4,2,1,65,0,0
32218,-111.111111111111,4,2,1,5,0,0
32289,-111.111111111111,4,2,1,65,0,0
38232,-99.9999999999999,4,2,1,65,0,0
38515,-111.111111111111,4,2,1,50,0,0
38940,-125,4,2,1,50,0,0
40142,-125,4,2,1,5,0,0
40213,-125,4,2,1,50,0,0
40425,-125,4,2,1,5,0,0
40496,-125,4,2,1,50,0,0
49199,-125,4,2,1,5,0,0
49270,-125,4,2,1,50,0,0
49482,-125,4,2,1,5,0,0
49553,-125,4,2,1,50,0,0
55213,-111.111111111111,4,2,1,50,0,0
55496,-111.111111111111,4,2,1,55,0,0
56628,-142.857142857143,4,2,1,60,0,0
61156,-125,4,2,1,60,0,0
63067,-125,4,2,1,5,0,0
63138,-125,4,2,1,60,0,0
63421,-125,4,2,1,65,0,0
64623,-125,4,2,1,5,0,0
64694,-125,4,2,1,65,0,0
65968,-250.000000000001,4,2,1,65,0,0
66958,-250.000000000001,4,2,1,65,0,0
67949,-90.9090909090909,4,2,1,80,0,1
68727,-90.9090909090909,4,2,1,5,0,1
68798,-90.9090909090909,4,2,1,80,0,1
69293,-90.9090909090909,4,2,1,5,0,1
69364,-90.9090909090909,4,2,1,80,0,1
69718,-90.9090909090909,4,2,1,5,0,1
69789,-90.9090909090909,4,2,1,80,0,1
71416,-90.9090909090909,4,2,1,5,0,1
71487,-90.9090909090909,4,2,1,80,0,1
77218,-90.9090909090909,4,2,1,5,0,1
77289,-90.9090909090909,4,2,1,80,0,1
84010,-90.9090909090909,4,2,1,5,0,1
84081,-90.9090909090909,4,2,1,80,0,1
88822,-90.9090909090909,4,2,1,5,0,1
88892,-90.9090909090909,4,2,1,80,0,1
94057,-90.9090909090909,4,2,1,5,0,1
94128,-90.9090909090909,4,2,1,80,0,1
98940,-83.3333333333333,4,2,1,80,0,1
99647,-111.111111111111,4,2,1,65,0,0
102406,-111.111111111111,4,2,1,5,0,0
102477,-111.111111111111,4,2,1,65,0,0
108704,-125,4,2,1,60,0,0
110331,-125,4,2,1,5,0,0
110402,-125,4,2,1,60,0,0
110614,-125,4,2,1,5,0,0
110685,-125,4,2,1,60,0,0
118043,-200,4,2,1,30,0,0
119175,-200,4,2,1,50,0,0
120024,-125,4,2,1,60,0,0
125685,-125,4,2,1,55,0,0
126817,-142.857142857143,4,2,1,60,0,0
133043,-125,4,2,1,60,0,0
133609,-125,4,2,1,65,0,0
137006,-111.111111111111,4,2,1,65,0,0
138138,-90.9090909090909,4,2,1,80,0,1
139482,-90.9090909090909,4,2,1,5,0,1
139553,-90.9090909090909,4,2,1,80,0,1
139906,-90.9090909090909,4,2,1,5,0,1
139977,-90.9090909090909,4,2,1,80,0,1
140897,-90.9090909090909,4,2,1,5,0,1
140968,-90.9090909090909,4,2,1,80,0,1
142029,-90.9090909090909,4,2,1,5,0,1
142100,-90.9090909090909,4,2,1,80,0,1
149671,-90.9090909090909,4,2,1,5,0,1
149741,-90.9090909090909,4,2,1,80,0,1
164246,-90.9090909090909,4,2,1,5,0,1
164317,-90.9090909090909,4,2,1,80,0,1
169270,-83.3333333333333,4,2,1,80,0,1
169836,-125,4,2,2,70,0,0
178256,-125,4,2,2,5,0,0
178326,-125,4,2,1,70,0,0
178822,-125,4,2,1,5,0,0
178892,-125,4,2,2,70,0,0
181652,-125,4,2,2,5,0,0
181723,-125,4,2,2,70,0,0
181935,-125,4,2,2,5,0,0
182006,-125,4,2,2,70,0,0
182430,-125,4,2,1,70,0,0
182572,-125,4,2,2,70,0,0
183279,-125,4,2,1,70,0,0
183350,-125,4,2,1,5,0,0
183421,-125,4,2,2,70,0,0
187383,-125,4,2,1,70,0,0
187949,-125,4,2,1,50,0,0
188373,-250,4,2,1,40,0,0
189081,-250,4,2,1,5,0,0
190213,-250,4,2,1,35,0,0
200402,-83.3333333333333,4,2,1,80,0,1
206133,-83.3333333333333,4,2,1,5,0,1
206204,-83.3333333333333,4,2,1,80,0,1
207406,-83.3333333333333,4,2,1,5,0,1
207477,-83.3333333333333,4,2,1,80,0,1
210803,-83.3333333333333,4,2,1,5,0,1
210873,-83.3333333333333,4,2,1,80,0,1
211227,-83.3333333333333,4,2,1,5,0,1
211298,-83.3333333333333,4,2,1,80,0,1
212925,-83.3333333333333,4,2,1,5,0,1
212996,-83.3333333333333,4,2,1,80,0,1
216534,-83.3333333333333,4,2,1,80,0,1
217454,-83.3333333333333,4,2,1,5,0,1
217524,-83.3333333333333,4,2,1,80,0,1
217666,-90.9090909090909,4,2,1,80,0,1
221770,-100,4,2,1,70,0,0
223043,-100,4,2,1,80,0,1
235921,-100,4,2,1,80,0,1
236628,-125,4,2,2,70,0,0
243067,-125,4,2,2,5,0,0
243138,-125,4,2,2,70,0,0
243350,-125,4,2,2,5,0,0
243421,-125,4,2,2,70,0,0
245119,-125,4,2,1,70,0,0

[Colours]
Combo1 : 200,203,223
Combo2 : 198,51,77
Combo3 : 57,95,155
Combo4 : 120,114,173

[HitObjects]
256,192,1157,12,0,5543,0:0:0:0:
327,296,5685,5,0,1:2:0:0:
328,311,5826,1,0,1:2:0:0:
327,296,7949,5,0,1:2:0:0:
328,311,8090,1,0,1:2:0:0:
229,240,8373,1,0,1:2:0:0:
448,154,8656,1,0,1:2:0:0:
449,169,8797,1,0,1:2:0:0:
450,184,8940,1,0,1:2:0:0:
448,154,9647,6,0,B|400:129|360:172|360:172|363:174|363:174|323:220|273:194,1,188.999994232178,0|0,0:0|0:0,0:0:0:0:
180,118,10213,5,0,1:2:0:0:
180,118,10355,2,0,L|187:171,1,53.9999983520508,0|0,1:2|0:0,0:0:0:0:
281,49,10638,2,0,L|274:102,1,53.9999983520508,0|8,0:0|0:0,0:0:0:0:
82,141,11062,1,0,0:0:0:0:
82,141,11204,2,0,P|117:115|199:130,1,107.999996704102,0|0,1:2|1:2,0:0:0:0:
246,181,11628,2,0,P|201:209|148:204,2,107.999996704102,0|8|0,1:2|0:0|0:0,0:0:0:0:
68,224,12477,5,0,1:2:0:0:
68,224,12619,2,0,L|75:277,2,53.9999983520508,0|0|0,1:2|1:2|0:0,0:0:0:0:
148,204,13043,2,0,L|134:92,1,107.999996704102,8|0,0:0|1:2,0:0:0:0:
68,224,13468,1,0,1:2:0:0:
68,224,13609,6,0,P|107:278|211:258,1,161.999995056153,0|0,0:0|0:0,0:0:0:0:
274,298,14175,2,0,P|364:291|407:370,1,188.999994232178,8|0,0:0|0:0,0:0:0:0:
324,372,14741,5,0,1:2:0:0:
324,372,14883,1,0,1:2:0:0:
501,272,15166,1,0,0:0:0:0:
501,272,15307,2,0,L|448:265,2,53.9999983520508,8|0|0,0:0|0:0|0:0,0:0:0:0:
384,331,15732,2,0,P|358:296|373:214,1,107.999996704102,0|0,1:2|1:2,0:0:0:0:
424,167,16156,2,0,P|452:212|447:265,2,107.999996704102,0|8|0,1:2|0:0|0:0,0:0:0:0:
492,93,17006,5,0,1:2:0:0:
492,93,17147,2,0,L|438:86,2,53.9999983520508,0|0|0,1:2|1:2|0:0,0:0:0:0:
424,167,17572,2,0,B|312:153,1,107.999996704102,8|0,0:0|1:2,0:0:0:0:
271,55,17996,1,0,1:2:0:0:
354,81,18138,6,0,P|315:135|211:115,1,161.999995056153,0|0,0:0|0:0,0:0:0:0:
163,76,18704,2,0,P|73:69|30:148,1,188.999994232178,8|0,0:0|0:0,0:0:0:0:
113,143,19270,6,0,B|118:161|118:161|113:178,3,36,2|2|2|2,0:3|0:3|0:3|0:3,0:0:0:0:
60,244,20260,5,0,1:2:0:0:
60,244,20331,1,0,1:2:0:0:
60,244,20402,2,0,B|88:267|88:267|188:244,1,121.499996292114,4|0,1:2|0:0,0:0:0:0:
306,221,20685,2,0,P|281:252|271:296,1,80.9999975280763,10|0,0:0|0:0,0:0:0:0:
512,308,20968,2,0,P|502:269|477:237,1,80.9999975280763,2|2,0:2|1:2,0:0:0:0:
404,324,21251,1,10,0:2:0:0:
404,324,21392,2,0,B|356:305|319:336|342:349|296:380|254:366,1,161.999995056153,2|2,1:2|1:2,0:0:0:0:
167,384,21817,2,0,L|155:288,1,80.9999975280763,10|0,0:0|0:0,0:0:0:0:
157,284,22029,1,0,0:0:0:0:
157,284,22100,1,2,0:0:0:0:
73,350,22241,1,2,1:2:0:0:
10,236,22383,2,0,L|0:316,2,80.9999975280763,8|0|0,0:0|0:0|1:2,0:0:0:0:
0,50,22949,6,0,P|28:81|109:79,1,121.499996292114,10|0,0:0|0:0,0:0:0:0:
189,44,23232,1,2,0:2:0:0:
189,44,23373,2,0,L|177:139,1,80.9999975280763,2|10,1:2|0:2,0:0:0:0:
178,124,23656,2,0,B|226:105|263:136|240:149|286:180|328:166,1,161.999995056153,2|0,1:2|1:0,0:0:0:0:
407,127,24081,1,10,0:0:0:0:
480,199,24223,1,0,1:2:0:0:
480,199,24293,1,0,1:2:0:0:
480,199,24364,2,0,L|468:294,1,80.9999975280763,2|2,1:2|1:2,0:0:0:0:
346,337,24647,2,0,L|336:256,1,80.9999975280763,8|0,0:0|1:0,0:0:0:0:
323,167,24930,1,0,1:2:0:0:
407,127,25213,6,0,P|374:88|261:95,1,161.999995056153,10|2,0:0|0:2,0:0:0:0:
182,145,25638,2,0,L|191:64,1,80.9999975280763,2|10,1:2|0:2,0:0:0:0:
323,167,25921,2,0,L|304:327,1,161.999995056153,2|0,1:2|1:2,0:0:0:0:
208,384,26345,1,10,0:0:0:0:
144,319,26487,1,0,1:2:0:0:
144,319,26557,1,0,1:2:0:0:
144,318,26628,2,0,P|175:293|214:289,1,80.9999975280763,2|2,1:2|1:2,0:0:0:0:
234,205,26911,2,0,P|271:219|294:252,1,80.9999975280763,8|0,0:0|0:0,0:0:0:0:
208,384,27194,1,0,1:2:0:0:
208,384,27477,6,0,L|63:366,1,121.499996292114,10|0,0:0|0:0,0:0:0:0:
62,384,27760,1,2,0:2:0:0:
62,384,27902,2,0,B|47:351|47:351|60:308,1,80.9999975280763,2|10,1:2|0:0,0:0:0:0:
234,205,28185,2,0,B|247:247|247:247|232:280,1,80.9999975280763,2|0,1:2|0:0,0:0:0:0:
19,197,28468,1,6,1:2:0:0:
19,197,28609,2,0,L|164:179,1,121.499996292114,12|0,0:0|0:0,0:0:0:0:
234,205,28892,5,6,1:2:0:0:
180,55,29034,1,2,1:2:0:0:
139,182,29175,5,14,0:0:0:0:
292,122,29317,1,8,0:0:0:0:
267,284,29458,1,4,1:2:0:0:
492,171,29741,6,0,B|511:205|511:205|376:188,1,161.999995056153,10|2,0:0|0:2,0:0:0:0:
253,185,30166,2,0,P|282:194|314:237,1,80.9999975280763,2|10,1:2|0:2,0:0:0:0:
254,384,30449,2,0,L|239:263,1,121.499996292114,2|0,1:2|0:0,0:0:0:0:
239,263,30732,1,0,1:0:0:0:
163,333,30873,1,10,0:0:0:0:
109,245,31015,1,0,1:0:0:0:
109,245,31086,1,0,1:0:0:0:
109,245,31156,2,0,L|120:145,1,80.9999975280763,2|2,1:2|1:2,0:0:0:0:
213,99,31440,2,0,L|203:179,1,80.9999975280763,8|0,0:0|0:0,0:0:0:0:
29,60,31723,1,0,1:2:0:0:
29,60,32006,6,0,B|45:83|45:83|163:69,1,121.499996292114,10|0,0:0|0:0,0:0:0:0:
213,98,32289,2,0,L|308:86,1,80.9999975280763,2|2,0:2|1:2,0:0:0:0:
462,68,32572,1,10,0:2:0:0:
394,15,32713,2,0,P|373:86|440:151,1,161.999995056153,2|0,1:2|1:2,0:0:0:0:
512,219,33138,2,0,L|431:229,1,80.9999975280763,10|0,0:0|1:2,0:0:0:0:
410,236,33350,1,0,1:0:0:0:
410,236,33421,1,2,1:2:0:0:
365,327,33562,2,0,L|446:317,2,80.9999975280763,2|8|0,1:2|0:0|1:2,0:0:0:0:
274,340,33987,1,4,1:2:0:0:
225,384,34270,6,0,B|244:339|244:339|220:222,1,161.999995056153,10|2,0:0|0:2,0:0:0:0:
204,143,34694,1,2,1:2:0:0:
95,260,34836,1,10,0:2:0:0:
75,185,34977,2,0,B|123:166|160:197|137:210|183:241|225:227,1,161.999995056153,2|0,1:2|1:2,0:0:0:0:
303,303,35402,2,0,L|312:222,1,80.9999975280763,10|0,0:0|1:0,0:0:0:0:
318,194,35614,1,0,1:0:0:0:
318,194,35685,1,2,1:2:0:0:
398,288,35826,1,2,1:2:0:0:
450,211,35968,2,0,L|440:130,2,80.9999975280763,8|0|0,0:0|0:0|1:2,0:0:0:0:
500,34,36534,6,0,P|471:77|359:75,1,161.999995056153,10|2,0:0|0:2,0:0:0:0:
287,102,36958,2,0,P|252:82|212:83,1,80.9999975280763,2|10,1:2|0:2,0:0:0:0:
116,0,37241,2,0,L|135:160,1,161.999995056153,6|0,1:2|1:2,0:0:0:0:
234,169,37666,2,0,L|223:249,1,80.9999975280763,10|2,0:0|0:3,0:0:0:0:
199,372,37949,1,10,0:0:0:0:
99,290,38090,1,10,0:0:0:0:
199,372,38232,1,8,0:0:0:0:
99,290,38373,1,8,0:0:0:0:
234,169,38515,6,0,L|223:249,2,80.9999975280763,6|2|8,1:2|1:2|0:0,0:0:0:0:
99,290,38940,2,0,B|136:274|163:301|159:307|158:313|183:341|234:332,1,144,2|0,0:0|1:2,0:0:0:0:
326,287,39364,1,8,0:0:0:0:
326,287,39506,2,0,L|317:368,2,72,0|0|0,1:2|0:0|1:2,0:0:0:0:
447,237,39930,2,0,B|422:207|422:207|429:138,1,108,10|0,0:0|0:0,0:0:0:0:
430,113,40213,2,0,P|383:151|320:149,1,108,2|0,1:2|0:0,0:0:0:0:
324,138,40496,2,0,L|333:57,1,72,10|0,0:0|0:0,0:0:0:0:
400,0,40779,5,2,1:2:0:0:
171,101,40921,2,0,P|140:70|240:64,1,216,0|0,1:2|0:0,0:0:0:0:
155,219,41487,1,0,1:2:0:0:
91,151,41628,1,10,0:0:0:0:
196,102,41770,2,0,L|175:268,1,144,2|0,1:2|1:2,0:0:0:0:
98,361,42194,5,8,0:0:0:0:
95,341,42336,1,0,0:0:0:0:
203,294,42477,5,0,1:2:0:0:
198,324,42619,1,0,1:2:0:0:
79,384,42760,5,8,0:0:0:0:
76,364,42902,1,0,1:0:0:0:
17,308,43043,6,0,P|43:284|79:279,2,72,2|0|10,1:2|0:0|0:0,0:0:0:0:
153,317,43468,2,0,P|211:359|296:325,1,144,2|0,0:0|1:2,0:0:0:0:
371,302,43892,1,8,0:0:0:0:
371,302,44034,2,0,L|360:389,2,72,0|0|0,1:2|0:0|1:2,0:0:0:0:
382,210,44458,2,0,P|416:219|442:246,1,72,10|0,0:0|0:0,0:0:0:0:
297,247,44741,2,0,P|287:212|298:175,1,72,2|0,1:2|1:0,0:0:0:0:
371,302,45024,2,0,P|345:326|308:336,1,72,10|0,0:0|0:0,0:0:0:0:
224,369,45307,5,2,1:2:0:0:
161,293,45449,2,0,L|180:132,1,144,0|0,1:2|0:0,0:0:0:0:
280,166,45873,2,0,L|268:74,1,72,0|0,0:0|1:2,0:0:0:0:
196,54,46156,1,8,0:0:0:0:
267,9,46298,2,0,B|310:-1|341:32|324:38|360:75|410:60,1,144,2|0,1:2|1:2,0:0:0:0:
419,74,46652,1,0,1:0:0:0:
419,74,46723,2,0,L|427:2,1,72,8|0,0:0|0:0,0:0:0:0:
500,130,47006,2,0,P|470:162|432:169,1,72,0|0,1:0|1:0,0:0:0:0:
447,259,47289,2,0,P|402:253|375:226,1,72,12|8,0:0|0:0,0:0:0:0:
278,165,47572,5,6,1:2:0:0:
278,165,47713,2,0,L|349:156,1,72,0|10,0:0|0:0,0:0:0:0:
195,200,47996,2,0,P|183:148|254:79,1,144,2|0,0:0|1:0,0:0:0:0:
315,239,48421,1,8,0:0:0:0:
236,304,48562,2,0,L|165:295,2,72,0|0|0,1:2|0:0|1:2,0:0:0:0:
301,365,48987,2,0,B|326:335|326:335|318:266,1,108,10|0,0:0|0:0,0:0:0:0:
315,239,49270,2,0,B|343:226|379:224|376:293|439:265,1,108,2|0,1:2|0:0,0:0:0:0:
429,288,49553,2,0,L|437:216,1,72,10|0,0:0|0:0,0:0:0:0:
506,166,49836,5,2,1:2:0:0:
286,90,49977,2,0,P|373:68|353:156,1,216,0|0,1:2|0:0,0:0:0:0:
175,123,50543,1,0,1:2:0:0:
111,55,50684,1,10,0:0:0:0:
215,11,50826,2,0,L|194:177,1,144,2|0,1:2|1:2,0:0:0:0:
125,226,51251,5,8,0:0:0:0:
122,204,51392,1,0,0:0:0:0:
256,223,51534,5,0,1:2:0:0:
253,245,51675,1,0,1:2:0:0:
140,263,51817,5,10,0:0:0:0:
137,241,51958,1,8,0:0:0:0:
336,273,52100,6,0,P|314:319|220:325,1,144,2|8,1:2|0:0,0:0:0:0:
155,384,52524,2,0,L|137:241,1,144,2|0,0:0|1:2,0:0:0:0:
253,245,52949,1,10,0:0:0:0:
253,245,53090,1,0,1:2:0:0:
57,214,53232,6,0,P|78:167|172:161,1,144,2|8,0:0|0:0,0:0:0:0:
253,245,53656,1,2,0:0:0:0:
328,124,53798,2,0,L|256:115,1,72,0|0,1:2|1:2,0:0:0:0:
119,316,54081,2,0,L|190:307,1,72,10|0,0:0|0:0,0:0:0:0:
355,283,54364,5,2,1:2:0:0:
253,245,54505,1,0,0:0:0:0:
272,353,54647,1,10,0:0:0:0:
438,213,54930,5,0,1:2:0:0:
355,283,55072,1,0,1:2:0:0:
355,283,55142,1,0,1:2:0:0:
355,283,55213,2,0,L|333:111,1,161.999995056153,8|2,0:0|1:2,0:0:0:0:
431,43,55638,1,0,1:2:0:0:
431,43,55708,1,0,1:2:0:0:
431,43,55779,2,0,P|391:46|342:26,1,80.9999975280763,10|0,0:0|0:0,0:0:0:0:
248,87,56062,5,8,0:0:0:0:
259,0,56204,1,8,0:0:0:0:
335,122,56345,1,8,0:0:0:0:
193,172,56487,1,8,0:0:0:0:
278,251,56628,6,0,B|288:220|288:220|276:182,2,62.9999980773926,6|0|0,1:2|1:2|1:2,0:0:0:0:
190,322,57053,2,0,B|179:292|179:292|195:247,2,62.9999980773926,2|8|0,1:2|0:0|1:2,0:0:0:0:
257,370,57477,1,10,0:0:0:0:
257,370,57619,6,0,B|301:356|301:356|336:377|336:377|394:361,1,125.999996154785,8|8,1:3|0:3,0:0:0:0:
466,347,58043,1,0,1:2:0:0:
345,211,58184,1,2,1:2:0:0:
345,211,58326,2,0,L|354:290,1,62.9999980773926,8|0,0:0|0:0,0:0:0:0:
466,347,58609,2,0,L|458:284,1,62.9999980773926,2|8,0:0|1:3,0:0:0:0:
508,127,58892,6,0,B|486:151|486:151|374:124,1,125.999996154785,2|0,0:0|1:2,0:0:0:0:
268,154,59317,1,0,1:2:0:0:
268,154,59388,1,0,1:0:0:0:
268,154,59458,2,0,L|261:92,1,62.9999980773926,8|0,0:0|1:0,0:0:0:0:
344,0,59741,2,0,L|352:62,1,62.9999980773926,10|2,0:0|1:2,0:0:0:0:
345,72,60166,2,0,L|337:9,2,62.9999980773926,0|8|0,1:2|1:3|0:0,0:0:0:0:
244,44,60590,5,10,0:0:0:0:
424,133,60732,1,8,0:0:0:0:
260,217,60873,2,0,L|270:129,1,62.9999980773926,6|8,1:2|0:0,0:0:0:0:
358,260,61156,5,6,1:2:0:0:
358,260,61298,1,8,0:3:0:0:
406,334,61440,2,0,B|389:353|389:353|330:345,1,72,0|2,0:0|0:0,0:0:0:0:
275,293,61723,2,0,L|204:302,1,72,8|0,0:0|1:2,0:0:0:0:
118,315,62006,1,10,0:0:0:0:
172,384,62147,1,8,0:0:0:0:
60,242,62430,5,8,0:3:0:0:
118,315,62572,1,0,1:2:0:0:
191,197,62713,1,2,1:2:0:0:
191,197,62784,1,0,1:2:0:0:
191,197,62855,2,0,B|224:214|224:214|310:203,1,108,8|0,0:0|0:0,0:0:0:0:
290,224,63138,2,0,L|369:212,1,72,2|8,0:0|0:3,0:0:0:0:
512,149,63421,5,2,1:2:0:0:
453,268,63562,1,0,1:2:0:0:
389,124,63704,1,2,1:2:0:0:
392,130,63987,5,8,0:0:0:0:
304,114,64128,1,2,1:2:0:0:
216,98,64270,1,0,0:0:0:0:
128,82,64411,2,0,L|141:189,1,108,2|0,1:2|0:0,0:0:0:0:
146,216,64694,5,10,0:0:0:0:
240,282,64836,2,0,B|257:252|257:252|246:208,1,72,2|0,1:2|0:0,0:0:0:0:
43,157,65119,2,0,B|26:187|26:187|37:231,1,72,10|0,0:0|0:0,0:0:0:0:
87,358,65402,1,10,0:0:0:0:
146,216,65543,1,10,0:0:0:0:
184,336,65685,5,2,1:2:0:0:
39,251,65826,1,2,1:2:0:0:
265,183,65968,1,2,1:2:0:0:
42,206,66958,5,2,0:0:0:0:
52,208,67383,2,0,L|47:173,2,36,2|0|10,1:2|1:2|3:2,0:0:0:0:
23,93,67807,5,0,3:2:0:0:
23,93,67878,1,0,3:2:0:0:
23,93,67949,2,0,B|73:67|119:106|95:121|148:163|205:134,1,198.000006042481,6|8,1:2|0:0,0:0:0:0:
395,71,68373,1,0,0:0:0:0:
310,5,68515,2,0,B|284:42|284:42|304:167,1,148.50000453186,2|0,1:2|0:0,0:0:0:0:
305,170,68798,1,8,0:0:0:0:
432,288,68940,1,0,1:0:0:0:
444,209,69081,2,0,B|408:189|363:222|379:233|346:270|299:253,1,148.50000453186,2|0,0:0|0:0,0:0:0:0:
286,248,69364,1,8,0:0:0:0:
359,359,69506,2,0,L|193:338,1,148.50000453186,2|0,0:0|0:0,0:0:0:0:
185,336,69789,1,0,1:2:0:0:
28,384,69930,6,0,P|8:335|14:282,1,99.0000030212403,10|0,0:0|1:2,0:0:0:0:
158,146,70213,1,2,1:2:0:0:
158,146,70496,2,0,P|179:194|172:248,1,99.0000030212403,8|0,0:0|0:0,0:0:0:0:
154,262,70708,1,0,1:0:0:0:
154,262,70779,1,0,1:2:0:0:
0,199,70921,1,0,1:2:0:0:
65,105,71062,1,10,0:0:0:0:
65,105,71204,6,0,B|103:127|103:127|223:91,1,148.50000453186,2|0,1:2|0:0,0:0:0:0:
233,86,71487,1,0,1:2:0:0:
162,18,71628,2,0,P|135:65|139:115,1,99.0000030212403,10|0,0:0|0:0,0:0:0:0:
304,155,71911,2,0,P|330:107|326:57,1,99.0000030212403,2|0,1:2|1:2,0:0:0:0:
233,86,72194,1,10,0:0:0:0:
404,175,72336,1,2,0:0:0:0:
287,266,72477,6,0,B|237:240|191:279|215:294|162:336|105:307,1,198.000006042481,6|8,1:2|0:0,0:0:0:0:
31,384,72902,1,0,1:0:0:0:
31,384,72973,1,0,1:0:0:0:
31,384,73043,2,0,L|18:278,1,99.0000030212403,0|0,1:2|1:2,0:0:0:0:
5,158,73326,1,10,0:0:0:0:
149,135,73468,2,0,L|136:233,1,99.0000030212403,2|0,1:2|0:0,0:0:0:0:
74,91,73751,1,0,1:2:0:0:
74,91,73822,1,0,1:0:0:0:
74,91,73892,2,0,P|102:54|171:52,1,99.0000030212403,10|0,0:0|0:0,0:0:0:0:
227,179,74175,2,0,P|180:172|145:113,1,99.0000030212403,2|0,0:2|1:2,0:0:0:0:
226,2,74458,2,0,P|243:45|210:105,1,99.0000030212403,10|0,0:0|1:2,0:0:0:0:
52,330,74741,6,0,B|20:348|-18:309|12:264|68:243|134:308,1,198.000006042481,2|8,1:2|0:0,0:0:0:0:
136,333,75095,1,0,0:0:0:0:
136,333,75166,2,0,P|182:306|251:306,1,99.0000030212403,2|0,0:0|1:2,0:0:0:0:
332,339,75449,1,0,1:2:0:0:
260,384,75590,1,10,0:0:0:0:
302,248,75732,1,4,1:2:0:0:
494,291,76015,5,0,1:2:0:0:
494,291,76086,1,0,1:2:0:0:
494,291,76156,2,0,L|377:277,1,99.0000030212403,8|0,0:0|0:0,0:0:0:0:
184,171,76440,2,0,L|301:157,1,99.0000030212403,0|0,1:2|1:2,0:0:0:0:
384,180,76723,1,10,0:0:0:0:
302,248,76864,1,10,0:0:0:0:
395,169,77006,6,0,P|431:231|396:298,1,148.50000453186,6|0,1:2|0:0,0:0:0:0:
354,368,77289,1,10,0:0:0:0:
236,246,77430,2,0,L|353:232,1,99.0000030212403,2|0,0:0|1:2,0:0:0:0:
199,334,77713,5,2,1:2:0:0:
153,197,77855,1,10,0:0:0:0:
236,246,77996,1,0,1:2:0:0:
116,283,78138,2,0,L|-1:269,2,99.0000030212403,2|0|10,0:0|1:2|0:0,0:0:0:0:
116,283,78562,2,0,P|138:227|122:172,1,99.0000030212403,2|0,0:0|1:2,0:0:0:0:
38,77,78845,5,2,1:2:0:0:
38,77,78916,1,0,1:0:0:0:
38,77,78987,2,0,P|90:106|147:98,1,99.0000030212403,10|0,0:0|1:2,0:0:0:0:
253,51,79270,1,2,1:2:0:0:
172,15,79411,1,0,0:0:0:0:
207,145,79553,1,10,0:0:0:0:
207,145,79694,2,0,P|258:114|280:61,1,99.0000030212403,2|0,0:0|1:2,0:0:0:0:
366,0,79977,2,0,P|366:60|402:105,1,99.0000030212403,2|8,1:2|0:0,0:0:0:0:
413,211,80260,2,0,P|360:181|303:189,1,99.0000030212403,6|0,1:2|0:0,0:0:0:0:
230,282,80543,5,0,1:0:0:0:
436,384,80685,2,0,L|454:261,1,99.0000030212403,10|0,0:0|0:0,0:0:0:0:
327,298,80968,2,0,L|312:200,1,99.0000030212403,2|4,1:2|1:2,0:0:0:0:
424,373,81251,2,0,L|442:250,1,99.0000030212403,14|0,0:0|1:2,0:0:0:0:
511,59,81534,6,0,B|456:32|406:76|436:85|378:132|325:103,1,198.000006042481,6|8,1:2|0:0,0:0:0:0:
233,0,81958,1,0,1:0:0:0:
233,0,82029,1,0,1:0:0:0:
233,0,82100,2,0,P|256:43|238:104,1,99.0000030212403,0|0,1:2|1:2,0:0:0:0:
201,179,82383,1,8,0:0:0:0:
69,70,82524,2,0,L|166:55,1,99.0000030212403,0|0,1:0|0:0,0:0:0:0:
98,237,82807,1,0,1:2:0:0:
98,237,82949,2,0,L|0:222,1,99.0000030212403,8|0,0:0|0:0,0:0:0:0:
201,179,83232,1,0,1:0:0:0:
228,332,83373,1,0,1:0:0:0:
138,277,83515,5,10,0:0:0:0:
303,194,83656,1,2,1:2:0:0:
303,194,83798,2,0,B|335:171|384:193|357:213|403:233|450:206,1,148.50000453186,2|0,1:2|0:0,0:0:0:0:
466,228,84081,2,0,L|478:129,1,99.0000030212403,14|0,0:0|1:0,0:0:0:0:
486,102,84293,1,0,1:0:0:0:
486,102,84364,5,2,1:2:0:0:
389,32,84506,1,0,1:2:0:0:
290,95,84647,1,12,0:0:0:0:
290,95,84789,2,0,L|314:291,1,198.000006042481,2|0,1:2|1:2,0:0:0:0:
346,384,85213,1,10,0:0:0:0:
213,321,85355,1,8,0:0:0:0:
399,231,85496,2,0,P|420:274|410:337,1,99.0000030212403,10|8,0:0|1:2,0:0:0:0:
213,321,85779,2,0,P|208:272|230:228,1,99.0000030212403,10|8,0:0|1:2,0:0:0:0:
314,291,86062,1,4,1:2:0:0:
74,181,86345,5,8,0:0:0:0:
38,289,86487,1,0,1:0:0:0:
38,289,86557,1,0,1:0:0:0:
38,289,86628,2,0,B|84:265|138:301|104:323|168:357|226:322,1,198.000006042481,2|8,1:2|0:0,0:0:0:0:
314,291,87053,1,0,1:2:0:0:
200,120,87194,2,0,L|187:218,1,99.0000030212403,2|0,0:0|1:0,0:0:0:0:
187,249,87406,1,0,1:0:0:0:
187,249,87477,1,8,0:0:0:0:
351,139,87619,2,0,L|338:40,1,99.0000030212403,2|0,0:0|1:2,0:0:0:0:
289,211,87902,1,0,1:2:0:0:
289,211,87973,1,0,1:0:0:0:
289,211,88043,6,0,P|328:240|376:242,1,99.0000030212403,10|0,0:0|0:0,0:0:0:0:
200,120,88326,2,0,P|151:122|112:151,1,99.0000030212403,2|0,1:2|1:0,0:0:0:0:
146,384,88609,2,0,L|164:236,1,148.50000453186,8|0,0:0|0:0,0:0:0:0:
183,210,88892,2,0,L|170:308,2,99.0000030212403,0|0|10,1:0|1:0|0:0,0:0:0:0:
166,126,89317,6,0,B|208:106|264:146|228:165|289:205|350:175,1,198.000006042481,2|0,1:2|1:2,0:0:0:0:
422,236,89741,2,0,L|434:137,1,99.0000030212403,10|0,0:0|0:0,0:0:0:0:
325,0,90024,2,0,L|312:98,1,99.0000030212403,2|0,1:2|1:2,0:0:0:0:
342,178,90307,1,10,0:0:0:0:
417,108,90449,1,0,1:0:0:0:
485,273,90590,6,0,B|405:263|405:263|387:277|387:277|292:265,1,198.000006042481,6|8,1:2|0:0,0:0:0:0:
168,259,91015,1,0,1:0:0:0:
168,259,91086,1,0,1:0:0:0:
168,259,91156,2,0,P|202:299|196:362,1,99.0000030212403,0|0,1:0|1:0,0:0:0:0:
16,338,91440,2,0,L|114:325,1,99.0000030212403,10|0,0:0|0:0,0:0:0:0:
293,265,91723,2,0,L|70:237,1,198.000006042481,2|8,0:0|0:0,0:0:0:0:
21,163,92147,1,2,0:0:0:0:
121,80,92289,2,0,P|155:120|149:183,1,99.0000030212403,0|0,1:2|1:2,0:0:0:0:
248,178,92572,2,0,P|230:227|172:253,1,99.0000030212403,10|0,0:0|1:2,0:0:0:0:
31,268,92855,6,0,B|75:254|125:301|86:315|141:363|206:342,1,198.000006042481,6|8,1:2|0:0,0:0:0:0:
289,384,93279,1,0,1:0:0:0:
289,384,93350,1,0,1:0:0:0:
289,384,93421,2,0,L|302:272,1,99.0000030212403,0|0,1:2|1:2,0:0:0:0:
314,189,93704,1,10,0:0:0:0:
415,203,93845,2,0,P|398:259|312:294,1,148.50000453186,6|0,1:2|0:0,0:0:0:0:
301,285,94128,1,0,1:2:0:0:
301,90,94270,2,0,L|313:188,1,99.0000030212403,10|0,0:0|0:0,0:0:0:0:
201,35,94553,2,0,L|188:133,1,99.0000030212403,2|0,1:2|1:0,0:0:0:0:
323,0,94836,2,0,L|335:98,1,99.0000030212403,14|0,0:2|1:2,0:0:0:0:
123,256,95119,6,0,P|188:222|165:309,1,198.000006042481,6|8,1:2|0:0,0:0:0:0:
49,384,95543,1,0,1:0:0:0:
49,384,95614,1,0,1:0:0:0:
49,384,95685,2,0,L|36:280,2,99.0000030212403,0|0|8,1:0|1:0|0:0,0:0:0:0:
190,210,96109,2,0,L|177:308,2,99.0000030212403,0|0|0,1:2|0:0|1:2,0:0:0:0:
28,154,96534,6,0,P|80:164|125:142,1,99.0000030212403,10|0,0:0|0:0,0:0:0:0:
190,210,96817,2,0,P|215:163|208:114,1,99.0000030212403,2|0,1:2|1:0,0:0:0:0:
293,73,97100,2,0,P|256:34|207:25,1,99.0000030212403,8|8,0:0|0:0,0:0:0:0:
70,71,97383,5,14,0:0:0:0:
210,119,97524,1,0,1:2:0:0:
108,233,97666,1,2,1:2:0:0:
62,48,97807,1,12,0:0:0:0:
62,48,98232,5,12,0:0:0:0:
7,174,98373,2,0,B|79:138|163:205|96:239|194:298|275:251,1,297.000009063721,8|0,0:0|0:0,0:0:0:0:
341,316,98940,1,8,0:2:0:0:
341,316,99010,1,8,0:2:0:0:
340,315,99081,2,0,L|353:206,1,107.999996704102,8|8,0:0|0:0,0:0:0:0:
44,259,99364,2,0,L|57:366,1,107.999996704102,8|8,0:2|0:2,0:0:0:0:
214,164,99647,5,4,1:2:0:0:
214,164,99930,2,0,P|178:145|137:146,1,80.9999975280763,10|0,0:0|0:0,0:0:0:0:
0,114,100213,2,0,P|40:114|75:95,1,80.9999975280763,2|2,0:0|1:2,0:0:0:0:
62,14,100496,1,10,0:0:0:0:
62,14,100637,2,0,B|105:-2|147:26|124:39|170:70|212:56,1,161.999995056153,2|0,1:2|1:2,0:0:0:0:
284,0,101062,2,0,L|296:96,1,80.9999975280763,10|0,0:0|1:0,0:0:0:0:
299,112,101274,1,0,1:0:0:0:
299,112,101345,1,2,1:2:0:0:
378,47,101486,1,2,1:2:0:0:
448,148,101628,2,0,L|458:68,2,80.9999975280763,8|0|0,0:0|0:0|1:2,0:0:0:0:
512,344,102194,6,0,P|484:313|403:315,1,121.499996292114,10|0,0:0|0:0,0:0:0:0:
321,358,102477,1,2,0:0:0:0:
321,358,102618,2,0,L|333:263,1,80.9999975280763,2|10,1:2|0:0,0:0:0:0:
331,277,102902,2,0,B|283:258|246:289|269:302|223:333|181:319,1,161.999995056153,2|0,1:2|1:0,0:0:0:0:
108,283,103326,1,10,0:0:0:0:
13,364,103468,1,0,1:0:0:0:
13,364,103538,1,0,1:0:0:0:
13,364,103609,2,0,L|25:269,1,80.9999975280763,2|2,1:2|1:2,0:0:0:0:
195,239,103892,2,0,L|185:320,1,80.9999975280763,8|0,0:0|1:0,0:0:0:0:
108,283,104175,1,4,1:2:0:0:
32,49,104458,6,0,P|65:88|178:81,1,161.999995056153,10|2,0:0|0:0,0:0:0:0:
257,42,104883,2,0,L|248:123,1,80.9999975280763,2|10,1:2|0:0,0:0:0:0:
348,0,105166,2,0,L|329:160,1,161.999995056153,2|0,1:2|1:0,0:0:0:0:
272,222,105590,1,10,0:0:0:0:
338,292,105732,1,0,1:0:0:0:
338,292,105803,1,0,1:0:0:0:
338,292,105873,2,0,L|433:280,1,80.9999975280763,2|2,1:2|1:2,0:0:0:0:
312,381,106156,2,0,L|392:371,1,80.9999975280763,8|0,0:0|0:0,0:0:0:0:
272,222,106440,6,0,P|243:249|204:257,1,80.9999975280763,0|2,1:2|0:2,0:0:0:0:
177,252,106652,1,2,0:2:0:0:
177,252,106723,1,8,0:0:0:0:
102,309,106864,2,0,B|84:279|84:279|91:213,1,80.9999975280763,2|2,0:0|0:0,0:0:0:0:
240,129,107147,2,0,B|257:158|257:158|250:224,1,80.9999975280763,2|8,1:2|0:0,0:0:0:0:
177,252,107430,1,2,1:2:0:0:
63,140,107572,2,0,L|103:134,4,40.4999987640381,10|10|10|10|10,0:0|0:0|0:0|0:0|0:0,0:0:0:0:
272,31,107996,5,10,0:0:0:0:
198,88,108138,2,0,P|179:50|185:-1,1,80.9999975280763,0|2,1:2|1:2,0:0:0:0:
366,11,108421,2,0,P|366:51|348:86,1,80.9999975280763,10|2,0:0|1:2,0:0:0:0:
272,31,108704,5,6,1:2:0:0:
332,175,108845,2,0,L|243:164,1,72,2|8,1:2|0:0,0:0:0:0:
370,262,109128,2,0,L|207:242,1,144,2|0,0:0|1:2,0:0:0:0:
143,237,109553,1,8,0:0:0:0:
143,237,109694,2,0,L|151:308,2,72,0|0|0,1:2|0:0|1:2,0:0:0:0:
51,157,110119,2,0,P|78:122|162:119,1,108,10|0,0:0|0:0,0:0:0:0:
138,137,110402,2,0,B|154:158|154:158|246:146,1,108,2|0,1:2|0:0,0:0:0:0:
260,159,110685,2,0,L|267:87,1,72,10|8,0:0|0:0,0:0:0:0:
213,10,110968,5,2,1:2:0:0:
443,70,111109,2,0,P|409:19|381:112,1,216,0|0,1:0|0:2,0:0:0:0:
442,221,111675,1,0,1:2:0:0:
494,169,111817,1,10,0:0:0:0:
494,169,111958,2,0,B|456:154|415:180|435:197|398:225|353:210,1,144,2|0,1:2|1:2,0:0:0:0:
283,229,112383,5,8,0:0:0:0:
280,209,112525,1,0,0:2:0:0:
360,112,112666,5,0,1:2:0:0:
363,132,112808,1,0,1:2:0:0:
267,220,112949,5,8,0:0:0:0:
264,200,113091,1,0,1:2:0:0:
433,230,113232,6,0,L|425:301,2,72,2|0|10,1:2|0:0|0:0,0:0:0:0:
358,384,113656,2,0,P|309:334|228:353,1,144,2|0,0:0|1:0,0:0:0:0:
164,313,114081,1,8,0:0:0:0:
163,313,114223,2,0,L|155:384,2,72,0|0|0,1:0|0:0|1:2,0:0:0:0:
83,265,114647,6,0,P|104:234|146:222,1,72,10|0,0:0|0:0,0:0:0:0:
226,337,114930,2,0,P|188:333|157:303,1,72,2|0,1:2|1:0,0:0:0:0:
216,177,115213,2,0,P|232:210|221:253,1,72,10|0,0:0|0:0,0:0:0:0:
10,159,115496,5,2,1:2:0:0:
100,122,115638,2,0,L|82:264,1,144,0|0,1:0|0:0,0:0:0:0:
191,87,116062,2,0,L|182:158,2,72,0|0|10,0:0|1:2|0:0,0:0:0:0:
131,35,116487,6,0,B|171:17|207:47|192:55|234:83|273:68,1,144,2|0,1:2|0:2,0:0:0:0:
292,59,116840,1,0,0:2:0:0:
292,59,116911,1,10,0:0:0:0:
368,138,117053,1,0,0:0:0:0:
451,91,117194,2,0,P|428:59|391:49,1,72,0|0,1:2|1:0,0:0:0:0:
292,187,117477,2,0,P|314:218|351:228,1,72,8|10,0:0|0:0,0:0:0:0:
368,138,117760,5,6,1:2:0:0:
471,295,117902,2,0,L|399:304,2,72,2|2|2,1:2|0:0|0:0,0:0:0:0:
357,380,118326,6,0,P|390:338|281:314,1,225,2|0,0:0|0:0,0:0:0:0:
206,384,119175,6,0,L|197:317,1,67.5,2|0,0:0|0:0,0:0:0:0:
122,268,119458,2,0,L|117:307,2,22.5,2|0|0,3:2|3:0|3:0,0:0:0:0:
106,369,119741,1,14,0:0:0:0:
66,143,120024,5,6,1:2:0:0:
65,142,120166,2,0,B|113:111|177:149|151:171|211:204|264:177,1,216,0|0,1:2|0:0,0:0:0:0:
324,129,120732,1,0,1:0:0:0:
231,91,120873,1,10,0:0:0:0:
231,91,121015,2,0,L|250:249,1,144,2|0,1:2|1:0,0:0:0:0:
312,288,121440,5,8,0:0:0:0:
313,272,121581,1,0,0:0:0:0:
212,335,121723,5,0,1:2:0:0:
213,351,121864,1,0,1:2:0:0:
333,384,122006,5,10,0:0:0:0:
334,368,122147,1,8,1:2:0:0:
133,323,122289,6,0,P|149:274|241:257,1,144,2|8,1:2|0:0,0:0:0:0:
297,315,122713,2,0,B|326:281|326:281|315:172,1,144,2|0,0:0|1:2,0:0:0:0:
311,88,123138,1,10,0:0:0:0:
311,88,123279,1,0,1:0:0:0:
433,132,123421,6,0,P|401:176|307:177,1,144,2|8,0:0|0:0,0:0:0:0:
242,223,123845,2,0,P|196:170|126:171,1,144,2|0,0:0|1:2,0:0:0:0:
69,225,124270,2,0,L|77:296,1,72,10|0,0:0|1:0,0:0:0:0:
128,364,124553,5,2,1:2:0:0:
184,289,124694,1,0,0:0:0:0:
184,289,124765,1,0,0:0:0:0:
184,289,124836,1,10,0:0:0:0:
241,384,124977,1,2,0:0:0:0:
241,384,125119,2,0,L|343:371,1,72,0|0,1:0|1:0,0:0:0:0:
431,358,125402,1,8,0:0:0:0:
341,216,125543,1,0,1:0:0:0:
341,216,125614,1,0,1:0:0:0:
341,216,125685,2,0,P|328:244|326:297,1,72,2|0,1:2|0:0,0:0:0:0:
470,195,125968,2,0,P|467:159|453:126,1,72,10|0,0:0|0:0,0:0:0:0:
347,47,126251,5,8,0:0:0:0:
320,120,126392,1,8,0:0:0:0:
256,72,126534,1,8,0:0:0:0:
229,145,126675,1,8,0:0:0:0:
186,24,126817,6,0,B|215:14|215:14|246:24,2,62.9999980773926,6|0|0,1:2|1:2|1:2,0:0:0:0:
99,97,127242,2,0,B|129:108|129:108|158:97,2,62.9999980773926,2|8|0,1:2|0:0|1:2,0:0:0:0:
4,60,127666,1,10,0:0:0:0:
4,60,127807,2,0,L|20:191,1,125.999996154785,8|0,1:3|1:2,0:0:0:0:
64,252,128232,1,8,1:3:0:0:
156,202,128373,1,0,0:0:0:0:
156,202,128515,2,0,L|147:281,1,62.9999980773926,10|0,0:0|0:0,0:0:0:0:
50,336,128798,2,0,L|58:273,1,62.9999980773926,2|8,0:0|1:3,0:0:0:0:
166,378,129081,6,0,B|244:368|244:368|263:382|263:382|366:369,1,188.999994232178,2|0,1:2|1:2,0:0:0:0:
406,297,129647,2,0,L|318:286,2,62.9999980773926,8|0|10,0:0|0:0|0:0,0:0:0:0:
482,354,130072,6,0,B|506:331|506:331|490:217,1,125.999996154785,2|0,1:2|1:2,0:0:0:0:
399,202,130496,2,0,L|407:273,1,62.9999980773926,0|0,1:2|0:0,0:0:0:0:
500,166,130779,1,10,0:0:0:0:
339,124,130921,1,8,0:0:0:0:
427,62,131062,2,0,L|434:124,1,62.9999980773926,6|8,1:2|0:0,0:0:0:0:
346,17,131345,5,6,1:2:0:0:
346,17,131487,2,0,B|323:41|323:41|225:31,1,125.999996154785,0|2,1:2|1:2,0:0:0:0:
178,93,131911,2,0,L|90:82,1,62.9999980773926,8|8,0:0|0:3,0:0:0:0:
17,72,132194,1,2,1:2:0:0:
44,160,132336,1,0,1:2:0:0:
163,68,132619,5,8,0:3:0:0:
73,246,132760,1,0,1:2:0:0:
44,160,132902,1,2,1:2:0:0:
44,160,132973,1,0,1:2:0:0:
44,160,133044,2,0,B|77:143|77:143|163:154,1,108,8|0,0:0|0:0,0:0:0:0:
145,180,133327,2,0,L|224:192,1,72,2|8,0:0|0:3,0:0:0:0:
289,243,133610,5,2,1:2:0:0:
255,93,133751,1,2,1:2:0:0:
402,140,133893,1,2,1:2:0:0:
406,133,134176,5,8,0:0:0:0:
311,144,134317,1,2,1:2:0:0:
323,239,134459,1,0,0:0:0:0:
418,228,134600,1,2,1:2:0:0:
411,219,134883,5,10,0:0:0:0:
319,315,135024,2,0,B|302:285|302:285|311:248,1,72,2|0,1:2|1:2,0:0:0:0:
493,109,135307,2,0,B|510:139|510:139|500:175,1,72,10|0,0:2|1:0,0:0:0:0:
411,219,135590,1,2,1:2:0:0:
240,189,135732,1,10,0:0:0:0:
394,139,135873,5,2,1:2:0:0:
319,315,136015,1,2,1:2:0:0:
223,98,136156,1,2,1:2:0:0:
394,139,136581,5,0,1:2:0:0:
223,98,136723,1,10,0:0:0:0:
223,98,137006,6,0,P|247:137|239:183,1,80.9999975280763,0|10,1:2|0:0,0:0:0:0:
228,195,137218,1,10,0:0:0:0:
228,195,137289,1,10,0:0:0:0:
111,132,137430,2,0,P|110:92|132:59,2,80.9999975280763,0|10|0,1:2|0:0|1:0,0:0:0:0:
244,204,137855,1,10,0:0:0:0:
29,271,138138,6,0,B|77:243|116:291|116:291|161:345|211:331,1,198.000006042481,6|8,1:2|0:0,0:0:0:0:
315,286,138562,1,0,1:0:0:0:
315,286,138633,1,0,1:0:0:0:
315,286,138704,2,0,L|299:413,1,99.0000030212403,2|0,1:2|1:2,0:0:0:0:
197,242,138987,1,8,0:0:0:0:
369,198,139128,1,0,1:2:0:0:
177,247,139270,2,0,P|144:182|172:108,1,148.50000453186,2|0,0:0|0:0,0:0:0:0:
185,93,139553,1,8,0:0:0:0:
249,178,139694,2,0,B|304:171|304:171|313:178|313:178|408:166,1,148.50000453186,2|0,0:0|0:0,0:0:0:0:
430,163,139977,1,0,1:2:0:0:
352,53,140119,6,0,P|326:94|331:153,1,99.0000030212403,10|0,0:0|1:2,0:0:0:0:
485,0,140402,2,0,P|510:41|509:90,1,99.0000030212403,2|0,1:2|0:0,0:0:0:0:
430,163,140685,2,0,L|268:142,1,148.50000453186,8|0,0:0|0:0,0:0:0:0:
249,178,140968,2,0,L|145:165,1,99.0000030212403,0|0,1:2|1:2,0:0:0:0:
22,148,141251,1,10,0:0:0:0:
54,64,141392,2,0,P|111:104|75:248,1,198.000006042481,2|0,1:2|1:0,0:0:0:0:
0,309,141817,6,0,B|55:302|55:302|64:309|64:309|159:297,1,148.50000453186,10|0,0:0|0:0,0:0:0:0:
178,286,142100,2,0,L|165:384,1,99.0000030212403,2|0,1:2|1:0,0:0:0:0:
265,257,142383,2,0,L|252:355,1,99.0000030212403,10|2,0:0|1:2,0:0:0:0:
106,222,142666,1,4,1:2:0:0:
397,195,142949,5,10,0:0:0:0:
469,249,143090,1,0,1:0:0:0:
469,249,143161,1,0,1:0:0:0:
469,249,143232,2,0,P|429:285|371:285,1,99.0000030212403,0|0,1:0|1:0,0:0:0:0:
265,257,143515,1,10,0:0:0:0:
335,359,143656,2,0,B|365:315|365:315|342:166,1,198.000006042481,2|0,1:2|1:0,0:0:0:0:
426,128,144081,2,0,P|396:89|349:76,1,99.0000030212403,10|0,0:0|0:0,0:0:0:0:
386,289,144364,2,0,P|434:282|468:247,1,99.0000030212403,2|0,1:2|1:2,0:0:0:0:
266,173,144647,2,0,P|247:218|260:265,1,99.0000030212403,10|0,0:0|1:2,0:0:0:0:
452,38,144930,6,0,B|407:13|350:51|385:67|322:100|267:71,1,198.000006042481,2|8,1:2|0:0,0:0:0:0:
194,115,145355,1,2,1:2:0:0:
194,115,145425,1,2,1:2:0:0:
194,115,145496,2,0,L|179:0,1,99.0000030212403,2|0,1:2|1:0,0:0:0:0:
101,154,145779,1,10,0:0:0:0:
101,154,145921,2,0,P|169:129|178:228,1,198.000006042481,4|0,1:2|1:2,0:0:0:0:
120,286,146345,2,0,L|-7:270,1,99.0000030212403,8|0,0:0|0:0,0:0:0:0:
143,370,146628,2,0,L|15:354,1,99.0000030212403,0|0,1:2|1:2,0:0:0:0:
173,208,146911,1,10,0:0:0:0:
247,305,147053,1,10,0:0:0:0:
338,159,147194,6,0,P|299:129|246:130,1,99.0000030212403,6|0,1:2|0:0,0:0:0:0:
325,257,147477,1,10,0:0:0:0:
325,257,147619,2,0,P|373:256|412:227,1,99.0000030212403,2|0,0:0|1:2,0:0:0:0:
350,60,147902,1,2,1:2:0:0:
350,60,147973,1,2,1:2:0:0:
350,60,148043,2,0,L|337:158,1,99.0000030212403,10|2,0:2|1:2,0:0:0:0:
507,256,148326,2,0,L|494:157,2,99.0000030212403,2|0|10,0:0|1:2|0:0,0:0:0:0:
424,325,148751,2,0,L|411:226,1,99.0000030212403,2|0,0:0|1:2,0:0:0:0:
508,362,149034,5,2,1:2:0:0:
407,318,149175,1,10,0:0:0:0:
507,256,149317,1,0,1:2:0:0:
356,384,149458,6,0,L|189:363,1,148.50000453186,2|0,1:2|0:0,0:0:0:0:
179,361,149741,1,10,0:0:0:0:
250,264,149883,2,0,P|280:314|276:360,1,99.0000030212403,2|0,0:0|1:0,0:0:0:0:
123,269,150166,2,0,P|124:220|151:179,1,99.0000030212403,2|8,1:2|0:0,0:0:0:0:
422,110,150449,6,0,B|378:84|310:121|344:140|289:170|229:141,1,198.000006042481,6|0,1:2|1:0,0:0:0:0:
151,179,150873,2,0,L|163:80,1,99.0000030212403,10|0,0:0|0:0,0:0:0:0:
393,187,151156,2,0,L|380:285,1,99.0000030212403,2|4,1:2|1:2,0:0:0:0:
137,169,151440,2,0,L|149:70,1,99.0000030212403,14|0,0:0|1:2,0:0:0:0:
232,335,151723,2,0,P|197:301|291:284,1,198.000006042481,6|8,1:2|0:0,0:0:0:0:
157,384,152147,1,0,1:0:0:0:
157,384,152218,1,0,1:0:0:0:
157,384,152289,2,0,L|42:369,1,99.0000030212403,0|0,1:0|1:0,0:0:0:0:
0,281,152572,5,8,0:0:0:0:
85,211,152713,2,0,B|281:235,1,198.000006042481,0|0,1:0|1:0,0:0:0:0:
476,255,153138,1,8,0:0:0:0:
389,361,153279,1,0,1:0:0:0:
389,361,153350,1,0,1:0:0:0:
389,361,153421,2,0,P|361:311|373:255,1,99.0000030212403,0|0,1:0|1:0,0:0:0:0:
487,168,153704,2,0,P|515:218|503:274,1,99.0000030212403,10|2,0:0|1:2,0:0:0:0:
313,116,153987,1,2,1:2:0:0:
414,44,154129,1,0,1:0:0:0:
414,44,154200,1,0,1:0:0:0:
414,44,154270,6,0,L|534:58,1,99.0000030212403,14|0,0:0|0:0,0:0:0:0:
409,230,154553,2,0,L|288:215,1,99.0000030212403,2|0,1:2|1:2,0:0:0:0:
164,197,154836,1,14,0:0:0:0:
217,95,154977,2,0,P|267:141|245:277,1,198.000006042481,2|0,1:2|1:2,0:0:0:0:
60,216,155402,2,0,P|56:164|86:125,1,99.0000030212403,10|8,0:2|0:2,1:2:0:0:
148,331,155685,2,0,L|28:316,1,99.0000030212403,10|8,0:2|1:2,1:2:0:0:
217,95,155968,2,0,L|336:109,1,99.0000030212403,10|8,0:2|1:2,1:2:0:0:
235,247,156251,1,4,1:2:0:0:
51,142,156534,5,8,0:0:0:0:
0,243,156676,1,0,1:2:0:0:
0,243,156746,1,0,1:2:0:0:
0,243,156817,2,0,B|51:219|100:265|66:289|125:327|181:301,1,198.000006042481,2|8,1:2|0:0,0:0:0:0:
235,247,157242,1,0,1:2:0:0:
318,286,157383,2,0,L|305:389,1,99.0000030212403,2|0,0:0|1:2,0:0:0:0:
411,236,157666,1,8,0:0:0:0:
411,236,157807,2,0,L|398:339,1,99.0000030212403,2|0,0:0|1:2,0:0:0:0:
489,177,158090,1,0,1:2:0:0:
489,177,158161,1,0,1:0:0:0:
489,177,158232,6,0,P|448:137|398:135,1,99.0000030212403,10|0,0:0|0:0,0:0:0:0:
299,200,158515,2,0,P|326:136|222:139,1,198.000006042481,2|8,1:2|0:0,0:0:0:0:
187,194,158940,1,0,1:0:0:0:
187,194,159010,1,0,1:0:0:0:
187,194,159081,2,0,L|199:299,1,99.0000030212403,0|0,1:2|1:2,0:0:0:0:
107,384,159364,5,10,0:0:0:0:
13,341,159506,2,0,L|38:136,1,198.000006042481,2|0,1:2|1:2,0:0:0:0:
79,65,159930,2,0,P|114:98|162:107,1,99.0000030212403,10|0,0:0|0:0,0:0:0:0:
187,194,160213,2,0,P|234:170|253:127,1,99.0000030212403,2|0,1:2|1:0,0:0:0:0:
161,12,160496,1,10,0:0:0:0:
37,144,160638,1,0,1:0:0:0:
187,194,160779,6,0,B|266:184|266:184|275:191|275:191|394:176,1,198.000006042481,6|8,1:2|0:0,0:0:0:0:
500,165,161204,1,0,1:0:0:0:
500,165,161275,1,0,1:0:0:0:
500,165,161345,2,0,P|466:205|472:268,1,99.0000030212403,0|0,1:2|1:2,0:0:0:0:
415,310,161629,2,0,L|317:297,1,99.0000030212403,10|0,0:0|0:0,0:0:0:0:
184,202,161912,2,0,L|407:174,1,198.000006042481,2|8,0:0|0:0,0:0:0:0:
498,160,162336,1,2,0:0:0:0:
418,78,162478,2,0,P|384:118|390:181,1,99.0000030212403,0|0,1:0|1:2,0:0:0:0:
293,179,162761,2,0,P|311:228|369:254,1,99.0000030212403,10|0,0:0|1:2,0:0:0:0:
512,263,163044,6,0,B|468:249|418:296|457:310|402:358|337:337,1,198.000006042481,6|8,1:2|0:0,0:0:0:0:
256,384,163468,1,0,1:0:0:0:
256,384,163539,1,0,1:0:0:0:
256,384,163610,2,0,L|243:272,1,99.0000030212403,0|0,1:2|1:2,0:0:0:0:
166,367,163893,1,10,0:0:0:0:
166,367,164034,2,0,L|147:219,1,148.50000453186,6|0,1:2|0:0,0:0:0:0:
145,192,164317,1,0,1:2:0:0:
182,106,164458,2,0,P|225:135|235:198,1,99.0000030212403,10|0,0:0|0:0,0:0:0:0:
48,206,164741,2,0,P|52:153|101:113,1,99.0000030212403,2|0,1:2|1:0,0:0:0:0:
201,272,165024,2,0,P|153:294|94:272,1,99.0000030212403,14|0,0:0|1:0,0:0:0:0:
145,192,165307,6,0,B|189:181|189:181|275:211|275:211|366:190,1,198.000006042481,6|8,1:2|0:0,0:0:0:0:
427,257,165732,1,0,1:0:0:0:
427,257,165803,1,0,1:0:0:0:
427,257,165874,2,0,L|440:153,2,99.0000030212403,0|0|8,1:0|1:0|0:0,0:0:0:0:
334,197,166298,2,0,L|321:295,2,99.0000030212403,0|0|0,1:0|0:0|1:0,0:0:0:0:
376,114,166723,6,0,P|324:104|279:126,1,99.0000030212403,10|0,0:0|0:0,0:0:0:0:
214,58,167006,2,0,P|189:105|196:154,1,99.0000030212403,2|0,1:2|1:0,0:0:0:0:
111,195,167289,2,0,P|148:234|197:243,1,99.0000030212403,10|8,0:0|0:0,0:0:0:0:
334,197,167572,5,14,0:0:0:0:
194,149,167713,1,0,1:2:0:0:
296,35,167855,1,0,1:2:0:0:
342,220,167996,1,14,0:0:0:0:
450,48,168421,5,12,0:0:0:0:
505,174,168562,2,0,B|433:138|349:205|416:239|318:298|237:251,1,297.000009063721,8|0,0:0|0:0,0:0:0:0:
171,316,169128,1,8,0:2:0:0:
171,316,169199,1,8,0:2:0:0:
172,315,169270,6,8,L|159:206,1,107.999996704102,8|8,0:2|0:2,1:2:0:0:
468,259,169553,2,8,L|455:366,1,107.999996704102,8|8,0:2|0:2,1:2:0:0:
308,137,169836,5,4,1:2:0:0:
308,137,169977,2,0,B|251:193|251:193|302:244,1,144,12|0,0:0|1:0,0:0:0:0:
243,292,170402,2,0,B|306:284|306:284|315:291|315:291|394:281,1,144,8|8,0:0|0:3,0:0:0:0:
220,376,170826,2,0,B|283:368|283:368|292:375|292:375|371:365,1,144,8|8,1:3|1:3,0:0:0:0:
159,245,171251,1,0,1:2:0:0:
159,245,171534,2,0,L|150:316,2,72,8|0|0,0:0|0:0|1:2,0:0:0:0:
0,144,172100,5,0,1:2:0:0:
0,144,172241,2,0,B|25:169|25:169|132:155,1,144,0|0,1:2|1:2,0:0:0:0:
212,87,172666,2,0,B|193:114|193:114|222:148,1,72,8|0,0:0|1:0,0:0:0:0:
277,202,172949,1,0,1:0:0:0:
277,202,173090,2,0,L|419:184,1,144,0|8,1:0|0:1,0:0:0:0:
506,171,173515,2,0,L|495:258,1,72,0|0,0:0|1:0,0:0:0:0:
427,135,173798,2,0,L|418:206,1,72,8|0,0:0|1:0,0:0:0:0:
349,101,174081,1,4,1:2:0:0:
506,353,174364,5,4,1:2:0:0:
506,353,174506,2,0,B|466:317|466:317|384:380,1,144,0|0,1:0|1:2,0:0:0:0:
389,384,174930,2,0,B|325:376|325:376|316:383|316:383|237:373,1,144,8|0,0:0|1:0,0:0:0:0:
358,301,175354,2,0,B|294:293|294:293|285:300|285:300|206:290,1,144,8|8,0:1|0:1,0:0:0:0:
140,365,175779,1,0,1:0:0:0:
140,365,176062,2,0,L|131:293,2,72,8|0|4,0:0|0:0|1:3,0:0:0:0:
79,115,176628,5,0,1:3:0:0:
133,189,176770,2,0,B|116:205|116:205|56:197,2,72,0|8|0,1:3|1:3|1:3,0:0:0:0:
69,104,177194,2,0,B|86:88|86:88|146:96,1,72,8|0,0:0|0:0,0:0:0:0:
225,120,177477,1,0,1:2:0:0:
225,120,177619,2,0,B|205:143|205:143|339:127,1,144,0|0,1:0|1:0,0:0:0:0:
352,43,178043,2,0,L|280:51,1,72,0|0,1:0|0:0,0:0:0:0:
394,174,178326,1,8,0:0:0:0:
428,96,178468,1,8,0:0:0:0:
495,170,178609,2,0,L|480:289,1,108,12|0,0:0|0:0,0:0:0:0:
478,299,178892,5,6,1:2:0:0:
384,319,179034,1,0,0:0:0:0:
450,384,179175,1,8,1:3:0:0:
297,279,179458,6,0,B|272:308|272:308|155:293,1,144,8|0,0:0|1:0,0:0:0:0:
95,200,179883,2,0,L|237:217,1,144,0|4,1:0|1:2,0:0:0:0:
90,359,180307,2,0,B|73:327|73:327|91:277,1,72,0|0,1:0|1:0,0:0:0:0:
167,294,180590,2,0,B|183:262|183:262|165:212,1,72,8|0,0:0|0:0,0:0:0:0:
95,200,180873,2,0,B|78:168|78:168|96:118,1,72,4|0,1:3|0:0,0:0:0:0:
164,82,181156,5,0,1:2:0:0:
251,71,181298,1,0,1:0:0:0:
338,60,181440,2,0,L|329:131,1,72,0|0,1:2|1:0,0:0:0:0:
425,49,181723,2,0,L|409:177,1,108,8|0,0:0|0:0,0:0:0:0:
408,188,182006,1,8,0:1:0:0:
468,253,182147,6,0,B|443:282|443:282|326:267,1,144,0|12,1:0|1:2,0:0:0:0:
254,256,182572,2,0,L|263:335,1,72,0|8,1:2|1:3,0:0:0:0:
170,244,182855,2,0,L|178:315,1,72,8|0,0:0|0:0,0:0:0:0:
86,232,183138,2,0,L|99:339,1,108,8|0,0:3|0:0,0:0:0:0:
104,369,183421,5,4,1:2:0:0:
178,315,183562,1,0,1:0:0:0:
0,274,183704,1,8,1:3:0:0:
33,143,183987,6,0,B|96:135|96:135|105:142|105:142|184:132,1,144,8|0,0:0|1:0,0:0:0:0:
281,122,184411,2,0,B|250:162|250:162|295:252,1,144,8|8,1:1|0:1,0:0:0:0:
427,165,184836,2,0,L|331:176,1,72,0|0,1:0|0:0,0:0:0:0:
462,242,185119,1,8,0:0:0:0:
462,242,185402,2,0,L|366:253,1,72,4|0,1:3|0:0,0:0:0:0:
280,261,185685,5,0,1:2:0:0:
280,261,185826,2,0,B|311:301|311:301|266:391,1,144,4|0,0:0|1:2,0:0:0:0:
138,312,186251,2,0,L|217:302,2,72,12|8|8,0:0|0:1|0:1,0:0:0:0:
61,367,186675,6,0,B|30:327|30:327|75:237,1,144,4|0,1:2|1:0,0:0:0:0:
25,164,187100,2,0,L|96:155,1,72,0|0,1:0|0:0,0:0:0:0:
120,158,187312,1,0,0:0:0:0:
120,158,187383,1,12,0:0:0:0:
180,230,187524,1,8,0:0:0:0:
229,80,187666,2,0,L|157:71,2,72,8|12|2,0:0|0:0|0:3,0:0:0:0:
380,240,188373,5,0,0:0:0:0:
405,149,188515,2,0,L|357:154,1,36,2|0,0:3|0:0,0:0:0:0:
391,249,188798,5,0,0:0:0:0:
416,158,188940,2,0,L|368:163,1,36,2|0,0:3|0:0,0:0:0:0:
468,76,200402,6,0,B|418:46|357:92|393:110|331:159|258:121,1,215.999993408203,6|10,1:2|0:0,0:0:0:0:
200,175,200826,1,2,1:2:0:0:
200,175,200897,1,2,1:2:0:0:
200,175,200968,2,0,L|185:59,1,107.999996704102,2|2,1:2|1:2,0:0:0:0:
466,161,201251,2,0,L|452:268,1,107.999996704102,10|0,0:0|1:2,0:0:0:0:
281,270,201534,2,0,P|322:222|335:318,1,215.999993408203,2|10,1:2|0:0,0:0:0:0:
299,384,201958,1,2,1:2:0:0:
299,384,202029,1,2,1:2:0:0:
299,384,202100,2,0,L|191:370,1,107.999996704102,0|2,1:2|1:2,0:0:0:0:
87,266,202383,2,0,L|195:252,1,107.999996704102,10|0,0:0|1:2,0:0:0:0:
27,343,202666,6,0,B|-3:300|-3:300|24:134,1,215.999993408203,2|10,1:2|0:0,0:0:0:0:
108,88,203090,2,0,B|159:54|232:98|182:117|255:165|327:127,1,215.999993408203,2|2,0:0|1:2,0:0:0:0:
405,88,203515,1,8,0:0:0:0:
339,11,203656,2,0,B|301:50|301:50|334:222,1,215.999993408203,6|0,1:2|1:2,0:0:0:0:
345,249,204010,1,0,1:0:0:0:
345,249,204081,2,0,L|210:232,1,107.999996704102,10|0,0:0|0:0,0:0:0:0:
405,88,204364,2,0,L|512:101,1,107.999996704102,2|0,1:2|1:2,0:0:0:0:
340,268,204647,2,0,L|205:251,1,107.999996704102,14|0,0:0|1:2,0:0:0:0:
241,51,204930,6,0,P|279:128|186:92,1,215.999993408203,6|8,1:2|0:0,0:0:0:0:
92,141,205355,1,0,1:0:0:0:
92,141,205425,1,0,1:0:0:0:
92,141,205496,2,0,L|105:27,2,107.999996704102,0|0|8,1:0|1:0|0:0,0:0:0:0:
12,239,205921,2,0,P|48:188|145:195,1,161.999995056153,0|0,1:2|0:0,0:0:0:0:
203,251,206204,1,0,1:0:0:0:
203,251,206345,2,0,L|189:358,1,107.999996704102,8|0,0:0|0:0,0:0:0:0:
90,277,206628,1,0,1:0:0:0:
307,192,206770,1,0,1:0:0:0:
155,150,206911,5,10,0:0:0:0:
217,329,207053,1,2,1:2:0:0:
395,162,207194,6,0,P|359:111|262:118,1,161.999995056153,2|0,1:2|0:0,0:0:0:0:
245,107,207477,2,0,L|258:-4,1,107.999996704102,12|0,0:0|0:0,0:0:0:0:
155,150,207760,2,0,L|168:42,1,107.999996704102,2|4,1:2|1:2,0:0:0:0:
19,200,208043,1,10,0:0:0:0:
19,200,208185,2,0,B|75:176|131:225|96:243|150:291|216:263,1,215.999993408203,2|0,0:0|1:2,0:0:0:0:
230,260,208539,1,0,1:2:0:0:
230,260,208609,5,10,0:2:0:0:
155,150,208751,1,8,0:2:0:0:
42,277,208892,2,8,L|58:411,1,107.999996704102,10|8,0:2|1:2,1:2:0:0:
182,183,209175,2,8,L|168:75,1,107.999996704102,10|8,0:2|1:2,1:2:0:0:
339,305,209458,5,4,1:2:0:0:
339,305,209741,2,0,P|368:240|276:268,1,215.999993408203,8|2,0:0|1:2,0:0:0:0:
383,384,210166,1,0,1:0:0:0:
476,325,210307,2,0,L|461:205,1,107.999996704102,8|0,0:0|1:2,0:0:0:0:
475,135,210590,2,0,B|439:115|394:148|410:159|377:196|330:179,1,161.999995056153,2|0,0:0|0:0,0:0:0:0:
311,168,210873,1,8,0:0:0:0:
339,74,211015,2,0,L|173:53,1,161.999995056153,2|0,0:0|0:0,0:0:0:0:
151,49,211298,1,0,1:2:0:0:
61,0,211439,6,0,P|41:49|47:102,1,107.999996704102,10|0,0:0|0:0,0:0:0:0:
186,192,211722,1,2,1:2:0:0:
186,192,212005,2,0,P|207:144|193:76,1,107.999996704102,8|0,0:0|1:0,0:0:0:0:
182,76,212217,1,0,1:0:0:0:
182,76,212288,1,0,1:2:0:0:
0,196,212430,1,0,1:2:0:0:
61,289,212571,1,10,0:0:0:0:
61,289,212713,6,0,B|99:267|99:267|227:304,1,161.999995056153,2|0,1:2|0:0,0:0:0:0:
239,306,212996,1,0,1:0:0:0:
158,376,213137,2,0,P|130:328|134:277,1,107.999996704102,10|0,0:0|0:0,0:0:0:0:
315,238,213420,2,0,P|341:286|337:337,1,107.999996704102,2|0,1:2|0:0,0:0:0:0:
239,306,213703,1,10,0:0:0:0:
415,189,213845,1,0,1:2:0:0:
327,91,213986,6,0,B|272:62|221:105|247:121|189:168|126:136,1,215.999993408203,6|8,1:2|0:0,0:0:0:0:
60,198,214411,1,0,1:0:0:0:
60,198,214482,1,0,1:0:0:0:
60,198,214553,2,0,L|45:81,1,107.999996704102,0|0,1:2|0:0,0:0:0:0:
118,22,214835,1,10,0:0:0:0:
221,159,214977,1,0,0:0:0:0:
221,159,215119,2,0,L|235:52,2,107.999996704102,2|0|8,0:0|1:2|0:0,0:0:0:0:
90,255,215543,6,0,B|146:229|194:274|167:289|223:339|287:310,1,215.999993408203,2|0,0:0|0:0,0:0:0:0:
429,295,215968,2,0,P|380:316|359:373,1,107.999996704102,10|0,0:0|1:2,0:0:0:0:
452,384,216251,6,0,L|480:153,1,215.999993408203,6|8,1:2|0:0,0:0:0:0:
502,52,216675,1,0,1:0:0:0:
502,52,216746,1,0,1:0:0:0:
502,52,216817,2,0,P|463:89|409:99,1,107.999996704102,0|0,1:2|1:2,0:0:0:0:
290,60,217100,1,8,0:0:0:0:
371,13,217241,2,0,B|394:45|394:45|355:165,1,161.999995056153,6|0,1:2|0:0,0:0:0:0:
348,185,217524,1,0,1:2:0:0:
191,72,217666,2,0,L|289:60,1,99.0000030212403,10|0,0:0|0:0,0:0:0:0:
157,196,217949,2,0,L|255:209,1,99.0000030212403,2|0,1:2|1:0,0:0:0:0:
117,49,218232,2,0,L|215:37,1,99.0000030212403,14|0,0:0|1:2,0:0:0:0:
38,189,218515,6,0,P|85:153|90:244,1,198.000006042481,6|8,1:2|0:0,0:0:0:0:
144,336,218940,1,0,1:0:0:0:
144,336,219010,1,0,1:0:0:0:
144,336,219081,2,0,L|46:324,1,99.0000030212403,0|0,1:0|1:0,0:0:0:0:
157,196,219364,1,8,0:0:0:0:
273,285,219506,2,0,L|261:383,2,99.0000030212403,0|0|0,1:2|0:0|1:2,0:0:0:0:
146,97,219930,6,0,P|99:111|69:150,1,99.0000030212403,10|0,0:0|0:0,0:0:0:0:
236,136,220213,2,0,P|247:88|228:43,1,99.0000030212403,2|0,1:2|1:0,0:0:0:0:
157,195,220496,2,0,P|192:228|241:235,1,99.0000030212403,10|8,0:0|0:0,0:0:0:0:
146,97,220779,5,6,1:2:0:0:
366,145,221062,1,10,0:0:0:0:
127,92,221204,1,6,1:2:0:0:
429,27,221628,5,8,0:0:0:0:
366,145,221770,2,0,P|437:123|434:216,1,180,12|8,0:0|0:0,0:0:0:0:
427,210,222123,1,8,0:0:0:0:
427,210,222194,1,8,0:0:0:0:
365,271,222336,2,0,L|261:258,1,90,8|0,0:0|1:2,0:0:0:0:
203,302,222619,1,8,0:0:0:0:
277,178,222760,5,8,0:0:0:0:
327,352,222902,1,8,0:0:0:0:
118,384,223043,6,0,B|93:342|93:342|118:208,1,180,4|8,1:2|0:0,0:0:0:0:
153,90,223468,1,0,1:0:0:0:
153,90,223539,1,0,1:0:0:0:
153,90,223609,2,0,P|116:123|58:124,1,90,0|0,1:0|1:0,0:0:0:0:
0,39,223892,2,0,P|36:5|94:4,1,90,8|0,0:0|1:0,0:0:0:0:
153,90,224175,6,0,B|199:64|250:96|221:112|269:146|330:122,1,180,0|8,0:0|0:0,0:0:0:0:
475,86,224600,1,0,0:0:0:0:
396,0,224741,2,0,L|384:95,1,90,0|0,1:0|1:0,0:0:0:0:
502,187,225024,2,0,L|512:97,1,90,8|0,0:0|1:2,0:0:0:0:
342,235,225307,6,0,P|417:223|403:299,2,180,0|8|0,1:2|0:0|1:2,0:0:0:0:
302,321,226015,1,0,1:0:0:0:
302,321,226156,2,0,B|256:293|204:323|233:340|184:372|123:346,1,180,8|0,0:0|0:0,0:0:0:0:
60,384,226581,1,0,1:2:0:0:
60,384,226652,1,0,1:0:0:0:
60,384,226723,2,0,L|46:274,1,90,8|0,0:0|0:0,0:0:0:0:
178,179,227006,2,0,L|167:268,1,90,0|0,1:0|1:0,0:0:0:0:
47,74,227289,1,8,0:0:0:0:
47,74,227572,6,0,B|24:103|24:103|173:85,1,180,4|8,1:2|0:0,0:0:0:0:
288,73,227996,1,0,1:0:0:0:
288,73,228067,1,0,1:0:0:0:
288,73,228138,2,0,P|252:106|244:159,1,90,0|0,1:2|1:2,0:0:0:0:
317,257,228421,1,8,0:0:0:0:
424,141,228562,1,0,1:0:0:0:
424,141,228704,2,0,L|334:151,1,90,0|0,0:0|1:0,0:0:0:0:
477,317,228987,2,0,L|387:306,1,90,8|0,0:0|0:0,0:0:0:0:
459,111,229270,2,0,L|369:121,1,90,0|0,1:0|1:0,0:0:0:0:
512,287,229553,2,0,L|422:276,1,90,8|0,0:0|1:0,0:0:0:0:
240,216,229836,6,0,P|261:193|274:278,1,180,0|8,1:2|0:0,0:0:0:0:
333,362,230260,1,0,1:0:0:0:
333,362,230331,1,0,1:0:0:0:
333,362,230402,2,0,L|243:351,1,90,0|0,1:2|1:2,0:0:0:0:
123,337,230685,1,8,0:0:0:0:
236,216,230826,1,4,1:2:0:0:
18,157,231109,5,0,1:0:0:0:
18,157,231180,1,0,1:0:0:0:
18,157,231251,2,0,L|29:247,1,90,8|0,0:0|0:0,0:0:0:0:
164,94,231534,2,0,L|153:184,1,90,0|0,1:0|1:0,0:0:0:0:
50,68,231817,1,12,0:0:0:0:
196,3,231958,1,8,0:0:0:0:
287,202,232100,6,0,B|317:165|317:165|334:29,2,180,4|8|0,1:2|0:0|1:2,0:0:0:0:
217,107,232807,1,0,1:2:0:0:
139,166,232949,2,0,L|152:277,2,90,8|0|0,0:0|1:2|0:0,0:0:0:0:
60,107,233373,1,0,1:2:0:0:
60,107,233515,2,0,B|109:85|152:115|126:135|175:168|226:148,1,180,8|0,0:0|1:2,0:0:0:0:
314,103,233940,1,0,1:2:0:0:
314,103,234010,1,0,1:0:0:0:
314,103,234081,2,0,L|301:201,1,90,8|0,0:0|1:2,0:0:0:0:
222,349,234364,5,12,0:0:0:0:
335,301,234506,1,0,1:0:0:0:
211,249,234647,1,0,1:0:0:0:
356,310,234789,2,0,B|483:295|483:295|406:276,1,180,12|0,0:0|1:0,0:0:0:0:
210,248,235213,5,12,0:0:0:0:
210,248,235355,2,0,P|238:143|139:187,1,270,12|0,0:0|0:0,0:0:0:0:
103,266,235921,1,8,0:0:0:0:
103,266,235991,1,8,0:0:0:0:
103,266,236062,2,0,L|115:373,1,90,8|8,0:0|0:0,0:0:0:0:
353,222,236345,2,0,L|340:114,1,90,8|8,0:0|0:0,0:0:0:0:
194,244,236628,5,4,1:2:0:0:
306,301,236770,1,4,1:2:0:0:
316,288,237194,6,0,B|261:281|261:281|234:294|234:294|155:284,1,144,8|0,0:0|1:2,0:0:0:0:
119,240,237619,2,0,B|142:275|142:275|102:383,1,144,8|8,1:3|1:3,0:0:0:0:
40,294,238043,1,0,1:2:0:0:
40,294,238326,6,0,L|135:282,1,72,8|0,0:0|0:0,0:0:0:0:
165,203,238609,2,0,L|69:191,1,72,0|0,1:2|0:0,0:0:0:0:
225,123,238892,5,0,1:2:0:0:
250,271,239034,1,0,1:0:0:0:
165,203,239175,1,0,1:2:0:0:
306,178,239317,1,0,1:2:0:0:
165,203,239458,6,0,L|69:191,2,72,8|0|0,0:0|0:0|1:0,0:0:0:0:
250,271,239883,2,0,B|273:236|273:236|233:128,1,144,0|8,1:2|0:1,0:0:0:0:
365,83,240307,2,0,L|285:73,1,72,0|0,0:0|0:0,0:0:0:0:
360,173,240590,2,0,L|439:163,1,72,8|0,0:0|0:0,0:0:0:0:
445,54,240873,2,0,L|365:44,1,72,4|8,1:2|0:1,0:0:0:0:
490,281,241156,5,4,1:2:0:0:
490,281,241298,1,0,1:2:0:0:
490,281,241723,6,0,B|426:273|426:273|417:280|417:280|322:268,1,144,8|8,0:0|0:1,0:0:0:0:
273,296,242147,2,0,B|292:322|292:322|173:309,1,144,0|8,1:0|0:1,0:0:0:0:
136,218,242572,2,0,L|207:226,1,72,0|0,1:2|0:0,0:0:0:0:
76,357,242855,2,0,P|49:314|58:248,1,108,8|0,0:0|0:0,0:0:0:0:
131,231,243138,2,0,P|135:178|107:132,1,108,4|0,1:3|0:0,0:0:0:0:
40,80,243421,5,0,1:2:0:0:
196,108,243563,1,0,1:2:0:0:
0,193,243704,1,4,1:2:0:0:
216,101,243987,6,0,L|303:111,2,72,8|0|0,0:0|1:2|1:2,0:0:0:0:
140,51,244411,2,0,B|117:86|117:86|157:194,1,144,0|4,1:0|1:2,0:0:0:0:
207,233,244836,2,0,L|278:224,1,72,4|0,1:2|0:0,0:0:0:0:
345,184,245119,1,8,0:0:0:0:
298,297,245260,1,8,0:2:0:0:
352,169,245402,2,0,L|423:160,1,72,4|8,1:2|0:0,0:0:0:0:
144,36,245685,5,10,0:2:0:0:
230,45,245826,1,10,0:2:0:0:
219,133,245968,1,10,0:2:0:0:
133,122,246109,1,2,1:2:0:0:
