osu file format v14

[General]
AudioFilename: audio.mp3
AudioLeadIn: 0
PreviewTime: 52390
Countdown: 0
SampleSet: Soft
StackLeniency: 0.3
Mode: 0
LetterboxInBreaks: 0
WidescreenStoryboard: 1

[Editor]
DistanceSpacing: 1.2
BeatDivisor: 4
GridSize: 4
TimelineZoom: 2.2

[Metadata]
Title:No buts! (TV Size)
TitleUnicode:No buts! (TV Size)
Artist:Kawada Mami
ArtistUnicode:川田まみ
Creator:Yudragen
Version:Hard
Source:とある魔術の禁書目録Ⅱ
Tags:Cami ChaoticRed to aru majutsu no index II 2 toaru touma railgun misaka mikoto
BeatmapID:1929565
BeatmapSetID:924000

[Difficulty]
HPDrainRate:4
CircleSize:3
OverallDifficulty:6
ApproachRate:7.5
SliderMultiplier:1.5
SliderTickRate:1

[Events]
//Background and Video events
0,0,"Konachan.com - 67268 brown_eyes brown_hair misaka_mikoto seifuku short_hair to_aru_kagaku_no_railgun to_aru_majutsu_no_index.jpg",0,0
Video,-432,"Toaru+Majutsu+no+Index+II+OP+1+-+15.avi"
//Break Periods
//Storyboard Layer 0 (Background)
//Storyboard Layer 1 (Fail)
//Storyboard Layer 2 (Pass)
//Storyboard Layer 3 (Foreground)
//Storyboard Sound Samples

[TimingPoints]
259,327.868852459016,4,2,1,50,1,0
11406,-133.333333333333,4,2,1,50,0,0
12390,-133.333333333333,4,2,1,50,0,0
13373,-100,4,2,1,50,0,0
13701,-100,4,2,1,25,0,0
14029,-100,4,2,1,35,0,0
14357,-100,4,2,1,45,0,0
14685,-100,4,2,1,50,0,0
15668,-100,4,2,1,60,0,0
15996,-90.9090909090909,4,2,1,60,0,0
21242,-125,4,2,1,50,0,0
26160,-100,4,2,2,50,0,0
26488,-125,4,2,1,50,0,0
36324,-125,4,2,1,50,0,0
36980,-100,4,2,1,60,0,0
42226,-111.111111111111,4,2,1,50,0,0
44849,-111.111111111111,4,2,1,66,0,0
47472,-100,4,2,1,55,0,0
50095,-100,4,2,1,70,0,0
50750,-111.111111111111,4,2,1,70,0,0
50996,-111.111111111111,4,2,1,5,0,0
51078,-100,4,2,1,70,0,0
51406,-111.111111111111,4,2,1,70,0,0
52718,-83.3333333333333,4,2,1,70,0,1
62062,-71.4285714285714,4,2,1,50,0,1
62718,-83.3333333333333,4,2,1,50,0,1
72554,-71.4285714285714,4,2,1,50,0,1
73045,-100,4,2,1,5,0,1
73209,-71.4285714285714,4,2,1,70,0,1
73701,-100,4,2,1,60,0,1
78291,-100,4,2,1,5,0,1
78619,-100,4,2,1,70,0,1
78947,-83.3333333333333,4,2,1,60,0,0
84521,-83.3333333333333,4,2,1,70,0,0
84685,-83.3333333333333,4,2,1,65,0,0

[Colours]
Combo1 : 208,143,121
Combo2 : 103,138,220
Combo3 : 192,192,192
Combo4 : 103,77,181

[HitObjects]
53,51,259,5,6,1:2:0:0:
53,51,422,1,2,0:0:0:0:
126,98,586,2,0,L|228:85,1,75,2|0,1:2|0:0,0:0:0:0:
276,24,914,1,2,1:2:0:0:
276,24,1078,2,0,P|301:79|271:159,1,150,2|2,0:0|0:0,0:0:0:0:
203,221,1570,5,2,1:2:0:0:
203,221,1734,1,0,0:0:0:0:
261,290,1898,2,0,B|297:273|297:273|378:297,1,112.5,2|0,1:2|0:0,0:0:0:0:
409,308,2226,2,0,B|399:254|399:254|414:216|414:216|400:152,1,150,2|2,1:2|1:2,0:0:0:0:
443,85,2718,1,0,0:0:0:0:
377,28,2881,5,2,1:2:0:0:
377,28,3045,1,2,0:0:0:0:
311,86,3209,2,0,P|256:93|220:75,1,75,2|0,1:2|0:0,0:0:0:0:
171,30,3537,1,2,1:2:0:0:
171,30,3701,2,0,P|121:26|43:114,1,150,2|2,0:0|0:0,0:0:0:0:
41,174,4193,5,2,1:2:0:0:
41,174,4357,1,0,0:0:0:0:
121,219,4521,2,0,L|99:334,1,112.5,2|0,1:2|0:0,0:0:0:0:
90,374,4849,2,0,B|140:345|140:345|233:375,1,150,2|2,1:2|1:2,0:0:0:0:
288,312,5340,1,0,0:0:0:0:
359,364,5504,5,6,1:2:0:0:
359,364,5668,1,2,0:0:0:0:
431,310,5832,2,0,P|421:266|440:223,1,75,2|0,1:2|0:0,0:0:0:0:
473,159,6160,1,2,1:2:0:0:
473,159,6324,2,0,B|387:131|406:178|320:155,1,150,2|2,0:0|0:0,0:0:0:0:
261,93,6816,5,2,1:2:0:0:
261,93,6980,1,0,0:0:0:0:
187,153,7144,2,0,P|152:107|74:87,1,112.5,2|0,1:2|0:0,0:0:0:0:
61,107,7472,2,0,B|34:157|34:157|59:272,1,150,2|2,1:2|1:2,0:0:0:0:
83,331,7963,1,0,0:0:0:0:
154,282,8127,5,2,1:2:0:0:
154,282,8291,1,2,0:0:0:0:
224,341,8455,2,0,L|327:328,1,75,2|0,1:2|0:0,0:0:0:0:
394,361,8783,1,2,1:2:0:0:
394,361,8947,2,0,P|399:298|317:237,1,150,2|2,0:0|0:0,0:0:0:0:
304,161,9439,5,10,1:2:0:0:
304,161,9521,1,8,0:0:0:0:
304,161,9603,2,0,P|336:99|325:69,1,75,0|2,1:0|1:2,0:0:0:0:
243,89,9931,1,8,0:0:0:0:
243,89,10013,1,8,0:0:0:0:
243,89,10095,2,0,L|156:75,1,75,10|10,0:2|0:2,0:0:0:0:
95,128,10422,1,10,0:2:0:0:
95,128,10586,1,10,0:2:0:0:
13,76,10750,5,4,0:0:0:0:
13,76,11406,6,0,B|49:137|49:137|21:234|21:234|78:277|78:277|120:256|120:256,1,281.250010728836,0|0,3:0|3:0,0:0:0:0:
183,219,12390,2,0,P|218:216|266:253,1,84.3750032186509,2|0,0:2|0:0,0:0:0:0:
278,268,12718,2,0,L|413:253,1,112.500004291535,2|2,0:0|0:2,0:0:0:0:
389,255,13373,5,2,1:2:0:0:
451,195,13537,1,2,1:2:0:0:
218,57,14029,2,0,L|234:24,11,37.5,2|0|0|0|0|0|0|0|0|0|0|0,3:2|0:0|3:0|0:0|3:0|0:0|3:0|0:0|3:0|0:0|3:0|0:0,0:0:0:0:
194,96,15013,2,0,B|139:84|139:84|54:131,1,150,2|10,1:2|0:2,0:0:0:0:
157,278,15668,1,10,0:2:0:0:
186,286,15750,1,10,0:2:0:0:
215,285,15832,1,10,0:2:0:0:
240,275,15914,1,10,0:2:0:0:
259,261,15996,6,0,B|346:233|334:295|433:252,1,165.000005035401,6|10,1:2|0:0,0:0:0:0:
476,175,16488,1,0,0:0:0:0:
476,175,16652,2,0,L|465:91,1,82.5000025177003,2|0,0:0|1:0,0:0:0:0:
390,27,16980,2,0,L|379:108,1,82.5000025177003,8|2,0:0|0:0,0:0:0:0:
304,151,17308,6,0,P|256:121|210:121,1,82.5000025177003,2|0,1:2|0:0,0:0:0:0:
154,165,17636,2,0,L|172:324,1,123.75000377655,10|0,0:0|0:0,0:0:0:0:
174,322,17963,2,0,L|271:297,1,82.5000025177003,2|0,0:0|1:0,0:0:0:0:
329,352,18291,2,0,L|426:377,1,82.5000025177003,10|0,0:0|0:0,0:0:0:0:
485,317,18619,6,0,P|448:258|489:141,1,165.000005035401,2|10,1:2|0:0,0:0:0:0:
440,79,19111,1,0,0:0:0:0:
440,79,19275,2,0,P|366:72|325:90,1,82.5000025177003,2|0,0:0|1:0,0:0:0:0:
295,141,19603,2,0,P|221:148|180:130,1,82.5000025177003,10|2,0:0|0:0,0:0:0:0:
144,82,19931,5,2,1:2:0:0:
144,82,20095,1,0,1:0:0:0:
69,145,20258,2,0,L|75:237,1,82.5000025177003,10|0,0:0|1:0,0:0:0:0:
116,317,20586,2,0,L|78:344,3,41.2500012588501,2|0|0|0,1:2|1:0|1:0|1:0,0:0:0:0:
134,298,20914,1,10,0:0:0:0:
155,295,20995,1,8,0:0:0:0:
177,293,21077,1,8,0:0:0:0:
199,291,21159,1,8,0:0:0:0:
220,289,21241,5,4,1:2:0:0:
220,289,21570,2,0,L|302:299,1,60,10|0,0:0|0:0,0:0:0:0:
325,228,21898,2,0,L|384:220,1,60,2|0,0:0|1:0,0:0:0:0:
466,269,22226,1,10,0:0:0:0:
466,269,22390,6,0,P|469:189|432:145,1,120,2|0,0:0|0:0,0:0:0:0:
367,115,22881,2,0,L|250:109,1,90,10|0,0:0|0:0,0:0:0:0:
237,109,23209,2,0,L|258:173,1,60,2|0,0:2|1:0,0:0:0:0:
200,229,23537,2,0,L|179:293,1,60,10|2,0:0|0:0,0:0:0:0:
121,357,23865,5,0,1:0:0:0:
121,357,24193,2,0,P|74:320|55:313,1,60,10|0,0:0|0:0,0:0:0:0:
3,258,24521,2,0,P|-14:206|28:131,1,120,2|10,0:0|0:0,0:0:0:0:
62,80,25013,6,0,L|204:85,1,120,2|2,0:0|0:0,0:0:0:0:
250,22,25504,1,10,0:0:0:0:
250,22,25832,2,0,P|273:71|274:97,1,60,2|0,0:0|1:0,0:0:0:0:
331,146,26160,1,2,0:1:0:0:
331,146,26324,1,2,1:1:0:0:
409,90,26488,5,4,1:2:0:0:
409,90,26816,2,0,P|431:132|437:167,1,60,10|0,0:0|0:0,0:0:0:0:
388,216,27144,2,0,P|366:258|360:293,1,60,2|0,0:0|1:0,0:0:0:0:
404,344,27472,1,10,0:0:0:0:
322,381,27636,6,0,B|273:357|273:357|188:365,1,120,2|0,0:0|0:0,0:0:0:0:
133,322,28127,2,0,P|115:274|128:235,1,90,10|0,0:0|0:0,0:0:0:0:
150,211,28455,2,0,L|133:142,1,60,2|2,0:0|1:2,0:0:0:0:
168,70,28783,1,10,0:0:0:0:
168,70,28947,1,2,0:0:0:0:
242,120,29111,6,0,P|325:100|385:84,1,120,2|8,1:2|0:0,0:0:0:0:
424,45,29603,2,0,P|409:103|395:161,1,120,2|0,0:0|1:0,0:0:0:0:
420,242,30095,2,0,P|430:283|426:310,2,60,8|0|0,0:0|0:0|1:0,0:0:0:0:
363,176,30586,5,2,0:0:0:0:
309,242,30750,2,0,L|238:233,1,60,8|2,0:0|1:2,0:0:0:0:
196,300,31078,2,0,L|136:307,1,60,10|2,0:0|1:2,0:0:0:0:
59,257,31406,1,6,1:2:0:0:
59,257,31570,1,2,0:0:0:0:
116,185,31734,6,0,L|99:41,1,120,6|8,1:2|0:0,0:0:0:0:
165,7,32226,2,0,P|237:4|283:53,1,120,2|0,0:0|1:0,0:0:0:0:
332,98,32718,2,0,P|384:92|401:68,1,60,10|0,0:0|0:0,0:0:0:0:
444,24,33045,5,2,1:2:0:0:
444,24,33209,1,2,0:0:0:0:
502,86,33373,2,0,L|496:192,1,90,10|0,0:0|0:0,0:0:0:0:
494,209,33701,2,0,P|420:204|383:251,1,120,2|10,0:0|0:0,0:0:0:0:
359,313,34193,1,0,0:0:0:0:
289,258,34357,5,2,1:2:0:0:
289,258,34521,1,0,0:0:0:0:
225,327,34685,2,0,P|177:340|144:356,1,60,8|2,0:0|0:0,0:0:0:0:
95,297,35013,2,0,P|66:286|37:280,1,60,2|0,0:2|1:0,0:0:0:0:
3,200,35340,2,0,L|0:125,1,60,10|0,0:0|0:0,0:0:0:0:
43,68,35668,5,2,1:2:0:0:
57,72,35750,1,0,1:0:0:0:
71,77,35832,1,0,1:0:0:0:
85,82,35914,1,0,1:0:0:0:
101,89,35996,2,0,L|115:45,3,30,10|8|8|8,0:0|0:0|0:0|0:0,0:0:0:0:
141,34,36324,2,0,P|170:27|246:73,1,120,2|10,1:2|0:0,0:0:0:0:
257,152,36816,1,0,1:0:0:0:
328,98,36980,6,0,L|417:88,1,75,10|8,0:0|0:0,0:0:0:0:
358,187,37472,2,0,L|432:178,1,75,10|8,0:0|0:0,0:0:0:0:
388,276,37963,2,0,L|477:266,1,75,10|8,0:0|0:0,0:0:0:0:
418,365,38455,2,0,L|507:355,1,75,8|10,0:0|0:0,0:0:0:0:
388,276,38947,5,10,0:0:0:0:
329,352,39111,1,10,0:0:0:0:
257,282,39275,1,8,0:0:0:0:
257,282,39439,1,8,0:0:0:0:
192,354,39603,6,0,P|164:322|117:301,1,75,10|8,0:0|0:0,0:0:0:0:
257,282,40095,2,0,P|229:250|182:229,1,75,10|8,0:0|0:0,0:0:0:0:
322,210,40586,2,0,P|294:178|247:157,1,75,10|8,0:0|0:0,0:0:0:0:
387,138,41078,2,0,P|359:106|312:85,1,75,8|10,0:0|0:0,0:0:0:0:
172,142,41570,5,10,0:0:0:0:
200,234,41734,1,10,0:0:0:0:
100,219,41898,1,8,0:0:0:0:
100,219,42062,1,8,0:0:0:0:
115,311,42226,6,0,P|164:290|262:323,1,134.999995880127,6|8,1:2|0:0,0:0:0:0:
311,352,42718,2,0,P|375:369|437:347,1,134.999995880127,2|0,0:0|1:0,0:0:0:0:
490,277,43209,2,0,P|473:230|471:185,1,67.4999979400635,10|0,0:0|0:0,0:0:0:0:
499,127,43537,5,0,1:0:0:0:
499,127,43865,2,0,L|360:115,1,134.999995880127,10|2,0:0|0:0,0:0:0:0:
280,66,44357,2,0,P|271:17|271:0,2,67.4999979400635,0|8|0,1:0|0:0|0:0,0:0:0:0:
346,135,44849,6,0,P|296:158|267:185,1,67.4999979400635,10|0,1:2|1:0,0:0:0:0:
244,241,45177,1,0,1:0:0:0:
176,185,45340,6,0,P|101:184|82:196,1,67.4999979400635,10|0,0:0|1:0,0:0:0:0:
38,116,45668,1,0,1:0:0:0:
86,39,45832,5,10,0:0:0:0:
86,39,45996,1,0,1:0:0:0:
174,89,46160,5,8,0:0:0:0:
174,89,46242,1,8,0:0:0:0:
174,89,46324,2,0,L|262:61,1,67.4999979400635,2|0,1:2|1:0,0:0:0:0:
314,6,46652,1,8,0:0:0:0:
314,6,46734,1,8,0:0:0:0:
314,6,46816,2,0,L|402:34,1,67.4999979400635,2|0,1:2|1:0,0:0:0:0:
425,108,47144,2,0,L|337:136,1,67.4999979400635,10|2,0:0|1:2,0:0:0:0:
319,207,47472,5,4,0:0:0:0:
319,207,50095,5,10,0:0:0:0:
285,294,50258,1,10,0:0:0:0:
199,257,50422,1,10,0:0:0:0:
199,257,50750,2,0,L|57:247,1,134.999995880127,10|10,0:0|0:0,0:0:0:0:
2,176,51242,1,10,0:0:0:0:
66,104,51406,6,0,L|61:81,24,16.8749994850159,0|0|0|0|0|0|0|0|0|0|0|0|0|0|0|0|0|0|0|0|0|0|0|0|2,3:0|3:0|3:0|3:0|3:0|3:0|3:0|0:0|3:0|3:0|3:0|3:0|3:0|3:0|3:0|0:0|3:0|3:0|3:0|3:0|3:0|3:0|3:0|0:0|0:0,0:0:0:0:
140,162,52554,1,2,0:0:0:0:
209,88,52718,6,0,B|299:61|289:128|390:90,1,179.999994506836,6|8,1:2|0:0,0:0:0:0:
451,27,53209,2,0,P|402:77|456:186,1,179.999994506836,2|2,0:0|0:0,0:0:0:0:
503,235,53701,2,0,P|511:286|476:337,1,89.9999972534181,10|2,0:0|0:0,0:0:0:0:
409,368,54029,5,2,1:0:0:0:
409,368,54193,2,0,L|307:353,1,89.9999972534181,2|8,0:0|0:0,0:0:0:0:
254,284,54521,2,0,B|186:316|186:316|82:266,1,179.999994506836,2|2,0:0|0:0,0:0:0:0:
48,180,55013,1,8,0:0:0:0:
48,180,55177,1,2,0:0:0:0:
140,142,55340,6,0,L|126:43,1,89.9999972534181,2|0,1:0|0:0,0:0:0:0:
246,0,55668,1,10,0:0:0:0:
246,0,55832,2,0,L|233:89,1,89.9999972534181,2|0,0:0|1:0,0:0:0:0:
304,157,56160,2,0,P|349:161|394:128,1,89.9999972534181,2|8,0:0|0:0,0:0:0:0:
437,56,56488,6,0,L|428:246,1,179.999994506836,2|0,0:0|0:0,0:0:0:0:
372,319,56980,2,0,P|330:298|246:342,1,134.999995880127,10|0,0:0|0:0,0:0:0:0:
240,358,57308,2,0,L|135:338,1,89.9999972534181,2|2,1:2|1:2,0:0:0:0:
90,275,57636,1,10,0:0:0:0:
90,275,57799,1,2,1:2:0:0:
148,204,57963,6,0,L|126:103,1,89.9999972534181,6|2,1:2|0:0,0:0:0:0:
151,23,58291,1,10,0:0:0:0:
234,82,58455,2,0,P|302:61|346:75,1,89.9999972534181,2|0,0:1|1:0,0:0:0:0:
392,124,58783,2,0,P|436:124|476:105,1,89.9999972534181,2|8,0:0|0:0,0:0:0:0:
512,22,59111,6,0,B|536:127|474:99|503:200,1,179.999994506836,2|0,0:0|0:0,0:0:0:0:
446,276,59603,2,0,L|351:261,1,89.9999972534181,10|2,0:0|0:1,0:0:0:0:
296,332,59931,2,0,L|201:347,1,89.9999972534181,2|0,1:2|0:0,0:0:0:0:
129,284,60258,2,0,P|105:229|130:179,1,89.9999972534181,10|0,0:0|0:0,0:0:0:0:
171,131,60586,6,0,P|117:159|8:96,1,179.999994506836,2|10,1:2|0:0,0:0:0:0:
64,25,61078,2,0,P|109:18|154:37,1,89.9999972534181,2|0,0:1|1:0,0:0:0:0:
207,117,61406,1,0,1:0:0:0:
278,50,61570,1,10,0:0:0:0:
364,118,61734,1,2,1:2:0:0:
364,118,61816,1,2,0:0:0:0:
364,118,61898,5,2,0:0:0:0:
304,187,62062,2,0,B|293:222|293:222|315:291,1,104.999996795654,6|8,0:0|0:0,0:0:0:0:
403,328,62390,2,0,B|326:314|326:314|282:340|282:340|182:323,2,209.999993591309,6|0|0,0:0|3:0|3:0,0:0:0:0:
477,272,63209,6,0,B|453:224|453:224|489:64,1,179.999994506836,6|8,1:2|0:0,0:0:0:0:
420,22,63701,2,0,B|320:2|353:66|224:35,1,179.999994506836,2|2,0:0|1:2,0:0:0:0:
156,0,64193,2,0,P|112:9|76:36,1,89.9999972534181,10|2,0:0|0:0,0:0:0:0:
39,128,64521,5,2,1:0:0:0:
39,128,64685,2,0,L|55:229,1,89.9999972534181,2|8,0:0|0:0,0:0:0:0:
8,301,65013,2,0,P|68:260|165:300,1,179.999994506836,2|2,0:1|1:2,0:0:0:0:
229,360,65504,1,8,0:0:0:0:
229,360,65668,1,2,1:2:0:0:
301,297,65832,6,0,B|347:284|347:284|409:302,1,89.9999972534181,2|0,1:2|0:0,0:0:0:0:
474,344,66160,1,8,0:0:0:0:
474,344,66324,2,0,L|485:236,1,89.9999972534181,2|0,0:0|0:0,0:0:0:0:
415,186,66652,2,0,L|404:78,1,89.9999972534181,2|8,1:2|0:0,0:0:0:0:
456,13,66980,6,0,P|410:47|275:18,1,179.999994506836,2|0,0:0|0:0,0:0:0:0:
204,6,67472,2,0,P|134:17|104:46,1,89.9999972534181,10|0,0:0|0:0,0:0:0:0:
66,111,67799,1,2,1:2:0:0:
66,111,67963,1,0,1:2:0:0:
112,193,68127,2,0,L|98:292,1,89.9999972534181,10|0,1:2|1:2,1:2:0:0:
148,363,68455,5,6,1:2:0:0:
148,363,68619,1,2,0:0:0:0:
213,296,68783,1,10,0:0:0:0:
282,352,68947,2,0,L|393:338,1,89.9999972534181,2|0,0:0|1:0,0:0:0:0:
424,256,69275,2,0,L|313:242,1,89.9999972534181,2|8,1:2|0:0,0:0:0:0:
263,176,69603,6,0,P|318:135|308:7,1,179.999994506836,2|0,0:0|0:0,0:0:0:0:
232,0,70095,2,0,L|134:19,1,89.9999972534181,10|2,0:0|0:1,0:0:0:0:
75,88,70422,2,0,P|97:157|83:196,1,89.9999972534181,2|0,0:2|1:0,0:0:0:0:
24,234,70750,2,0,P|2:303|16:342,1,89.9999972534181,10|0,0:0|1:0,0:0:0:0:
80,378,71078,6,0,L|262:364,1,179.999994506836,6|8,0:0|0:0,0:0:0:0:
325,300,71570,2,0,P|341:246|314:197,1,89.9999972534181,2|2,0:1|0:0,0:0:0:0:
250,157,71898,1,0,1:0:0:0:
313,84,72062,1,8,0:0:0:0:
236,24,72226,1,2,1:2:0:0:
236,24,72308,1,2,0:0:0:0:
236,24,72390,5,2,1:2:0:0:
158,90,72554,2,0,B|132:76|132:76|57:105,1,104.999996795654,2|8,3:2|0:0,0:0:0:0:
3,208,72881,2,0,B|29:194|29:194|104:223,1,104.999996795654,2|0,1:2|0:0,0:0:0:0:
152,306,73209,2,0,L|132:362,5,52.4999983978272,0|0|0|0|8|0,1:0|1:0|1:0|1:0|0:0|0:0,0:0:0:0:
188,279,73701,6,0,P|244:287|279:379,1,150,6|2,1:2|0:0,0:0:0:0:
370,382,74193,2,0,L|524:343,1,150,2|2,1:2|1:2,0:0:0:0:
478,266,74685,2,0,P|473:214|494:173,1,75,8|0,0:0|0:0,0:0:0:0:
448,111,75013,5,2,1:2:0:0:
448,111,75177,2,0,L|357:122,1,75,0|2,1:2|0:0,0:0:0:0:
302,65,75504,2,0,P|336:130|303:222,1,150,2|2,1:2|1:2,0:0:0:0:
242,251,75996,2,0,L|159:240,1,75,10|0,0:0|0:0,0:0:0:0:
105,310,76324,6,0,L|122:137,1,150,2|2,1:2|0:0,0:0:0:0:
176,82,76816,2,0,B|232:74|232:74|267:88|267:88|343:76,1,150,6|0,1:2|1:0,0:0:0:0:
405,29,77308,1,10,0:0:0:0:
405,29,77472,6,0,P|421:68|416:109,1,75,4|0,1:2|0:0,0:0:0:0:
358,165,77799,2,0,P|342:204|347:245,1,75,2|0,1:2|0:0,0:0:0:0:
384,317,78127,1,4,0:0:0:0:
384,317,78619,2,0,L|406:313,6,18.75,0|0|0|0|0|0|0,3:0|3:0|3:0|3:0|3:0|3:0|3:0,0:0:0:0:
342,352,78947,6,0,L|247:344,1,89.9999972534181,6|2,1:2|1:2,0:0:0:0:
201,267,79275,2,0,L|106:275,1,89.9999972534181,10|0,0:0|1:0,0:0:0:0:
27,212,79603,1,10,0:0:0:0:
27,212,79767,2,0,P|41:150|32:103,1,89.9999972534181,2|8,1:2|0:0,0:0:0:0:
6,35,80095,1,2,1:2:0:0:
105,55,80258,6,0,L|201:34,1,89.9999972534181,2|0,0:0|1:0,0:0:0:0:
283,72,80586,2,0,P|257:112|298:190,1,134.999995880127,10|0,0:0|0:0,0:0:0:0:
322,200,80914,2,0,P|377:177|422:174,1,89.9999972534181,10|2,0:0|1:2,0:0:0:0:
465,89,81242,2,0,P|420:81|380:62,1,89.9999972534181,10|2,0:0|1:2,0:0:0:0:
310,0,81570,5,0,0:0:0:0:
310,0,81734,1,0,1:0:0:0:
236,63,81898,2,0,L|133:47,1,89.9999972534181,10|0,0:0|1:0,0:0:0:0:
62,102,82226,1,10,0:0:0:0:
62,102,82390,2,0,P|88:157|78:196,1,89.9999972534181,2|8,1:2|0:0,0:0:0:0:
24,257,82718,1,2,1:2:0:0:
81,328,82881,5,2,0:0:0:0:
81,328,83045,1,0,1:0:0:0:
154,275,83209,2,0,L|300:303,1,134.999995880127,10|0,0:0|0:0,0:0:0:0:
314,327,83537,2,0,L|409:309,1,89.9999972534181,10|2,0:0|1:2,0:0:0:0:
474,252,83865,1,10,0:0:0:0:
389,206,84029,1,0,1:0:0:0:
389,206,84521,6,0,L|373:101,1,89.9999972534181,14|2,1:2|1:2,0:0:0:0:
306,42,84849,1,10,0:0:0:0:
306,42,85013,2,0,P|254:55|211:49,1,89.9999972534181,2|8,1:2|0:0,0:0:0:0:
132,7,85340,1,2,1:2:0:0:
70,78,85504,5,2,0:0:0:0:
70,78,85668,1,0,1:0:0:0:
117,161,85832,2,0,L|84:316,1,134.999995880127,10|0,0:0|0:0,0:0:0:0:
80,322,86160,2,0,P|147:309|195:338,1,89.9999972534181,10|0,0:0|1:2,0:0:0:0:
244,369,86488,2,0,P|287:377|329:362,1,89.9999972534181,10|2,0:0|1:2,0:0:0:0:
398,296,86816,5,0,0:0:0:0:
398,296,86980,1,0,1:0:0:0:
330,222,87144,2,0,L|316:129,1,89.9999972534181,10|0,0:0|1:0,0:0:0:0:
377,54,87472,1,10,0:0:0:0:
377,54,87636,2,0,P|426:40|482:57,1,89.9999972534181,2|8,1:2|0:0,0:0:0:0:
508,127,87963,1,2,1:2:0:0:
431,183,88127,5,2,0:0:0:0:
431,183,88291,1,0,1:0:0:0:
488,261,88455,2,0,P|429:287|394:364,1,134.999995880127,10|0,0:0|0:0,0:0:0:0:
401,382,88783,2,0,L|311:368,1,89.9999972534181,10|0,1:2|1:0,0:0:0:0:
236,314,89111,1,10,1:2:0:0:
305,248,89275,1,0,1:0:0:0:
