osu file format v14

[General]
AudioFilename: audio.mp3
AudioLeadIn: 0
PreviewTime: 52390
Countdown: 0
SampleSet: Soft
StackLeniency: 0.4
Mode: 0
LetterboxInBreaks: 0
WidescreenStoryboard: 1

[Editor]
DistanceSpacing: 1
BeatDivisor: 4
GridSize: 4
TimelineZoom: 2.2

[Metadata]
Title:No buts! (TV Size)
TitleUnicode:No buts! (TV Size)
Artist:Kawada Mami
ArtistUnicode:川田まみ
Creator:Yudragen
Version:Advanced
Source:とある魔術の禁書目録Ⅱ
Tags:Cami ChaoticRed to aru majutsu no index II 2 toaru touma railgun misaka mikoto
BeatmapID:1929562
BeatmapSetID:924000

[Difficulty]
HPDrainRate:3
CircleSize:3
OverallDifficulty:5
ApproachRate:6
SliderMultiplier:1.2
SliderTickRate:1

[Events]
//Background and Video events
0,0,"Konachan.com - 67268 brown_eyes brown_hair misaka_mikoto seifuku short_hair to_aru_kagaku_no_railgun to_aru_majutsu_no_index.jpg",0,0
Video,-432,"Toaru+Majutsu+no+Index+II+OP+1+-+15.avi"
//Break Periods
//Storyboard Layer 0 (Background)
//Storyboard Layer 1 (Fail)
//Storyboard Layer 2 (Pass)
//Storyboard Layer 3 (Foreground)
//Storyboard Sound Samples

[TimingPoints]
259,327.868852459016,4,2,1,50,1,0
12390,-125,4,2,1,50,0,0
13373,-100,4,2,1,50,0,0
13701,-100,4,2,1,25,0,0
14029,-100,4,2,1,35,0,0
14357,-100,4,2,1,45,0,0
14685,-100,4,2,1,50,0,0
15668,-100,4,2,1,60,0,0
15996,-90.9090909090909,4,2,1,60,0,0
21242,-111.111111111111,4,2,1,50,0,0
26160,-111.111111111111,4,2,2,50,0,0
26488,-111.111111111111,4,2,1,50,0,0
36324,-111.111111111111,4,2,1,50,0,0
36980,-111.111111111111,4,2,1,60,0,0
42226,-99.9999999999999,4,2,1,50,0,0
44849,-100,4,2,1,66,0,0
47472,-100,4,2,1,55,0,0
50095,-100,4,2,1,70,0,0
50750,-100,4,2,1,70,0,0
50996,-100,4,2,1,5,0,0
51078,-100,4,2,1,70,0,0
51406,-100,4,2,1,70,0,0
52718,-83.3333333333333,4,2,1,70,0,1
73045,-100,4,2,1,5,0,1
73209,-100,4,2,1,70,0,1
73701,-100,4,2,1,60,0,1
78291,-100,4,2,1,5,0,1
78619,-100,4,2,1,70,0,1
78947,-90.9090909090909,4,2,1,60,0,0
84521,-100,4,2,1,70,0,0
84685,-90.9090909090909,4,2,1,65,0,0

[Colours]
Combo1 : 208,143,121
Combo2 : 103,138,220
Combo3 : 192,192,192
Combo4 : 103,77,181

[HitObjects]
64,61,259,6,0,L|74:189,1,120,6|2,1:2|1:2,0:0:0:0:
144,277,914,1,2,1:2:0:0:
144,277,1078,2,0,P|205:251|276:263,1,120,2|2,0:0|0:0,0:0:0:0:
310,283,1570,2,0,L|388:270,1,60,2|0,1:2|0:0,0:0:0:0:
427,288,1898,2,0,B|417:209|417:209|444:155,2,120,2|2|2,1:2|1:2|1:2,0:0:0:0:
350,380,2881,6,0,L|211:371,1,120,2|2,1:2|1:2,0:0:0:0:
143,288,3537,1,2,1:2:0:0:
143,288,3701,2,0,P|187:226|185:177,1,120,2|2,0:0|0:0,0:0:0:0:
162,129,4193,2,0,L|154:64,1,60,2|0,1:2|0:0,0:0:0:0:
186,18,4521,2,0,B|231:45|231:45|323:34,2,120,2|2|2,1:2|1:2|1:2,0:0:0:0:
69,45,5504,6,0,L|50:192,1,120,6|2,1:2|1:2,0:0:0:0:
119,264,6160,1,2,1:2:0:0:
119,264,6324,2,0,P|179:285|233:259,1,120,2|2,0:0|0:0,0:0:0:0:
268,218,6816,2,0,P|335:210|347:217,1,60,2|0,1:2|0:0,0:0:0:0:
377,235,7144,2,0,L|361:105,2,120,2|2|2,1:2|1:2|1:2,0:0:0:0:
468,313,8127,6,0,L|481:166,1,120,2|2,1:2|1:2,0:0:0:0:
417,89,8783,1,2,1:2:0:0:
417,89,8947,2,0,B|334:69|334:69|279:95,1,120,2|2,0:0|0:0,0:0:0:0:
256,122,9439,2,0,L|247:162,2,30,10|8|0,1:2|0:0|1:0,0:0:0:0:
155,55,9931,2,0,L|148:25,2,30,8|8|10,0:0|0:0|0:2,0:0:0:0:
116,101,10258,1,10,0:2:0:0:
116,101,10422,2,0,L|111:180,1,60,10|10,0:2|0:2,0:0:0:0:
109,221,10750,5,4,0:0:0:0:
256,192,11406,12,2,12390,0:2:0:0:
231,299,12718,6,0,L|222:204,1,96,2|2,0:0|0:2,0:0:0:0:
158,110,13373,1,2,1:2:0:0:
158,110,13537,1,2,1:2:0:0:
256,192,13701,12,10,15340,0:2:0:0:
59,71,15996,6,0,L|214:52,2,132.00000402832,6|10|2,1:2|0:0|0:0,0:0:0:0:
21,125,16816,1,0,1:0:0:0:
21,125,16980,2,0,P|31:175|32:210,1,66.0000020141602,8|2,0:0|0:0,0:0:0:0:
19,255,17308,1,2,1:2:0:0:
125,177,17636,2,0,L|210:192,1,66.0000020141602,10|0,0:0|0:0,0:0:0:0:
239,231,17963,2,0,P|275:165|251:91,1,132.00000402832,2|10,0:0|0:0,0:0:0:0:
366,26,18619,6,0,P|357:90|392:145,2,132.00000402832,2|10|2,1:2|0:0|0:0,0:0:0:0:
428,2,19439,1,0,1:0:0:0:
428,2,19603,2,0,P|479:37|490:56,1,66.0000020141602,10|2,0:0|0:0,0:0:0:0:
484,105,19931,2,0,L|477:193,1,66.0000020141602,2|0,1:2|1:0,0:0:0:0:
458,233,20258,2,0,P|396:232|341:290,2,132.00000402832,10|2|10,0:0|1:2|0:0,0:0:0:0:
432,338,21242,5,4,1:2:0:0:
330,375,21570,2,0,L|207:385,1,107.999996704102,10|2,0:0|0:0,0:0:0:0:
153,300,22226,1,10,0:0:0:0:
153,300,22390,2,0,L|30:290,1,107.999996704102,2|0,0:0|0:0,0:0:0:0:
3,257,22881,1,10,0:0:0:0:
87,189,23209,2,0,L|96:122,1,53.9999983520508,2|0,0:2|1:0,0:0:0:0:
146,120,23537,2,0,L|137:53,1,53.9999983520508,10|2,0:0|0:0,0:0:0:0:
107,22,23865,5,0,1:0:0:0:
210,0,24193,2,0,P|302:12|327:36,1,107.999996704102,10|2,0:0|0:0,0:0:0:0:
325,126,24849,1,10,0:0:0:0:
325,126,25013,2,0,P|417:114|442:90,1,107.999996704102,2|2,0:0|0:0,0:0:0:0:
466,71,25504,1,10,0:0:0:0:
507,170,25832,2,0,L|488:241,1,53.9999983520508,2|0,0:0|1:0,0:0:0:0:
452,258,26160,2,0,L|471:329,1,53.9999983520508,2|2,0:1|1:1,0:0:0:0:
452,362,26488,5,4,1:2:0:0:
357,310,26816,2,0,L|232:324,1,107.999996704102,10|2,0:0|0:0,0:0:0:0:
157,264,27472,1,10,0:0:0:0:
157,264,27636,2,0,P|176:210|156:145,1,107.999996704102,2|0,0:0|0:0,0:0:0:0:
139,114,28127,1,10,0:0:0:0:
214,36,28455,2,0,L|281:27,1,53.9999983520508,2|2,0:0|1:2,0:0:0:0:
306,66,28783,2,0,L|373:75,1,53.9999983520508,10|2,0:0|0:0,0:0:0:0:
409,50,29111,6,0,P|426:104|406:166,1,107.999996704102,2|8,1:2|0:0,0:0:0:0:
375,190,29603,2,0,P|358:244|378:306,1,107.999996704102,2|0,0:0|1:0,0:0:0:0:
389,345,30095,2,0,L|283:325,1,107.999996704102,8|0,0:0|1:0,0:0:0:0:
229,319,30586,1,2,0:0:0:0:
229,319,30750,2,0,L|164:333,1,53.9999983520508,8|2,0:0|1:2,0:0:0:0:
122,320,31078,2,0,L|102:246,1,53.9999983520508,10|2,0:0|1:2,0:0:0:0:
72,226,31406,2,0,L|92:152,1,53.9999983520508,6|2,1:2|0:0,0:0:0:0:
99,121,31734,5,6,1:2:0:0:
197,164,32062,1,8,0:0:0:0:
197,164,32226,2,0,L|314:141,1,107.999996704102,2|0,0:0|1:0,0:0:0:0:
351,130,32718,1,10,0:0:0:0:
428,204,33045,2,0,L|418:275,1,53.9999983520508,2|2,1:2|0:0,0:0:0:0:
389,302,33373,2,0,P|338:291|272:327,2,107.999996704102,10|2|10,0:0|0:0|0:0,0:0:0:0:
428,204,34357,6,0,L|410:75,1,107.999996704102,2|8,1:2|0:0,0:0:0:0:
324,34,35013,2,0,L|258:23,1,53.9999983520508,2|0,0:2|1:0,0:0:0:0:
217,17,35340,1,10,0:0:0:0:
149,101,35668,2,0,B|141:148|141:148|146:166|146:166|137:216,1,107.999996704102,2|10,1:2|0:0,0:0:0:0:
73,293,36324,2,0,P|144:319|188:301,1,107.999996704102,2|10,1:2|0:0,0:0:0:0:
251,236,36980,5,10,0:0:0:0:
251,236,37144,2,0,L|377:259,1,107.999996704102,8|10,0:0|0:0,0:0:0:0:
409,269,37636,1,8,0:0:0:0:
490,198,37963,1,10,0:0:0:0:
490,198,38127,2,0,L|467:72,1,107.999996704102,8|8,0:0|0:0,0:0:0:0:
457,40,38619,1,10,0:0:0:0:
354,4,38947,6,0,L|284:25,1,53.9999983520508,10|10,0:0|0:0,0:0:0:0:
271,64,39275,2,0,L|201:43,1,53.9999983520508,8|8,0:0|0:0,0:0:0:0:
169,69,39603,1,10,0:0:0:0:
169,69,39767,2,0,L|192:188,1,107.999996704102,8|10,0:0|0:0,0:0:0:0:
205,226,40258,1,8,0:0:0:0:
173,329,40586,5,10,0:0:0:0:
173,329,40750,2,0,L|292:306,1,107.999996704102,8|8,0:0|0:0,0:0:0:0:
330,293,41241,1,10,0:0:0:0:
407,216,41570,2,0,L|383:152,1,53.9999983520508,10|10,0:0|0:0,0:0:0:0:
414,117,41898,2,0,L|438:53,1,53.9999983520508,8|8,0:0|0:0,0:0:0:0:
385,28,42226,6,0,P|308:42|248:19,1,120,6|8,1:2|0:0,0:0:0:0:
214,0,42718,1,2,0:0:0:0:
129,85,43045,1,0,1:0:0:0:
129,85,43209,2,0,L|144:162,1,60,10|0,0:0|0:0,0:0:0:0:
158,201,43537,1,0,1:0:0:0:
206,310,43865,2,0,P|263:281|332:298,1,120,10|2,0:0|0:0,0:0:0:0:
367,321,44357,2,0,P|425:328|450:315,1,60,0|8,1:0|0:0,0:0:0:0:
403,209,44849,6,0,L|467:194,2,60,10|0|0,1:2|1:0|1:0,0:0:0:0:
365,163,45340,2,0,L|301:148,2,60,10|0|0,0:0|1:0|1:0,0:0:0:0:
402,115,45832,2,0,P|415:79|405:36,1,60,10|0,0:0|1:0,0:0:0:0:
381,6,46160,1,8,0:0:0:0:
381,6,46324,2,0,L|250:15,1,120,2|8,1:2|0:0,0:0:0:0:
210,47,46816,2,0,P|228:92|225:122,1,60,2|0,1:2|1:0,0:0:0:0:
194,152,47144,2,0,P|176:197|179:227,1,60,10|2,0:0|1:2,0:0:0:0:
199,263,47472,5,4,0:0:0:0:
199,263,50095,5,10,0:0:0:0:
252,256,50258,1,10,0:0:0:0:
305,249,50422,1,10,0:0:0:0:
401,297,50750,1,10,0:0:0:0:
488,233,51078,1,10,0:0:0:0:
488,233,51242,1,10,0:0:0:0:
256,192,51406,12,2,52390,0:0:0:0:
176,126,52718,6,0,P|209:159|191:264,1,143.999995605469,2|2,0:0|0:0,0:0:0:0:
147,296,53209,2,0,B|232:280|218:325|300:291,1,143.999995605469
335,240,53701,1,10,0:0:0:0:
401,368,54029,1,2,1:0:0:0:
401,368,54193,2,0,L|482:354,1,71.9999978027344,2|8,0:0|0:0,0:0:0:0:
493,286,54521,2,0,B|480:234|480:234|483:209|483:209|462:137,1,143.999995605469,2|2,0:0|0:0,0:0:0:0:
269,53,55340,6,0,L|254:206,1,143.999995605469,2|10,1:0|0:0,0:0:0:0:
243,259,55832,2,0,P|194:250|151:253,1,71.9999978027344,2|0,0:0|1:0,0:0:0:0:
110,288,56160,2,0,P|61:297|18:294,1,71.9999978027344,2|8,0:0|0:0,0:0:0:0:
1,234,56488,2,0,P|48:188|36:97,1,143.999995605469,2|0,0:0|0:0,0:0:0:0:
13,49,56980,1,10,0:0:0:0:
150,5,57308,2,0,L|223:27,1,71.9999978027344,2|2,1:2|1:2,0:0:0:0:
271,75,57636,2,0,L|344:53,1,71.9999978027344,10|2,0:0|1:2,0:0:0:0:
407,30,57963,6,0,P|429:82|427:126,1,71.9999978027344,6|2,1:2|0:0,0:0:0:0:
403,164,58291,1,10,0:0:0:0:
403,164,58455,2,0,P|368:218|403:304,1,143.999995605469,2|2,0:1|0:0,0:0:0:0:
275,381,59111,2,0,P|159:373|117:370,1,143.999995605469,2|0,0:0|0:0,0:0:0:0:
79,319,59603,2,0,P|58:258|91:189,1,143.999995605469,10|2,0:0|1:2,0:0:0:0:
203,99,60258,1,10,0:0:0:0:
315,188,60586,6,0,P|409:129|436:90,1,143.999995605469,2|10,1:2|0:0,0:0:0:0:
491,68,61078,2,0,P|496:29|480:-12,2,71.9999978027344,2|0|0,0:1|1:0|1:0,0:0:0:0:
511,137,61570,2,0,L|504:223,1,71.9999978027344,10|2,0:0|1:2,0:0:0:0:
466,270,61898,5,2,0:0:0:0:
466,270,62062,2,0,L|473:356,1,71.9999978027344,6|8,0:0|0:0,0:0:0:0:
410,371,62390,2,0,P|322:336|255:374,1,143.999995605469,6|0,0:0|3:0,0:0:0:0:
182,158,63209,6,0,L|160:319,1,143.999995605469,6|8,1:2|0:0,0:0:0:0:
104,344,63701,2,0,P|26:282|20:223,1,143.999995605469,2|2,0:0|1:2,0:0:0:0:
54,180,64193,1,10,0:0:0:0:
106,45,64521,5,2,1:0:0:0:
106,45,64685,2,0,L|191:32,1,71.9999978027344,2|8,0:0|0:0,0:0:0:0:
245,59,65013,2,0,B|271:99|271:99|240:193,1,143.999995605469,2|2,0:1|1:2,0:0:0:0:
210,255,65504,1,8,0:0:0:0:
342,198,65832,6,0,P|406:216|423:295,1,143.999995605469,2|8,1:2|0:0,0:0:0:0:
385,344,66324,2,0,P|296:342|223:347,1,143.999995605469,2|2,0:0|1:2,0:0:0:0:
112,279,66980,2,0,B|98:184|153:215|142:119,1,143.999995605469,2|0,0:0|0:0,0:0:0:0:
131,70,67472,1,10,0:0:0:0:
257,2,67799,2,0,P|311:4|344:31,1,71.9999978027344,2|0,1:2|1:2,1:2:0:0:
357,77,68127,2,0,P|390:90|425:87,1,71.9999978027344,10|0,1:2|1:2,1:2:0:0:
489,53,68455,6,0,L|477:149,1,71.9999978027344,6|2,1:2|0:0,0:0:0:0:
439,184,68783,1,10,0:0:0:0:
439,184,68947,2,0,L|468:333,1,143.999995605469,2|2,0:0|1:2,0:0:0:0:
347,243,69603,2,0,P|262:246|228:306,1,143.999995605469,2|0,0:0|0:0,0:0:0:0:
218,360,70095,2,0,L|132:344,1,71.9999978027344,10|2,0:0|0:1,0:0:0:0:
76,330,70422,1,2,0:2:0:0:
6,203,70750,1,10,0:0:0:0:
103,97,71078,6,0,B|136:133|136:133|249:121,1,143.999995605469,6|8,0:0|0:0,0:0:0:0:
290,81,71570,2,0,B|323:45|323:45|436:57,1,143.999995605469,2|0,0:1|1:0,0:0:0:0:
477,95,72062,2,0,L|458:171,1,71.9999978027344,8|2,0:0|1:2,0:0:0:0:
429,230,72390,5,2,1:2:0:0:
429,230,72554,2,0,L|454:307,1,71.9999978027344,2|8,3:2|0:0,0:0:0:0:
414,360,72881,2,0,L|258:344,1,143.999995605469,2|0,1:2|1:0,0:0:0:0:
199,333,73373,1,8,0:0:0:0:
105,257,73701,6,0,P|146:197|133:142,1,120,6|2,1:2|0:0,0:0:0:0:
105,103,74193,1,2,1:2:0:0:
204,35,74521,1,2,1:2:0:0:
204,35,74685,2,0,L|271:47,1,60,8|0,0:0|0:0,0:0:0:0:
321,61,75013,6,0,P|336:28|338:-7,2,60,2|0|2,1:2|1:2|0:0,0:0:0:0:
314,120,75504,1,2,1:2:0:0:
405,198,75832,1,2,1:2:0:0:
405,198,75996,2,0,L|393:282,1,60,10|0,0:0|0:0,0:0:0:0:
349,294,76324,6,0,P|289:284|238:316,1,120,2|2,1:2|0:0,0:0:0:0:
219,369,76816,1,6,1:2:0:0:
148,271,77144,1,0,1:0:0:0:
148,271,77308,2,0,L|63:281,1,60,10|4,0:0|1:2,0:0:0:0:
11,185,77799,1,2,1:2:0:0:
93,98,78127,1,4,0:0:0:0:
420,59,78947,6,0,L|413:126,1,66.0000020141602,6|2,1:2|1:2,0:0:0:0:
404,190,79275,1,10,0:0:0:0:
467,305,79603,1,10,0:0:0:0:
467,305,79767,2,0,P|402:304|341:347,1,132.00000402832,2|2,1:2|1:2,0:0:0:0:
286,365,80258,2,0,L|196:359,1,66.0000020141602,2|0,0:0|1:0,0:0:0:0:
160,331,80586,2,0,B|145:272|145:272|168:183,2,132.00000402832,10|10|10,0:0|0:0|0:0,0:0:0:0:
27,326,81570,6,0,L|14:255,1,66.0000020141602,0|0,0:0|1:0,0:0:0:0:
2,195,81898,1,10,0:0:0:0:
65,78,82226,1,10,0:0:0:0:
65,78,82390,2,0,B|118:91|118:91|220:65,1,132.00000402832,2|2,1:2|1:2,0:0:0:0:
254,49,82881,1,2,0:0:0:0:
356,132,83209,1,10,0:0:0:0:
479,85,83537,2,0,L|502:163,1,66.0000020141602,10|2,0:0|1:2,0:0:0:0:
455,199,83865,2,0,L|432:277,1,66.0000020141602,10|0,0:0|1:0,0:0:0:0:
234,356,84521,5,14,1:2:0:0:
234,356,84685,2,0,L|154:343,1,66.0000020141602,2|10,1:2|0:0,0:0:0:0:
105,326,85013,1,2,1:2:0:0:
105,326,85177,2,0,P|80:270|81:235,1,66.0000020141602,8|2,0:0|1:2,0:0:0:0:
99,203,85504,2,0,P|124:147|123:112,1,66.0000020141602,2|0,0:0|1:0,0:0:0:0:
112,77,85832,2,0,B|71:54|71:54|-3:102,2,132.00000402832,10|10|10,0:0|0:0|0:0,0:0:0:0:
235,23,86816,6,0,L|310:58,1,66.0000020141602,0|0,0:0|1:0,0:0:0:0:
353,82,87144,1,10,0:0:0:0:
478,41,87472,1,10,0:0:0:0:
478,41,87636,2,0,L|494:189,1,132.00000402832,2|2,1:2|1:2,0:0:0:0:
474,235,88127,2,0,L|463:315,1,66.0000020141602,2|0,0:0|1:0,0:0:0:0:
451,365,88455,1,10,0:0:0:0:
347,282,88783,2,0,L|256:263,1,66.0000020141602,10|0,1:2|1:0,0:0:0:0:
225,302,89111,2,0,L|134:321,1,66.0000020141602,10|0,1:2|1:0,0:0:0:0:
