osu file format v14

[General]
AudioFilename: audio.mp3
AudioLeadIn: 0
PreviewTime: 52390
Countdown: 0
SampleSet: Soft
StackLeniency: 0.4
Mode: 0
LetterboxInBreaks: 0
WidescreenStoryboard: 1

[Editor]
DistanceSpacing: 0.9
BeatDivisor: 16
GridSize: 32
TimelineZoom: 4.899997

[Metadata]
Title:No buts! (TV Size)
TitleUnicode:No buts! (TV Size)
Artist:Kawada Mami
ArtistUnicode:川田まみ
Creator:Kyutei
Version:Index
Source:とある魔術の禁書目録Ⅱ
Tags:Anya Melfissa Shingyouji Yuni Amats Nachmark melleganol Kanui chaser01 Koiyuki to aru majutsu no index II 2 toaru a certain magical touma railgun misaka mikoto japanese jp pop j-pop jpop female vocal opening op anime
BeatmapID:4403811
BeatmapSetID:1838322

[Difficulty]
HPDrainRate:5.6
CircleSize:4
OverallDifficulty:8.8
ApproachRate:9.2
SliderMultiplier:1.83
SliderTickRate:1

[Events]
//Background and Video events
Video,-460,"video.mp4"
0,0,"Railgun.jpg",0,0
//Break Periods
//Storyboard Layer 0 (Background)
//Storyboard Layer 1 (Fail)
//Storyboard Layer 2 (Pass)
//Storyboard Layer 3 (Foreground)
//Storyboard Layer 4 (Overlay)
//Storyboard Sound Samples

[TimingPoints]
267,327.868852459016,4,2,1,60,1,0
1906,-83.3333333333333,4,2,1,60,0,0
2152,-83.3333333333333,4,2,1,5,0,0
2234,-166.666666666667,4,2,1,60,0,0
2316,-62.5,4,2,1,5,0,0
2398,-100,4,2,1,60,0,0
2480,-83.3333333333333,4,2,1,5,0,0
2562,-100,4,2,1,60,0,0
2807,-62.5,4,2,1,5,0,0
2889,-100,4,2,1,60,0,0
4529,-100,4,2,1,60,0,0
4775,-83.3333333333333,4,2,1,5,0,0
4857,-166.666666666667,4,2,1,60,0,0
4939,-62.5,4,2,1,5,0,0
5021,-100,4,2,1,60,0,0
5103,-83.3333333333333,4,2,1,5,0,0
5185,-100,4,2,1,60,0,0
5430,-62.5,4,2,1,5,0,0
5512,-100,4,2,1,60,0,0
7152,-100,4,2,1,60,0,0
7398,-83.3333333333333,4,2,1,5,0,0
7480,-166.666666666667,4,2,1,60,0,0
7562,-62.5,4,2,1,5,0,0
7644,-100,4,2,1,60,0,0
7726,-83.3333333333333,4,2,1,5,0,0
7807,-100,4,2,1,60,0,0
8053,-62.5,4,2,1,5,0,0
8135,-100,4,2,1,60,0,0
9693,-83.3333333333333,4,2,1,60,0,0
9775,-100,4,2,1,60,0,0
10103,-166.666666666667,4,2,1,60,0,0
10185,-83.3333333333333,4,2,1,5,0,0
10266,-125,4,2,1,60,0,0
10348,-100,4,2,1,5,0,0
10430,-100,4,2,1,60,0,0
10512,-100,4,2,1,5,0,0
10594,-83.3333333333333,4,2,1,60,0,0
10676,-100,4,2,1,5,0,0
10758,-83.3333333333333,4,2,1,60,0,0
10922,-100,4,2,1,60,0,0
11414,-200,4,2,1,60,0,0
12316,-83.3333333333333,4,2,1,5,0,0
12398,-133.333333333333,4,2,1,60,0,0
13545,-83.3333333333333,4,2,1,60,0,0
13709,-250,4,2,1,40,0,0
14037,-166.666666666667,4,2,1,50,0,0
14365,-125,4,2,1,60,0,0
14693,-83.3333333333333,4,2,1,70,0,0
15021,-62.5,4,2,1,75,0,0
15348,-83.3333333333333,4,2,1,75,0,0
15676,-50,4,2,1,75,0,0
16004,-83.3333333333333,4,2,1,70,0,0
16045,-83.3333333333333,4,2,1,70,0,0
16250,-100,4,2,1,5,0,0
16332,-83.3333333333333,4,2,1,70,0,0
17234,-100,4,2,1,70,0,0
17316,-500,4,2,1,70,0,0
17562,-83.3333333333333,4,2,1,70,0,0
17644,-71.4285714285714,4,2,1,70,0,0
17889,-83.3333333333333,4,2,1,70,0,0
17971,-71.4285714285714,4,2,1,70,0,0
18053,-100,4,2,1,5,0,0
18135,-71.4285714285714,4,2,1,70,0,0
18217,-100,4,2,1,5,0,0
18299,-71.4285714285714,4,2,1,70,0,0
18627,-83.3333333333333,4,2,1,70,0,0
18873,-100,4,2,1,5,0,0
18955,-83.3333333333333,4,2,1,70,0,0
20430,-41.6666666666667,4,2,1,70,0,0
20471,-83.3333333333333,4,2,1,70,0,0
20512,-35.7142857142857,4,2,1,70,0,0
21250,-100,4,2,1,60,0,0
21578,-100,4,2,1,60,0,0
22807,-83.3333333333333,4,2,1,60,0,0
22889,-250,4,2,1,60,0,0
23135,-100,4,2,1,5,0,0
23217,-100,4,2,1,60,0,0
23545,-55.5555555555556,4,2,1,60,0,0
24201,-100,4,2,1,60,0,0
24529,-125,4,2,1,60,0,0
25430,-83.3333333333333,4,2,1,60,0,0
25512,-250,4,2,1,60,0,0
25758,-100,4,2,1,5,0,0
25840,-100,4,2,1,60,0,0
26250,-100,4,2,1,5,0,0
26332,-71.4285714285714,4,2,1,60,0,0
26414,-100,4,2,1,5,0,0
26496,-100,4,2,1,60,0,0
26824,-100,4,2,1,60,0,0
28135,-83.3333333333333,4,2,1,60,0,0
28381,-83.3333333333333,4,2,1,60,0,0
28463,-83.3333333333333,4,2,1,60,0,0
28791,-50,4,2,1,60,0,0
28955,-35.7142857142857,4,2,1,60,0,0
29119,-83.3333333333333,4,2,1,60,0,0
29611,-125,4,2,1,60,0,0
30840,-100,4,2,1,5,0,0
30922,-125,4,2,1,60,0,0
31086,-66.6666666666667,4,2,1,60,0,0
31168,-83.3333333333333,4,2,1,5,0,0
31250,-50,4,2,1,60,0,0
31414,-62.5,4,2,1,60,0,0
31660,-83.3333333333333,4,2,1,5,0,0
31742,-83.3333333333333,4,2,1,60,0,0
31988,-83.3333333333333,4,2,1,5,0,0
32070,-62.5,4,2,1,60,0,0
32234,-71.4285714285714,4,2,1,60,0,0
32971,-100,4,2,1,5,0,0
33053,-71.4285714285714,4,2,1,60,0,0
33381,-55.5555555555556,4,2,1,60,0,0
33627,-83.3333333333333,4,2,1,5,0,0
33709,-55.5555555555556,4,2,1,60,0,0
33791,-100,4,2,1,5,0,0
33873,-55.5555555555556,4,2,1,60,0,0
33955,-100,4,2,1,5,0,0
34037,-71.4285714285714,4,2,1,60,0,0
34283,-83.3333333333333,4,2,1,60,0,0
34365,-83.3333333333333,4,2,1,60,0,0
34611,-83.3333333333333,4,2,1,5,0,0
34693,-83.3333333333334,4,2,1,60,0,0
35348,-83.3333333333333,4,2,1,60,0,0
35594,-83.3333333333333,4,2,1,5,0,0
35676,-83.3333333333333,4,2,1,60,0,0
36332,-200,4,2,1,60,0,0
36578,-83.3333333333333,4,2,1,5,0,0
36660,-200,4,2,1,60,0,0
36988,-200,4,2,1,70,0,0
42234,-142.857142857143,4,2,1,70,0,0
42480,-83.3333333333333,4,2,1,5,0,0
42562,-142.857142857143,4,2,1,70,0,0
43217,-100,4,2,1,70,0,0
43463,-83.3333333333333,4,2,1,5,0,0
43545,-100,4,2,1,70,0,0
43873,-76.9230769230769,4,2,1,70,0,0
44119,-83.3333333333333,4,2,1,5,0,0
44201,-76.9230769230769,4,2,1,70,0,0
44775,-83.3333333333333,4,2,1,70,0,0
44857,-76.9230769230769,4,2,1,70,0,0
45922,-83.3333333333333,4,2,1,5,0,0
46004,-76.9230769230769,4,2,1,70,0,0
47480,-333.333333333333,4,2,1,70,0,0
50103,-62.5,4,2,1,70,0,0
50185,-83.3333333333333,4,2,1,70,0,0
50266,-62.5,4,2,1,70,0,0
50348,-83.3333333333333,4,2,1,70,0,0
50430,-55.5555555555556,4,2,1,70,0,0
50758,-62.5,4,2,1,70,0,0
51168,-83.3333333333333,4,2,1,70,0,0
51250,-62.5,4,2,1,70,0,0
51332,-83.3333333333333,4,2,1,70,0,0
51414,-19.9999999999999,4,2,1,40,0,0
51742,-19.9999999999999,4,2,1,50,0,0
52070,-19.9999999999999,4,2,1,60,0,0
52398,-19.9999999999999,4,2,1,70,0,0
52726,-41.6666666666667,4,2,2,80,0,0
52746,-62.5,4,2,2,80,0,0
52807,-62.5,4,2,1,80,0,0
52971,-62.5,4,2,1,5,0,0
53053,-62.5,4,2,1,80,0,0
53135,-62.5,4,2,1,5,0,0
53217,-71.4285714285714,4,2,1,80,0,0
53709,-100,4,2,1,80,0,0
53955,-62.5,4,2,1,5,0,0
54037,-62.5,4,2,1,80,0,0
54119,-62.5,4,2,1,5,0,0
54201,-62.5,4,2,1,80,0,0
54529,-62.5,4,2,1,80,0,0
54775,-62.5,4,2,1,5,0,0
54857,-62.5,4,2,1,80,0,0
55348,-45.4545454545455,4,2,1,80,0,0
55594,-83.3333333333333,4,2,1,5,0,0
55676,-83.3333333333333,4,2,1,80,0,0
56168,-55.5555555555556,4,2,1,80,0,0
56988,-500,4,2,1,80,0,0
57234,-83.3333333333333,4,2,1,80,0,0
57316,-166.666666666667,4,2,1,80,0,0
57398,-100,4,2,1,5,0,0
57480,-100,4,2,1,80,0,0
57562,-100,4,2,1,5,0,0
57644,-62.5,4,2,1,80,0,0
57726,-100,4,2,1,5,0,0
57807,-55.5555555555556,4,2,1,80,0,0
57889,-100,4,2,1,5,0,0
57971,-55.5555555555556,4,2,1,80,0,0
58463,-83.3333333333333,4,2,3,80,0,0
58545,-83.3333333333333,4,2,1,80,0,0
59119,-50,4,2,1,80,0,0
59201,-83.3333333333333,4,2,1,80,0,0
59283,-50,4,2,1,80,0,0
59775,-50,4,2,3,80,0,0
59857,-50,4,2,1,80,0,0
59939,-166.666666666667,4,2,1,80,0,0
60266,-50,4,2,1,80,0,0
60594,-41.6666666666667,4,2,1,80,0,0
61086,-100,4,2,3,80,0,0
61168,-41.6666666666667,4,2,1,5,0,0
61250,-41.6666666666667,4,2,1,80,0,0
61906,-62.5,4,2,1,80,0,0
61988,-100,4,2,1,5,0,0
62070,-41.6666666666667,4,2,1,80,0,0
62152,-100,4,2,1,5,0,0
62234,-41.6666666666667,4,2,1,80,0,0
62398,-50,4,2,1,60,0,0
62726,-25,4,2,1,70,0,0
63217,-41.6666666666667,4,2,1,80,0,0
63258,-62.5,4,2,1,80,0,0
63463,-83.3333333333333,4,2,1,5,0,0
63545,-50,4,2,1,80,0,0
63627,-83.3333333333333,4,2,1,5,0,0
63709,-62.5,4,2,1,80,0,0
63955,-100,4,2,1,5,0,0
64037,-100,4,2,1,80,0,0
64529,-83.3333333333333,4,2,1,80,0,0
64939,-83.3333333333333,4,2,1,80,0,0
65021,-71.4285714285714,4,2,1,80,0,0
65266,-83.3333333333333,4,2,1,5,0,0
65348,-66.6666666666667,4,2,1,80,0,0
65840,-50,4,2,1,80,0,0
66086,-83.3333333333333,4,2,1,5,0,0
66168,-50,4,2,1,80,0,0
66250,-83.3333333333333,4,2,1,5,0,0
66332,-62.5,4,2,1,80,0,0
66824,-41.6666666666667,4,2,1,80,0,0
66906,-83.3333333333333,4,2,1,5,0,0
66988,-50,4,2,1,80,0,0
67480,-62.5,4,2,1,80,0,0
67726,-100,4,2,1,5,0,0
67807,-33.3333333333333,4,2,1,80,0,0
68463,-100,4,2,1,80,0,0
68955,-100,4,2,3,80,0,0
69037,-100,4,2,1,80,0,0
69283,-50,4,2,1,80,0,0
69611,-55.5555555555556,4,2,1,80,0,0
70021,-83.3333333333333,4,2,1,5,0,0
70103,-50,4,2,1,80,0,0
70266,-50,4,2,3,80,0,0
70348,-50,4,2,1,80,0,0
70430,-83.3333333333333,4,2,1,80,0,0
70512,-83.3333333333333,4,2,1,80,0,0
70594,-66.6666666666667,4,2,1,80,0,0
71086,-83.3333333333333,4,2,1,80,0,0
71578,-111.111111111111,4,2,3,80,0,0
71660,-166.666666666667,4,2,1,80,0,0
71824,-83.3333333333333,4,2,1,5,0,0
71906,-83.3333333333334,4,2,1,80,0,0
72152,-100,4,2,1,5,0,0
72234,-83.3333333333334,4,2,1,80,0,0
72562,-50,4,2,1,80,0,0
72889,-28.5714285714286,4,2,1,80,0,0
73217,-20,4,2,1,80,0,0
73709,-100,4,2,1,60,0,0
74447,-100,4,2,1,5,0,0
74529,-100,4,2,1,60,0,0
74939,-100,4,2,1,5,0,0
75021,-100,4,2,1,60,0,0
75512,-76.923076923077,4,2,1,60,0,0
75758,-100,4,2,1,5,0,0
75840,-76.923076923077,4,2,1,60,0,0
76332,-66.6666666666667,4,2,1,60,0,0
77070,-100,4,2,1,5,0,0
77152,-66.6666666666667,4,2,1,60,0,0
78053,-83.3333333333333,4,2,1,60,0,0
78135,-66.6666666666667,4,2,1,60,0,0
78217,-100,4,2,1,5,0,0
78627,-27.7777777777778,4,2,1,60,0,0
78955,-111.111111111111,4,2,2,80,0,0
78976,-111.111111111111,4,2,2,80,0,0
79037,-111.111111111111,4,2,1,80,0,0
80103,-111.111111111111,4,2,1,80,0,0
80594,-50,4,2,1,80,0,0
80922,-71.4285714285714,4,2,1,80,0,0
82726,-111.111111111111,4,2,1,80,0,0
83217,-50,4,2,1,80,0,0
83545,-71.4285714285714,4,2,1,80,0,0
84529,-71.4285714285714,4,2,1,80,0,0
84570,-71.4285714285714,4,2,1,80,0,0
85348,-111.111111111111,4,2,1,80,0,0
85840,-50,4,2,1,80,0,0
86168,-71.4285714285714,4,2,1,80,0,0
87971,-111.111111111111,4,2,1,80,0,0
88463,-50,4,2,1,80,0,0
88791,-71.4285714285714,4,2,1,80,0,0

[Colours]
Combo1 : 141,204,85
Combo2 : 57,164,215

[HitObjects]
9,153,267,5,6,3:2:0:0:
9,153,430,1,2,0:0:0:0:
89,60,594,2,0,L|104:157,1,91.5,2|0,3:2|0:0,0:0:0:0:
17,295,922,1,2,3:2:0:0:
204,163,1086,2,0,L|189:260,1,91.5,2|0,0:0|3:2,0:0:0:0:
256,338,1414,1,2,0:0:0:0:
321,292,1578,1,2,3:2:0:0:
395,319,1742,1,2,0:0:0:0:
464,369,1906,6,0,B|486:357|486:357|466:246|466:246|429:243,1,164.699994973755,2|0,3:1|0:0,0:0:0:0:
380,194,2234,2,0,L|376:167,1,27.4499991622925,2|0,3:1|0:0,0:0:0:0:
327,110,2398,2,0,L|319:59,1,45.75,2|0,2:1|0:0,0:0:0:0:
466,0,2562,6,0,B|530:51|530:51|457:48,1,137.25,2|0,3:1|0:0,0:0:0:0:
400,36,2889,5,6,3:2:0:0:
400,36,3053,1,2,0:0:0:0:
222,124,3217,2,0,L|237:27,1,91.5,2|0,3:2|0:0,0:0:0:0:
301,216,3545,1,2,3:2:0:0:
89,114,3709,2,0,L|102:204,1,91.5,2|0,0:0|3:2,0:0:0:0:
1,346,4037,1,2,0:0:0:0:
72,367,4201,1,2,3:2:0:0:
129,318,4365,1,2,0:0:0:0:
395,319,4529,6,0,B|408:360|408:360|313:337,1,137.25,2|0,3:1|0:0,0:0:0:0:
243,366,4857,2,0,L|239:339,1,27.4499991622925,2|0,3:1|0:0,0:0:0:0:
262,266,5021,2,0,L|254:215,1,45.75,2|0,2:1|0:0,0:0:0:0:
82,113,5185,6,0,B|48:156|48:156|145:126,1,137.25,2|0,3:1|0:0,0:0:0:0:
172,69,5512,5,6,3:2:0:0:
172,69,5676,1,2,0:0:0:0:
273,0,5840,2,0,L|258:97,1,91.5,2|0,3:2|0:0,0:0:0:0:
144,248,6168,1,2,3:2:0:0:
359,102,6332,2,0,L|372:192,1,91.5,2|0,0:0|3:2,0:0:0:0:
479,350,6660,1,2,0:0:0:0:
424,297,6824,1,2,3:2:0:0:
348,317,6988,1,2,0:0:0:0:
158,351,7152,6,0,B|72:371|72:371|82:309,1,137.25,2|0,3:1|0:0,0:0:0:0:
140,276,7480,2,0,L|144:249,1,27.4499991622925,2|0,3:1|0:0,0:0:0:0:
115,178,7644,2,0,L|123:127,1,45.75,2|0,2:1|0:0,0:0:0:0:
33,39,7807,6,0,B|-5:76|-5:76|92:50,1,137.25,2|0,3:1|0:0,0:0:0:0:
145,9,8135,5,6,3:2:0:0:
145,9,8299,1,2,0:0:0:0:
268,105,8463,2,0,L|254:14,1,91.5,2|0,3:2|0:0,0:0:0:0:
449,135,8791,1,2,3:2:0:0:
333,238,8955,2,0,L|346:147,1,91.5,2|0,0:0|3:2,0:0:0:0:
495,40,9283,1,2,0:0:0:0:
488,276,9447,5,10,0:0:0:0:
457,310,9529,1,8,0:0:0:0:
414,298,9611,1,0,3:0:0:0:
435,224,9775,1,0,3:0:0:0:
59,340,9939,5,10,0:0:0:0:
91,372,10021,1,8,0:0:0:0:
139,353,10103,2,0,L|147:313,1,27.4499991622925,0|0,3:1|0:0,0:0:0:0:
183,297,10266,2,0,L|191:256,1,36.6,0|0,3:0|0:0,0:0:0:0:
99,187,10430,2,0,L|88:143,1,45.75,0|0,3:0|0:0,0:0:0:0:
26,99,10594,2,0,L|13:46,1,54.899998324585,0|0,3:0|0:0,0:0:0:0:
127,10,10758,5,4,3:2:0:0:
377,88,11414,6,0,B|437:-2|437:-2|390:152,1,251.625,2|0,0:0|0:0,0:0:0:0:
476,192,12398,2,0,B|514:235|514:235|477:140,2,137.250005235672,2|2|2,3:1|1:0|0:0,0:0:0:0:
512,75,13381,5,2,3:2:0:0:
285,139,13545,1,0,3:2:0:0:
62,16,13709,6,0,L|67:39,3,18.3,0|0|0|0,1:0|1:0|1:0|1:0,0:0:0:0:
163,42,14037,6,0,L|137:66,3,27.4499991622925,0|0|0|0,1:0|1:0|1:0|1:0,0:0:0:0:
202,159,14365,6,0,L|165:148,3,36.6,0|0|0|0,1:0|1:0|1:0|1:0,0:0:0:0:
109,251,14693,6,0,L|96:190,3,54.899998324585,0|0|0|0,1:0|1:0|1:0|1:0,0:0:0:0:
0,126,15021,6,0,B|-16:139|-16:139|49:126,1,73.2,2|0,3:1|1:0,0:0:0:0:
299,361,15185,5,0,1:0:0:0:
245,379,15266,1,0,1:0:0:0:
202,340,15348,1,2,1:0:0:0:
212,284,15430,1,0,1:0:0:0:
267,266,15512,1,0,3:0:0:0:
311,303,15594,1,0,1:0:0:0:
378,349,15676,6,0,L|404:354,14,22.875,8|0|0|0|0|0|0|0|0|0|0|0|0|0|0,0:0|0:0|0:0|0:0|0:0|0:0|0:0|0:0|0:0|0:0|0:0|0:0|0:0|0:0|0:0,0:0:0:0:
512,293,16004,6,0,B|507:364|507:364|462:268,1,164.699994973755,4|0,3:2|0:0,0:0:0:0:
494,171,16332,2,0,B|370:246|370:246|418:60,1,329.39998994751,8|0,0:0|3:2,0:0:0:0:
255,0,16988,2,0,B|217:21|217:21|229:98|229:98|276:104,1,164.699994973755,8|0,0:0|0:0,0:0:0:0:
321,46,17316,1,0,3:2:0:0:
321,46,17480,1,0,0:0:0:0:
184,165,17644,6,0,B|76:192|76:192|96:102,1,192.149994136048,8|0,0:0|0:0,0:0:0:0:
30,17,17971,6,0,B|13:43|13:43|21:75,1,64.0499980453492,2|0,1:0|0:0,0:0:0:0:
252,207,18135,2,0,B|269:233|269:233|261:265,1,64.0499980453492,2|0,3:1|0:0,0:0:0:0:
51,347,18299,6,0,B|22:355|22:355|19:363|19:363|115:345,1,128.099996090698,8|8,0:0|3:0,0:0:0:0:
223,381,18627,6,0,B|229:351|229:351|327:336|327:336|346:372,1,164.699994973755,0|0,3:2|0:0,0:0:0:0:
512,181,18955,2,0,B|348:247|348:247|398:102,1,329.39998994751,8|0,0:0|3:2,0:0:0:0:
267,2,19611,2,0,B|192:15|192:15|190:54,1,109.79999664917,8|0,0:0|0:0,0:0:0:0:
132,156,19939,5,0,3:2:0:0:
55,175,20103,1,0,3:2:0:0:
0,121,20266,1,8,0:0:0:0:
0,341,20430,5,0,3:2:0:0:
32,307,20512,1,0,3:2:0:0:
76,327,20594,2,0,L|83:358,14,32.0249990226746,0|0|0|0|0|0|0|0|0|0|0|0|0|0|0,3:2|3:2|3:2|3:2|3:2|3:2|3:2|3:2|3:2|3:2|3:2|3:2|3:2|3:2|3:2,0:0:0:0:
163,249,20922,5,8,1:0:0:0:
154,283,21004,1,8,1:0:0:0:
180,303,21086,1,8,1:0:0:0:
256,303,21168,1,8,1:0:0:0:
289,371,21250,1,4,3:2:0:0:
494,269,21578,6,0,P|427:282|329:228,1,183,10|2,0:0|0:0,0:0:0:0:
475,140,22070,1,0,3:2:0:0:
338,25,22234,2,0,P|386:26|436:10,1,91.5,10|2,0:0|0:0,0:0:0:0:
301,132,22562,5,2,3:2:0:0:
227,155,22726,1,2,0:0:0:0:
166,104,22889,2,0,L|176:48,1,54.9,10|0,0:0|0:0,0:0:0:0:
60,15,23217,6,0,L|41:19,14,11.4375,2|0|0|0|0|0|0|0|2|0|0|0|0|0|0,1:0|0:0|0:0|0:0|0:0|0:0|0:0|0:0|3:1|0:0|0:0|0:0|0:0|0:0|0:0,0:0:0:0:
64,105,23545,6,0,L|44:102,14,20.5874993717194,8|0|0|0|0|0|0|0|0|0|0|0|0|0|0,0:0|0:0|0:0|0:0|0:0|0:0|0:0|0:0|0:0|0:0|0:0|0:0|0:0|0:0|0:0,0:0:0:0:
36,188,23873,5,0,3:2:0:0:
28,370,24201,6,0,B|94:357|94:357|117:376,1,91.5,8|0,0:0|0:0,0:0:0:0:
212,301,24529,2,0,L|218:260,2,36.6,2|0|0,1:2|1:0|3:2,0:0:0:0:
139,274,24857,1,10,0:0:0:0:
319,384,25021,5,2,0:0:0:0:
319,384,25103,1,0,0:0:0:0:
319,384,25185,1,0,3:2:0:0:
369,319,25348,1,2,0:0:0:0:
340,237,25512,2,0,B|351:167,1,54.9,10|0,1:2|0:0,0:0:0:0:
491,9,25840,6,0,L|477:13,14,11.4375,0|0|0|0|0|0|0|0|0|0|0|0|0|0|0,1:0|1:0|1:0|1:0|1:0|1:0|1:0|1:0|3:1|1:0|1:0|1:0|1:0|0:0|0:0,0:0:0:0:
455,55,26168,2,0,L|405:42,1,45.75,8|0,1:0|0:0,0:0:0:0:
313,97,26332,2,0,L|260:51,1,64.0499980453492,8|0,1:0|0:0,0:0:0:0:
170,16,26496,5,4,3:2:0:0:
23,169,26824,6,0,P|108:171|194:113,1,183,10|2,0:0|0:0,0:0:0:0:
341,308,27316,1,0,3:2:0:0:
189,230,27480,1,10,0:0:0:0:
116,373,27644,2,0,P|157:366|209:360,1,91.5,2|0,0:0|3:2,0:0:0:0:
332,218,27971,1,2,0:0:0:0:
497,372,28135,2,0,P|469:305|466:207,1,164.699994973755,10|0,0:0|0:0,0:0:0:0:
506,141,28463,6,0,L|504:121,14,13.7249995811463,2|0|0|0|0|0|0|0|2|0|0|0|2|0|0,1:0|0:0|0:0|0:0|0:0|0:0|0:0|0:0|3:1|0:0|0:0|0:0|1:0|0:0|0:0,0:0:0:0:
404,131,28791,6,0,L|412:104,6,22.875,10|0|0|0|0|0|0,0:0|0:0|0:0|0:0|0:0|0:0|0:0,0:0:0:0:
312,81,28955,6,0,L|332:54,6,32.0249990226746,2|0|0|0|0|0|0,0:0|0:0|0:0|0:0|0:0|0:0|0:0,0:0:0:0:
258,6,29119,6,0,P|150:1|60:72,1,219.59999329834,2|8,3:2|0:0,0:0:0:0:
0,203,29611,2,0,B|81:190|61:232|148:219,1,146.4,2|0,0:0|3:2,0:0:0:0:
207,146,30103,1,8,0:0:0:0:
364,275,30266,5,0,0:0:0:0:
370,292,30348,1,0,0:0:0:0:
359,306,30430,1,0,3:2:0:0:
284,370,30594,5,2,0:0:0:0:
235,272,30758,2,0,L|293:281,1,36.6,10|0,0:0|0:0,0:0:0:0:
317,200,30922,1,2,3:2:0:0:
494,84,31086,6,0,L|413:92,1,68.6250026178361,10|0,0:0|0:0,0:0:0:0:
365,34,31250,1,0,3:2:0:0:
88,9,31414,6,0,B|38:18|21:69|21:69|35:26|78:8|125:27,1,219.6,14|0,0:0|0:0,0:0:0:0:
93,101,31742,2,0,P|164:111|248:62,1,164.699994973755,2|0,3:2|0:0,0:0:0:0:
243,67,32070,1,10,0:0:0:0:
512,237,32234,2,0,P|447:172|287:210,1,256.199992181397,2|0,0:0|3:2,0:0:0:0:
63,314,32726,6,0,B|19:377|19:377|150:340,1,192.149994136048,8|0,0:0|0:0,0:0:0:0:
208,370,33053,1,0,3:2:0:0:
208,370,33217,1,0,0:0:0:0:
396,258,33381,6,0,B|457:366|457:366|267:296,1,247.049992460633,8|0,0:0|0:0,0:0:0:0:
335,354,33709,6,0,B|306:326|306:326|328:276,1,82.3499974868775,2|0,1:0|0:0,0:0:0:0:
485,153,33873,2,0,B|514:125|514:125|492:75,1,82.3499974868775,2|0,3:1|0:0,0:0:0:0:
255,34,34037,6,0,B|209:48|209:48|293:37,1,128.099996090698,8|8,0:0|3:0,0:0:0:0:
380,0,34365,6,0,B|414:22|414:22|395:104|395:104|347:107,1,164.699994973755,0|0,3:2|0:0,0:0:0:0:
158,211,34693,2,0,B|86:205|86:205|53:32|53:32|135:2,1,329.39998994751,8|0,0:0|3:2,0:0:0:0:
250,190,35348,6,0,B|259:241|259:241|247:265|247:265|262:356,1,164.699994973755,8|0,0:0|0:0,0:0:0:0:
352,363,35676,5,0,3:2:0:0:
392,369,35758,1,0,3:2:0:0:
422,333,35840,1,0,3:2:0:0:
413,294,35922,1,0,3:2:0:0:
422,288,36004,5,8,0:0:0:0:
462,226,36086,1,8,0:0:0:0:
418,165,36168,1,8,0:0:0:0:
342,174,36250,1,8,0:0:0:0:
290,106,36332,6,0,L|301:37,1,68.625,0|0,3:2|0:0,0:0:0:0:
236,0,36660,1,8,0:0:0:0:
236,0,36824,1,0,3:2:0:0:
491,116,36988,5,10,1:0:0:0:
422,75,37152,1,8,1:0:0:0:
147,315,37480,5,10,1:0:0:0:
0,245,37644,1,8,1:0:0:0:
0,245,37971,5,10,1:0:0:0:
248,148,38135,1,8,1:0:0:0:
398,366,38463,5,8,1:0:0:0:
468,331,38627,1,10,1:0:0:0:
468,331,38955,5,10,1:0:0:0:
308,252,39119,1,10,1:0:0:0:
79,112,39283,5,8,1:0:0:0:
359,15,39447,1,8,1:0:0:0:
102,199,39611,5,10,1:0:0:0:
4,156,39775,1,8,1:0:0:0:
222,380,40103,5,10,1:0:0:0:
499,249,40266,1,8,1:0:0:0:
159,40,40594,5,10,1:0:0:0:
186,121,40758,1,8,1:0:0:0:
464,122,41086,5,8,1:0:0:0:
398,366,41250,1,10,1:0:0:0:
0,300,41578,5,10,1:0:0:0:
73,273,41742,1,10,1:0:0:0:
146,320,41906,5,8,1:0:0:0:
308,252,42070,1,8,1:0:0:0:
444,296,42234,6,0,B|457:294|457:294|478:387,1,96.0749970680238,6|0,3:2|0:0,0:0:0:0:
403,218,42562,1,10,0:0:0:0:
434,287,42726,2,0,L|460:148,1,128.099996090698,2|0,0:0|3:2,0:0:0:0:
297,52,43217,2,0,B|268:77|268:77|286:134|286:134|327:137,1,137.25,10|0,0:0|0:0,0:0:0:0:
369,75,43545,1,0,3:2:0:0:
44,362,43873,6,0,B|26:316|65:281|95:302|134:257|111:210,1,178.424991832352,10|0,0:0|0:0,0:0:0:0:
49,180,44201,1,2,0:0:0:0:
49,180,44365,1,2,3:2:0:0:
145,349,44529,2,0,P|213:355|280:272,1,178.424991832352,8|0,0:0|0:0,0:0:0:0:
336,210,44857,5,10,0:0:0:0:
419,233,45021,1,0,3:2:0:0:
467,162,45185,1,0,3:2:0:0:
361,71,45348,5,10,0:0:0:0:
174,145,45512,1,0,3:2:0:0:
79,0,45676,1,0,3:2:0:0:
1,35,45840,6,0,B|-4:41|-4:41|7:101,1,59.4749972774507,10|0,0:0|0:0,0:0:0:0:
21,168,46004,1,0,3:2:0:0:
260,384,46168,5,8,0:0:0:0:
302,366,46250,1,8,0:0:0:0:
302,318,46332,1,2,3:2:0:0:
224,315,46496,1,0,3:2:0:0:
319,53,46660,5,8,0:0:0:0:
361,71,46742,1,8,0:0:0:0:
361,119,46824,1,2,3:2:0:0:
283,122,46988,1,0,3:2:0:0:
151,33,47152,6,0,B|191:66|162:120|162:120|138:113,1,118.949994554901,10|0,0:0|3:2,0:0:0:0:
0,283,47480,2,0,B|43:224|132:226|132:226|65:271|38:369|119:402|150:395|151:356|124:341|105:367,1,384.299988272095,6|0,3:2|0:0,0:0:0:0:
440,145,50103,6,0,B|447:154|447:154|520:135,1,73.2,2|0,3:1|0:0,0:0:0:0:
366,136,50266,6,0,B|373:145|373:145|446:126,1,73.2,2|0,3:1|0:0,0:0:0:0:
183,242,50430,6,0,B|195:257|195:257|340:220,1,164.699994973755,2|0,3:1|0:0,0:0:0:0:
378,306,50758,6,0,B|390:290|390:290|517:323,1,146.4,2|0,3:1|0:0,0:0:0:0:
104,91,51086,6,0,B|111:80|111:80|195:102,1,73.2,2|0,3:1|0:0,0:0:0:0:
0,291,51250,6,0,B|7:280|7:280|91:302,1,73.2,2|0,3:1|0:0,0:0:0:0:
257,211,51414,6,0,L|247:154,46,57.1875,0|0|0|0|0|0|0|0|0|0|0|0|0|0|0|0|0|0|0|0|0|0|0|0|0|0|0|0|0|0|0|0|0|0|0|0|0|0|0|0|0|0|0|0|0|0|0,3:2|3:2|3:2|3:2|3:2|3:2|3:2|3:2|3:2|3:2|3:2|3:2|3:2|3:2|3:2|3:2|3:2|3:2|3:2|3:2|3:2|3:2|3:2|3:2|3:2|3:2|3:2|3:2|3:2|3:2|3:2|3:2|3:2|3:2|3:2|3:2|3:2|3:2|3:2|3:2|3:2|3:2|3:2|3:2|3:2|3:2|3:2,0:0:0:0:
221,185,52398,5,2,0:0:0:0:
283,10,52562,1,2,0:0:0:0:
407,363,52726,6,0,B|433:369|399:420|332:338|422:222|422:222|383:276|318:301,1,329.39998994751,6|0,0:0|0:0,0:0:0:0:
356,131,53053,2,0,B|342:107|342:107|352:165,1,73.2,8|0,0:0|0:0,0:0:0:0:
501,331,53217,6,0,P|399:313|256:369,1,256.199992181397
51,320,53709,2,0,B|6:348|6:348|107:328,1,137.25,8|0,0:0|0:0,0:0:0:0:
159,377,54037,6,0,B|182:349|182:349|164:306,1,73.2,2|0,3:2|0:0,0:0:0:0:
58,221,54201,2,0,B|1:174|1:174|38:100,1,146.4,2|8,0:0|0:0,0:0:0:0:
182,6,54529,2,0,B|193:60|193:60|299:74|299:74|329:22,1,219.6,2|0,0:0|0:0,0:0:0:0:
423,12,54857,5,2,0:0:0:0:
494,91,55021,1,8,0:0:0:0:
450,183,55185,1,0,0:0:0:0:
458,355,55348,6,0,B|481:379|519:375|519:375|471:254|381:258|381:258|360:205,1,301.950009214783,2|0,3:2|0:0,0:0:0:0:
343,147,55676,1,10,0:0:0:0:
275,360,55840,6,0,L|292:239,1,109.79999664917,2|0,0:0|3:2,0:0:0:0:
22,343,56168,2,0,L|49:170,1,164.699994973755,2|8,0:0|0:0,0:0:0:0:
149,347,56496,5,2,0:0:0:0:
167,354,56578,1,2,0:0:0:0:
180,337,56660,1,2,3:2:0:0:
133,273,56824,1,2,0:0:0:0:
169,204,56988,2,0,L|172:178,1,18.3,8|0,0:0|0:0,0:0:0:0:
9,14,57316,6,0,L|36:23,1,27.4499991622925,2|0,3:2|0:0,0:0:0:0:
53,51,57480,2,0,L|104:46,1,45.75,0|0,3:2|0:0,0:0:0:0:
135,83,57644,2,0,L|213:53,1,73.2,10|0,0:0|0:0,0:0:0:0:
270,100,57807,2,0,L|329:30,1,82.3499974868775,0|0,3:2|0:0,0:0:0:0:
396,8,57971,5,2,3:2:0:0:
512,185,58135,1,2,0:0:0:0:
456,378,58299,1,10,0:0:0:0:
331,192,58463,6,0,B|339:203|339:203|433:180,1,109.79999664917,2|2,2:1|3:2,0:0:0:0:
225,196,58791,2,0,B|233:207|233:207|327:184,1,109.79999664917,2|8,0:0|0:0,0:0:0:0:
61,178,59119,2,0,B|69:189|69:189|147:169,1,91.5,2|2,0:0|0:0,0:0:0:0:
0,120,59283,5,2,3:2:0:0:
394,377,59611,6,0,B|431:379|431:379|450:307|450:307|382:275,1,183,8|2,0:0|2:1,0:0:0:0:
270,121,59939,2,0,B|263:118|263:118|255:71,1,54.899998324585,2|0,3:2|0:0,0:0:0:0:
200,0,60266,6,0,B|204:38|204:38|311:57|311:57|333:11,1,183,10|0,0:0|0:0,0:0:0:0:
512,264,60594,2,0,B|473:176|473:176|228:208|228:208|212:313|212:313,1,439.19998659668,2|10,3:2|0:0,0:0:0:0:
107,384,61086,2,0,L|98:335,1,45.75,2|0,2:1|0:0,0:0:0:0:
29,277,61250,5,0,3:2:0:0:
119,174,61414,1,2,3:2:0:0:
60,49,61578,1,8,0:0:0:0:
200,11,61742,5,2,3:2:0:0:
180,54,61824,1,2,0:0:0:0:
214,86,61906,2,0,B|259:98|259:98|283:67,1,73.2,2|0,0:0|0:0,0:0:0:0:
310,94,62070,2,0,B|359:106|359:106|376:39,1,109.79999664917,2|0,3:2|0:0,0:0:0:0:
439,4,62234,1,8,0:0:0:0:
251,179,62398,6,0,L|256:202,8,22.875,2|0|0|0|0|0|0|0|0,3:2|3:2|3:2|3:2|3:2|3:2|3:2|3:2|3:2,0:0:0:0:
488,315,62726,6,0,L|502:382,16,45.75,2|0|0|0|0|0|0|0|0|0|0|0|0|0|0|0|0,3:2|3:2|3:2|3:2|3:2|3:2|3:2|3:2|3:2|3:2|3:2|3:2|3:2|3:2|3:2|3:2|3:2,0:0:0:0:
375,209,63217,6,0,P|357:314|381:210,1,329.39998994751,6|0,3:2|0:0,0:0:0:0:
302,332,63545,2,0,B|240:349|240:349|218:328,1,91.5,8|0,0:0|0:0,0:0:0:0:
75,384,63709,2,0,P|114:284|93:156,1,219.6,8|0,3:0|0:0,0:0:0:0:
81,279,64037,1,0,3:2:0:0:
55,105,64201,2,0,L|40:11,1,91.5,8|0,0:0|0:0,0:0:0:0:
229,57,64529,5,2,3:2:0:0:
172,110,64693,2,0,B|176:132|176:132|241:146|241:146|257:127,1,109.79999664917,2|8,0:0|0:0,0:0:0:0:
434,0,65021,2,0,P|392:63|381:183,1,192.149994136048,10|0,3:0|0:0,0:0:0:0:
416,94,65348,1,2,3:2:0:0:
508,214,65512,1,8,0:0:0:0:
460,355,65676,1,0,0:0:0:0:
301,226,65840,6,0,B|281:291|233:333|233:333|295:274|377:281,1,274.5,2|0,3:2|0:0,0:0:0:0:
328,297,66168,2,0,B|344:344|355:325|375:386,1,91.5,10|0,0:0|0:0,0:0:0:0:
245,157,66332,2,0,B|219:35|219:35|199:23,1,146.4,10|0,3:0|0:0,0:0:0:0:
45,245,66660,1,2,3:2:0:0:
119,220,66824,2,0,B|139:236|139:236|125:298|125:298|95:303,1,109.79999664917,8|0,0:0|0:0,0:0:0:0:
0,69,66988,5,2,0:0:0:0:
42,64,67070,1,2,0:0:0:0:
69,105,67152,1,0,3:2:0:0:
7,146,67316,1,2,0:0:0:0:
260,76,67480,6,0,P|340:90|456:8,1,219.6,10|0,0:0|0:0,0:0:0:0:
349,46,67807,2,0,L|340:7,4,34.3125013089181,2|0|0|0|0,0:0|0:0|0:0|0:0|0:0,0:0:0:0:
465,127,67971,5,0,3:2:0:0:
508,222,68135,1,10,0:0:0:0:
438,297,68299,1,0,3:2:0:0:
229,363,68463,5,6,3:2:0:0:
313,182,68627,1,2,0:0:0:0:
162,41,68791,1,10,0:0:0:0:
45,101,68955,6,0,B|17:64|17:64|33:18,1,91.5,2|0,2:1|0:0,0:0:0:0:
144,131,69283,2,0,B|233:192|233:192|138:189,1,183,2|8,3:2|0:0,0:0:0:0:
35,349,69611,1,2,0:0:0:0:
5,320,69693,1,2,0:0:0:0:
22,277,69775,2,0,P|123:273|233:371,1,247.049992460633,2|0,3:2|0:0,0:0:0:0:
398,328,70103,6,0,B|490:364|490:364|463:285,1,183,10|2,0:0|2:1,0:0:0:0:
339,380,70430,2,0,B|314:379|314:379|301:317|301:317|327:297,1,109.79999664917,2|0,0:0|3:2,0:0:0:0:
465,163,70758,2,0,B|494:161|494:161|510:86|510:86|478:60,1,137.250005235672,10|0,0:0|3:2,0:0:0:0:
317,81,71086,6,0,P|215:79|117:4,1,219.59999329834,2|10,3:2|0:0,0:0:0:0:
4,226,71578,2,0,P|57:200|128:209,1,123.524996230316,2|0,2:1|0:0,0:0:0:0:
119,205,71906,1,0,3:2:0:0:
258,320,72070,2,0,L|252:375,1,54.899998324585,8|0,0:0|0:0,0:0:0:0:
470,259,72234,5,2,0:0:0:0:
512,287,72316,1,2,0:0:0:0:
464,285,72398,1,2,3:2:0:0:
359,240,72562,6,0,L|352:212,8,22.875,2|0|0|0|0|0|0|0|8,3:2|3:2|3:2|3:2|3:2|3:2|3:2|3:2|0:0,0:0:0:0:
254,200,72889,6,0,L|259:158,8,40.0312503817677,2|0|0|0|0|0|0|0|0,3:2|3:2|3:2|3:2|3:2|3:2|3:2|3:2|3:2,0:0:0:0:
129,110,73217,6,0,L|154:56,14,57.1875,0|0|0|0|0|0|0|0|10|0|0|0|0|0|0,3:2|3:2|3:2|3:2|3:2|3:2|3:2|3:2|0:0|3:2|3:2|3:2|3:2|3:2|3:2,0:0:0:0:
45,25,73545,5,0,3:2:0:0:
4,306,73709,6,0,P|48:299|102:270,1,91.5,6|0,3:2|0:0,0:0:0:0:
168,211,74037,1,2,0:0:0:0:
103,314,74201,2,0,B|144:324|144:324|176:363|238:368,1,137.25,2|0,3:2|0:0,0:0:0:0:
226,366,74529,1,2,3:2:0:0:
457,277,74693,6,0,B|506:291|506:291|419:301,1,137.25,8|0,0:0|0:0,0:0:0:0:
361,378,75021,5,0,3:2:0:0:
314,317,75185,1,0,3:2:0:0:
342,244,75348,1,2,0:0:0:0:
495,117,75512,6,0,P|418:112|327:42,1,178.424991832352,0|0,3:2|0:0,0:0:0:0:
421,74,75840,1,2,3:2:0:0:
261,93,76004,2,0,P|213:101|147:76,1,118.949994554901,10|2,0:0|3:2,0:0:0:0:
45,6,76332,5,6,3:2:0:0:
13,107,76496,1,0,0:0:0:0:
76,185,76660,1,2,0:0:0:0:
23,374,76824,6,0,P|89:332|215:326,1,205.875007853508,4|0,3:2|0:0,0:0:0:0:
282,380,77152,5,2,0:0:0:0:
366,280,77316,1,8,0:0:0:0:
310,161,77480,1,2,3:2:0:0:
388,370,77644,5,4,0:0:0:0:
191,223,77807,1,2,0:0:0:0:
343,21,77971,1,2,0:0:0:0:
445,196,78135,6,0,L|521:183,1,68.6250026178361,2|0,3:2|0:0,0:0:0:0:
104,149,78627,6,0,L|95:196,14,41.1749987434388,0|0|0|0|0|0|0|0|0|0|0|0|0|0|0,3:2|3:2|3:2|3:2|3:2|3:2|3:2|3:2|3:2|3:2|3:2|3:2|3:2|3:2|3:2,0:0:0:0:
142,267,78955,5,6,0:0:0:0:
12,217,79119,1,2,0:0:0:0:
125,355,79283,5,10,0:0:0:0:
212,318,79447,1,0,3:2:0:0:
285,384,79611,5,10,0:0:0:0:
508,276,79775,1,2,3:2:0:0:
240,142,79939,5,8,0:0:0:0:
404,384,80103,2,0,L|384:220,1,164.699994973755,2|2,3:2|3:2,0:0:0:0:
446,73,80594,6,0,B|485:81|505:123|505:123|490:91|454:72|409:94,1,183,10|2,1:2|3:2,0:0:0:0:
323,1,80922,5,8,1:2:0:0:
229,44,81086,1,2,3:2:0:0:
216,223,81250,5,10,1:2:0:0:
0,138,81414,1,2,3:2:0:0:
0,138,81742,5,2,3:2:0:0:
64,320,81906,5,10,0:0:0:0:
151,283,82070,1,0,3:2:0:0:
311,369,82234,5,10,0:0:0:0:
469,296,82398,1,2,3:2:0:0:
197,126,82563,5,8,0:0:0:0:
371,288,82726,2,0,L|391:124,1,164.699994973755,2|2,3:2|3:2,0:0:0:0:
173,10,83217,6,0,B|134:18|114:60|114:60|129:28|165:9|210:31,1,183,10|2,1:2|3:2,0:0:0:0:
304,78,83545,5,8,1:2:0:0:
453,33,83709,1,2,3:2:0:0:
259,223,83873,5,10,1:2:0:0:
15,144,84037,1,2,3:2:0:0:
0,373,84529,5,14,0:0:0:0:
75,334,84693,1,0,3:2:0:0:
311,369,84857,5,10,0:0:0:0:
91,238,85021,1,2,3:2:0:0:
345,155,85185,5,8,0:0:0:0:
189,384,85348,2,0,L|209:220,1,164.699994973755,2|0,3:2|3:2,0:0:0:0:
86,73,85840,6,0,B|47:81|27:123|27:123|42:91|78:72|123:94,1,183,10|2,1:2|3:2,0:0:0:0:
189,1,86168,5,8,1:2:0:0:
283,44,86332,1,2,3:2:0:0:
296,235,86496,5,10,1:2:0:0:
512,150,86660,1,2,3:2:0:0:
512,150,86988,5,2,3:2:0:0:
387,355,87152,5,10,0:0:0:0:
300,318,87316,1,0,3:2:0:0:
93,216,87480,5,10,0:0:0:0:
259,155,87644,1,2,3:2:0:0:
17,15,87807,5,8,0:0:0:0:
186,247,87971,2,0,L|166:83,1,164.699994973755,2|2,3:2|3:2,0:0:0:0:
436,15,88463,6,0,B|475:23|495:65|495:65|480:33|444:14|399:36,1,183,10|2,1:2|3:2,0:0:0:0:
345,101,88791,5,8,1:2:0:0:
120,9,88955,1,2,3:2:0:0:
65,346,89119,5,10,1:2:0:0:
464,238,89283,1,2,3:2:0:0:
