osu file format v14

[General]
AudioFilename: audio.mp3
AudioLeadIn: 0
PreviewTime: 175608
Countdown: 1
SampleSet: Soft
StackLeniency: 0.4
Mode: 0
LetterboxInBreaks: 0
WidescreenStoryboard: 1

[Editor]
Bookmarks: 15936,21182,31674,36920,59901,78887,89379,99871,105117,120854,152330,162821,173149,175936,202166,207248,207739,212494
DistanceSpacing: 0.6
BeatDivisor: 4
GridSize: 32
TimelineZoom: 3.100006

[Metadata]
Title:No buts!
TitleUnicode:No buts!
Artist:Kawada Mami
ArtistUnicode:川田まみ
Creator:Cami
Version:Yu's Insane
Source:とある魔術の禁書目録
Tags:ChaoticRed Yudragen Serizawa Haruki Jack J_a_c_k toaru majutsu no index opening theme full ver. anime season 2
BeatmapID:1865424
BeatmapSetID:890764

[Difficulty]
HPDrainRate:5.5
CircleSize:3.7
OverallDifficulty:7.5
ApproachRate:9
SliderMultiplier:1.6
SliderTickRate:1

[Events]
//Background and Video events
0,0,"GNB2NBEiMOw.jpg",0,0
//Break Periods
2,47642,49465
2,115838,117661
2,176166,177989
//Storyboard Layer 0 (Background)
//Storyboard Layer 1 (Fail)
//Storyboard Layer 2 (Pass)
//Storyboard Layer 3 (Foreground)
//Storyboard Sound Samples

[TimingPoints]
229,327.868852459016,4,2,1,60,1,0
229,-111.111111111111,4,2,1,60,0,0
1868,-142.857142857143,4,2,1,60,0,0
2196,-111.111111111111,4,2,1,60,0,0
2851,-111.111111111111,4,2,1,60,0,0
4491,-142.857142857143,4,2,1,60,0,0
4819,-111.111111111111,4,2,1,60,0,0
5474,-111.111111111111,4,2,1,60,0,0
7114,-142.857142857143,4,2,1,60,0,0
7442,-111.111111111111,4,2,1,60,0,0
15966,-100,4,2,1,60,0,0
17933,-100,4,2,1,60,0,0
18261,-100,4,2,1,60,0,0
21212,-117.647058823529,4,2,1,60,0,0
52688,-86.9565217391304,4,2,1,80,0,1
62688,-86.9565217391304,4,2,1,80,0,1
63179,-86.9565217391304,4,2,1,80,0,1
73671,-100,4,2,1,70,0,0
78261,-86.9565217391304,4,2,1,60,0,0
78917,-111.111111111111,4,2,1,60,0,0
80556,-142.857142857143,4,2,1,60,0,0
80884,-111.111111111111,4,2,1,70,0,0
83179,-142.857142857143,4,2,1,60,0,0
83507,-111.111111111111,4,2,1,70,0,0
85802,-142.857142857143,4,2,1,60,0,0
86130,-111.111111111111,4,2,1,70,0,0
88425,-142.857142857143,4,2,1,60,0,0
88753,-111.111111111111,4,2,1,60,0,0
89409,-117.647058823529,4,2,1,60,0,0
101540,-142.857142857143,4,2,1,60,0,0
101868,-111.111111111111,4,2,1,70,0,0
104163,-142.857142857143,4,2,1,60,0,0
104491,-111.111111111111,4,2,1,70,0,0
120884,-86.9565217391304,4,2,1,80,0,1
130884,-86.9565217391304,4,2,1,80,0,1
131376,-86.9565217391304,4,2,1,80,0,1
141868,-100,4,2,1,70,0,0
142851,-100,4,2,1,70,0,0
143179,-100,4,2,1,70,0,0
144983,-100,4,2,1,70,0,0
145802,-100,4,2,1,70,0,0
146786,-100,4,2,1,70,0,0
152360,-100,4,2,1,70,0,0
152851,-100,4,2,1,70,0,0
153671,-100,4,2,1,70,0,0
154163,-100,4,2,1,70,0,0
154983,-100,4,2,1,70,0,0
155474,-100,4,2,1,70,0,0
156786,-100,4,2,1,70,0,0
157278,-100,4,2,1,70,0,0
157606,-100,4,2,1,70,0,0
158097,-100,4,2,1,70,0,0
158917,-100,4,2,1,70,0,0
159409,-100,4,2,1,70,0,0
160720,-100,4,2,1,70,0,0
161212,-100,4,2,1,70,0,0
161376,-100,4,2,1,70,0,0
173343,-100,4,2,0,40,0,0
174327,-100,4,2,0,40,0,0
174573,-100,4,2,1,40,0,0
181212,-83.3333333333333,4,2,1,80,0,1
185966,-83.3333333333333,4,2,1,80,0,1
186458,-83.3333333333333,4,2,1,80,0,1
196950,-111.111111111111,4,2,1,70,0,0
202196,-100,4,2,1,60,0,0
204163,-100,4,2,1,70,0,0
204491,-100,4,2,1,70,0,0
206786,-100,4,2,1,70,0,0
207114,-100,4,2,1,70,0,0
209737,-100,4,2,1,70,0,0
210065,-100,4,2,1,70,0,0
210720,-100,4,2,1,70,0,0
212032,-100,4,2,1,70,0,0

[Colours]
Combo1 : 181,181,181
Combo2 : 232,221,15
Combo3 : 114,130,148
Combo4 : 109,125,239

[HitObjects]
56,56,229,6,0,P|60:107|61:127,1,71.9999978027344,6|2,1:2|0:0,0:0:0:0:
119,198,556,2,0,P|115:249|114:269,1,71.9999978027344,2|0,1:2|0:0,0:0:0:0:
158,348,884,1,2,1:2:0:0:
158,348,1048,1,2,0:2:0:0:
214,228,1212,1,0,1:0:0:0:
263,321,1376,1,2,0:0:0:0:
205,206,1540,6,0,P|208:160|216:117,1,71.9999978027344,2|0,1:2|0:0,0:0:0:0:
269,47,1868,2,0,B|293:62|293:62|371:64,1,83.9999974365235,2|0,1:0|0:0,0:0:0:0:
418,27,2196,2,2,P|371:86|390:165,1,143.999995605469,2|2,1:0|1:0,0:0:0:0:
455,167,2688,1,2,0:0:0:0:
345,248,2851,6,0,P|306:224|268:214,1,71.9999978027344,2|2,1:2|0:0,0:0:0:0:
199,352,3179,2,0,P|232:340|262:320,1,71.9999978027344,2|0,1:2|0:0,0:0:0:0:
186,253,3507,1,2,1:2:0:0:
186,253,3671,1,2,0:2:0:0:
177,366,3835,1,0,1:0:0:0:
95,290,3999,1,2,0:0:0:0:
16,376,4163,6,0,P|8:300|3:285,1,71.9999978027344,2|0,1:2|0:0,0:0:0:0:
38,212,4491,2,0,P|48:174|37:129,1,83.9999974365235,2|0,1:0|0:0,0:0:0:0:
21,108,4819,2,2,B|95:87|100:144|166:121,1,143.999995605469,2|2,1:0|1:0,0:0:0:0:
209,57,5310,1,2,0:0:0:0:
258,197,5474,6,0,P|249:242|242:276,1,71.9999978027344,6|2,1:2|0:0,0:0:0:0:
344,178,5802,2,0,P|337:143|330:108,1,71.9999978027344,2|0,1:2|0:0,0:0:0:0:
377,40,6130,1,2,0:0:0:0:
377,40,6212,1,0,0:0:0:0:
377,40,6294,1,2,0:2:0:0:
439,126,6458,1,0,1:0:0:0:
323,102,6622,1,2,0:0:0:0:
428,221,6786,6,0,P|474:216|506:197,1,71.9999978027344,2|0,1:2|0:0,0:0:0:0:
415,333,7114,2,0,P|373:300|324:309,1,83.9999974365235,2|0,1:0|0:0,0:0:0:0:
328,319,7442,2,2,P|219:312|158:310,1,143.999995605469,2|2,1:0|1:0,0:0:0:0:
108,353,7933,1,2,0:0:0:0:
39,246,8097,6,0,P|42:197|32:170,1,71.9999978027344,2|2,1:2|0:0,0:0:0:0:
103,116,8425,2,0,P|100:67|110:40,1,71.9999978027344,2|0,1:2|0:0,0:0:0:0:
188,143,8753,1,2,1:2:0:0:
188,143,8835,1,0,0:0:0:0:
188,143,8917,1,2,0:0:0:0:
243,32,9081,1,0,1:0:0:0:
283,116,9245,1,2,0:0:0:0:
370,33,9409,5,10,0:0:0:0:
388,43,9491,1,8,0:0:0:0:
406,53,9573,1,0,1:0:0:0:
283,116,9737,1,0,1:0:0:0:
373,212,9901,1,8,0:0:0:0:
391,202,9983,1,8,0:0:0:0:
409,192,10065,1,2,1:0:0:0:
512,222,10228,1,0,1:0:0:0:
482,325,10392,1,2,1:2:0:0:
379,295,10556,1,2,1:2:0:0:
512,208,10720,5,4,0:0:0:0:
59,120,11540,6,0,L|47:90,20,17.9999994506836
59,120,12688,2,0,B|114:119|114:119|142:127|142:127|213:123,1,143.999995605469
201,123,13343,5,8,1:2:0:0:
156,222,13507,1,10,1:2:0:0:
297,219,14983,6,0,L|254:207,3,35.9999989013672,0|0|0|0,0:0|0:0|0:0|0:0,0:0:0:0:
382,265,15310,2,0,L|425:253,3,35.9999989013672,0|0|0|0,0:0|0:0|1:0|0:0,0:0:0:0:
319,328,15638,2,0,L|286:320,6,17.9999994506836,0|0|0|0|0|0|0,0:0|0:0|0:0|0:0|0:0|0:0|0:0,0:0:0:0:
344,347,15966,6,0,P|262:345|193:381,1,160,6|10,1:2|0:0,0:0:0:0:
120,339,16458,1,2,0:0:0:0:
182,237,16622,2,0,P|181:193|160:150,1,80,0|2,0:0|1:0,0:0:0:0:
78,100,16950,2,0,P|63:137|63:176,1,80,10|0,0:0|0:0,0:0:0:0:
176,62,17278,6,0,P|221:47|313:91,1,120,0|0,0:0|0:0,0:0:0:0:
309,87,17606,2,2,P|303:145|304:186,1,80,10|0,0:0|0:0,0:0:0:0:
420,304,17933,2,2,P|420:224|411:144,1,160,2|10,0:0|0:0,0:0:0:0:
308,184,18425,1,0,0:0:0:0:
416,316,18589,6,0,P|356:309|323:312,1,80,2|0,1:2|0:0,0:0:0:0:
262,371,18917,2,0,P|202:378|169:375,1,80,8|2,0:0|0:0,0:0:0:0:
106,325,19245,1,2,0:0:0:0:
106,325,19409,1,2,1:0:0:0:
168,226,19573,2,0,P|164:183|159:142,1,80,10|0,0:0|0:0,0:0:0:0:
211,41,19901,5,2,1:2:0:0:
279,132,20065,1,0,1:0:0:0:
311,0,20228,1,10,0:0:0:0:
379,91,20392,1,0,1:2:0:0:
379,91,20474,1,0,1:2:0:0:
379,91,20556,2,2,L|413:73,6,20,0|0|0|0|0|0|0,1:0|1:0|1:0|1:0|1:0|1:0|1:0,0:0:0:0:
363,176,20884,1,8,0:0:0:0:
354,210,20966,1,0,0:0:0:0:
354,246,21048,1,0,0:0:0:0:
364,280,21130,1,0,0:0:0:0:
384,310,21212,5,4,0:0:0:0:
384,310,21540,2,0,P|319:292|276:327,1,102.000001945496,10|0,0:0|0:0,0:0:0:0:
281,321,21868,2,0,P|264:255|265:236,1,68.0000012969971,2|0,0:0|0:0,0:0:0:0:
210,173,22196,1,10,0:0:0:0:
309,176,22360,2,0,P|326:110|325:91,1,68.0000012969971,2|0,0:0|1:2,0:0:0:0:
277,29,22688,1,0,0:0:0:0:
203,157,22851,6,0,P|151:136|45:162,1,136.000002593994,10|0,0:0|0:0,0:0:0:0:
29,216,23343,1,0,1:0:0:0:
74,285,23507,1,8,0:0:0:0:
74,285,23671,1,0,0:0:0:0:
0,361,23835,6,0,P|37:367|80:385,1,68.0000012969971,2|0,1:2|0:0,0:0:0:0:
166,272,24163,2,0,P|220:285|309:261,1,136.000002593994,10|2,0:0|0:0,0:0:0:0:
352,199,24655,2,0,P|340:149|339:112,1,68.0000012969971,0|10,0:0|0:0,0:0:0:0:
399,66,24983,6,0,P|411:16|412:-21,1,68.0000012969971,2|0,0:0|1:0,0:0:0:0:
331,127,25310,1,2,0:0:0:0:
288,12,25474,2,0,P|245:0|216:2,1,68.0000012969971,10|0,0:0|0:0,0:0:0:0:
155,57,25802,1,0,0:0:0:0:
155,57,25966,1,0,1:2:0:0:
189,147,26130,1,10,0:0:0:0:
122,186,26294,1,2,1:2:0:0:
244,244,26458,5,0,1:2:0:0:
244,244,26786,2,0,P|301:257|322:296,1,102.000001945496,10|0,0:0|0:0,0:0:0:0:
316,304,27114,2,0,P|369:294|394:297,1,68.0000012969971,2|0,0:0|0:0,0:0:0:0:
462,330,27442,1,10,0:0:0:0:
430,219,27606,2,0,L|442:148,1,68.0000012969971,2|0,0:0|0:0,0:0:0:0:
491,86,27933,5,2,0:0:0:0:
373,34,28097,2,0,P|314:50|224:43,1,136.000002593994,10|0,0:0|0:0,0:0:0:0:
162,4,28589,1,0,1:0:0:0:
231,60,28753,1,10,0:0:0:0:
167,113,28917,1,2,0:2:0:0:
245,210,29081,6,0,P|166:213|117:256,1,136.000002593994,2|8,1:2|0:0,0:0:0:0:
153,334,29573,2,0,L|220:329,2,68.0000012969971,2|0|0,0:0|0:0|1:2,0:0:0:0:
38,267,30065,2,0,P|28:200|29:177,1,68.0000012969971,8|0,0:0|0:0,0:0:0:0:
58,118,30392,5,0,1:2:0:0:
118,184,30556,1,2,0:0:0:0:
175,121,30720,1,8,0:2:0:0:
239,178,30884,1,2,1:2:0:0:
177,108,31048,1,10,0:0:0:0:
264,83,31212,1,0,1:0:0:0:
236,191,31376,1,14,0:0:0:0:
323,166,31540,1,0,0:0:0:0:
382,54,31704,6,0,P|358:122|355:195,1,136.000002593994,2|10,1:2|0:0,0:0:0:0:
461,260,32196,2,0,B|392:248|394:297|328:272,1,136.000002593994,2|0,0:0|0:0,0:0:0:0:
271,339,32688,2,0,P|221:332|183:346,1,68.0000012969971,10|2,0:0|0:0,0:0:0:0:
121,383,33015,6,0,P|112:310|99:270,1,102.000001945496,2|0,1:2|0:0,0:0:0:0:
86,264,33343,2,0,L|49:257,3,34.0000006484985,10|0|0|0,0:0|0:0|0:0|0:0,0:0:0:0:
103,284,33671,2,0,P|140:251|210:251,1,102.000001945496,2|0,0:1|0:0,0:0:0:0:
209,257,33999,2,2,L|218:185,1,68.0000012969971,8|0,0:0|0:0,0:0:0:0:
262,91,34327,5,2,1:2:0:0:
262,91,34491,1,0,0:0:0:0:
321,150,34655,2,0,L|413:137,1,68.0000012969971,10|0,0:0|0:0,0:0:0:0:
445,52,34983,2,2,L|537:65,1,68.0000012969971,2|0,0:0|0:0,0:0:0:0:
394,152,35310,2,0,P|372:198|372:249,1,102.000001945496,8|0,0:0|0:0,0:0:0:0:
384,263,35638,5,0,1:2:0:0:
350,258,35719,1,0,1:0:0:0:
316,255,35801,1,0,1:0:0:0:
282,254,35883,1,0,1:0:0:0:
248,253,35966,2,0,L|217:252,6,17.0000003242493,8|8|8|8|8|8|8,0:0|0:0|0:0|0:0|1:2|0:0|0:0,0:0:0:0:
200,266,36294,2,2,P|192:200|180:182,1,68.0000012969971,0|0,1:2|0:0,0:0:0:0:
242,121,36622,2,0,P|250:55|262:37,1,68.0000012969971,10|2,0:0|1:2,0:0:0:0:
330,2,36950,5,10,1:2:0:0:
371,98,37114,1,8,1:2:0:0:
371,98,37442,5,10,1:2:0:0:
330,195,37606,1,8,1:2:0:0:
330,195,37933,5,10,1:2:0:0:
371,292,38097,1,8,1:2:0:0:
371,292,38425,5,10,1:2:0:0:
331,384,38589,1,10,1:2:0:0:
331,384,38917,5,10,1:2:0:0:
239,318,39081,1,10,1:2:0:0:
150,370,39245,1,10,1:2:0:0:
249,314,39409,1,8,1:2:0:0:
151,250,39573,5,10,1:2:0:0:
260,199,39737,1,8,1:2:0:0:
260,199,40065,5,10,1:2:0:0:
151,148,40229,1,8,1:2:0:0:
151,148,40556,5,10,1:2:0:0:
260,97,40720,1,8,1:2:0:0:
260,97,41048,5,10,1:2:0:0:
151,46,41212,1,10,1:2:0:0:
151,46,41540,5,10,1:2:0:0:
151,148,41704,1,10,1:2:0:0:
55,213,41868,1,10,1:2:0:0:
55,111,42032,1,8,1:2:0:0:
153,255,42196,6,0,P|229:245|302:257,1,136.000002593994,6|8,1:2|0:0,0:0:0:0:
364,329,42688,2,0,P|333:265|372:188,1,136.000002593994,2|0,0:0|1:2,0:0:0:0:
436,153,43179,2,0,P|448:87|439:70,1,68.0000012969971,10|0,0:0|0:0,0:0:0:0:
401,14,43507,5,2,1:2:0:0:
401,14,43835,2,0,P|347:28|265:29,1,136.000002593994,10|2,0:0|0:0,0:0:0:0:
183,1,44327,1,2,1:2:0:0:
225,105,44491,2,0,P|214:147|206:182,1,68.0000012969971,8|0,0:0|0:0,0:0:0:0:
240,265,44819,5,10,0:0:0:0:
313,200,44983,1,0,1:0:0:0:
331,293,45147,1,0,1:0:0:0:
220,263,45310,5,10,0:0:0:0:
313,183,45474,1,0,1:0:0:0:
343,307,45638,1,0,1:0:0:0:
241,354,45802,6,0,P|177:346|154:347,1,68.0000012969971,8|0,0:0|1:0,0:0:0:0:
98,296,46130,1,8,0:0:0:0:
102,283,46212,1,8,0:0:0:0:
106,269,46294,2,0,P|111:212|108:186,1,68.0000012969971,2|0,1:2|1:0,0:0:0:0:
30,143,46622,1,8,0:0:0:0:
26,130,46704,1,8,0:0:0:0:
22,116,46786,2,0,P|17:59|20:33,1,68.0000012969971,2|0,1:2|1:0,0:0:0:0:
114,118,47114,2,0,P|147:101|227:104,1,102.000001945496,10|0,0:0|0:0,0:0:0:0:
229,110,47442,5,4,0:0:0:0:
410,98,50065,5,2,1:0:0:0:
332,71,50228,1,2,1:0:0:0:
256,174,50392,1,2,1:0:0:0:
256,174,50720,1,2,1:0:0:0:
256,174,51048,1,2,1:0:0:0:
321,235,51212,1,2,1:0:0:0:
200,288,51376,6,0,L|170:278,6,17.0000003242493,0|0|0|0|0|0|0,0:0|0:0|0:0|0:0|0:0|0:0|0:0,0:0:0:0:
271,336,51704,2,0,L|301:326,6,17.0000003242493,0|0|0|0|0|0|0,0:0|0:0|0:0|0:0|0:0|0:0|0:0,0:0:0:0:
192,368,52032,2,0,L|182:398,8,17.0000003242493,0|0|0|0|0|0|0|0|0,0:0|0:0|0:0|0:0|0:0|0:0|0:0|0:0|0:0,0:0:0:0:
94,300,52524,1,0,0:0:0:0:
89,287,52606,1,0,0:0:0:0:
84,274,52688,6,0,P|98:129|98:113,1,138.000002632141,6|0,1:2|0:0,0:0:0:0:
90,119,53015,2,0,P|149:109|203:117,1,92.0000017547608,8|2,0:0|0:0,0:0:0:0:
288,170,53343,1,2,1:2:0:0:
349,110,53507,1,0,0:0:0:0:
407,219,53671,2,0,P|395:272|394:316,1,92.0000017547608,8|0,0:0|0:0,0:0:0:0:
402,337,53917,1,0,0:0:0:0:
402,337,53999,5,2,1:2:0:0:
272,276,54163,2,0,P|284:329|285:373,1,92.0000017547608,2|8,0:0|0:0,0:0:0:0:
191,217,54491,2,0,B|103:193|103:266|9:229,1,184.000003509522,2|2,0:0|0:0,0:0:0:0:
164,306,54983,1,8,0:0:0:0:
164,306,55147,1,0,0:0:0:0:
207,203,55310,6,0,P|202:139|172:72,1,138.000002632141,2|0,1:2|0:0,0:0:0:0:
153,56,55638,1,8,0:0:0:0:
287,88,55802,2,0,P|360:83|396:84,1,92.0000017547608,2|0,0:0|1:0,0:0:0:0:
421,8,56130,2,0,P|494:13|530:12,1,92.0000017547608,2|8,0:0|0:0,0:0:0:0:
393,93,56458,1,2,0:0:0:0:
504,139,56622,5,2,1:0:0:0:
396,114,56786,1,2,0:0:0:0:
443,206,56950,2,0,P|458:250|466:309,1,92.0000017547608,10|0,0:0|0:0,0:0:0:0:
405,369,57278,1,2,1:2:0:0:
330,333,57442,1,0,1:0:0:0:
237,381,57606,1,10,1:2:0:0:
166,338,57769,1,0,1:2:0:0:
252,239,57933,5,6,1:2:0:0:
314,315,58097,1,2,0:0:0:0:
389,254,58261,1,10,0:0:0:0:
328,179,58425,2,0,P|314:120|320:77,1,92.0000017547608,2|0,0:1|1:0,0:0:0:0:
260,12,58753,2,0,P|201:-2|158:4,1,92.0000017547608,2|8,0:2|0:0,0:0:0:0:
91,55,59081,1,2,0:0:0:0:
101,70,59163,1,0,0:0:0:0:
110,86,59245,6,0,P|92:143|77:234,1,138.000002632141,0|0,0:0|0:0,0:0:0:0:
85,242,59573,2,0,P|148:227|181:231,1,92.0000017547608,10|2,0:0|0:1,0:0:0:0:
281,351,59901,2,0,P|218:336|185:340,1,92.0000017547608,2|0,1:2|0:0,0:0:0:0:
275,256,60228,1,10,0:0:0:0:
275,256,60392,1,0,0:0:0:0:
376,375,60556,6,0,P|384:284|400:216,1,138.000002632141,2|0,1:2|0:0,0:0:0:0:
407,213,60884,1,10,0:0:0:0:
511,303,61048,2,0,P|510:257|504:211,1,92.0000017547608,2|0,0:0|1:0,0:0:0:0:
464,145,61376,1,0,1:0:0:0:
511,46,61540,1,8,0:0:0:0:
391,18,61704,1,2,1:2:0:0:
375,9,61786,1,2,0:2:0:0:
359,0,61868,5,2,0:0:0:0:
319,149,62032,1,6,0:0:0:0:
273,86,62196,1,8,0:0:0:0:
451,135,62360,1,2,1:2:0:0:
451,135,62688,2,0,L|459:178,10,23.0000004386902,4|0|0|0|0|0|0|0|0|0|0,0:0|0:0|0:0|0:0|0:0|0:0|0:0|0:0|0:0|0:0|0:0,0:0:0:0:
504,233,63179,6,0,P|449:241|390:303,1,138.000002632141,6|0,1:2|0:0,0:0:0:0:
392,326,63507,2,0,P|317:335|277:323,1,92.0000017547608,8|2,0:0|0:0,0:0:0:0:
195,273,63835,1,0,0:0:0:0:
125,311,63999,1,2,1:2:0:0:
44,217,64163,2,0,P|51:155|50:112,1,92.0000017547608,10|2,0:0|0:0,0:0:0:0:
90,0,64491,5,2,1:0:0:0:
148,60,64655,2,0,P|209:42|245:40,1,92.0000017547608,2|8,0:0|0:0,0:0:0:0:
438,65,64983,2,0,P|350:65|304:140,1,184.000003509522,2|2,0:0|1:2,0:0:0:0:
363,213,65474,1,8,0:0:0:0:
363,213,65638,1,0,1:0:0:0:
254,286,65802,6,0,P|200:268|111:288,1,138.000002632141,2|0,1:0|0:0,0:0:0:0:
102,303,66130,1,10,0:0:0:0:
30,232,66294,2,0,P|35:162|31:130,1,92.0000017547608,2|0,0:1|0:0,0:0:0:0:
116,7,66622,2,0,P|113:53|119:99,1,92.0000017547608,0|8,1:0|0:0,0:0:0:0:
184,165,66950,1,2,0:0:0:0:
237,55,67114,5,2,1:0:0:0:
199,147,67278,1,2,0:0:0:0:
315,110,67442,2,0,P|359:97|426:93,1,92.0000017547608,10|0,0:0|0:0,0:0:0:0:
487,144,67769,1,2,0:0:0:0:
443,213,67933,1,0,1:2:0:0:
512,298,68097,1,10,0:0:0:0:
468,367,68261,1,0,1:0:0:0:
373,281,68425,5,2,1:0:0:0:
428,202,68589,1,2,0:0:0:0:
349,147,68753,1,10,0:0:0:0:
294,226,68917,2,0,P|240:239|171:242,1,92.0000017547608,2|0,0:0|0:0,0:0:0:0:
243,118,69245,2,0,P|297:131|366:134,1,92.0000017547608,2|8,1:2|0:0,0:0:0:0:
415,74,69573,1,2,0:0:0:0:
423,57,69655,1,0,0:0:0:0:
419,39,69737,6,0,P|383:7|293:19,1,138.000002632141,0|0,0:0|0:0,0:0:0:0:
291,31,70065,2,0,P|226:23|167:21,1,92.0000017547608,10|2,0:0|0:1,0:0:0:0:
131,80,70392,2,0,P|66:88|7:90,1,92.0000017547608,2|0,0:0|1:0,0:0:0:0:
204,190,70720,2,0,P|158:186|112:180,1,92.0000017547608,10|0,0:0|1:0,0:0:0:0:
19,305,71048,6,0,P|69:285|165:336,1,138.000002632141,2|0,1:2|0:0,0:0:0:0:
161,335,71376,1,10,0:0:0:0:
218,197,71540,2,0,P|233:258|237:290,1,92.0000017547608,2|0,0:1|0:0,0:0:0:0:
292,348,71868,1,0,1:0:0:0:
334,213,72032,1,8,0:0:0:0:
394,287,72196,1,2,1:2:0:0:
411,280,72278,1,2,0:0:0:0:
428,273,72360,5,2,1:2:0:0:
313,205,72524,1,6,1:2:0:0:
381,151,72688,1,8,0:0:0:0:
263,44,72851,1,6,1:2:0:0:
263,44,73179,2,0,L|258:21,10,23.0000004386902,4|0|0|0|8|0|0|0|0|0|0,1:2|0:0|0:0|0:0|0:0|0:0|0:0|0:0|0:0|0:0|0:0,0:0:0:0:
198,112,73671,6,0,L|19:96,1,160,6|2,1:2|0:0,0:0:0:0:
4,184,74163,2,0,P|42:202|88:321,1,160,2|2,1:2|1:2,0:0:0:0:
154,376,74655,1,8,0:0:0:0:
154,376,74819,1,2,0:0:0:0:
217,274,74983,5,0,1:0:0:0:
284,328,75147,1,0,1:0:0:0:
363,253,75310,2,0,P|416:249|457:257,2,80,2|2|0,0:0|1:2|0:0,0:0:0:0:
293,217,75802,1,2,1:2:0:0:
397,136,75966,2,0,P|388:82|387:40,1,80,10|2,0:0|1:2,0:0:0:0:
235,30,76294,6,0,P|294:43|415:40,1,160,2|0,1:2|0:2,0:0:0:0:
284,127,76786,1,0,1:2:0:0:
217,22,76950,1,0,0:0:0:0:
173,90,77114,1,2,1:2:0:0:
53,17,77278,1,10,0:0:0:0:
53,17,77442,1,0,1:0:0:0:
7,95,77606,6,0,P|20:139|24:182,2,80,2|0|2,0:2|1:0|0:0,0:0:0:0:
90,234,78097,1,6,1:2:0:0:
90,234,78589,6,0,L|130:228,6,23.0000004386902,0|0|0|0|0|0|0,0:0|0:0|0:0|0:0|0:0|0:0|0:0,0:0:0:0:
176,280,78917,6,0,P|242:277|269:274,1,71.9999978027344,6|2,1:2|0:0,0:0:0:0:
315,216,79245,2,0,P|381:219|408:222,1,71.9999978027344,10|0,0:0|0:0,0:0:0:0:
470,268,79573,1,2,0:0:0:0:
404,211,79737,1,2,1:2:0:0:
507,168,79901,2,0,P|498:108|499:79,1,71.9999978027344,8|2,0:0|0:0,0:0:0:0:
453,13,80228,5,2,1:2:0:0:
453,13,80392,1,0,0:0:0:0:
371,105,80556,2,2,P|317:82|279:95,1,83.9999974365235,10|0,0:0|0:0,0:0:0:0:
275,100,80884,2,2,B|299:170|299:170|282:240,1,143.999995605469,0|8,0:0|0:0,0:1:0:0:
212,287,81376,1,0,0:0:0:0:
131,163,81540,6,0,P|177:170|214:188,1,71.9999978027344,2|2,1:2|0:0,0:0:0:0:
283,238,81868,2,0,P|329:231|366:213,1,71.9999978027344,10|0,0:0|0:0,0:0:0:0:
418,141,82196,1,2,0:0:0:0:
418,141,82360,1,2,1:2:0:0:
379,308,82524,2,0,P|373:272|364:238,1,71.9999978027344,8|2,0:0|0:0,0:0:0:0:
266,131,82851,6,0,L|273:92,3,35.9999989013672,2|0|0|0,1:2|1:0|1:0|1:0,0:0:0:0:
275,70,83179,1,10,1:2:0:0:
251,55,83260,1,0,0:0:0:0:
224,49,83342,1,0,0:0:0:0:
196,50,83424,1,0,0:0:0:0:
169,62,83507,2,2,B|160:116|160:116|166:140|166:140|151:219,1,143.999995605469,0|8,1:2|0:0,0:0:0:0:
194,278,83999,1,0,1:0:0:0:
54,355,84163,6,0,P|98:358|143:369,1,71.9999978027344,2|2,1:2|0:0,0:0:0:0:
205,298,84491,2,0,P|249:295|294:284,1,71.9999978027344,10|0,0:0|0:0,0:0:0:0:
354,345,84819,1,2,0:0:0:0:
354,345,84983,1,2,1:2:0:0:
442,263,85147,2,0,L|432:178,1,71.9999978027344,8|2,0:0|0:0,0:0:0:0:
479,93,85474,5,2,1:2:0:0:
438,25,85638,1,0,0:0:0:0:
357,149,85802,2,2,L|325:139,3,27.9999991455078,10|0|0|0,3:2|3:2|3:2|3:2,0:0:0:0:
300,131,86130,2,2,P|299:75|306:33,1,71.9999978027344,0|0,0:0|0:0,0:0:0:0:
197,0,86458,2,0,P|199:35|197:71,1,71.9999978027344,8|0,0:0|0:0,0:0:0:0:
76,164,86786,6,0,P|113:160|152:164,1,71.9999978027344,2|2,1:2|0:0,0:0:0:0:
244,234,87114,2,0,P|281:238|320:234,1,71.9999978027344,10|0,0:0|0:0,0:0:0:0:
397,189,87442,1,2,0:0:0:0:
440,256,87606,1,2,1:2:0:0:
352,313,87769,1,8,0:0:0:0:
352,313,87933,1,2,0:0:0:0:
244,234,88097,6,0,P|186:239|162:256,1,71.9999978027344,2|0,1:2|1:2,0:0:0:0:
98,317,88425,1,10,1:2:0:0:
83,293,88506,1,0,0:0:0:0:
75,266,88588,1,0,0:0:0:0:
74,238,88670,1,0,0:0:0:0:
82,214,88753,2,0,P|97:182|94:124,1,71.9999978027344,2|0,1:0|1:0,0:0:0:0:
53,28,89081,1,10,1:2:0:0:
128,64,89245,1,0,1:0:0:0:
250,0,89409,5,4,1:2:0:0:
250,0,89737,2,0,P|265:54|267:83,1,68.0000012969971,2|0,1:2|0:0,0:0:0:0:
306,191,90065,2,0,P|312:158|323:126,1,68.0000012969971,10|0,0:0|0:0,0:0:0:0:
407,43,90392,1,2,0:0:0:0:
451,113,90556,6,0,P|446:155|443:265,1,136.000002593994,2|2,1:2|0:0,0:0:0:0:
480,316,91048,1,2,0:0:0:0:
349,374,91212,1,0,1:2:0:0:
220,294,91376,1,10,0:0:0:0:
295,263,91540,1,0,0:0:0:0:
242,166,91704,1,2,1:2:0:0:
242,166,91868,1,0,0:0:0:0:
126,280,92032,6,0,P|112:207|96:169,1,102.000001945496,2|0,1:2|0:0,0:0:0:0:
83,155,92360,2,0,P|44:153|10:159,1,68.0000012969971,2|0,1:2|0:0,0:0:0:0:
140,81,92688,2,0,P|179:83|213:77,1,68.0000012969971,10|0,0:0|0:0,0:0:0:0:
291,4,93015,1,2,0:0:0:0:
352,56,93179,2,0,B|412:80|416:28|497:61,1,136.000002593994,2|2,1:2|1:2,0:0:0:0:
429,153,93671,1,2,0:0:0:0:
429,153,93753,2,0,L|452:181,2,34.0000006484985,0|0|2,1:0|0:0|0:0,0:0:0:0:
388,146,93999,2,2,P|354:174|350:250,1,102.000001945496,8|0,0:0|0:0,0:0:0:0:
354,259,94327,1,2,1:2:0:0:
239,207,94491,1,10,0:2:0:0:
168,252,94655,5,4,0:2:0:0:
168,252,94983,2,0,P|155:203|167:160,1,68.0000012969971,2|0,1:2|0:0,0:0:0:0:
92,69,95310,2,0,P|92:102|80:134,1,68.0000012969971,10|0,0:0|0:0,0:0:0:0:
176,0,95638,1,2,0:0:0:0:
232,58,95802,6,0,P|276:43|364:43,1,136.000002593994,2|2,1:2|1:2,0:0:0:0:
319,155,96294,2,0,P|313:213|317:251,1,68.0000012969971,2|0,0:0|1:0,0:0:0:0:
365,299,96622,1,10,0:0:0:0:
431,253,96786,1,0,0:0:0:0:
427,381,96950,1,2,1:2:0:0:
339,310,97114,1,2,1:2:0:0:
235,378,97278,6,0,P|236:327|207:251,1,102.000001945496,6|0,1:2|0:0,0:0:0:0:
212,252,97606,1,8,0:0:0:0:
99,356,97769,2,0,P|96:288|104:268,1,68.0000012969971,2|0,0:0|1:0,0:0:0:0:
136,207,98097,1,0,1:0:0:0:
38,152,98261,2,0,P|41:84|33:64,1,68.0000012969971,8|0,0:0|1:0,0:0:0:0:
77,1,98589,5,0,1:2:0:0:
138,52,98753,1,2,0:0:0:0:
253,19,98917,1,10,0:0:0:0:
280,107,99081,1,2,1:2:0:0:
392,47,99245,1,10,0:0:0:0:
365,135,99409,1,2,1:2:0:0:
256,106,99573,1,14,0:0:0:0:
279,192,99737,1,0,0:0:0:0:
386,142,99901,6,0,P|437:120|495:144,1,102.000001945496,2|0,1:2|0:0,0:0:0:0:
504,149,100228,1,10,0:0:0:0:
442,233,100392,2,2,P|430:264|426:298,1,68.0000012969971,2|0,0:0|0:0,0:0:0:0:
387,371,100720,1,0,0:0:0:0:
263,322,100884,2,0,P|209:321|177:326,1,68.0000012969971,8|0,0:0|0:0,0:0:0:0:
109,361,101212,5,2,1:2:0:0:
109,361,101376,1,0,0:0:0:0:
21,266,101540,2,0,P|53:227|30:189,1,83.9999974365235,10|0,0:0|0:0,0:0:0:0:
20,179,101868,2,2,P|77:150|160:178,1,143.999995605469,2|10,0:0|0:0,0:1:0:0:
188,240,102360,1,0,0:0:0:0:
250,122,102524,6,0,P|313:110|337:111,1,71.9999978027344,0|0,1:2|0:0,0:0:0:0:
386,48,102851,2,0,P|449:60|473:59,1,71.9999978027344,8|0,0:0|0:0,0:0:0:0:
510,131,103179,1,2,0:0:0:0:
447,182,103343,1,0,0:0:0:0:
506,285,103507,2,0,P|448:300|436:309,1,71.9999978027344,8|0,0:0|0:0,0:0:0:0:
373,376,103835,6,0,L|360:335,3,35.9999989013672,0|0|0|0,1:2|1:2|1:2|1:2,0:0:0:0:
355,312,104163,1,10,1:2:0:0:
327,309,104244,1,8,0:0:0:0:
299,313,104326,1,8,0:0:0:0:
274,324,104408,1,8,0:0:0:0:
252,342,104491,2,2,L|264:251,1,71.9999978027344,2|0,1:2|0:0,0:0:0:0:
314,191,104819,1,8,0:0:0:0:
268,123,104983,1,0,1:0:0:0:
157,242,105147,5,10,1:2:0:0:
110,157,105310,1,8,1:2:0:0:
110,157,105638,5,10,1:2:0:0:
157,72,105801,1,8,1:2:0:0:
157,72,106130,5,10,1:2:0:0:
72,25,106293,1,8,1:2:0:0:
72,25,106622,5,10,1:2:0:0:
25,110,106785,1,10,1:2:0:0:
25,110,107114,5,10,1:2:0:0:
110,157,107278,1,10,1:2:0:0:
181,80,107442,1,8,1:2:0:0:
266,116,107606,1,8,1:2:0:0:
251,220,107769,5,10,1:2:0:0:
354,150,107933,1,8,1:2:0:0:
354,150,108261,5,10,1:2:0:0:
457,220,108425,1,8,1:2:0:0:
457,220,108753,5,10,1:2:0:0:
387,323,108917,1,8,1:2:0:0:
387,323,109245,5,10,1:2:0:0:
284,253,109409,1,10,1:2:0:0:
284,253,109737,5,10,1:2:0:0:
218,331,109901,1,10,1:2:0:0:
139,259,110065,1,8,1:2:0:0:
64,328,110228,1,8,1:2:0:0:
7,189,110392,6,0,P|62:175|112:100,1,143.999995605469,6|8,1:2|0:0,0:0:0:0:
161,33,110884,2,0,P|223:12|289:68,1,143.999995605469,2|0,0:0|1:0,0:0:0:0:
307,140,111376,2,0,P|368:131|383:129,1,71.9999978027344,10|0,0:0|0:0,0:0:0:0:
460,155,111704,5,0,1:2:0:0:
460,155,112032,2,0,P|457:206|457:243,1,71.9999978027344,10|0,0:0|0:0,0:0:0:0:
500,297,112360,1,2,0:0:0:0:
372,366,112524,1,2,1:2:0:0:
336,261,112688,1,8,0:0:0:0:
336,261,112851,1,0,0:0:0:0:
233,360,113015,5,10,0:0:0:0:
133,358,113179,1,0,1:0:0:0:
180,273,113343,1,0,1:0:0:0:
70,272,113507,5,10,0:0:0:0:
123,185,113671,1,0,1:0:0:0:
29,184,113835,1,0,1:0:0:0:
125,101,113999,6,0,P|133:66|136:30,1,71.9999978027344,10|0,0:0|1:0,0:0:0:0:
230,0,114327,1,8,0:0:0:0:
242,6,114409,1,8,0:0:0:0:
254,12,114491,2,0,P|326:24|357:22,1,71.9999978027344,2|0,1:2|1:0,0:0:0:0:
405,82,114819,1,8,0:0:0:0:
417,76,114901,1,8,0:0:0:0:
429,70,114983,2,0,P|501:58|532:60,1,71.9999978027344,2|0,1:2|1:0,0:0:0:0:
434,165,115310,2,0,P|412:206|427:277,1,107.999996704102,10|0,0:0|0:0,0:0:0:0:
433,283,115638,5,4,0:0:0:0:
267,145,118261,5,2,1:0:0:0:
340,103,118425,1,2,1:0:0:0:
445,184,118589,1,2,1:0:0:0:
445,184,118917,1,2,1:0:0:0:
445,184,119245,1,2,1:0:0:0:
507,246,119409,1,2,1:0:0:0:
441,345,119573,6,0,L|452:311,3,35.9999989013672,0|0|0|0,0:0|0:0|0:0|0:0,0:0:0:0:
373,252,119901,2,0,L|362:217,3,35.9999989013672,0|0|0|0,0:0|0:0|0:0|0:0,0:0:0:0:
285,169,120228,2,0,L|260:165,8,17.9999994506836,0|0|0|0|0|0|0|0|0,0:0|0:0|0:0|0:0|0:0|0:0|0:0|0:0|0:0,0:0:0:0:
202,110,120720,1,0,0:0:0:0:
196,89,120802,1,0,0:0:0:0:
202,66,120884,6,0,P|249:47|356:69,1,138.000002632141,6|0,1:2|0:0,0:0:0:0:
354,77,121212,2,0,P|415:83|456:72,1,92.0000017547608,8|2,0:0|0:0,0:0:0:0:
511,173,121540,1,0,0:0:0:0:
452,234,121704,1,2,0:0:0:0:
509,361,121868,2,0,P|455:347|409:350,1,92.0000017547608,8|0,0:0|0:0,0:0:0:0:
398,359,122114,1,0,0:0:0:0:
397,360,122196,5,2,1:0:0:0:
292,272,122360,2,0,P|297:323|302:375,1,92.0000017547608,2|8,0:0|0:0,0:0:0:0:
338,176,122688,2,0,B|248:138|248:213|156:167,1,184.000003509522,2|2,0:0|0:0,0:0:0:0:
293,259,123179,1,8,0:0:0:0:
293,259,123343,1,0,0:0:0:0:
102,264,123507,6,0,P|58:208|58:113,1,138.000002632141,2|0,1:2|0:0,0:0:0:0:
63,114,123835,1,10,0:0:0:0:
160,169,123999,2,0,P|176:123|170:77,1,92.0000017547608,2|0,0:1|1:0,0:0:0:0:
234,12,124327,2,0,P|276:-3|322:0,1,92.0000017547608,2|8,0:0|0:0,0:0:0:0:
387,47,124655,1,2,0:0:0:0:
302,127,124819,5,2,1:0:0:0:
395,70,124983,1,2,0:0:0:0:
379,193,125147,2,0,P|369:261|368:305,1,92.0000017547608,10|0,0:0|0:0,0:0:0:0:
295,375,125474,1,2,1:2:0:0:
252,302,125638,1,0,1:2:0:0:
143,366,125802,1,2,1:2:0:0:
68,329,125966,1,0,1:2:0:0:
227,318,126130,5,2,1:0:0:0:
165,244,126294,1,2,0:0:0:0:
240,145,126458,1,10,0:0:0:0:
161,85,126622,2,0,P|127:45|112:7,1,92.0000017547608,2|0,0:1|1:0,0:0:0:0:
257,128,126950,2,0,P|304:105|345:100,1,92.0000017547608,2|8,0:0|0:0,0:0:0:0:
433,160,127278,1,2,0:0:0:0:
423,175,127360,1,0,0:0:0:0:
413,190,127442,6,0,P|393:260|391:338,1,138.000002632141,0|0,0:0|0:0,0:0:0:0:
400,351,127769,2,0,P|337:333|293:337,1,92.0000017547608,10|2,0:0|0:1,0:0:0:0:
244,277,128097,2,0,P|181:295|137:291,1,92.0000017547608,2|0,1:2|0:0,0:0:0:0:
68,368,128425,2,0,P|68:301|52:248,1,92.0000017547608,10|0,0:0|0:0,0:0:0:0:
6,168,128753,6,0,P|66:173|129:97,1,138.000002632141,2|0,1:2|0:0,0:0:0:0:
123,96,129081,1,10,0:0:0:0:
199,191,129245,2,0,P|285:183|325:178,1,92.0000017547608,2|0,0:1|1:2,0:0:0:0:
405,129,129573,1,0,1:0:0:0:
282,92,129737,1,8,0:0:0:0:
390,41,129901,1,2,1:2:0:0:
397,24,129983,1,2,0:0:0:0:
403,6,130065,5,2,0:0:0:0:
423,149,130228,1,2,1:2:0:0:
487,92,130392,1,8,0:0:0:0:
507,235,130556,1,2,1:0:0:0:
507,235,130884,2,0,L|477:249,10,23.0000004386902,2|0|0|0|0|0|0|0|0|0|0,1:2|0:0|0:0|0:0|0:0|0:0|0:0|0:0|0:0|0:0|0:0,0:0:0:0:
447,319,131376,6,0,P|369:300|295:342,1,138.000002632141,6|0,1:2|0:0,0:0:0:0:
303,345,131704,1,8,0:0:0:0:
229,259,131868,2,0,P|183:247|121:258,1,92.0000017547608,2|0,0:0|0:0,0:0:0:0:
63,322,132196,1,0,1:0:0:0:
2,202,132360,2,0,P|10:136|21:107,1,92.0000017547608,8|0,0:0|0:0,0:0:0:0:
99,9,132688,5,2,1:0:0:0:
154,80,132851,2,0,P|214:62|256:66,1,92.0000017547608,2|8,0:0|0:0,0:0:0:0:
297,221,133179,2,0,B|297:99|350:161|350:39,1,184.000003509522,2|2,0:1|1:2,0:0:0:0:
454,6,133671,1,8,0:0:0:0:
512,61,133835,1,0,1:0:0:0:
446,158,133999,6,0,P|438:245|459:319,1,138.000002632141,2|0,1:0|0:0,0:0:0:0:
470,314,134327,1,8,0:0:0:0:
315,241,134491,2,0,P|231:236|185:238,1,92.0000017547608,2|0,0:1|0:0,0:0:0:0:
152,313,134819,2,0,P|68:318|22:316,1,92.0000017547608,2|8,1:2|0:0,0:0:0:0:
5,248,135147,1,2,0:0:0:0:
102,157,135310,5,2,1:0:0:0:
20,227,135474,1,2,0:0:0:0:
5,72,135638,2,0,P|23:22|72:-3,1,92.0000017547608,10|0,0:0|0:0,0:0:0:0:
125,145,135966,1,2,0:0:0:0:
198,98,136130,1,0,1:0:0:0:
246,0,136294,1,10,0:0:0:0:
319,47,136458,1,0,1:0:0:0:
212,111,136622,5,2,1:0:0:0:
302,154,136786,1,2,0:0:0:0:
227,221,136950,1,10,0:0:0:0:
317,264,137114,2,0,P|378:251|438:251,1,92.0000017547608,2|0,0:0|0:0,0:0:0:0:
239,339,137442,2,0,P|178:326|118:326,1,92.0000017547608,2|8,1:2|0:0,0:0:0:0:
34,361,137769,1,2,0:0:0:0:
44,345,137851,1,0,0:0:0:0:
48,327,137933,6,0,P|52:247|33:156,1,138.000002632141,0|0,0:0|0:0,0:0:0:0:
32,168,138261,2,0,P|45:118|102:78,1,92.0000017547608,10|2,0:0|0:1,0:0:0:0:
189,162,138589,2,0,P|272:155|310:154,1,92.0000017547608,2|0,0:0|1:0,0:0:0:0:
337,86,138917,2,0,P|420:93|458:94,1,92.0000017547608,10|0,0:0|1:0,0:0:0:0:
499,207,139245,6,0,P|419:201|365:274,1,138.000002632141,2|0,1:2|0:0,0:0:0:0:
369,259,139573,1,8,0:0:0:0:
470,381,139737,2,0,L|453:273,1,92.0000017547608,2|0,0:1|0:0,0:0:0:0:
362,374,140065,1,0,1:0:0:0:
275,251,140228,1,8,0:0:0:0:
216,318,140392,1,2,1:2:0:0:
198,322,140474,1,2,0:0:0:0:
180,328,140556,5,2,1:2:0:0:
79,183,140720,1,6,1:2:0:0:
37,251,140884,1,8,0:0:0:0:
222,179,141048,1,2,1:2:0:0:
222,179,141376,2,0,L|218:147,10,23.0000004386902,0|0|0|0|0|0|0|0|0|0|0,0:0|0:0|0:0|0:0|0:0|0:0|0:0|0:0|0:0|0:0|0:0,0:0:0:0:
293,234,141868,6,0,P|337:205|443:235,1,160,6|0,1:2|0:0,0:0:0:0:
494,321,142360,2,0,P|436:326|329:368,1,160,2|0,1:2|1:0,0:0:0:0:
253,345,142851,2,0,P|211:344|169:333,1,80,8|0,0:0|0:0,0:0:0:0:
107,278,143179,5,2,1:2:0:0:
150,211,143343,1,2,1:2:0:0:
55,108,143507,1,0,0:0:0:0:
138,107,143671,2,0,P|190:104|244:93,1,80,2|0,1:2|0:0,0:0:0:0:
286,11,143999,1,0,1:0:0:0:
393,94,144163,1,10,0:0:0:0:
444,31,144327,1,0,1:2:0:0:
499,163,144491,6,0,P|492:210|495:268,1,80,6|0,1:2|0:0,0:0:0:0:
512,319,144819,1,0,0:0:0:0:
368,243,144983,2,0,B|288:218|289:283|213:253,1,160,4|0,1:2|1:0,0:0:0:0:
149,367,145474,2,0,P|131:307|86:256,1,120,10|0,0:0|0:0,0:0:0:0:
74,253,145802,5,2,1:2:0:0:
118,184,145966,1,2,1:2:0:0:
48,56,146130,1,0,0:0:0:0:
129,87,146294,2,0,P|184:93|296:51,1,160,2|0,1:2|1:0,0:0:0:0:
348,2,146786,1,10,0:0:0:0:
348,2,146950,1,0,0:0:0:0:
441,91,147114,6,0,P|421:140|440:248,1,160,2|0,1:2|0:0,0:0:0:0:
512,303,147606,2,0,L|323:276,1,160,2|0,0:0|1:0,0:0:0:0:
276,328,148097,1,8,0:0:0:0:
276,328,148261,1,0,0:0:0:0:
178,233,148425,5,2,1:2:0:0:
256,206,148589,1,0,1:0:0:0:
256,206,148753,1,2,0:0:0:0:
137,325,148917,2,0,P|75:310|21:303,1,80,0|0,1:0|0:0,0:0:0:0:
6,246,149245,1,2,1:2:0:0:
113,159,149409,2,0,P|122:120|90:36,1,120,10|0,0:0|0:0,0:0:0:0:
80,21,149737,6,0,P|158:25|181:23,1,80,2|0,1:2|0:0,0:0:0:0:
230,57,150065,1,4,0:0:0:0:
325,180,150228,2,0,P|327:93|357:23,1,160,0|0,1:2|1:0,0:0:0:0:
511,33,150720,1,10,0:0:0:0:
459,95,150884,1,2,0:0:0:0:
505,242,151048,5,4,1:2:0:0:
359,196,151212,1,2,1:2:0:0:
359,196,151540,2,0,L|355:372,1,160,2|0,1:2|1:0,0:0:0:0:
272,294,152032,2,0,L|249:286,6,20,0|0|0|0|0|0|0,3:0|3:0|3:0|3:0|3:0|3:0|3:0,0:0:0:0:
171,341,152360,6,2,B|162:278|162:278|174:250|174:250|162:158,1,160,6|8,1:2|0:0,0:0:0:0:
117,117,152851,1,2,0:0:0:0:
204,19,153015,2,0,P|258:43|359:9,1,160,0|8,0:0|0:0,0:0:0:0:
422,50,153507,1,0,0:0:0:0:
312,166,153671,6,2,B|465:157,1,120,0|0,1:0|0:0,0:0:0:0:
464,156,153999,1,8,0:0:0:0:
407,282,154163,2,2,P|341:280|282:360,1,160,2|0,0:0|1:0,0:0:0:0:
242,252,154655,1,8,0:0:0:0:
242,252,154819,1,0,1:0:0:0:
129,362,154983,6,2,P|124:259|103:185,1,160,2|8,1:2|0:0,0:0:0:0:
58,144,155474,1,2,0:0:0:0:
170,72,155638,2,0,P|245:80|327:32,1,160,0|8,0:0|0:0,0:0:0:0:
384,4,156130,1,0,0:0:0:0:
463,104,156294,6,0,P|454:143|452:190,1,80,2|0,1:2|1:0,0:0:0:0:
512,288,156622,1,8,0:0:0:0:
451,348,156786,1,0,1:0:0:0:
436,342,156868,1,0,0:0:0:0:
420,337,156950,2,0,L|411:305,6,20,0|0|0|0|0|0|0,0:2|0:0|1:0|0:0|1:2|0:0|0:0,0:0:0:0:
341,265,157278,2,2,P|295:257|257:262,1,80,10|0,0:0|0:0,0:0:0:0:
153,357,157606,6,2,P|93:370|23:287,1,160,2|8,1:2|0:0,0:0:0:0:
49,233,158097,1,2,0:0:0:0:
182,184,158261,2,0,P|163:133|191:34,1,160,0|10,0:0|0:0,0:0:0:0:
261,0,158753,1,0,0:0:0:0:
335,116,158917,6,2,P|403:104|432:106,1,80,0|0,1:0|0:0,0:0:0:0:
282,214,159245,2,2,P|214:202|185:204,1,80,8|2,0:0|0:0,0:0:0:0:
120,244,159573,1,0,0:0:0:0:
120,244,159737,1,0,1:0:0:0:
13,145,159901,1,8,0:0:0:0:
74,89,160065,1,0,1:0:0:0:
179,130,160228,5,2,1:2:0:0:
193,124,160310,1,0,1:2:0:0:
208,119,160392,1,0,1:2:0:0:
279,56,160556,1,8,0:0:0:0:
344,106,160720,1,0,1:0:0:0:
438,53,160884,1,0,1:0:0:0:
438,53,161048,1,0,1:0:0:0:
482,156,161212,2,2,P|491:197|488:246,1,80,8|0,0:0|1:0,0:0:0:0:
434,316,161540,5,0,1:2:0:0:
406,314,161621,1,0,1:2:0:0:
378,313,161703,1,0,1:2:0:0:
350,311,161785,1,0,1:2:0:0:
322,312,161868,2,0,P|332:354|331:376,3,40,8|8|8|8,0:0|0:0|0:0|0:0,0:0:0:0:
254,251,162196,2,0,P|257:231|265:213,3,40,0|0|0|0,1:2|1:2|1:2|1:2,0:0:0:0:
208,115,162524,1,8,0:0:0:0:
140,164,162688,1,0,1:0:0:0:
0,108,162851,5,10,1:2:0:0:
46,201,163015,1,8,1:2:0:0:
46,201,163343,5,10,1:2:0:0:
0,294,163507,1,8,1:2:0:0:
0,294,163835,5,8,1:2:0:0:
93,340,163999,1,8,1:2:0:0:
93,340,164327,5,8,1:2:0:0:
186,294,164491,1,8,1:2:0:0:
186,294,164819,5,14,1:2:0:0:
279,340,164983,1,8,1:2:0:0:
303,234,165147,1,8,1:2:0:0:
396,280,165311,1,8,1:2:0:0:
368,130,165474,5,10,1:2:0:0:
280,225,165638,1,8,1:2:0:0:
280,225,165966,5,10,1:2:0:0:
185,137,166130,1,8,1:2:0:0:
185,137,166458,5,8,1:2:0:0:
90,225,166622,1,8,1:2:0:0:
90,225,166950,5,14,1:2:0:0:
0,133,167114,1,8,1:2:0:0:
0,133,167442,5,10,1:2:0:0:
90,41,167606,1,8,1:2:0:0:
185,137,167769,1,10,1:2:0:0:
275,45,167933,1,8,1:2:0:0:
255,221,168097,5,10,1:2:0:0:
366,160,168261,1,8,1:2:0:0:
366,160,168589,5,10,1:2:0:0:
477,221,168753,1,8,1:2:0:0:
477,221,169081,5,8,1:2:0:0:
416,332,169245,1,8,1:2:0:0:
416,332,169573,5,8,1:2:0:0:
355,221,169737,1,8,1:2:0:0:
355,221,170065,5,10,1:2:0:0:
269,304,170228,1,8,1:2:0:0:
226,197,170392,1,14,1:2:0:0:
140,280,170555,1,8,1:2:0:0:
27,157,170720,5,10,1:2:0:0:
147,120,170884,1,8,1:2:0:0:
147,120,171212,5,10,1:2:0:0:
267,83,171376,1,8,1:2:0:0:
267,83,171704,5,8,1:2:0:0:
387,46,171868,1,8,1:2:0:0:
387,46,172196,5,12,1:2:0:0:
424,166,172360,1,8,1:2:0:0:
424,166,172688,5,10,1:2:0:0:
461,286,172852,1,8,1:2:0:0:
316,183,173015,1,10,1:2:0:0:
286,334,173179,1,8,1:2:0:0:
211,286,173343,6,0,L|170:282,2,40,2|2|0,0:0|0:0|0:0,0:0:0:0:
159,203,173671,1,8,0:0:0:0:
76,258,173835,1,0,0:0:0:0:
69,272,173917,1,0,0:0:0:0:
62,286,173999,2,0,P|58:329|61:351,4,40,2|0|0|0|8,0:0|0:0|0:0|0:0|0:0,0:0:0:0:
21,188,174491,1,2,0:0:0:0:
24,172,174573,1,0,1:0:0:0:
27,155,174655,6,0,L|19:126,6,20,0|0|0|0|0|0|0,0:0|0:0|0:0|0:0|0:0|0:0|0:0,0:0:0:0:
105,104,174983,2,0,L|113:75,6,20,0|0|0|0|0|0|0,0:0|0:0|0:0|0:0|0:0|0:0|0:0,0:0:0:0:
167,167,175310,2,0,L|183:162,16,10,0|0|0|0|0|0|0|0|0|0|0|0|0|0|0|0|0,0:0|0:0|0:0|0:0|0:0|0:0|0:0|0:0|0:0|0:0|0:0|0:0|0:0|0:0|0:0|0:0|0:0,0:0:0:0:
141,251,175720,6,0,P|136:289|137:308,2,40,0|0|0,0:0|0:0|0:0,0:0:0:0:
267,173,175966,1,0,0:0:0:0:
267,173,178589,5,0,1:0:0:0:
329,294,178753,1,0,1:0:0:0:
329,294,179081,1,0,1:0:0:0:
63,147,180556,6,0,L|37:140,6,20,0|0|0|0|0|0|0,0:0|0:0|0:0|0:0|0:0|0:0|0:0,0:0:0:0:
139,98,180884,2,0,L|149:66,6,20,0|0|0|0|0|0|0,0:0|0:0|0:0|0:0|0:0|0:0|0:0,0:0:0:0:
196,166,181212,5,6,1:2:0:0:
271,110,181376,1,2,0:0:0:0:
330,190,181540,1,10,0:0:0:0:
413,114,181704,2,0,P|480:101|518:119,1,95.9999970703126,2|0,0:1|1:0,0:0:0:0:
380,271,182032,2,0,P|313:284|275:266,1,95.9999970703126,2|8,0:2|0:0,0:0:0:0:
225,211,182360,1,2,0:0:0:0:
149,312,182524,5,0,0:0:0:0:
105,239,182688,1,0,0:0:0:0:
15,345,182851,2,0,P|9:285|-6:232,1,95.9999970703126,10|2,0:0|0:1,0:0:0:0:
82,154,183179,2,0,P|88:94|103:41,1,95.9999970703126,2|0,1:2|0:0,0:0:0:0:
197,191,183507,2,0,P|257:185|310:170,1,95.9999970703126,10|0,0:0|0:0,0:0:0:0:
426,41,183835,6,0,P|394:111|398:206,1,143.999995605469,2|0,1:2|0:0,0:0:0:0:
404,201,184163,1,10,0:0:0:0:
326,308,184327,2,0,P|389:316|429:343,1,95.9999970703126,2|0,0:0|1:0,0:0:0:0:
489,362,184655,1,0,1:0:0:0:
256,375,184819,1,10,0:2:0:0:
216,257,184983,1,2,1:2:0:0:
228,231,185065,1,0,0:0:0:0:
240,204,185147,5,2,0:0:0:0:
95,248,185310,1,6,0:0:0:0:
151,322,185474,1,8,0:0:0:0:
184,130,185638,1,6,1:2:0:0:
184,130,185966,2,0,L|147:118,10,23.9999992675781,0|0|0|0|0|0|0|0|0|0|0,0:0|0:0|0:0|0:0|0:0|0:0|0:0|0:0|0:0|0:0|0:0,0:0:0:0:
254,69,186458,6,0,B|348:31|347:103|441:69,1,191.999994140625,6|8,1:2|0:0,0:0:0:0:
391,276,186950,2,0,P|305:235|321:128,1,191.999994140625,2|2,0:0|1:2,0:0:0:0:
461,149,187442,1,10,0:0:0:0:
382,194,187606,1,2,0:0:0:0:
478,342,187769,5,2,1:0:0:0:
383,299,187933,2,0,P|314:317|281:355,1,95.9999970703126,2|8,0:0|0:0,0:0:0:0:
181,376,188261,2,0,P|192:283|165:174,1,191.999994140625,2|2,0:0|1:2,0:0:0:0:
48,109,188753,1,8,0:0:0:0:
115,62,188917,1,0,1:0:0:0:
249,136,189081,6,0,P|304:105|420:120,1,143.999995605469,2|0,1:0|0:0,0:0:0:0:
405,115,189409,1,10,0:0:0:0:
337,300,189573,2,0,P|325:253|290:202,1,95.9999970703126,2|0,0:1|0:0,0:0:0:0:
181,376,189901,2,0,P|206:335|217:288,1,95.9999970703126,0|8,1:0|0:0,0:0:0:0:
165,191,190228,1,2,0:0:0:0:
74,303,190392,5,2,1:0:0:0:
145,212,190556,1,2,0:0:0:0:
21,228,190720,2,0,P|17:175|5:117,1,95.9999970703126,10|0,0:0|0:0,0:0:0:0:
83,17,191048,1,2,0:0:0:0:
154,59,191212,1,0,1:2:0:0:
267,0,191376,1,10,0:0:0:0:
309,71,191540,1,0,1:0:0:0:
450,25,191704,5,2,1:0:0:0:
348,64,191868,1,2,0:0:0:0:
454,116,192032,1,10,0:0:0:0:
334,164,192196,2,0,P|312:211|315:287,1,95.9999970703126,2|0,0:0|0:0,0:0:0:0:
379,379,192524,2,0,P|332:357|256:360,1,95.9999970703126,2|8,1:2|0:0,0:0:0:0:
144,384,192851,1,2,0:0:0:0:
204,272,193015,5,0,0:2:0:0:
95,250,193179,1,0,0:0:0:0:
228,251,193343,2,0,P|218:197|220:148,1,95.9999970703126,10|2,0:0|0:1,0:0:0:0:
137,98,193671,2,0,P|147:44|145:-5,1,95.9999970703126,2|2,0:0|1:2,0:0:0:0:
236,143,193999,1,10,0:0:0:0:
300,85,194163,1,0,1:0:0:0:
436,155,194327,6,0,P|389:210|391:297,1,143.999995605469,2|0,1:2|0:0,0:0:0:0:
405,309,194655,1,10,0:0:0:0:
247,271,194819,2,0,P|192:272|149:295,1,95.9999970703126,2|0,0:1|0:0,0:0:0:0:
94,369,195147,1,0,1:0:0:0:
8,222,195310,1,8,0:0:0:0:
125,278,195474,1,2,1:2:0:0:
131,249,195556,1,2,0:0:0:0:
138,221,195638,5,2,1:2:0:0:
267,125,195802,1,6,1:2:0:0:
192,78,195966,1,8,0:0:0:0:
247,271,196130,1,6,1:2:0:0:
247,271,196458,2,0,L|266:290,10,23.9999992675781,4|0|0|0|8|0|0|0|0|0|0,1:2|0:0|0:0|0:0|0:0|0:0|0:0|0:0|0:0|0:0|0:0,0:0:0:0:
329,349,196950,6,0,P|358:315|481:309,1,143.999995605469,6|2,1:2|0:0,0:0:0:0:
507,220,197442,2,0,P|490:178|478:46,1,143.999995605469,2|2,1:2|1:2,0:0:0:0:
399,38,197933,2,0,P|347:44|314:39,1,71.9999978027344,8|2,0:0|0:0,0:0:0:0:
223,0,198261,5,0,1:0:0:0:
250,81,198425,1,0,1:0:0:0:
250,81,198589,1,2,0:0:0:0:
119,67,198753,2,0,P|104:111|96:169,1,71.9999978027344,2|0,1:2|0:0,0:0:0:0:
109,213,199081,1,2,1:2:0:0:
240,194,199245,2,0,P|291:230|299:265,1,71.9999978027344,10|2,0:0|1:2,0:0:0:0:
158,343,199573,6,0,L|335:328,1,143.999995605469,2|2,1:2|0:0,0:0:0:0:
427,351,200065,2,0,B|441:275|395:289|403:211,1,143.999995605469,2|0,1:2|1:0,0:0:0:0:
491,121,200556,1,10,0:0:0:0:
450,49,200720,6,0,P|391:54|320:25,1,107.999996704102,2|0,1:2|0:0,0:0:0:0:
322,18,201048,2,0,P|277:8|237:58,1,107.999996704102,2|0,1:2|0:0,0:0:0:0:
247,72,201376,1,6,1:2:0:0:
159,124,201868,2,0,L|130:110,6,17.9999994506836,0|0|0|0|0|0|0,0:0|0:0|0:0|0:0|0:0|0:0|0:0,0:0:0:0:
217,199,202196,5,6,1:2:0:0:
177,274,202360,1,2,0:0:0:0:
255,349,202524,2,0,P|315:336|352:339,1,80,10|0,0:0|0:0,0:0:0:0:
458,365,202851,1,2,0:0:0:0:
416,290,203015,1,2,1:2:0:0:
491,216,203179,2,0,P|484:169|486:130,1,80,8|2,0:0|0:0,0:0:0:0:
429,65,203507,6,0,P|372:62|299:8,1,120,2|0,1:2|0:0,0:0:0:0:
304,6,203835,2,2,P|264:4|246:19,2,40,10|0|0,0:0|0:0|0:0,0:0:0:0:
229,138,204163,1,10,0:0:0:0:
191,62,204327,1,0,0:0:0:0:
121,161,204491,1,8,0:0:0:0:
172,233,204655,1,0,0:0:0:0:
56,323,204819,6,0,P|104:320|149:335,1,80,2|2,1:2|0:0,0:0:0:0:
252,381,205147,1,10,0:0:0:0:
284,306,205310,1,0,0:0:0:0:
392,351,205474,2,0,P|397:302|407:261,1,80,2|2,0:0|1:2,0:0:0:0:
452,173,205802,2,0,P|447:124|437:83,1,80,8|2,0:0|0:0,0:0:0:0:
389,0,206130,5,2,0:2:0:0:
347,72,206294,1,0,1:0:0:0:
237,13,206458,2,2,P|158:7|117:39,1,120,10|0,1:2|0:0,0:0:0:0:
122,50,206786,2,2,P|137:103|152:221,1,160,8|8,0:2|0:0,0:0:0:0:
114,310,207278,1,0,1:0:0:0:
114,310,207769,6,0,P|196:306|202:307,1,80,14|2,0:2|0:0,0:0:0:0:
293,367,208097,1,10,0:0:0:0:
319,290,208261,1,0,0:0:0:0:
437,253,208425,2,0,P|441:171|440:165,1,80,10|2,0:0|1:2,0:0:0:0:
394,94,208753,5,0,0:0:0:0:
394,94,208917,1,2,1:2:0:0:
277,158,209081,2,0,P|224:143|209:122,1,80,10|0,0:2|0:0,0:0:0:0:
209,101,209327,1,0,0:0:0:0:
207,100,209409,2,2,P|173:78|109:90,1,80,8|0,0:0|0:0,0:0:0:0:
33,139,209737,1,8,0:0:0:0:
71,212,209901,1,0,0:0:0:0:
2,295,210065,6,0,P|46:312|84:338,1,80,0|0,0:0|1:2,0:0:0:0:
192,377,210392,2,0,P|236:360|274:334,1,80,10|2,0:2|1:2,0:0:0:0:
338,235,210720,1,10,0:0:0:0:
380,312,210884,1,0,1:0:0:0:
484,232,211048,1,10,0:0:0:0:
414,174,211212,1,2,1:2:0:0:
501,106,211376,6,0,P|512:61|501:18,1,80,0|2,0:0|1:2,0:0:0:0:
368,96,211704,2,0,P|317:88|286:90,1,80,10|0,0:2|1:2,0:0:0:0:
217,178,212032,1,10,1:2:0:0:
247,266,212196,1,0,0:0:0:0:
148,342,212360,1,10,0:0:0:0:
118,254,212524,1,2,1:2:0:0:
