osu file format v14

[General]
AudioFilename: audio.mp3
AudioLeadIn: 0
PreviewTime: 175608
Countdown: 1
SampleSet: Soft
StackLeniency: 0.7
Mode: 0
LetterboxInBreaks: 0
WidescreenStoryboard: 0

[Editor]
Bookmarks: 15936,21182,31674,36920,78887,89379,99871,105117,120854,152330,162821,173149,175936,202166,207248,207739,212494
DistanceSpacing: 0.6
BeatDivisor: 4
GridSize: 32
TimelineZoom: 4.000005

[Metadata]
Title:No buts!
TitleUnicode:No buts!
Artist:Kawada Mami
ArtistUnicode:川田まみ
Creator:Cami
Version:Misfortune
Source:とある魔術の禁書目録
Tags:ChaoticRed Yudragen Serizawa Haruki Jack J_a_c_k toaru majutsu no index opening theme full ver. anime season 2
BeatmapID:1862164
BeatmapSetID:890764

[Difficulty]
HPDrainRate:6
CircleSize:4.7
OverallDifficulty:8
ApproachRate:9
SliderMultiplier:1.65
SliderTickRate:1

[Events]
//Background and Video events
0,0,"GNB2NBEiMOw.jpg",0,0
//Break Periods
2,10920,12743
2,47642,49465
2,115838,117661
2,149937,151432
2,176165,177989
2,179281,179956
//Storyboard Layer 0 (Background)
//Storyboard Layer 1 (Fail)
//Storyboard Layer 2 (Pass)
//Storyboard Layer 3 (Foreground)
//Storyboard Sound Samples

[TimingPoints]
229,327.868852459016,4,2,1,60,1,0
2196,-95.2380952380952,4,2,1,60,0,0
2851,-100,4,2,1,60,0,0
4819,-95.2380952380952,4,2,1,60,0,0
5474,-100,4,2,1,60,0,0
7442,-95.2380952380952,4,2,1,60,0,0
17933,-90.9090909090909,4,2,1,60,0,0
18261,-95.2380952380952,4,2,1,60,0,0
21540,-117.647058823529,4,2,1,60,0,0
26458,-111.111111111111,4,2,1,60,0,0
29081,-105.263157894737,4,2,1,60,0,0
31376,-100,4,2,1,60,0,0
33671,-90.9090909090909,4,2,1,60,0,0
33999,-100,4,2,1,60,0,0
36294,-90.9090909090909,4,2,1,60,0,0
42196,-108.108108108108,4,2,1,60,0,0
52688,-90.9090909090909,4,2,1,80,0,1
62688,-90.9090909090909,4,2,1,80,0,0
63179,-95.2380952380952,4,2,1,80,0,1
73671,-105.263157894737,4,2,1,70,0,0
80884,-100,4,2,1,70,0,0
81540,-105.263157894737,4,2,1,70,0,0
83507,-100,4,2,1,70,0,0
84163,-105.263157894737,4,2,1,70,0,0
86130,-100,4,2,1,70,0,0
89737,-117.647058823529,4,2,1,70,0,0
93999,-181.818181818182,4,2,1,70,0,0
94327,-105.263157894737,4,2,1,70,0,0
94491,-80,4,2,1,70,0,0
94655,-105.263157894737,4,2,1,70,0,0
97278,-100,4,2,1,70,0,0
99573,-90.9090909090909,4,2,1,70,0,0
101868,-83.3333333333333,4,2,1,70,0,0
102196,-90.9090909090909,4,2,1,70,0,0
104491,-83.3333333333333,4,2,1,70,0,0
110392,-97.5609756097561,4,2,1,70,0,0
120884,-90.9090909090909,4,2,1,80,0,1
130884,-90.9090909090909,4,2,1,80,0,0
131376,-95.2380952380952,4,2,1,80,0,1
141868,-105.263157894737,4,2,1,70,0,0
142851,-117.647058823529,4,2,1,70,0,0
143179,-105.263157894737,4,2,1,70,0,0
144983,-100,4,2,1,70,0,0
145802,-105.263157894737,4,2,1,70,0,0
146786,-100,4,2,1,70,0,0
152360,-86.9565217391304,4,2,1,70,0,0
152851,-105.263157894737,4,2,1,70,0,0
153671,-95.2380952380952,4,2,1,70,0,0
154163,-90.9090909090909,4,2,1,70,0,0
154983,-86.9565217391304,4,2,1,70,0,0
155474,-105.263157894737,4,2,1,70,0,0
156786,-95.2380952380952,4,2,1,70,0,0
157278,-83.3333333333333,4,2,1,70,0,0
157606,-95.2380952380952,4,2,1,70,0,0
158097,-100,4,2,1,70,0,0
158917,-105.263157894737,4,2,1,70,0,0
159409,-95.2380952380952,4,2,1,70,0,0
160720,-105.263157894737,4,2,1,70,0,0
161212,-71.4285714285714,4,2,1,70,0,0
161376,-95.2380952380952,4,2,1,70,0,0
173343,-153.846153846154,4,2,0,40,0,0
174327,-133.333333333333,4,2,0,40,0,0
174573,-133.333333333333,4,2,1,40,0,0
181212,-90.9090909090909,4,2,1,80,0,1
185966,-95.2380952380952,4,2,1,80,0,0
186458,-95.2380952380952,4,2,1,80,0,1
196950,-105.263157894737,4,2,1,70,0,0
204163,-100,4,2,1,70,0,0
204491,-105.263157894737,4,2,1,70,0,0
206786,-100,4,2,1,70,0,0
207114,-105.263157894737,4,2,1,70,0,0
209737,-100,4,2,1,70,0,0
210065,-105.263157894737,4,2,1,70,0,0
210720,-100,4,2,1,70,0,0
212032,-100,4,2,1,70,0,0

[Colours]
Combo1 : 181,181,181
Combo2 : 232,221,15
Combo3 : 114,130,148
Combo4 : 109,125,239

[HitObjects]
148,281,229,5,6,1:2:0:0:
216,226,392,1,2,0:0:0:0:
300,276,556,2,0,L|311:191,1,82.5,2|0,1:2|0:0,0:0:0:0:
327,82,884,1,2,1:2:0:0:
400,134,1048,2,0,L|410:215,1,82.5,2|0,0:2|1:0,0:0:0:0:
413,304,1376,1,2,0:0:0:0:
318,293,1540,2,0,L|234:303,1,82.5,2|0,1:2|0:0,0:0:0:0:
140,239,1868,6,0,B|157:320|157:320|138:365,1,123.75,2|0,1:0|0:0,0:0:0:0:
121,371,2196,2,2,B|187:362|187:362|214:380|214:380|304:371,1,173.24999471283,2|2,1:0|1:0,0:1:0:0:
368,355,2688,1,2,0:0:0:0:
368,355,2851,5,2,1:2:0:0:
460,367,3015,1,2,0:0:0:0:
425,285,3179,2,0,L|429:191,1,82.5,2|0,1:2|0:0,0:0:0:0:
419,92,3507,1,2,1:2:0:0:
340,134,3671,2,0,L|343:216,1,82.5,2|0,0:2|1:0,0:0:0:0:
259,176,3999,1,2,0:0:0:0:
320,115,4163,2,0,L|311:27,1,82.5,2|0,1:2|0:0,0:0:0:0:
203,89,4491,6,0,B|112:103|112:103|139:79,1,123.75,2|0,1:0|0:0,0:0:0:0:
152,103,4819,2,2,B|153:173|153:173|171:201|171:201|172:284,1,173.24999471283,2|2,1:0|1:0,0:1:0:0:
142,348,5310,1,2,0:0:0:0:
65,259,5474,5,6,1:2:0:0:
155,244,5638,1,2,0:0:0:0:
246,271,5802,2,0,L|334:262,1,82.5,2|0,1:2|0:0,0:0:0:0:
295,162,6130,1,2,0:0:0:0:
383,194,6294,2,0,L|469:202,1,82.5,2|0,0:2|1:0,0:0:0:0:
422,284,6622,1,2,0:0:0:0:
489,219,6786,2,0,L|478:117,1,82.5,2|0,1:2|0:0,0:0:0:0:
433,36,7114,6,0,B|403:90|403:90|310:96,1,123.75,2|0,1:0|0:0,0:0:0:0:
311,104,7442,2,2,B|314:169|314:169|337:196|337:196|340:280,1,173.24999471283,2|2,1:0|1:0,0:1:0:0:
305,348,7933,1,2,0:0:0:0:
223,292,8097,5,2,1:2:0:0:
140,333,8261,1,2,0:0:0:0:
64,278,8425,2,0,L|56:181,1,86.6249973564149,2|0,1:2|0:0,0:0:0:0:
174,207,8753,1,2,1:2:0:0:
143,122,8917,2,0,L|151:25,1,86.6249973564149,2|0,0:0|1:0,0:0:0:0:
67,72,9245,1,2,0:0:0:0:
234,24,9409,5,10,0:0:0:0:
259,35,9491,1,8,0:0:0:0:
284,46,9573,1,0,1:0:0:0:
367,87,9737,1,0,1:0:0:0:
512,44,9901,5,8,0:0:0:0:
487,55,9983,1,8,0:0:0:0:
462,66,10065,1,2,1:0:0:0:
379,107,10228,1,0,1:0:0:0:
296,148,10392,1,2,1:2:0:0:
213,189,10556,1,2,1:2:0:0:
401,98,10720,5,4,0:0:0:0:
171,215,13343,5,8,1:2:0:0:
143,76,13507,1,10,1:2:0:0:
256,192,13589,12,0,15474,1:0:0:0:
199,156,15638,6,0,L|200:173,14,10.8281246695519
184,148,15966,6,0,B|178:182|180:223|180:223|161:236|161:236|168:268|161:323,1,173.24999471283,6|10,1:2|0:0,0:0:0:0:
101,368,16458,2,0,P|57:366|19:337,1,86.6249973564149,2|0,0:0|0:0,0:0:0:0:
84,273,16786,1,2,1:0:0:0:
182,319,16950,2,0,B|235:313|235:313|251:298|251:298|331:289,1,129.937496034622,10|0,0:0|0:0,0:0:0:0:
333,289,17278,5,0,0:0:0:0:
301,217,17442,1,2,0:0:0:0:
395,180,17606,2,2,B|439:197|439:197|433:292,1,129.937496034622,10|0,0:0|0:0,0:1:0:0:
430,305,17933,2,2,B|424:342|429:370|429:370|395:383|348:377,1,136.125004154205,2|0,0:0|0:0,0:1:0:0:
330,370,18261,2,2,B|286:364|286:364|244:375,1,86.6249973564149,10|0,0:0|0:0,0:1:0:0:
117,365,18589,6,0,B|164:341|164:341|164:200,1,173.24999471283,2|8,1:2|0:0,0:0:0:0:
132,141,19081,1,2,0:0:0:0:
247,165,19245,2,0,L|242:255,1,86.6249973564149,2|2,0:0|1:0,0:0:0:0:
330,91,19573,2,0,L|342:231,1,129.937496034622,10|0,0:0|0:0,0:0:0:0:
344,247,19901,5,2,1:2:0:0:
440,257,20065,1,0,1:0:0:0:
364,156,20228,1,10,0:0:0:0:
446,122,20392,1,0,1:2:0:0:
470,107,20474,1,0,1:2:0:0:
494,92,20556,6,2,L|495:61,7,21.6562493391037,0|0|0|0|0|0|0|0,1:0|1:0|1:0|1:0|1:0|1:0|1:0|1:0,0:1:0:0:
485,35,20884,2,2,L|484:22,14,10.8281246695519,8|0|0|0|0|0|0|0|0|0|0|0|0|0|0,0:0|0:0|0:0|0:0|0:0|0:0|0:0|0:0|0:0|0:0|0:0|0:0|0:0|0:0|0:0,0:1:0:0:
482,0,21212,5,4,0:0:0:0:
305,72,21540,2,0,L|231:68,1,70.1250013375282,10|0,0:0|0:0,0:0:0:0:
148,43,21868,2,0,P|162:80|178:184,1,140.250002675056,2|10,0:0|0:0,0:0:0:0:
140,257,22360,1,2,0:0:0:0:
242,301,22524,6,0,L|378:287,1,105.187502006292,0|0,1:2|0:0,0:0:0:0:
377,288,22851,2,0,L|373:363,1,70.1250013375282,10|0,0:0|0:0,0:0:0:0:
481,220,23179,2,0,L|477:202,6,17.5312503343821,0|0|0|0|0|0|0,0:0|0:0|0:0|0:0|1:0|0:0|0:0,0:0:0:0:
413,146,23507,2,0,L|409:164,6,17.5312503343821,8|0|0|0|0|0|0,0:0|0:0|0:0|0:0|0:0|0:0|0:0,0:0:0:0:
335,183,23835,6,0,P|274:198|202:197,1,105.187502006292,2|0,1:2|0:0,0:0:0:0:
203,191,24163,2,0,L|204:118,1,70.1250013375282,10|0,0:0|0:0,0:0:0:0:
101,185,24491,2,0,P|116:244|124:333,1,140.250002675056,2|10,0:0|0:0,0:0:0:0:
32,286,24983,1,2,0:0:0:0:
145,251,25147,6,0,L|237:248,1,70.1250013375282,0|2,1:0|0:0,0:0:0:0:
292,300,25474,2,0,B|321:313|345:298|345:298|370:278|406:293,1,105.187502006292,10|0,0:0|0:0,0:0:0:0:
416,301,25802,2,0,L|408:258,1,35.0625006687641
495,323,25966,2,0,L|487:280,1,35.0625006687641,0|0,1:2|0:0,0:0:0:0:
391,170,26130,2,2,B|394:152|394:152|406:130,1,35.0625006687641,10|0,0:0|0:0,0:1:0:0:
306,230,26294,2,2,B|303:212|303:212|291:190,1,35.0625006687641,2|0,1:2|0:0,0:1:0:0:
194,112,26458,6,0,L|201:253,1,111.374996601105,0|0,1:2|0:0,0:0:0:0:
215,248,26786,2,0,P|164:251|117:266,1,74.2499977340699,10|0,0:0|0:0,0:0:0:0:
57,319,27114,2,0,L|50:151,1,148.49999546814,2|10,0:0|0:0,0:0:0:0:
118,80,27606,6,0,P|186:84|261:28,1,148.49999546814,2|2,0:0|0:0,0:0:0:0:
345,5,28097,2,0,L|339:144,1,111.374996601105,10|0,0:0|0:0,0:0:0:0:
350,141,28425,2,0,L|353:163,6,18.5624994335175,0|0|0|0|0|0|0,0:0|0:0|0:0|0:0|1:0|0:0|0:0,0:0:0:0:
425,105,28753,2,0,L|427:86,6,18.5624994335175,10|0|0|0|2|0|0,0:0|0:0|0:0|0:0|0:2|0:0|0:0,0:0:0:0:
488,164,29081,6,0,P|471:219|460:325,1,156.749995814324,2|8,1:2|0:0,0:0:0:0:
358,259,29573,2,0,B|293:265|293:265|274:288|274:288|187:295,1,156.749995814324,2|0,0:0|1:2,0:0:0:0:
113,237,30065,2,0,L|102:314,1,78.3749979071618,8|0,0:0|0:0,0:0:0:0:
30,177,30392,5,0,1:2:0:0:
121,207,30556,1,2,0:0:0:0:
60,86,30720,1,8,0:2:0:0:
151,116,30884,1,2,1:2:0:0:
18,199,31048,2,0,P|6:237|1:286,1,78.3749979071618,10|0,0:0|1:0,0:0:0:0:
132,360,31376,2,0,L|278:344,1,123.75,14|0,0:0|0:0,0:0:0:0:
275,323,31704,6,0,P|319:305|368:299,1,82.5,2|0,1:2|0:0,0:0:0:0:
450,328,32032,1,10,0:0:0:0:
498,246,32196,1,2,0:0:0:0:
378,205,32360,2,0,B|335:200|300:218|300:218|233:205,1,123.75
231,200,32688,1,10,0:0:0:0:
288,134,32851,1,2,0:0:0:0:
181,121,33015,6,0,L|200:293,1,165,2|10,1:2|0:0,0:0:0:0:
199,285,33671,2,0,P|254:291|288:366,1,136.125004154205,2|0,0:1|0:0,0:0:0:0:
294,377,33999,2,2,B|328:366|328:327|328:327|328:281|381:263,1,123.75,8|0,0:0|0:0,0:3:0:0:
379,270,34327,5,2,1:2:0:0:
279,91,34655,2,0,L|185:99,1,82.5,10|0,0:0|0:0,0:0:0:0:
91,47,34983,2,2,B|100:121|100:121|89:143|89:143|102:220,2,165,2|8|0,0:0|0:0|1:2,0:1:0:0:
73,57,35720,1,0,1:0:0:0:
55,68,35802,1,0,1:0:0:0:
37,79,35884,1,0,1:0:0:0:
20,91,35966,6,0,L|15:113,6,20.625,8|8|8|8|8|8|8,0:0|0:0|0:0|0:0|1:2|0:0|0:0,0:0:0:0:
18,178,36294,2,2,B|18:237|18:237|32:257|32:257|33:325,1,136.125004154205,0|0,1:2|0:0,0:1:0:0:
34,337,36622,1,10,0:0:0:0:
104,275,36786,1,2,1:2:0:0:
231,319,36950,5,10,1:2:0:0:
216,179,37114,1,8,1:2:0:0:
236,199,37442,5,10,1:2:0:0:
260,38,37606,1,8,1:2:0:0:
273,59,37933,5,10,1:2:0:0:
120,86,38097,1,8,1:2:0:0:
140,103,38425,5,10,1:2:0:0:
314,146,38589,1,10,1:2:0:0:
327,170,38917,5,10,1:2:0:0:
347,343,39081,1,10,1:2:0:0:
252,211,39245,5,10,1:2:0:0:
232,384,39409,1,8,1:2:0:0:
255,181,39573,5,10,1:2:0:0:
74,317,39737,1,8,1:2:0:0:
46,337,40065,5,10,1:2:0:0:
15,163,40228,1,8,1:2:0:0:
20,134,40556,5,10,1:2:0:0:
134,290,40720,1,8,1:2:0:0:
138,265,41048,5,10,1:2:0:0:
330,242,41212,1,10,1:2:0:0:
330,212,41540,5,10,1:2:0:0:
512,366,41704,1,10,1:2:0:0:
450,193,41868,5,10,1:2:0:0:
268,347,42032,1,8,1:2:0:0:
191,297,42196,6,0,B|171:252|171:252|192:136,1,152.624999417782,6|8,1:2|0:0,0:0:0:0:
250,64,42688,2,0,L|84:77,1,152.624999417782,2|0,0:0|1:2,0:0:0:0:
0,122,43179,2,0,P|25:163|28:211,1,76.3124997088909,10|0,0:0|0:0,0:0:0:0:
111,281,43507,6,0,P|128:223|202:175,1,152.624999417782,2|10,1:2|0:0,0:0:0:0:
293,185,43999,1,0,0:0:0:0:
325,192,44163,1,2,0:0:0:0:
426,216,44327,1,2,1:2:0:0:
349,120,44491,2,0,L|355:197,1,76.3124997088909,8|0,0:0|0:0,0:0:0:0:
371,339,44819,5,10,0:0:0:0:
236,292,44983,1,0,1:0:0:0:
204,280,45147,1,0,1:0:0:0:
326,207,45310,5,10,0:0:0:0:
468,164,45474,1,0,1:0:0:0:
500,152,45638,1,0,1:0:0:0:
344,330,45802,5,8,0:0:0:0:
355,197,45966,1,0,1:0:0:0:
451,355,46130,5,8,0:0:0:0:
475,365,46212,1,8,0:0:0:0:
498,377,46294,1,2,1:2:0:0:
485,285,46458,1,0,1:0:0:0:
323,341,46622,5,8,0:0:0:0:
299,351,46704,1,8,0:0:0:0:
276,363,46786,1,2,1:2:0:0:
289,271,46950,1,0,1:0:0:0:
141,372,47114,5,10,0:0:0:0:
114,225,47278,1,0,0:0:0:0:
316,257,47442,5,4,0:0:0:0:
341,248,50065,5,2,1:0:0:0:
247,101,50228,1,2,1:0:0:0:
203,268,50392,2,0,B|190:326|190:326|218:383,1,114.468749563336,2|0,1:0|0:0,0:0:0:0:
242,371,50720,6,0,B|294:341|294:341|353:358,1,114.468749563336,2|0,1:0|0:0,0:0:0:0:
366,368,51048,5,2,1:0:0:0:
324,232,51212,1,2,1:0:0:0:
221,250,51376,6,0,L|218:236,48,9.53906246361137
257,147,52524,2,0,L|260:171,2,19.0781249272227
266,130,52688,6,0,B|310:114|349:144|349:144|391:176|454:147,1,181.500005538941,6|8,1:2|0:0,0:0:0:0:
399,82,53179,1,2,0:0:0:0:
509,109,53343,2,0,B|520:149|520:149|502:267,1,136.125004154205,2|0,1:2|0:0,0:0:0:0:
487,262,53671,2,0,P|440:260|381:277,1,90.7500027694703,8|0,0:0|0:0,0:0:0:0:
297,326,53999,5,2,1:2:0:0:
336,195,54163,2,0,P|338:149|333:104,1,90.7500027694703,2|8,0:0|0:0,0:0:0:0:
189,54,54491,2,0,L|223:251,1,181.500005538941,2|2,0:0|0:0,0:0:0:0:
93,185,54983,1,8,0:0:0:0:
179,151,55147,1,0,0:0:0:0:
100,279,55310,6,0,P|20:243|4:157,1,181.500005538941,2|8,1:2|0:0,0:0:0:0:
98,44,55802,2,0,L|206:55,1,90.7500027694703,2|0,0:0|1:0,0:0:0:0:
288,112,56130,2,0,L|396:101,1,90.7500027694703,2|8,0:0|0:0,0:0:0:0:
507,48,56458,1,2,0:0:0:0:
507,48,56540,1,0,0:0:0:0:
507,48,56622,6,0,P|486:111|475:161,1,90.7500027694703,2|2,1:0|0:0,0:0:0:0:
370,282,56950,2,0,P|352:218|305:100,1,181.500005538941,10|2,0:0|1:2,0:0:0:0:
273,238,57442,1,0,1:0:0:0:
398,288,57606,1,10,1:2:0:0:
245,227,57769,1,0,1:2:0:0:
506,109,57933,5,6,1:2:0:0:
412,142,58097,1,2,0:0:0:0:
480,246,58261,1,10,0:0:0:0:
387,236,58425,2,0,P|337:238|277:253,1,90.7500027694703,2|0,0:1|1:0,0:0:0:0:
215,333,58753,2,0,P|265:335|325:350,1,90.7500027694703,2|8,0:2|0:0,0:0:0:0:
425,322,59081,6,0,L|410:126,1,181.500005538941,2|0,0:0|0:0,0:0:0:0:
403,37,59573,1,10,0:0:0:0:
392,122,59737,1,2,0:1:0:0:
292,58,59901,2,0,P|237:48|180:52,1,90.7500027694703,2|0,1:2|0:0,0:0:0:0:
94,156,60228,2,0,L|236:142,1,136.125004154205,10|0,0:0|0:0,0:0:0:0:
252,158,60556,6,0,P|199:219|186:336,1,181.500005538941,2|10,1:2|0:0,0:0:0:0:
286,267,61048,1,2,0:0:0:0:
165,227,61212,1,0,1:0:0:0:
273,174,61376,1,0,1:0:0:0:
202,332,61540,1,8,0:0:0:0:
108,243,61704,1,2,1:2:0:0:
126,225,61786,1,2,0:2:0:0:
142,208,61868,5,2,0:0:0:0:
331,354,62032,1,6,0:0:0:0:
283,202,62196,1,8,0:0:0:0:
470,281,62360,5,2,1:2:0:0:
159,318,62688,2,0,L|165:337,22,11.3437503461838,4|0|0|0|0|0|0|0|0|0|0|0|0|0|0|0|0|0|0|0|0|0|0,0:0|0:0|0:0|0:0|0:0|0:0|0:0|0:0|0:0|0:0|0:0|0:0|0:0|0:0|0:0|0:0|0:0|0:0|0:0|0:0|0:0|0:0|0:0,0:0:0:0:
136,306,63179,6,0,B|126:186|163:266|156:119,1,173.24999471283,6|8,1:2|0:0,0:0:0:0:
64,67,63671,2,0,B|33:101|33:101|44:220,1,129.937496034622,2|0,0:0|0:0,0:0:0:0:
60,200,63999,1,2,1:2:0:0:
175,119,64163,1,10,0:0:0:0:
195,103,64327,1,2,0:0:0:0:
47,51,64491,5,2,1:0:0:0:
77,220,64655,2,0,L|71:321,1,86.6249973564149,2|8,0:0|0:0,0:0:0:0:
178,375,64983,2,0,L|171:168,1,173.24999471283,2|2,0:0|1:2,0:0:0:0:
170,92,65474,1,8,0:0:0:0:
169,60,65638,1,0,1:0:0:0:
296,133,65802,6,0,B|368:131|368:131|385:113|385:113|492:110,1,173.24999471283,2|10,1:0|0:0,0:0:0:0:
474,230,66294,2,0,L|278:236,1,173.24999471283,2|0,0:1|1:0,0:0:0:0:
157,240,66786,1,8,0:0:0:0:
230,298,66950,1,2,0:0:0:0:
168,125,67114,5,2,1:0:0:0:
132,223,67278,1,2,0:0:0:0:
281,215,67442,2,0,B|357:212|357:212|395:148,1,129.937496034622,10|0,0:0|0:0,0:0:0:0:
400,140,67769,1,2,0:0:0:0:
301,116,67933,1,0,1:2:0:0:
451,229,68097,1,10,0:0:0:0:
415,120,68261,1,0,1:0:0:0:
359,318,68425,5,2,1:0:0:0:
300,235,68589,1,2,0:0:0:0:
232,375,68753,1,10,0:0:0:0:
339,336,68917,2,0,P|384:325|425:324,1,86.6249973564149,2|0,0:0|0:0,0:0:0:0:
285,252,69245,1,2,1:2:0:0:
451,339,69409,1,8,0:0:0:0:
495,147,69573,6,0,P|451:77|356:66,1,173.24999471283,2|0,0:0|0:0,0:0:0:0:
300,235,70065,1,10,0:0:0:0:
394,160,70228,1,2,0:1:0:0:
350,76,70392,1,2,0:0:0:0:
321,221,70556,1,0,1:0:0:0:
254,60,70720,1,10,0:0:0:0:
419,142,70884,1,0,1:0:0:0:
223,165,71048,6,0,B|153:167|153:167|126:143|126:143|41:144,1,173.24999471283,2|10,1:2|0:0,0:0:0:0:
0,250,71540,2,0,B|39:283|39:283|171:280,1,173.24999471283,2|0,0:1|1:0,0:0:0:0:
284,277,72032,1,8,0:0:0:0:
209,147,72196,1,2,1:2:0:0:
193,121,72278,1,2,0:0:0:0:
177,97,72360,5,2,1:2:0:0:
366,129,72524,1,6,1:2:0:0:
229,178,72688,1,8,0:0:0:0:
296,18,72851,5,6,1:2:0:0:
328,280,73179,2,0,L|331:298,16,10.8281246695519,4|0|0|0|0|0|0|0|8|0|0|0|0|0|0|0|0,1:2|0:0|0:0|0:0|0:0|0:0|0:0|0:0|0:0|0:0|0:0|0:0|0:0|0:0|0:0|0:0|0:0,0:0:0:0:
413,224,73671,6,0,P|461:199|513:227,1,117.562496860743,6|0,1:2|0:0,0:0:0:0:
512,255,73999,2,0,L|512:298,1,39.1874989535809,2|0,0:0|0:0,0:0:0:0:
421,366,74163,2,0,L|413:248,1,117.562496860743,2|0,1:2|0:2,0:0:0:0:
413,224,74491,1,2,1:2:0:0:
467,141,74655,1,8,0:0:0:0:
371,133,74819,2,0,L|323:131,1,39.1874989535809,2|0,0:0|0:0,0:0:0:0:
228,127,74983,5,0,1:0:0:0:
275,200,75147,1,0,1:0:0:0:
275,49,75310,2,0,L|227:49,1,39.1874989535809,2|0,0:0|0:0,0:0:0:0:
137,147,75474,2,0,L|132:16,1,117.562496860743,2|0,1:2|0:0,0:0:0:0:
131,1,75802,1,2,1:2:0:0:
56,122,75966,1,10,0:0:0:0:
163,164,76130,1,2,1:2:0:0:
64,273,76294,5,2,1:2:0:0:
256,192,76376,12,4,78097,1:2:0:0:
171,5,78589,6,0,L|160:15,14,9.79687473839522
147,24,78917,5,6,1:2:0:0:
184,107,79081,1,2,0:0:0:0:
154,195,79245,2,0,L|258:202,1,78.3749979071618,10|0,0:0|0:0,0:0:0:0:
172,312,79573,1,2,0:0:0:0:
261,285,79737,2,0,B|297:273|297:273|365:278,1,78.3749979071618,2|8,1:2|0:0,0:0:0:0:
255,186,80065,1,2,0:0:0:0:
167,219,80228,2,0,L|88:224,1,78.3749979071618,2|0,1:2|0:0,0:0:0:0:
19,153,80556,6,2,B|8:73|8:73|22:28,1,117.562496860743,10|0,0:0|0:0,0:1:0:0:
39,16,80884,2,2,B|96:7|96:7|130:27|130:27|234:12,1,165,0|8,0:0|0:0,0:1:0:0:
285,3,81376,1,0,0:0:0:0:
285,3,81540,5,2,1:2:0:0:
369,47,81704,1,2,0:0:0:0:
463,11,81868,2,0,L|454:112,1,78.3749979071618,10|0,0:0|0:0,0:0:0:0:
450,179,82196,1,2,0:0:0:0:
355,145,82360,2,0,B|344:107|344:107|348:66,1,78.3749979071618,2|8,1:2|0:0,0:0:0:0:
264,115,82688,1,2,0:0:0:0:
290,213,82851,1,2,1:2:0:0:
288,232,82933,1,0,1:0:0:0:
287,252,83015,1,0,1:0:0:0:
285,271,83097,1,0,1:0:0:0:
283,291,83179,6,2,L|287:327,6,19.5937494767904,10|0|0|0|0|0|0,1:2|0:0|0:0|0:0|0:0|0:0|0:0,0:1:0:0:
259,321,83507,2,2,B|214:324|214:324|187:305|187:305|83:310,1,165,0|8,1:2|0:0,0:1:0:0:
10,333,83999,1,0,1:0:0:0:
107,337,84163,5,2,1:2:0:0:
43,266,84327,1,2,0:0:0:0:
69,173,84491,2,0,L|163:161,1,78.3749979071618,10|0,0:0|0:0,0:0:0:0:
216,96,84819,1,2,0:0:0:0:
243,197,84983,2,0,B|202:199|202:199|165:187,1,78.3749979071618,2|8,1:2|0:0,0:0:0:0:
114,280,85310,1,2,0:0:0:0:
209,317,85474,2,0,L|303:306,1,78.3749979071618,2|0,1:2|0:0,0:0:0:0:
366,226,85802,6,2,P|390:210|417:206,3,39.1874989535809,10|0|0|0,3:2|3:2|3:2|3:2,0:1:0:0:
435,210,86130,2,2,B|433:143|433:143|419:115|419:115|418:33,1,165,0|8,0:0|0:0,0:1:0:0:
501,88,86622,1,0,0:0:0:0:
512,114,86786,5,2,1:2:0:0:
435,24,86950,1,2,0:0:0:0:
336,48,87114,2,0,L|338:147,1,82.5,10|0,0:0|0:0,0:0:0:0:
315,237,87442,1,2,0:0:0:0:
246,172,87606,2,0,B|239:129|239:129|247:89,1,82.5,2|8,1:2|0:0,0:0:0:0:
318,28,87933,1,2,0:0:0:0:
228,69,88097,1,2,1:2:0:0:
207,68,88179,1,0,1:2:0:0:
186,67,88261,1,0,1:2:0:0:
166,67,88343,1,0,1:2:0:0:
145,66,88425,6,2,L|148:100,6,20.625,10|0|0|0|0|0|0,1:2|0:0|0:0|0:0|0:0|0:0|0:0,0:1:0:0:
156,102,88753,1,2,1:0:0:0:
25,77,88917,1,0,1:0:0:0:
107,191,89081,5,10,1:2:0:0:
238,166,89245,1,0,1:0:0:0:
322,205,89409,5,4,1:2:0:0:
187,100,89737,2,0,P|155:90|106:90,1,70.1250013375282,2|0,1:2|0:0,0:0:0:0:
265,152,90065,2,0,L|259:-4,1,140.250002675056,10|2,0:0|0:0,0:0:0:0:
352,49,90556,6,0,L|346:189,1,140.250002675056,2|2,1:2|0:0,0:0:0:0:
344,279,91048,1,2,0:0:0:0:
256,246,91212,1,0,1:2:0:0:
190,351,91376,2,0,L|194:382,6,17.5312503343821,8|0|0|0|0|0|0,0:0|0:0|0:0|0:0|0:0|0:0|0:0,0:0:0:0:
102,306,91704,2,0,L|104:288,6,17.5312503343821,0|0|0|0|0|0|0,1:2|0:0|0:0|0:0|0:0|0:0|0:0,0:0:0:0:
114,204,92032,6,0,P|114:145|100:92,1,105.187502006292,2|0,1:2|0:0,0:0:0:0:
89,70,92360,2,0,L|166:63,1,70.1250013375282,2|0,1:2|0:0,0:0:0:0:
266,113,92688,2,0,B|303:125|333:103|333:103|365:79|406:97,1,140.250002675056,10|2,0:0|0:0,0:0:0:0:
446,182,93179,6,0,L|377:173,1,70.1250013375282,2|0,1:2|0:0,0:0:0:0:
282,137,93507,1,2,1:2:0:0:
234,238,93671,1,2,0:0:0:0:
240,263,93753,1,0,1:0:0:0:
138,319,93917,1,2,0:0:0:0:
144,294,93999,6,2,B|149:260|149:260|138:214,1,68.0625020771027,8|0,0:0|0:0,0:3:0:0:
126,199,94327,6,2,L|184:204,1,39.1874989535809,0|0,1:2|0:0,0:1:0:0:
68,262,94491,6,2,B|44:271|44:271|10:267,1,51.5625,8|0,0:2|0:0,0:1:0:0:
32,72,94655,6,0,L|35:192,1,117.562496860743
47,164,94983,2,0,P|70:132|128:112,1,78.3749979071618,2|0,1:2|0:0,0:0:0:0:
200,36,95310,2,0,B|104:30|104:30|43:48,1,156.749995814324,10|2,0:0|0:0,0:0:0:0:
130,119,95802,6,0,L|208:123,1,78.3749979071618,2|0,1:2|0:0,0:0:0:0:
310,133,96130,1,2,1:2:0:0:
262,225,96294,1,2,0:0:0:0:
206,152,96458,1,0,1:0:0:0:
160,281,96622,2,0,L|162:310,6,19.5937494767904,8|0|0|0|0|0|0,0:0|0:0|0:0|0:0|0:0|0:0|0:0,0:0:0:0:
232,351,96950,2,0,L|230:380,6,19.5937494767904,2|0|0|0|0|0|0,1:2|0:0|0:0|0:0|1:0|0:0|0:0,0:0:0:0:
320,305,97278,6,0,B|383:300|383:300|416:323|416:323|487:320,1,165,6|8,1:2|0:0,0:0:0:0:
441,230,97769,2,0,P|429:185|427:136,1,82.5,2|0,0:0|1:0,0:0:0:0:
448,50,98097,1,0,1:0:0:0:
331,103,98261,1,8,0:0:0:0:
305,114,98425,1,0,1:0:0:0:
220,71,98589,6,0,P|173:60|128:60,1,82.5,0|2,1:2|0:0,0:0:0:0:
42,134,98917,1,10,0:0:0:0:
133,146,99081,1,2,1:2:0:0:
30,225,99245,1,10,0:0:0:0:
121,237,99409,1,2,1:2:0:0:
223,100,99573,2,0,L|231:255,1,136.125004154205,14|0,0:0|0:0,0:0:0:0:
234,263,99901,6,0,P|277:276|332:279,1,90.7500027694703,2|0,1:2|0:0,0:0:0:0:
451,224,100228,1,10,0:0:0:0:
414,316,100392,1,2,0:0:0:0:
359,187,100556,2,2,B|353:134|353:134|363:114|363:114|357:49,1,136.125004154205,0|0,0:0|0:0,0:1:0:0:
351,26,100884,1,8,0:0:0:0:
275,93,101048,1,0,0:0:0:0:
180,27,101212,6,0,L|-3:42,1,181.500005538941,2|10,1:2|0:0,0:0:0:0:
0,41,101868,2,2,B|30:81|30:81|25:216,1,148.49999546814,2|0,0:0|0:0,0:1:0:0:
24,206,102196,2,2,P|37:250|116:254,1,136.125004154205,10|0,0:0|0:0,0:3:0:0:
134,230,102524,5,0,1:2:0:0:
311,305,102851,2,0,L|421:294,1,90.7500027694703,8|0,0:0|0:0,0:0:0:0:
316,221,103179,2,2,P|258:232|228:324,1,136.125004154205,2|0,0:0|0:0,0:1:0:0:
224,325,103507,2,0,B|184:348|184:348|125:343,1,90.7500027694703,8|0,0:0|0:0,0:0:0:0:
44,257,103835,1,0,1:2:0:0:
42,234,103917,1,0,1:2:0:0:
41,211,103999,1,0,1:2:0:0:
39,189,104081,1,0,1:2:0:0:
38,166,104163,6,2,L|64:154,6,22.6875006923676,10|8|8|8|8|8|8,1:2|0:0|0:0|0:0|0:0|0:0|0:0,0:1:0:0:
105,97,104491,6,2,B|160:96|160:96|191:118|191:118|265:117,1,148.49999546814,2|0,1:2|0:0,0:1:0:0:
275,118,104819,1,8,0:0:0:0:
315,211,104983,1,0,1:0:0:0:
217,352,105147,5,10,1:2:0:0:
387,298,105310,1,8,1:2:0:0:
408,317,105638,5,10,1:2:0:0:
212,240,105802,1,8,1:2:0:0:
190,260,106130,5,10,1:2:0:0:
363,191,106294,1,8,1:2:0:0:
385,209,106622,5,10,1:2:0:0:
140,144,106786,1,10,1:2:0:0:
120,164,107114,5,10,1:2:0:0:
361,65,107278,1,10,1:2:0:0:
184,36,107442,5,8,1:2:0:0:
425,135,107606,1,8,1:2:0:0:
501,25,107769,5,10,1:2:0:0:
285,105,107933,1,8,1:2:0:0:
290,130,108261,5,10,1:2:0:0:
444,152,108425,1,8,1:2:0:0:
437,131,108753,5,10,1:2:0:0:
282,232,108917,1,8,1:2:0:0:
301,250,109245,5,10,1:2:0:0:
254,87,109409,1,10,1:2:0:0:
276,102,109737,5,10,1:2:0:0:
83,94,109901,1,10,1:2:0:0:
217,210,110065,5,8,1:2:0:0:
434,142,110228,1,8,1:2:0:0:
301,271,110392,6,0,B|260:300|260:300|122:299,1,169.125002580643,6|8,1:2|0:0,0:0:0:0:
58,348,110884,2,0,P|54:281|33:148,1,169.125002580643,2|0,0:0|1:0,0:0:0:0:
0,84,111376,2,0,P|-4:41|0:0,1,84.5625012903214,10|0,0:0|0:0,0:0:0:0:
154,49,111704,6,0,P|141:132|136:196,1,126.843751935482,0|0,1:2|0:0,0:0:0:0:
141,196,112032,2,0,P|189:186|261:186,1,84.5625012903214,10|0,0:0|0:0,0:0:0:0:
351,200,112360,1,2,0:0:0:0:
293,279,112524,2,0,P|341:289|413:289,1,84.5625012903214,2|8,1:2|0:0,0:0:0:0:
467,268,112851,1,0,0:0:0:0:
351,169,113015,5,10,0:0:0:0:
380,315,113179,1,0,1:0:0:0:
385,343,113343,1,0,1:0:0:0:
251,192,113507,5,10,0:0:0:0:
280,46,113671,1,0,1:0:0:0:
285,18,113835,1,0,1:0:0:0:
379,169,113999,5,10,0:0:0:0:
219,112,114163,1,0,1:0:0:0:
379,71,114327,5,8,0:0:0:0:
407,82,114409,1,8,0:0:0:0:
435,93,114491,1,2,1:2:0:0:
356,160,114655,1,0,1:0:0:0:
457,244,114819,5,8,0:0:0:0:
484,231,114901,1,8,0:0:0:0:
512,219,114983,1,2,1:2:0:0:
503,323,115147,1,0,1:0:0:0:
360,255,115310,5,10,0:0:0:0:
352,362,115474,1,0,1:0:0:0:
256,192,115638,5,4,0:0:0:0:
258,200,118261,5,2,1:0:0:0:
121,233,118425,1,2,1:0:0:0:
220,107,118589,2,0,B|274:100|274:100|292:114|292:114|371:107,1,126.843751935482,2|0,1:0|0:0,0:0:0:0:
373,120,118917,2,0,B|400:150|400:150|393:258,1,126.843751935482,2|0,1:0|0:0,0:0:0:0:
391,266,119245,5,2,1:0:0:0:
260,225,119409,1,2,1:0:0:0:
303,313,119573,6,0,L|303:298,48,10.5703126612902
229,299,120720,2,0,L|231:285,6,10.5703126612902
219,318,120884,6,0,P|208:264|88:268,1,181.500005538941,6|8,1:2|0:0,0:0:0:0:
15,330,121376,2,0,L|12:147,1,181.500005538941,2|2,0:0|0:0,0:0:0:0:
94,63,121868,2,0,P|140:82|191:85,1,90.7500027694703,8|0,0:0|0:0,0:0:0:0:
317,60,122196,5,2,1:0:0:0:
199,107,122360,2,0,L|208:206,1,90.7500027694703,2|8,0:0|0:0,0:0:0:0:
300,323,122688,2,0,L|312:135,1,181.500005538941,2|2,0:0|0:0,0:0:0:0:
419,61,123179,1,8,0:0:0:0:
337,130,123343,1,0,0:0:0:0:
476,179,123507,6,0,B|502:224|502:224|493:353,1,181.500005538941,2|10,1:2|0:0,0:0:0:0:
387,292,123999,2,0,L|376:175,1,90.7500027694703,2|0,0:1|1:0,0:0:0:0:
296,355,124327,2,0,L|266:240,1,90.7500027694703,2|8,0:0|0:0,0:0:0:0:
245,169,124655,1,2,0:0:0:0:
141,299,124819,5,2,1:0:0:0:
247,272,124983,1,2,0:0:0:0:
143,182,125147,2,0,P|82:198|29:312,1,181.500005538941,10|2,0:0|1:2,0:0:0:0:
102,380,125638,1,0,1:2:0:0:
164,313,125802,1,2,1:2:0:0:
52,313,125966,1,0,1:2:0:0:
176,180,126130,5,2,1:0:0:0:
48,194,126294,1,2,0:0:0:0:
191,314,126458,1,10,0:0:0:0:
252,235,126622,2,0,P|286:204|337:181,1,90.7500027694703,2|0,0:1|1:0,0:0:0:0:
171,149,126950,2,0,P|137:118|86:95,1,90.7500027694703,2|8,0:0|0:0,0:0:0:0:
258,28,127278,6,0,L|251:241,1,181.500005538941,2|0,0:0|0:0,0:0:0:0:
405,167,127769,1,10,0:0:0:0:
288,123,127933,1,2,0:1:0:0:
364,264,128097,2,0,P|406:272|456:241,1,90.7500027694703,2|0,1:2|0:0,0:0:0:0:
252,235,128425,2,0,L|259:397,1,136.125004154205,10|0,0:0|0:0,0:0:0:0:
237,350,128753,6,0,P|200:300|78:285,1,181.500005538941,2|10,1:2|0:0,0:0:0:0:
20,352,129245,1,2,0:1:0:0:
132,367,129409,1,0,1:2:0:0:
177,243,129573,1,0,1:0:0:0:
257,370,129737,1,8,0:0:0:0:
336,311,129901,1,2,1:2:0:0:
364,316,129983,1,2,0:0:0:0:
392,321,130065,5,2,0:0:0:0:
349,142,130228,1,2,1:2:0:0:
448,238,130392,1,8,0:0:0:0:
274,251,130556,5,2,1:0:0:0:
510,81,130884,2,0,L|508:62,20,11.3437503461838,2|0|0|0|0|0|0|0|0|0|0|0|0|0|0|0|0|0|0|0|0,1:2|0:0|0:0|0:0|0:0|0:0|0:0|0:0|0:0|0:0|0:0|0:0|0:0|0:0|0:0|0:0|0:0|0:0|0:0|0:0|0:0,0:0:0:0:
506,40,131376,6,0,B|432:38|432:38|410:20|410:20|334:18,1,173.24999471283,6|8,1:2|0:0,0:0:0:0:
240,83,131868,2,0,B|107:91|107:91|162:62,1,173.24999471283,2|0,0:0|1:0,0:0:0:0:
200,171,132360,1,8,0:0:0:0:
205,201,132524,1,0,0:0:0:0:
322,144,132688,5,2,1:0:0:0:
297,293,132851,2,0,L|301:379,1,86.6249973564149,2|8,0:0|0:0,0:0:0:0:
413,329,133179,2,0,L|425:120,1,173.24999471283,2|2,0:1|1:2,0:0:0:0:
432,31,133671,1,8,0:0:0:0:
436,0,133835,1,0,1:0:0:0:
261,101,133999,6,0,B|262:170|262:170|284:199|284:199|285:298,1,173.24999471283,2|8,1:0|0:0,0:0:0:0:
168,231,134491,2,0,L|177:116,1,86.6249973564149,2|0,0:1|0:0,0:0:0:0:
184,48,134819,1,2,1:2:0:0:
286,114,134983,1,8,0:0:0:0:
194,161,135147,1,2,0:0:0:0:
268,31,135310,5,2,1:0:0:0:
158,57,135474,1,2,0:0:0:0:
216,179,135638,2,0,P|235:247|228:323,1,129.937496034622,10|0,0:0|0:0,0:0:0:0:
215,330,135966,1,2,0:0:0:0:
317,364,136130,1,0,1:0:0:0:
265,235,136294,1,10,0:0:0:0:
329,154,136458,1,0,1:0:0:0:
132,224,136622,5,2,1:0:0:0:
194,160,136786,1,2,0:0:0:0:
73,139,136950,1,10,0:0:0:0:
64,281,137114,2,0,P|115:259|168:248,1,86.6249973564149,2|0,0:0|0:0,0:0:0:0:
70,366,137442,1,2,1:2:0:0:
162,278,137606,1,8,0:0:0:0:
218,356,137769,6,0,B|271:370|296:346|296:346|331:315|411:338,1,173.24999471283,2|0,0:0|0:0,0:0:0:0:
511,370,138261,1,10,0:0:0:0:
411,342,138425,1,2,0:1:0:0:
397,247,138589,1,2,0:0:0:0:
441,351,138753,1,0,1:0:0:0:
295,309,138917,1,10,0:0:0:0:
265,301,139081,1,0,1:0:0:0:
355,179,139245,6,0,B|381:132|381:132|370:5,1,173.24999471283,2|8,1:2|0:0,0:0:0:0:
205,58,139737,2,0,B|201:128|201:128|219:161|219:161|213:227,1,173.24999471283,2|0,0:1|1:0,0:0:0:0:
156,318,140228,1,8,0:0:0:0:
90,223,140392,1,2,1:2:0:0:
74,197,140474,1,2,0:0:0:0:
58,171,140556,5,2,1:2:0:0:
235,242,140720,1,6,1:2:0:0:
111,250,140884,1,8,0:0:0:0:
184,55,141048,5,2,1:2:0:0:
183,333,141376,2,0,L|184:349,16,10.8281246695519
62,304,141868,6,0,B|48:268|48:268|57:143,1,156.749995814324,6|0,1:2|0:0,0:0:0:0:
135,189,142360,2,0,B|192:187|192:187|217:169|217:169|291:168,1,156.749995814324,2|0,1:2|1:0,0:0:0:0:
404,216,142851,2,0,L|394:102,1,105.187502006292,8|0,0:0|0:0,0:0:0:0:
390,82,143179,5,2,1:2:0:0:
317,27,143343,2,0,P|269:13|232:14,1,78.3749979071618,2|0,1:2|0:0,0:0:0:0:
167,64,143671,2,0,L|184:257,1,156.749995814324,2|0,1:2|1:0,0:0:0:0:
203,345,144163,1,10,0:0:0:0:
209,375,144327,1,0,1:2:0:0:
90,314,144491,6,0,L|4:325,2,78.3749979071618,6|0|0,1:2|0:0|0:0,0:0:0:0:
205,204,144983,2,0,B|271:209|271:209|288:232|288:232|383:241,1,165,4|0,1:2|1:0,0:0:0:0:
428,128,145474,2,0,L|290:131,1,123.75,10|0,0:0|0:0,0:0:0:0:
279,132,145802,5,2,1:2:0:0:
199,182,145966,2,0,L|201:269,1,78.3749979071618,2|0,1:2|0:0,0:0:0:0:
135,353,146294,2,0,L|311:341,1,156.749995814324,2|0,1:2|1:0,0:0:0:0:
422,352,146786,2,0,B|465:357|465:357|434:250,1,123.75,10|0,0:0|0:0,0:0:0:0:
434,253,147114,5,2,1:2:0:0:
256,192,147196,12,0,149737,1:0:0:0:
99,274,152032,6,0,L|98:260,14,10.3125,0|0|0|0|0|0|0|0|0|0|0|0|0|0|0,3:0|3:0|3:0|3:0|3:0|3:0|3:0|3:0|3:0|3:0|3:0|3:0|3:0|3:0|3:0,0:0:0:0:
121,272,152360,6,2,B|258:279|163:244|308:246,1,189.750003619194,6|8,1:2|0:0,0:1:0:0:
395,306,152851,2,2,B|433:315|473:301|473:301|475:258|442:224,1,156.749995814324,2|0,0:0|1:0,0:3:0:0:
308,273,153343,1,8,0:0:0:0:
308,302,153507,1,0,0:0:0:0:
212,173,153671,6,2,L|396:179,1,173.24999471283,0|8,1:0|0:0,0:3:0:0:
512,85,154163,2,2,B|449:99|449:99|478:242,1,181.500005538941,2|0,0:0|1:0,0:1:0:0:
504,337,154655,1,8,0:0:0:0:
512,366,154819,1,0,1:0:0:0:
335,357,154983,6,2,B|303:331|307:271|307:271|297:333|255:346,1,189.750003619194,2|8,1:2|0:0,0:1:0:0:
144,318,155474,2,2,B|104:321|69:344|69:344|29:324|22:278,1,156.749995814324,2|0,0:0|1:0,0:3:0:0:
51,171,155966,1,8,0:0:0:0:
61,145,156130,1,0,0:0:0:0:
158,206,156294,5,2,1:2:0:0:
168,232,156458,1,0,1:0:0:0:
275,164,156622,1,8,0:0:0:0:
358,263,156786,2,2,L|341:347,1,86.6249973564149,0|0,1:0|0:2,0:1:0:0:
316,357,157032,1,0,1:0:0:0:
292,367,157114,1,0,1:2:0:0:
436,322,157278,2,2,B|477:322|511:337|511:337|514:290|486:257,1,148.49999546814,10|0,0:0|0:0,0:1:0:0:
476,252,157606,6,2,B|449:210|449:210|462:82,1,173.24999471283,2|8,1:2|0:0,0:3:0:0:
350,0,158097,2,2,L|362:177,1,165,2|0,0:0|1:0,0:1:0:0:
381,280,158589,1,10,0:0:0:0:
387,310,158753,1,0,0:0:0:0:
295,275,158917,6,2,B|222:274|222:274|206:287|206:287|125:287,1,156.749995814324,0|8,1:0|0:0,0:3:0:0:
62,206,159409,2,2,B|105:178|105:178|227:180,1,173.24999471283,2|0,0:0|1:0,0:1:0:0:
370,180,159901,1,8,0:0:0:0:
399,182,160065,1,0,1:0:0:0:
281,77,160228,5,2,1:2:0:0:
250,81,160310,1,0,1:2:0:0:
220,85,160392,1,0,1:2:0:0:
90,102,160556,1,8,0:0:0:0:
185,212,160720,2,2,L|284:213,1,78.3749979071618,0|0,1:0|1:0,0:1:0:0:
367,212,161048,1,0,1:0:0:0:
229,312,161212,2,2,B|213:314|213:314|204:309|204:309|206:321|206:321|197:316|197:316|175:318,1,57.7499982376099,8|0,0:0|0:0,0:1:0:0:
158,322,161376,1,0,1:0:0:0:
65,248,161540,5,0,1:2:0:0:
63,217,161622,1,0,1:2:0:0:
61,186,161704,1,0,1:2:0:0:
59,155,161786,1,0,1:2:0:0:
57,124,161868,5,8,0:0:0:0:
98,137,161950,1,8,0:0:0:0:
141,133,162032,1,8,0:0:0:0:
180,114,162114,1,8,0:0:0:0:
208,81,162196,5,0,1:2:0:0:
238,85,162278,1,0,1:2:0:0:
268,89,162360,1,0,1:2:0:0:
298,93,162442,1,0,1:2:0:0:
328,97,162524,6,2,L|416:108,1,86.6249973564149,8|0,0:0|1:0,0:1:0:0:
478,253,162851,5,10,1:2:0:0:
417,81,163015,1,8,1:2:0:0:
420,55,163343,5,10,1:2:0:0:
344,217,163507,1,8,1:2:0:0:
354,244,163835,5,8,1:2:0:0:
493,146,163999,1,8,1:2:0:0:
500,174,164327,5,8,1:2:0:0:
304,135,164491,1,8,1:2:0:0:
299,163,164819,5,14,1:2:0:0:
334,379,164983,1,8,1:2:0:0:
237,261,165147,5,8,1:2:0:0:
272,45,165310,1,8,1:2:0:0:
296,190,165474,5,10,1:2:0:0:
96,168,165638,1,8,1:2:0:0:
92,194,165966,5,10,1:2:0:0:
241,286,166130,1,8,1:2:0:0:
247,315,166458,5,8,1:2:0:0:
193,175,166622,1,8,1:2:0:0:
191,204,166950,5,14,1:2:0:0:
460,162,167114,1,8,1:2:0:0:
467,191,167442,5,10,1:2:0:0:
331,50,167606,1,8,1:2:0:0:
337,191,167769,5,10,1:2:0:0:
473,50,167933,1,8,1:2:0:0:
432,272,168097,5,10,1:2:0:0:
403,97,168261,1,8,1:2:0:0:
411,123,168589,5,10,1:2:0:0:
306,304,168753,1,8,1:2:0:0:
302,331,169081,5,8,1:2:0:0:
257,184,169245,1,8,1:2:0:0:
254,210,169573,5,8,1:2:0:0:
406,251,169737,1,8,1:2:0:0:
394,276,170065,5,10,1:2:0:0:
207,293,170228,1,8,1:2:0:0:
320,164,170392,5,14,1:2:0:0:
510,186,170556,1,8,1:2:0:0:
380,298,170720,5,10,1:2:0:0:
346,80,170884,1,8,1:2:0:0:
352,50,171212,5,10,1:2:0:0:
265,239,171376,1,8,1:2:0:0:
254,210,171704,5,8,1:2:0:0:
311,357,171868,1,8,1:2:0:0:
314,330,172196,5,12,1:2:0:0:
59,358,172360,1,8,1:2:0:0:
52,331,172688,5,10,1:2:0:0:
89,94,172851,1,8,1:2:0:0:
179,250,173015,5,10,1:2:0:0:
142,13,173179,1,8,1:2:0:0:
204,58,173343,6,0,L|242:61,2,26.8124987726212,2|2|0,0:0|0:0|0:0,0:0:0:0:
259,130,173671,2,0,L|328:122,1,53.6249975452424,8|0,0:0|0:0,0:0:0:0:
326,132,173917,1,0,0:0:0:0:
339,140,173999,2,0,L|338:181,2,26.8124987726212,2|0|0,0:0|0:0|0:0,0:0:0:0:
407,99,174327,2,0,L|417:184,1,61.875002360344,8|2,0:0|0:0,0:0:0:0:
419,192,174573,1,0,1:0:0:0:
256,192,174655,12,0,175638,0:0:0:0:
299,200,175720,6,0,L|300:216,6,15.468750590086
331,264,178589,5,0,1:0:0:0:
389,207,178753,1,0,1:0:0:0:
405,227,179081,1,0,1:0:0:0:
430,267,180556,6,0,L|432:254,12,7.734375295043
364,318,180884,2,0,L|360:307,12,7.734375295043
314,384,181212,5,6,1:2:0:0:
281,290,181376,1,2,0:0:0:0:
177,358,181540,1,10,0:0:0:0:
187,265,181704,2,0,P|185:215|170:155,1,90.7500027694703,2|0,0:1|1:0,0:0:0:0:
90,93,182032,2,0,P|88:143|73:203,1,90.7500027694703,2|8,0:2|0:0,0:0:0:0:
101,303,182360,6,0,L|297:288,1,181.500005538941,2|0,0:0|0:0,0:0:0:0:
386,281,182851,1,10,0:0:0:0:
301,270,183015,1,2,0:1:0:0:
365,170,183179,2,0,P|375:115|371:58,1,90.7500027694703,2|0,1:2|0:0,0:0:0:0:
243,44,183507,2,0,L|257:186,1,136.125004154205,10|0,0:0|0:0,0:0:0:0:
258,201,183835,6,0,P|197:148|80:135,1,181.500005538941,2|10,1:2|0:0,0:0:0:0:
153,226,184327,1,2,0:0:0:0:
82,145,184491,1,0,1:0:0:0:
99,316,184655,1,0,1:0:0:0:
30,197,184819,1,10,0:2:0:0:
48,179,184901,1,2,0:0:0:0:
66,161,184983,1,2,1:2:0:0:
215,20,185147,5,2,0:0:0:0:
29,67,185310,1,6,0:0:0:0:
228,121,185474,1,8,0:0:0:0:
100,246,185638,5,6,1:2:0:0:
108,11,185966,2,0,L|89:17,22,11.3437503461838
105,42,186458,6,0,B|111:171|74:91|84:211,1,173.24999471283,6|8,1:2|0:0,0:0:0:0:
194,266,186950,2,0,B|225:232|225:232|214:113,1,129.937496034622,2|0,0:0|0:0,0:0:0:0:
198,133,187278,1,2,1:2:0:0:
302,197,187442,1,10,0:0:0:0:
322,213,187606,1,2,0:0:0:0:
294,85,187769,5,2,1:0:0:0:
416,151,187933,2,0,L|422:252,1,86.6249973564149,2|8,0:0|0:0,0:0:0:0:
286,354,188261,2,0,L|279:147,1,173.24999471283,2|2,0:0|1:2,0:0:0:0:
294,60,188753,1,8,0:0:0:0:
294,29,188917,1,0,1:0:0:0:
177,117,189081,6,0,B|105:115|105:115|88:97|88:97|-19:94,1,173.24999471283,2|10,1:0|0:0,0:0:0:0:
110,213,189573,2,0,L|283:207,1,173.24999471283,2|0,0:1|1:0,0:0:0:0:
445,177,190065,1,8,0:0:0:0:
372,235,190228,1,2,0:0:0:0:
334,66,190392,5,2,1:0:0:0:
293,188,190556,1,2,0:0:0:0:
242,41,190720,2,0,B|166:44|166:44|128:108,1,129.937496034622,10|0,0:0|0:0,0:0:0:0:
121,112,191048,1,2,0:0:0:0:
220,136,191212,1,0,1:2:0:0:
70,23,191376,1,10,0:0:0:0:
106,132,191540,1,0,1:0:0:0:
359,66,191704,5,2,1:0:0:0:
300,149,191868,1,2,0:0:0:0:
232,9,192032,1,10,0:0:0:0:
339,48,192196,2,0,P|384:59|425:60,1,86.6249973564149,2|0,0:0|0:0,0:0:0:0:
394,197,192524,1,2,1:2:0:0:
448,46,192688,1,8,0:0:0:0:
495,237,192851,6,0,P|451:307|356:318,1,173.24999471283,2|0,0:0|0:0,0:0:0:0:
300,149,193343,1,10,0:0:0:0:
394,224,193507,1,2,0:1:0:0:
321,163,193671,1,2,0:0:0:0:
350,308,193835,1,2,1:2:0:0:
254,324,193999,1,10,0:0:0:0:
419,242,194163,1,0,1:0:0:0:
223,219,194327,6,0,B|153:217|153:217|126:241|126:241|41:240,1,173.24999471283,2|10,1:2|0:0,0:0:0:0:
0,134,194819,2,0,B|39:101|39:101|171:104,1,173.24999471283,2|0,0:1|1:0,0:0:0:0:
284,107,195310,1,8,0:0:0:0:
209,237,195474,1,2,1:2:0:0:
193,263,195556,1,2,0:0:0:0:
177,287,195638,5,2,1:2:0:0:
366,255,195802,1,6,1:2:0:0:
223,215,195966,1,8,0:0:0:0:
296,366,196130,5,6,1:2:0:0:
328,104,196458,2,0,L|331:86,16,10.8281246695519,4|0|0|0|0|0|0|0|8|0|0|0|0|0|0|0|0,1:2|0:0|0:0|0:0|0:0|0:0|0:0|0:0|0:0|0:0|0:0|0:0|0:0|0:0|0:0|0:0|0:0,0:0:0:0:
413,160,196950,6,0,P|461:185|513:157,1,117.562496860743,6|0,1:2|0:0,0:0:0:0:
512,129,197278,2,0,L|512:86,1,39.1874989535809,2|0,0:0|0:0,0:0:0:0:
421,18,197442,2,0,L|413:136,1,117.562496860743,2|0,1:2|0:2,0:0:0:0:
413,160,197769,1,2,1:2:0:0:
402,287,197933,1,8,0:0:0:0:
408,191,198097,2,0,L|364:188,1,39.1874989535809,2|0,0:0|0:0,0:0:0:0:
240,334,198261,5,0,1:0:0:0:
322,336,198425,1,0,1:0:0:0:
210,335,198589,2,0,L|162:335,1,39.1874989535809,2|0,0:0|0:0,0:0:0:0:
85,238,198753,2,0,L|80:369,1,117.562496860743,2|0,1:2|0:0,0:0:0:0:
79,384,199081,1,2,1:2:0:0:
4,263,199245,1,10,0:0:0:0:
111,221,199409,1,2,1:2:0:0:
12,112,199573,5,2,1:2:0:0:
256,192,199655,12,4,201376,1:2:0:0:
171,379,201868,6,0,L|160:369,14,9.79687473839522
147,360,202196,5,6,1:2:0:0:
210,269,202360,1,2,0:0:0:0:
112,188,202524,2,0,L|216:181,1,78.3749979071618,10|0,0:0|0:0,0:0:0:0:
128,58,202851,1,2,0:0:0:0:
37,155,203015,2,0,B|73:167|73:167|141:162,1,78.3749979071618,2|8,1:2|0:0,0:0:0:0:
225,86,203343,1,2,0:0:0:0:
211,202,203507,2,0,L|290:207,1,78.3749979071618,2|0,1:2|0:0,0:0:0:0:
408,165,203835,6,2,B|419:245|419:245|405:290,1,117.562496860743,10|0,0:0|0:0,0:1:0:0:
395,299,204163,2,2,B|338:308|338:308|304:288|304:288|200:303,1,165,10|8,0:0|0:0,0:1:0:0:
160,358,204655,1,0,0:0:0:0:
225,269,204819,5,2,1:2:0:0:
137,345,204983,1,2,0:0:0:0:
51,252,205147,2,0,L|42:151,1,78.3749979071618,10|0,0:0|0:0,0:0:0:0:
151,97,205474,1,2,0:0:0:0:
22,155,205638,2,0,B|18:116|18:116|29:78,1,78.3749979071618,2|8,1:2|0:0,0:0:0:0:
159,205,205966,1,2,0:0:0:0:
141,70,206130,1,2,0:2:0:0:
98,147,206294,1,0,1:0:0:0:
237,38,206458,6,2,L|241:2,6,19.5937494767904,10|0|0|0|0|0|0,1:2|0:0|0:0|0:0|0:0|0:0|0:0,0:1:0:0:
259,29,206786,2,2,B|295:33|323:23|323:23|350:43|350:43|388:27|435:40,1,165,8|8,0:2|0:0,0:1:0:0:
412,141,207278,1,0,1:0:0:0:
388,152,207769,5,14,0:2:0:0:
294,200,207933,1,2,0:0:0:0:
312,299,208097,2,0,L|406:311,1,78.3749979071618,10|0,0:0|0:0,0:0:0:0:
274,384,208425,1,10,0:0:0:0:
303,277,208589,2,0,B|262:275|262:275|225:287,1,78.3749979071618,2|0,1:2|0:0,0:0:0:0:
145,371,208917,1,2,1:2:0:0:
142,255,209081,2,0,L|219:264,1,78.3749979071618,10|0,0:2|0:0,0:0:0:0:
328,290,209409,6,2,B|336:209|336:209|313:170,1,117.562496860743,8|0,0:0|0:0,0:1:0:0:
302,163,209737,2,2,B|304:96|304:96|318:68|318:68|319:-14,1,165,8|0,0:0|0:0,0:1:0:0:
175,45,210228,1,0,1:2:0:0:
148,168,210392,5,10,0:2:0:0:
28,126,210556,1,2,1:2:0:0:
158,140,210720,2,0,L|156:41,1,82.5,10|0,0:0|1:0,0:0:0:0:
38,154,211048,1,10,0:0:0:0:
143,249,211212,2,0,B|150:292|150:292|142:332,1,82.5,2|0,1:2|0:0,0:0:0:0:
51,384,211540,1,2,1:2:0:0:
217,378,211704,5,10,0:2:0:0:
238,379,211786,1,0,1:2:0:0:
259,380,211868,1,0,1:2:0:0:
279,380,211950,1,0,1:2:0:0:
300,381,212032,2,2,L|297:347,6,20.625,10|0|0|0|0|0|0,1:2|0:0|0:0|0:0|0:0|0:0|0:0,0:1:0:0:
298,337,212360,1,10,0:0:0:0:
338,180,212524,1,2,1:2:0:0:
