osu file format v14

[General]
AudioFilename: audio.mp3
AudioLeadIn: 0
PreviewTime: 175608
Countdown: 1
SampleSet: None
StackLeniency: 0.4
Mode: 0
LetterboxInBreaks: 0
WidescreenStoryboard: 1

[Editor]
Bookmarks: 10720,42196,78917,89409,105147,110392,120884,152360,162851,202196
DistanceSpacing: 0.6
BeatDivisor: 4
GridSize: 32
TimelineZoom: 2.400006

[Metadata]
Title:No buts!
TitleUnicode:No buts!
Artist:Kawada Mami
ArtistUnicode:川田まみ
Creator:Cami
Version:Airin's Hard
Source:とある魔術の禁書目録
Tags:ChaoticRed Yudragen Serizawa Haruki Jack J_a_c_k toaru majutsu no index opening theme full ver. anime season 2
BeatmapID:1912704
BeatmapSetID:890764

[Difficulty]
HPDrainRate:4
CircleSize:3.8
OverallDifficulty:6
ApproachRate:7.8
SliderMultiplier:1.55
SliderTickRate:1

[Events]
//Background and Video events
0,0,"GNB2NBEiMOw.jpg",0,0
//Break Periods
2,10920,12564
2,176166,180433
//Storyboard Layer 0 (Background)
//Storyboard Layer 1 (Fail)
//Storyboard Layer 2 (Pass)
//Storyboard Layer 3 (Foreground)
//Storyboard Sound Samples

[TimingPoints]
229,327.868852459016,4,2,1,60,1,0
1868,-100,4,2,1,60,0,0
2196,-95.2380952380952,4,2,1,60,0,0
2851,-100,4,2,1,60,0,0
4491,-100,4,2,1,60,0,0
4819,-95.2380952380952,4,2,1,60,0,0
5474,-100,4,2,1,60,0,0
7114,-100,4,2,1,60,0,0
7442,-95.2380952380952,4,2,1,60,0,0
8097,-100,4,2,1,60,0,0
15966,-100,4,2,1,60,0,0
17933,-95.2380952380952,4,2,1,60,0,0
18261,-95.2380952380952,4,2,1,60,0,0
21540,-117.647058823529,4,2,1,60,0,0
26458,-111.111111111111,4,2,1,60,0,0
29081,-105.263157894737,4,2,1,60,0,0
31376,-100,4,2,1,60,0,0
33671,-90.9090909090909,4,2,1,60,0,0
33999,-100,4,2,1,60,0,0
36294,-100,4,2,1,60,0,0
42196,-108.108108108108,4,2,1,60,0,0
51704,-88.8888888888888,4,2,1,60,0,0
52688,-90.9090909090909,4,2,1,80,0,1
62688,-90.9090909090909,4,2,1,80,0,0
63179,-90.9090909090909,4,2,1,80,0,1
73671,-111.111111111111,4,2,1,70,0,0
76212,-111.111111111111,4,2,1,5,0,0
76294,-111.111111111111,4,2,1,70,0,0
78917,-105.263157894737,4,2,1,60,0,0
80884,-100,4,2,1,70,0,0
81540,-105.263157894737,4,2,1,70,0,0
83179,-105.263157894737,4,2,1,60,0,0
83507,-100,4,2,1,70,0,0
84163,-105.263157894737,4,2,1,70,0,0
86130,-100,4,2,1,70,0,0
88425,-100,4,2,1,60,0,0
88753,-100,4,2,1,60,0,0
89409,-100,4,2,1,60,0,0
89655,-100,4,2,1,5,0,0
89737,-117.647058823529,4,2,1,70,0,0
94327,-105.263157894737,4,2,1,70,0,0
94491,-80,4,2,1,70,0,0
94655,-105.263157894737,4,2,1,70,0,0
94901,-105.263157894737,4,2,1,5,0,0
94983,-105.263157894737,4,2,1,70,0,0
97278,-100,4,2,1,70,0,0
99573,-100,4,2,1,70,0,0
101540,-100,4,2,1,60,0,0
101868,-90.9090909090909,4,2,1,70,0,0
102196,-100,4,2,1,70,0,0
104163,-100,4,2,1,60,0,0
104491,-100,4,2,1,70,0,0
110392,-108.108108108108,4,2,1,70,0,0
119901,-97.560975609756,4,2,1,70,0,0
120884,-90.9090909090909,4,2,1,80,0,1
130884,-90.9090909090909,4,2,1,80,0,0
131376,-90.9090909090909,4,2,1,80,0,1
141868,-111.111111111111,4,2,1,70,0,0
142851,-117.647058823529,4,2,1,70,0,0
143179,-105.263157894737,4,2,1,70,0,0
144983,-100,4,2,1,70,0,0
145802,-105.263157894737,4,2,1,70,0,0
146786,-100,4,2,1,70,0,0
147032,-100,4,2,1,5,0,0
147114,-100,4,2,1,70,0,0
152360,-86.9565217391304,4,2,1,70,0,0
152851,-105.263157894737,4,2,1,70,0,0
153671,-95.2380952380952,4,2,1,70,0,0
154163,-90.9090909090909,4,2,1,70,0,0
154983,-86.9565217391304,4,2,1,70,0,0
155474,-105.263157894737,4,2,1,70,0,0
156786,-95.2380952380952,4,2,1,70,0,0
157278,-95.2380952380952,4,2,1,70,0,0
157606,-95.2380952380952,4,2,1,70,0,0
158097,-100,4,2,1,70,0,0
158917,-105.263157894737,4,2,1,70,0,0
159409,-95.2380952380952,4,2,1,70,0,0
160720,-105.263157894737,4,2,1,70,0,0
161212,-100,4,2,1,70,0,0
161376,-100,4,2,1,70,0,0
162851,-105.263157894737,4,2,1,70,0,0
173343,-153.846153846154,4,2,0,40,0,0
174327,-133.333333333333,4,2,0,40,0,0
174573,-133.333333333333,4,2,1,40,0,0
181212,-90.9090909090909,4,2,1,80,0,1
185966,-95.2380952380952,4,2,1,80,0,0
186458,-90.9090909090909,4,2,1,80,0,1
196950,-111.111111111111,4,2,1,70,0,0
202196,-111.111111111111,4,2,1,60,0,0
204163,-100,4,2,1,70,0,0
204491,-111.111111111111,4,2,1,70,0,0
206786,-100,4,2,1,70,0,0
207114,-111.111111111111,4,2,1,70,0,0
209409,-100,4,2,1,70,0,0
209737,-100,4,2,1,70,0,0
210065,-111.111111111111,4,2,1,70,0,0
210720,-100,4,2,1,70,0,0
212032,-100,4,2,1,70,0,0

[Colours]
Combo1 : 181,181,181
Combo2 : 232,221,15
Combo3 : 114,130,148
Combo4 : 109,125,239

[HitObjects]
36,107,229,6,0,P|76:96|123:106,1,77.5,6|2,1:2|0:0,0:0:0:0:
184,132,556,2,0,P|222:137|268:125,1,77.5,2|0,1:2|0:0,0:0:0:0:
322,81,884,1,2,1:2:0:0:
322,81,1048,2,0,L|322:-12,1,77.5,2|0,0:2|1:0,0:0:0:0:
411,77,1376,1,2,0:0:0:0:
411,77,1540,6,0,L|411:168,1,77.5,2|0,1:2|0:0,0:0:0:0:
456,220,1868,2,0,B|421:235|421:235|366:227,1,77.5,2|0,1:0|0:0,0:0:0:0:
314,192,2196,2,2,B|257:189|257:189|213:216|213:216|152:211,1,162.749995033264,2|2,1:0|1:0,0:0:0:0:
86,185,2688,1,2,0:0:0:0:
18,227,2851,6,0,P|10:264|16:303,1,77.5,2|2,1:2|0:0,0:0:0:0:
69,361,3179,2,0,P|106:368|145:362,1,77.5,2|0,1:2|0:0,0:0:0:0:
200,307,3507,1,2,1:2:0:0:
200,307,3671,2,0,L|297:307,1,77.5,2|0,0:2|1:0,0:0:0:0:
214,221,3999,1,2,0:0:0:0:
214,221,4163,6,0,L|125:218,1,77.5,2|0,1:2|0:0,0:0:0:0:
78,167,4491,2,0,B|67:128|67:128|90:80,1,77.5,2|0,1:0|0:0,0:0:0:0:
140,45,4819,2,2,B|207:44|207:44|232:58|232:58|318:54,1,162.749995033264,2|2,1:0|1:0,0:0:0:0:
373,29,5310,1,2,0:0:0:0:
450,64,5474,6,0,P|441:132|446:227,1,155,6|2,1:2|1:2,0:0:0:0:
444,298,5966,1,0,0:0:0:0:
364,278,6130,1,2,0:0:0:0:
364,278,6294,2,0,L|275:290,1,77.5,2|0,0:2|1:0,0:0:0:0:
213,213,6622,1,2,0:0:0:0:
213,213,6786,6,0,L|303:201,1,77.5,2|0,1:2|0:0,0:0:0:0:
329,135,7114,2,0,B|344:101|344:101|331:56,1,77.5,2|0,1:0|0:0,0:0:0:0:
262,24,7442,2,2,B|208:28|208:28|186:50|186:50|97:53,1,162.749995033264,2|2,1:0|1:0,0:0:0:0:
32,51,7933,1,2,0:0:0:0:
60,132,8097,6,0,P|69:166|62:217,1,77.5,2|2,1:2|0:0,0:0:0:0:
28,278,8425,2,0,P|22:318|32:357,1,77.5,2|0,1:2|0:0,0:0:0:0:
111,313,8753,1,2,1:2:0:0:
111,313,8917,2,0,L|208:310,1,77.5,2|0,0:0|1:0,0:0:0:0:
265,352,9245,1,2,0:0:0:0:
321,292,9409,6,0,L|313:246,2,38.75,10|8|0,0:0|0:0|1:0,0:0:0:0:
393,349,9737,1,0,1:0:0:0:
450,282,9901,1,8,0:0:0:0:
450,282,9983,1,8,0:0:0:0:
450,282,10065,1,2,1:0:0:0:
434,190,10228,1,0,1:0:0:0:
423,107,10392,1,2,1:2:0:0:
411,18,10556,1,2,1:2:0:0:
424,117,10720,5,4,0:0:0:0:
216,157,13343,5,8,1:2:0:0:
297,232,13507,1,10,1:2:0:0:
256,192,13589,12,0,15310,0:0:0:0:
296,129,15638,6,0,L|294:92,6,19.375,0|0|0|0|0|0|0,0:0|0:0|0:0|0:0|0:0|0:0|0:0,0:0:0:0:
279,158,15966,6,0,P|232:137|109:177,1,155,6|10,1:2|0:0,0:0:0:0:
71,217,16458,1,2,0:0:0:0:
123,285,16622,2,0,P|138:326|136:375,1,77.5,0|2,0:0|1:0,0:0:0:0:
229,356,16950,2,0,P|229:315|244:277,1,77.5,10|0,0:0|0:0,0:0:0:0:
326,332,17278,6,0,L|418:325,1,77.5,0|0,0:0|0:0,0:0:0:0:
485,291,17606,2,2,B|495:250|495:250|480:206,1,77.5,10|0,0:0|0:0,0:0:0:0:
444,144,17933,2,2,B|393:155|393:155|338:132|338:132|266:141,1,162.749995033264,2|10,0:0|0:0,0:0:0:0:
198,139,18425,1,0,0:0:0:0:
116,88,18589,6,0,P|41:120|33:200,1,162.749995033264,2|8,1:2|0:0,0:0:0:0:
69,262,19081,1,2,0:0:0:0:
142,305,19245,2,0,P|185:310|236:293,1,81.3749975166322,2|2,0:0|1:0,0:0:0:0:
290,248,19573,2,0,P|299:208|293:168,1,81.3749975166322,10|0,0:0|0:0,0:0:0:0:
241,89,19901,5,2,1:2:0:0:
241,89,20065,1,0,1:0:0:0:
321,51,20228,2,0,B|362:41|362:41|414:55,1,81.3749975166322,10|0,0:0|1:2,0:0:0:0:
419,65,20474,1,0,1:2:0:0:
436,82,20556,2,2,L|435:115,6,20.343749379158,0|0|0|0|0|0|0,1:0|1:0|1:0|1:0|1:0|1:0|1:0,0:0:0:0:
464,105,20884,6,0,L|464:150,3,40.6874987583161,8|0|0|0,0:0|0:0|0:0|0:0,0:0:0:0:
491,122,21212,2,0,L|490:223,1,81.3749975166322,4|0,0:0|0:0,0:0:0:0:
454,295,21540,6,0,P|413:286|376:290,1,65.8750012564659,10|0,0:0|0:0,0:0:0:0:
316,331,21868,2,0,P|275:340|238:336,1,65.8750012564659,2|0,0:0|0:0,0:0:0:0:
183,297,22196,1,10,0:0:0:0:
183,297,22360,2,0,L|177:225,1,65.8750012564659,2|0,0:0|1:2,0:0:0:0:
172,147,22688,1,0,0:0:0:0:
171,147,22851,2,0,P|110:135|71:73,1,131.750002512932,10|0,0:0|0:0,0:0:0:0:
154,63,23343,1,0,1:0:0:0:
72,80,23507,2,0,B|-5:74,1,65.8750012564659,8|0,0:0|0:0,0:0:0:0:
14,167,23835,6,0,L|8:252,1,65.8750012564659,2|0,1:2|0:0,0:0:0:0:
14,325,24163,2,0,P|37:307|78:299,1,65.8750012564659,10|0,0:0|0:0,0:0:0:0:
152,323,24491,2,0,P|183:334|216:336,1,65.8750012564659,2|0,0:0|0:0,0:0:0:0:
292,286,24819,1,10,0:0:0:0:
292,286,24983,2,0,L|284:213,1,65.8750012564659,2|0,0:0|1:0,0:0:0:0:
222,165,25310,1,2,0:0:0:0:
222,165,25474,2,0,P|286:183|351:143,1,131.750002512932,10|0,0:0|0:0,0:0:0:0:
360,63,25966,1,0,1:2:0:0:
269,86,26130,1,10,0:0:0:0:
269,86,26294,1,2,1:2:0:0:
341,154,26458,6,0,P|385:165|464:168,1,104.624996807098,0|0,1:2|0:0,0:0:0:0:
468,171,26786,2,0,P|458:205|462:245,1,69.749997871399,10|0,0:0|0:0,0:0:0:0:
393,289,27114,2,0,P|344:275|317:279,1,69.749997871399,2|0,0:0|0:0,0:0:0:0:
248,310,27442,1,10,0:0:0:0:
248,310,27606,2,0,L|253:385,1,69.749997871399,2|0,0:0|0:0,0:0:0:0:
157,339,27933,1,2,0:0:0:0:
157,339,28097,6,0,P|154:262|141:186,1,139.499995742798,10|0,0:0|0:0,0:0:0:0:
126,105,28589,1,0,1:0:0:0:
55,175,28753,1,10,0:0:0:0:
55,175,28917,1,2,0:2:0:0:
144,200,29081,6,0,B|228:176|200:235|303:205,1,147.249996068001,2|8,1:2|0:0,0:0:0:0:
346,146,29573,2,0,P|367:94|451:137,1,147.249996068001,2|0,0:0|1:2,0:0:0:0:
503,179,30065,2,0,L|504:259,1,73.6249980340005,8|0,0:0|0:0,0:0:0:0:
502,338,30392,5,0,1:2:0:0:
402,291,30556,1,2,0:0:0:0:
402,291,30720,2,0,L|312:303,1,73.6249980340005,8|2,0:2|1:2,0:0:0:0:
281,198,31048,2,0,L|369:186,1,73.6249980340005,10|0,0:0|1:0,0:0:0:0:
244,285,31376,1,14,0:0:0:0:
244,285,31540,1,0,0:0:0:0:
176,216,31704,6,0,P|176:177|195:139,1,77.5,2|0,1:2|0:0,0:0:0:0:
274,95,32032,1,10,0:0:0:0:
274,95,32196,2,0,P|220:116|134:66,1,155,2|0,0:0|0:0,0:0:0:0:
78,12,32688,2,0,P|58:49|56:91,1,77.5,10|2,0:0|0:0,0:0:0:0:
86,157,33015,6,0,P|96:205|89:242,1,77.5,2|0,1:2|0:0,0:0:0:0:
44,301,33343,2,0,B|82:317|82:317|122:308,1,77.5,10|0,0:0|0:0,0:0:0:0:
192,269,33671,2,2,B|251:270|251:270|289:295|289:295|357:288,1,170.500005203247,2|8,0:1|0:0,0:0:0:0:
427,336,34163,1,0,0:0:0:0:
483,273,34327,6,0,P|466:221|494:112,1,155,2|10,1:2|0:0,0:0:0:0:
512,43,34819,1,0,0:0:0:0:
438,9,34983,2,2,L|345:11,1,77.5,2|0,0:0|0:0,0:0:0:0:
329,93,35310,2,0,L|236:91,1,77.5,8|0,0:0|0:0,0:0:0:0:
186,22,35638,6,0,L|141:21,3,38.75,0|0|0|0,1:2|1:0|1:0|1:0,0:0:0:0:
123,51,35966,2,0,L|77:49,3,38.75,8|8|8|8,0:0|0:0|1:2|0:0,0:0:0:0:
79,80,36294,2,0,B|79:129|79:129|68:151|68:151|77:177|77:177|76:248,1,155,0|10,1:2|0:0,0:0:0:0:
166,251,36786,1,2,1:2:0:0:
177,344,36950,6,0,L|100:335,1,77.5,10|8,1:2|1:2,0:0:0:0:
302,347,37442,2,0,L|397:336,1,77.5,10|8,1:2|1:2,0:0:0:0:
166,251,37933,2,0,L|71:240,1,77.5,10|8,1:2|1:2,0:0:0:0:
302,249,38425,2,0,L|397:238,1,77.5,10|10,1:2|1:2,0:0:0:0:
180,162,38917,1,10,1:2:0:0:
180,162,39081,2,0,L|85:151,1,77.5,10|10,1:2|1:2,0:0:0:0:
39,82,39409,1,8,1:2:0:0:
103,153,39573,6,0,L|97:249,1,77.5,10|8,1:2|1:2,0:0:0:0:
186,79,40065,2,0,L|180:-17,1,77.5,10|8,1:2|1:2,0:0:0:0:
259,190,40556,2,0,L|253:286,1,77.5,10|8,1:2|1:2,0:0:0:0:
330,93,41048,2,0,L|324:-3,1,77.5,10|10,1:2|1:2,0:0:0:0:
412,202,41540,1,10,1:2:0:0:
412,202,41704,2,0,L|406:298,1,77.5,10|10,1:2|1:2,0:0:0:0:
479,342,42032,1,8,1:2:0:0:
407,279,42196,6,0,B|312:267|359:320|244:303,1,143.374999453068,6|8,1:2|0:0,0:0:0:0:
201,257,42688,2,0,P|139:240|131:315,1,143.374999453068,2|0,0:0|1:2,0:0:0:0:
56,357,43179,2,0,P|36:306|38:284,1,71.6874997265339,10|0,0:0|0:0,0:0:0:0:
61,208,43507,6,0,P|63:166|47:116,1,71.6874997265339,2|0,1:2|0:0,0:0:0:0:
12,58,43835,2,0,P|56:46|96:57,1,71.6874997265339,10|0,0:0|0:0,0:0:0:0:
153,100,44163,1,2,0:0:0:0:
153,100,44327,2,0,P|235:112|316:98,1,143.374999453068,2|0,1:2|0:0,0:0:0:0:
383,77,44819,6,0,P|417:58|447:22,2,71.6874997265339,10|0|0,0:0|1:0|1:0,0:0:0:0:
361,170,45310,2,0,P|378:195|393:255,2,71.6874997265339,10|0|0,0:0|1:0|1:0,0:0:0:0:
294,104,45802,2,0,P|255:92|215:88,1,71.6874997265339,8|0,0:0|1:0,0:0:0:0:
140,143,46130,5,8,0:0:0:0:
140,143,46212,1,8,0:0:0:0:
140,143,46294,2,0,L|140:222,1,71.6874997265339,2|0,1:2|1:0,0:0:0:0:
54,244,46622,1,8,0:0:0:0:
54,244,46704,1,8,0:0:0:0:
54,244,46786,2,0,L|54:165,2,71.6874997265339,2|0|10,1:2|1:0|0:0,0:0:0:0:
51,340,47278,1,0,0:0:0:0:
51,340,47442,6,0,P|112:308|202:332,1,143.374999453068,4|0,0:0|0:0,0:0:0:0:
260,363,47933,1,0,0:0:0:0:
256,192,48097,12,0,49737,0:0:0:0:
226,81,50065,5,2,1:0:0:0:
312,83,50228,1,2,1:0:0:0:
399,86,50392,2,0,L|477:87,1,71.6874997265339,2|0,1:0|0:0,0:0:0:0:
335,173,50720,2,0,L|413:174,1,71.6874997265339,2|0,1:0|0:0,0:0:0:0:
270,254,51048,1,2,1:0:0:0:
270,254,51212,1,2,1:0:0:0:
205,167,51376,6,0,L|115:162,1,71.6874997265339,0|0,0:0|0:0,0:0:0:0:
154,248,51704,2,0,L|39:244,1,87.1875033259393,0|0,0:0|0:0,0:0:0:0:
96,335,52032,2,0,L|60:334,8,21.7968758314848,0|0|0|0|0|0|0|0|0,0:0|0:0|0:0|0:0|0:0|0:0|0:0|0:0|0:0,0:0:0:0:
199,322,52524,1,0,0:0:0:0:
270,254,52688,6,0,B|372:222|339:300|457:270,1,170.500005203247,6|8,1:2|0:0,0:0:0:0:
506,227,53179,1,2,0:0:0:0:
456,157,53343,2,0,P|446:107|458:67,1,85.2500026016236,2|0,1:2|0:0,0:0:0:0:
392,19,53671,2,0,P|340:27|298:16,1,85.2500026016236,8|0,0:0|0:0,0:0:0:0:
228,61,53999,5,2,1:2:0:0:
228,61,54163,2,0,P|259:98|314:115,1,85.2500026016236,2|8,0:0|0:0,0:0:0:0:
376,140,54491,2,0,P|345:177|290:194,1,85.2500026016236,2|0,0:0|0:0,0:0:0:0:
224,186,54819,2,0,P|178:181|128:200,1,85.2500026016236,2|8,0:0|0:0,0:0:0:0:
71,233,55147,1,0,0:0:0:0:
60,316,55310,6,0,P|37:204|-12:151,1,170.500005203247,2|8,1:2|0:0,0:0:0:0:
42,86,55802,2,0,P|96:80|128:53,1,85.2500026016236,2|0,0:0|1:0,0:0:0:0:
206,14,56130,2,0,P|249:8|290:17,1,85.2500026016236,2|8,0:0|0:0,0:0:0:0:
329,107,56458,6,0,P|286:112|246:99,1,85.2500026016236,2|2,0:0|1:0,0:0:0:0:
369,25,56786,1,2,0:0:0:0:
421,107,56950,2,0,L|414:216,1,85.2500026016236,10|0,0:0|0:0,0:0:0:0:
378,276,57278,2,0,P|419:285|464:271,1,85.2500026016236,2|0,1:2|1:0,0:0:0:0:
415,192,57606,2,0,P|373:182|328:196,1,85.2500026016236,10|0,1:2|1:2,0:0:0:0:
278,277,57933,5,6,1:2:0:0:
278,277,58097,2,0,L|275:370,1,85.2500026016236,2|10,0:0|0:0,0:0:0:0:
176,341,58425,2,0,P|137:323|95:328,1,85.2500026016236,2|0,0:1|1:0,0:0:0:0:
20,295,58753,2,0,P|44:260|83:243,1,85.2500026016236,2|8,0:2|0:0,0:0:0:0:
159,198,59081,2,0,P|127:171|86:162,2,85.2500026016236,2|0|0,0:0|0:0|0:0,0:0:0:0:
230,262,59573,6,0,P|250:214|244:171,1,85.2500026016236,10|2,0:0|0:1,0:0:0:0:
200,108,59901,2,0,P|185:68|193:23,1,85.2500026016236,2|0,1:2|0:0,0:0:0:0:
279,59,60228,2,0,P|320:65|360:51,1,85.2500026016236,10|0,0:0|0:0,0:0:0:0:
434,3,60556,2,0,P|447:43|443:85,1,85.2500026016236,2|0,1:2|0:0,0:0:0:0:
403,155,60884,1,10,0:0:0:0:
458,218,61048,2,0,P|380:197|276:232,1,170.500005203247,2|0,0:0|1:0,0:0:0:0:
202,264,61540,1,8,0:0:0:0:
135,201,61704,5,2,1:2:0:0:
135,201,61786,1,2,0:2:0:0:
135,201,61868,2,0,L|136:108,2,85.2500026016236,2|6|8,0:0|0:0|0:0,0:0:0:0:
97,297,62360,1,2,1:2:0:0:
97,297,62688,2,0,L|69:292,8,21.3125006504059,4|0|0|0|0|0|0|0|0,0:0|0:0|0:0|0:0|0:0|0:0|0:0|0:0|0:0,0:0:0:0:
200,345,63179,6,0,B|261:333|261:333|314:352|394:338,1,170.500005203247,6|8,1:2|0:0,0:0:0:0:
445,314,63671,1,2,0:0:0:0:
401,245,63835,2,0,P|392:195|404:158,1,85.2500026016236,0|2,0:0|1:2,0:0:0:0:
460,99,64163,2,0,P|469:49|457:12,1,85.2500026016236,10|2,0:0|0:0,0:0:0:0:
358,61,64491,5,2,1:0:0:0:
358,61,64655,2,0,L|258:60,1,85.2500026016236,2|8,0:0|0:0,0:0:0:0:
219,147,64983,2,0,L|319:148,1,85.2500026016236,2|0,0:0|0:0,0:0:0:0:
272,60,65310,2,0,L|186:59,1,85.2500026016236,2|8,1:2|0:0,0:0:0:0:
100,56,65638,1,0,1:0:0:0:
24,114,65802,6,0,P|58:192|50:280,1,170.500005203247,2|10,1:0|0:0,0:0:0:0:
129,328,66294,2,0,P|201:286|285:295,1,170.500005203247,2|0,0:1|1:0,0:0:0:0:
354,354,66786,1,8,0:0:0:0:
285,295,66950,6,0,L|292:205,1,85.2500026016236,2|2,0:0|1:0,0:0:0:0:
222,144,67278,1,2,0:0:0:0:
222,144,67442,2,0,L|215:54,1,85.2500026016236,10|0,0:0|0:0,0:0:0:0:
303,57,67769,2,0,P|347:56|390:25,1,85.2500026016236,2|0,0:0|1:2,0:0:0:0:
453,90,68097,2,0,P|431:128|437:181,1,85.2500026016236,10|0,0:0|1:0,0:0:0:0:
507,236,68425,6,0,P|468:203|361:255,1,170.500005203247,2|10,1:0|0:0,0:0:0:0:
320,311,68917,2,0,P|270:333|238:331,1,85.2500026016236,2|0,0:0|0:0,0:0:0:0:
166,296,69245,2,0,P|124:289|83:300,1,85.2500026016236,2|8,1:2|0:0,0:0:0:0:
5,348,69573,1,2,0:0:0:0:
5,348,69737,6,0,P|-3:300|6:257,1,85.2500026016236,0|0,0:0|0:0,0:0:0:0:
71,204,70065,2,0,P|80:145|64:105,1,85.2500026016236,10|2,0:0|0:1,0:0:0:0:
3,63,70392,2,0,P|41:36|80:31,1,85.2500026016236,2|0,0:0|1:0,0:0:0:0:
147,79,70720,2,0,P|195:66|251:80,1,85.2500026016236,10|0,0:0|1:0,0:0:0:0:
297,140,71048,6,0,P|363:159|416:66,1,170.500005203247,2|10,1:2|0:0,0:0:0:0:
457,7,71540,2,0,B|505:27|511:84|511:84|501:155,1,170.500005203247,2|0,0:1|1:0,0:0:0:0:
492,243,72032,1,8,0:0:0:0:
396,247,72196,5,2,1:2:0:0:
396,247,72278,1,2,0:0:0:0:
396,247,72360,2,0,L|304:255,2,85.2500026016236,2|6|8,1:2|1:2|0:0,0:0:0:0:
450,333,72851,1,6,1:2:0:0:
450,333,73179,2,0,L|420:335,8,21.3125006504059,4|0|0|0|8|0|0|0|0,1:2|0:0|0:0|0:0|0:0|0:0|0:0|0:0|0:0,0:0:0:0:
342,367,73671,6,0,P|292:368|220:292,1,139.499995742798,6|2,1:2|0:0,0:0:0:0:
202,235,74163,2,0,B|209:186|209:186|194:151|194:151|199:75,1,139.499995742798,2|2,1:2|1:2,0:0:0:0:
152,30,74655,2,0,B|116:22|116:22|83:30,1,69.749997871399,8|2,0:0|0:0,0:0:0:0:
14,82,74983,1,0,1:0:0:0:
14,82,75147,1,0,1:0:0:0:
60,156,75310,2,0,B|79:210|79:210|68:317,1,139.499995742798,2|0,0:0|0:0,0:0:0:0:
142,334,75802,1,2,1:2:0:0:
226,312,75966,2,0,L|361:315,1,104.624996807098,10|0,0:0|0:0,0:0:0:0:
355,303,76294,6,0,P|326:258|360:165,1,139.499995742798,2|0,1:2|0:2,0:0:0:0:
435,149,76786,2,0,P|374:153|312:75,1,139.499995742798,0|2,1:2|1:2,0:0:0:0:
403,59,77278,1,10,0:0:0:0:
318,103,77442,2,0,B|272:96|272:96|222:105|222:105|155:96,1,139.499995742798,0|0,1:0|1:0,0:0:0:0:
90,86,77933,1,2,0:0:0:0:
96,190,78097,1,6,1:2:0:0:
96,190,78589,2,0,L|94:160,6,17.4374994678497,0|0|0|0|0|0|0,0:0|0:0|0:0|0:0|0:0|0:0|0:0,0:0:0:0:
116,228,78917,6,0,L|121:312,1,73.6249980340005,6|2,1:2|0:0,0:0:0:0:
189,350,79245,2,0,L|273:344,1,73.6249980340005,10|0,0:0|0:0,0:0:0:0:
316,276,79573,1,2,0:0:0:0:
316,276,79737,2,0,L|311:202,1,73.6249980340005,2|8,1:2|0:0,0:0:0:0:
400,275,80065,1,2,0:0:0:0:
400,275,80229,6,0,L|404:348,1,73.6249980340005,2|0,1:2|0:0,0:0:0:0:
486,251,80556,2,2,B|473:215|473:215|437:188,1,73.6249980340005,10|0,0:0|0:0,0:0:0:0:
366,170,80884,2,2,B|314:167|314:167|274:186|274:186|189:182,1,155,0|8,0:0|0:0,0:0:0:0:
139,211,81376,1,0,0:0:0:0:
71,158,81540,6,0,P|59:120|65:75,1,73.6249980340005,2|2,1:2|0:0,0:0:0:0:
107,20,81868,2,0,P|144:8|189:14,1,73.6249980340005,10|0,0:0|0:0,0:0:0:0:
251,62,82196,1,2,0:0:0:0:
251,62,82360,2,0,L|336:54,1,73.6249980340005,2|8,1:2|0:0,0:0:0:0:
385,132,82688,1,2,0:0:0:0:
385,132,82852,6,0,L|300:140,1,73.6249980340005,2|0,1:2|1:0,0:0:0:0:
246,210,83179,2,0,L|250:257,3,36.8124990170002,10|0|0|0,1:2|0:0|0:0|0:0,0:0:0:0:
256,277,83507,2,2,B|291:264|325:267|325:267|370:301|431:278,1,155,0|8,1:2|0:0,0:0:0:0:
495,279,83999,1,0,1:0:0:0:
447,201,84163,6,0,P|436:138|473:49,1,147.249996068001,2|10,1:2|0:0,0:0:0:0:
394,11,84655,1,0,0:0:0:0:
324,61,84819,1,2,0:0:0:0:
324,61,84983,2,0,L|235:61,1,73.6249980340005,2|8,1:2|0:0,0:0:0:0:
179,147,85310,1,2,0:0:0:0:
179,147,85474,6,0,L|268:147,1,73.6249980340005,2|0,1:2|0:0,0:0:0:0:
322,201,85802,2,2,B|336:238|336:238|330:276,1,73.6249980340005,10|0,3:2|3:2,0:0:0:0:
273,329,86130,2,0,B|232:337|200:319|200:319|171:359|101:349,1,155,0|8,0:0|0:0,0:0:0:0:
52,348,86622,1,0,0:0:0:0:
17,268,86786,6,0,P|7:221|15:185,1,77.5,2|2,1:2|0:0,0:0:0:0:
72,140,87114,2,0,P|75:93|64:62,1,77.5,10|0,0:0|0:0,0:0:0:0:
135,12,87442,1,2,0:0:0:0:
135,12,87606,2,0,L|214:4,1,77.5,2|8,1:2|0:0,0:0:0:0:
295,75,87933,1,2,0:0:0:0:
295,75,88097,6,0,L|216:83,1,77.5,2|0,1:2|1:2,0:0:0:0:
148,144,88425,2,0,L|153:196,3,38.75,10|0|0|0,1:2|0:0|0:0|0:0,0:0:0:0:
151,211,88753,2,0,B|136:246|136:246|144:297,2,77.5,2|0|10,1:0|1:0|1:2,0:0:0:0:
232,248,89245,1,0,1:0:0:0:
232,248,89409,6,0,P|286:235|375:244,1,116.25,4|0,1:2|0:0,0:0:0:0:
366,233,89737,2,0,P|366:194|379:159,1,65.8750012564659,2|0,1:2|0:0,0:0:0:0:
455,212,90065,2,0,P|463:243|462:276,1,65.8750012564659,10|0,0:0|0:0,0:0:0:0:
402,338,90392,1,2,0:0:0:0:
402,338,90556,2,0,P|331:329|251:351,1,131.750002512932,2|2,1:2|0:0,0:0:0:0:
191,366,91048,2,0,P|148:368|102:347,1,65.8750012564659,2|0,0:0|1:2,0:0:0:0:
61,305,91376,2,0,B|72:274|61:246|61:246|19:219|27:167,2,131.750002512932,10|2|2,0:0|1:2|1:2,0:0:0:0:
105,170,92360,6,0,P|88:131|63:110,1,65.8750012564659,2|0,1:2|0:0,0:0:0:0:
46,33,92688,2,0,P|86:32|128:48,1,65.8750012564659,10|0,0:0|0:0,0:0:0:0:
173,99,93015,1,2,0:0:0:0:
173,99,93179,2,0,P|241:106|315:93,1,131.750002512932,2|2,1:2|1:2,0:0:0:0:
367,45,93671,2,0,L|365:0,2,32.937500628233,2|0|0,0:0|1:0|0:0,0:0:0:0:
436,94,93999,2,2,B|451:127|451:127|445:185,1,65.8750012564659,8|0,0:0|0:0,0:0:0:0:
416,257,94327,1,2,1:2:0:0:
329,246,94491,1,10,0:2:0:0:
242,235,94655,6,0,L|108:220,1,110.437497051001,4|0,0:2|0:0,0:0:0:0:
108,215,94983,2,0,P|106:176|89:141,1,73.6249980340005,2|0,1:2|0:0,0:0:0:0:
16,197,95310,2,0,P|1:230|0:267,1,73.6249980340005,10|0,0:0|0:0,0:0:0:0:
57,333,95638,1,2,0:0:0:0:
57,333,95802,2,0,P|116:329|204:353,1,147.249996068001,2|2,1:2|1:2,0:0:0:0:
284,379,96294,2,0,P|328:377|364:364,1,73.6249980340005,2|0,0:0|1:0,0:0:0:0:
413,303,96622,2,0,B|410:267|410:267|405:256|405:256|402:225,1,73.6249980340005,10|0,0:0|0:0,0:0:0:0:
486,200,96950,1,2,1:2:0:0:
486,200,97114,1,2,1:2:0:0:
402,230,97278,6,0,B|318:203|338:274|240:233,1,155,6|8,1:2|0:0,0:0:0:0:
187,178,97769,2,0,P|177:134|185:99,1,77.5,2|0,0:0|1:0,0:0:0:0:
247,39,98097,1,0,1:0:0:0:
183,102,98261,2,0,L|95:95,1,77.5,8|0,0:0|1:0,0:0:0:0:
21,95,98589,5,0,1:2:0:0:
81,182,98753,1,2,0:0:0:0:
81,182,98917,2,0,L|75:263,1,77.5,10|2,0:0|1:2,0:0:0:0:
170,274,99245,2,0,L|176:193,1,77.5,10|2,0:0|1:2,0:0:0:0:
108,342,99573,1,14,0:0:0:0:
108,342,99737,1,0,0:0:0:0:
193,364,99901,6,0,P|232:342|252:308,1,77.5,2|0,1:2|0:0,0:0:0:0:
297,237,100228,1,10,0:0:0:0:
297,237,100392,2,2,P|358:205|447:249,1,155,2|0,0:0|0:0,0:0:0:0:
505,285,100884,2,0,P|516:238|510:200,1,77.5,8|0,0:0|0:0,0:0:0:0:
462,145,101212,6,0,P|455:96|466:49,1,77.5,2|0,1:2|0:0,0:0:0:0:
396,15,101540,2,0,B|358:4|358:4|304:16,1,77.5,10|0,0:0|0:0,0:0:0:0:
245,58,101868,2,2,B|247:110|247:110|236:140|236:140|245:170|245:170|246:245,1,170.500005203247,2|10,0:0|0:0,0:0:0:0:
252,311,102360,1,0,0:0:0:0:
164,277,102524,6,0,P|99:277|50:363,1,155,0|8,1:2|0:0,0:0:0:0:
133,357,103015,1,0,0:0:0:0:
164,277,103179,2,0,L|164:183,1,77.5,2|0,0:0|0:0,0:0:0:0:
88,138,103507,2,0,L|86:36,1,77.5,8|0,0:0|0:0,0:0:0:0:
185,41,103835,2,0,L|233:39,3,38.75,0|0|0|0,1:2|1:2|1:2|1:2,0:0:0:0:
249,61,104163,2,0,L|302:57,3,38.75,10|8|8|8,1:2|0:0|0:0|0:0,0:0:0:0:
310,80,104491,6,2,B|358:79|358:79|404:110|404:110|487:108,1,155,2|8,1:2|0:0,0:0:0:0:
469,196,104983,1,0,1:0:0:0:
382,252,105147,6,0,L|388:335,1,77.5,10|8,1:2|1:2,0:0:0:0:
304,157,105638,2,0,L|310:74,1,77.5,10|8,1:2|1:2,0:0:0:0:
263,265,106130,2,0,L|269:348,1,77.5,10|8,1:2|1:2,0:0:0:0:
190,158,106622,2,0,L|196:75,1,77.5,10|10,1:2|1:2,0:0:0:0:
113,255,107114,1,10,1:2:0:0:
113,255,107278,2,0,L|119:338,1,77.5,10|8,1:2|1:2,0:0:0:0:
205,368,107606,1,8,1:2:0:0:
118,332,107769,6,0,L|35:343,1,77.5,10|8,1:2|1:2,0:0:0:0:
218,267,108261,2,0,L|301:278,1,77.5,10|8,1:2|1:2,0:0:0:0:
90,223,108753,2,0,L|7:234,1,77.5,10|8,1:2|1:2,0:0:0:0:
227,165,109245,2,0,L|310:176,1,77.5,10|10,1:2|1:2,0:0:0:0:
104,110,109737,1,10,1:2:0:0:
104,110,109901,2,0,L|21:121,1,77.5,10|8,1:2|1:2,0:0:0:0:
51,30,110228,1,8,1:2:0:0:
27,120,110392,6,0,P|12:195|37:269,1,143.374999453068,6|8,1:2|0:0,0:0:0:0:
96,306,110884,2,0,B|181:288|151:342|254:322,1,143.374999453068,2|0,0:0|1:0,0:0:0:0:
306,275,111376,2,0,P|311:236|295:182,1,71.6874997265339,10|0,0:0|0:0,0:0:0:0:
249,133,111704,6,0,P|244:94|260:40,1,71.6874997265339,0|0,1:2|0:0,0:0:0:0:
322,0,112032,2,0,P|368:-5|408:16,1,71.6874997265339,10|0,0:0|0:0,0:0:0:0:
475,46,112360,1,2,0:0:0:0:
475,46,112524,2,0,P|438:91|435:183,1,143.374999453068,2|0,1:2|0:0,0:0:0:0:
464,256,113015,6,0,P|481:285|508:311,2,71.6874997265339,10|0|0,0:0|1:0|1:0,0:0:0:0:
365,232,113507,2,0,P|334:242|294:242,2,71.6874997265339,10|0|0,0:0|1:0|1:0,0:0:0:0:
431,173,113999,2,0,P|450:140|456:106,1,71.6874997265339,10|0,0:0|1:0,0:0:0:0:
365,32,114327,5,8,0:0:0:0:
365,32,114409,1,8,0:0:0:0:
365,32,114491,2,0,L|272:32,1,71.6874997265339,2|0,1:2|1:0,0:0:0:0:
275,122,114819,1,8,0:0:0:0:
275,122,114901,1,8,0:0:0:0:
275,122,114983,2,0,L|346:122,2,71.6874997265339,2|0|10,1:2|1:0|0:0,0:0:0:0:
184,78,115474,1,0,0:0:0:0:
184,78,115638,6,0,P|124:98|53:41,1,143.374999453068,4|0,0:0|0:0,0:0:0:0:
129,14,116130,1,0,0:0:0:0:
256,192,116212,12,0,117933,0:0:0:0:
88,59,118261,5,2,1:0:0:0:
90,143,118425,1,2,1:0:0:0:
92,226,118589,2,0,L|92:303,1,71.6874997265339,2|0,1:0|0:0,0:0:0:0:
189,161,118917,2,0,L|189:238,1,71.6874997265339,2|0,1:0|0:0,0:0:0:0:
256,91,119245,1,2,1:0:0:0:
256,91,119409,1,2,1:0:0:0:
339,141,119573,6,0,L|418:141,1,71.6874997265339,0|0,0:0|0:0,0:0:0:0:
393,230,119901,2,0,L|479:228,1,79.4375012121201,0|0,0:0|0:0,0:0:0:0:
448,316,120228,2,0,L|483:315,8,19.85937530303,0|0|0|0|0|0|0|0|0,0:0|0:0|0:0|0:0|0:0|0:0|0:0|0:0|0:0,0:0:0:0:
340,317,120720,1,0,0:0:0:0:
263,252,120884,6,0,B|202:232|156:272|156:272|88:265,1,170.500005203247,6|8,1:2|0:0,0:0:0:0:
15,246,121376,1,2,0:0:0:0:
46,168,121540,2,0,P|46:119|27:77,1,85.2500026016236,0|2,0:0|0:0,0:0:0:0:
109,29,121868,2,0,P|151:40|208:29,1,85.2500026016236,8|0,0:0|0:0,0:0:0:0:
299,38,122196,5,2,1:0:0:0:
299,38,122360,2,0,L|307:133,1,85.2500026016236,2|8,0:0|0:0,0:0:0:0:
226,193,122688,2,0,L|219:99,1,85.2500026016236,2|0,0:0|0:0,0:0:0:0:
306,122,123015,2,0,L|313:216,1,85.2500026016236,2|8,0:0|0:0,0:0:0:0:
321,290,123343,1,0,0:0:0:0:
322,369,123507,6,0,P|347:313|456:289,1,170.500005203247,2|10,1:2|0:0,0:0:0:0:
512,217,123999,2,0,P|516:171|501:131,1,85.2500026016236,2|0,0:1|1:0,0:0:0:0:
446,71,124327,2,0,P|406:62|360:72,1,85.2500026016236,2|8,0:0|0:0,0:0:0:0:
270,97,124655,6,0,P|221:100|173:81,1,85.2500026016236,2|2,0:0|1:0,0:0:0:0:
291,12,124983,1,2,0:0:0:0:
364,71,125147,2,0,L|365:166,1,85.2500026016236,10|0,0:0|0:0,0:0:0:0:
329,246,125474,2,0,P|370:252|411:239,1,85.2500026016236,2|0,1:2|1:2,0:0:0:0:
364,156,125802,2,0,P|322:149|282:163,1,85.2500026016236,2|0,1:2|1:2,0:0:0:0:
220,241,126130,5,2,1:0:0:0:
220,241,126294,2,0,L|223:338,1,85.2500026016236,2|10,0:0|0:0,0:0:0:0:
139,352,126622,2,0,P|87:340|59:311,1,85.2500026016236,2|0,0:1|1:0,0:0:0:0:
30,243,126950,2,0,P|51:192|83:171,1,85.2500026016236,2|8,0:0|0:0,0:0:0:0:
156,150,127278,2,0,P|201:148|237:124,2,85.2500026016236,2|0|0,0:0|0:0|0:0,0:0:0:0:
192,59,127769,6,0,P|238:47|275:55,1,85.2500026016236,10|2,0:0|0:1,0:0:0:0:
325,123,128097,2,0,L|321:216,1,85.2500026016236,2|0,1:2|0:0,0:0:0:0:
250,256,128425,2,0,L|255:346,1,85.2500026016236,10|0,0:0|0:0,0:0:0:0:
333,370,128753,2,0,P|377:369|423:337,1,85.2500026016236,2|0,1:2|0:0,0:0:0:0:
435,267,129081,1,10,0:0:0:0:
510,303,129245,2,0,P|470:245|470:137,1,170.500005203247,2|0,0:1|1:0,0:0:0:0:
484,55,129737,1,8,0:0:0:0:
394,26,129901,5,2,1:2:0:0:
394,26,129983,1,2,0:0:0:0:
394,26,130065,2,0,L|301:34,2,85.2500026016236,2|2|8,0:0|1:2|0:0,0:0:0:0:
372,119,130556,1,2,1:0:0:0:
372,119,130884,2,0,L|340:123,8,21.3125006504059,2|0|0|0|0|0|0|0|0,1:2|0:0|0:0|0:0|0:0|0:0|0:0|0:0|0:0,0:0:0:0:
263,117,131376,6,0,B|218:111|218:111|148:138|148:138|84:129,1,170.500005203247,6|8,1:2|0:0,0:0:0:0:
18,106,131868,1,2,0:0:0:0:
0,185,132032,2,0,P|-2:231|14:275,1,85.2500026016236,0|0,0:0|1:0,0:0:0:0:
85,317,132360,2,0,P|131:319|175:303,1,85.2500026016236,8|0,0:0|0:0,0:0:0:0:
237,240,132688,5,2,1:0:0:0:
237,240,132851,2,0,P|278:233|321:243,1,85.2500026016236,2|8,0:0|0:0,0:0:0:0:
411,246,133179,2,0,P|398:196|370:167,1,85.2500026016236,2|0,0:1|0:0,0:0:0:0:
314,102,133507,2,0,P|361:86|402:91,1,85.2500026016236,2|8,1:2|0:0,0:0:0:0:
467,129,133835,1,0,1:0:0:0:
504,221,133999,6,0,B|522:283|469:326|469:326|390:330,1,170.500005203247,2|8,1:0|0:0,0:0:0:0:
307,327,134491,2,0,B|255:322|255:322|205:275|226:214,1,170.500005203247,2|2,0:1|1:2,0:0:0:0:
283,145,134983,1,8,0:0:0:0:
226,214,135147,6,0,L|125:211,1,85.2500026016236,2|2,0:0|1:0,0:0:0:0:
86,140,135474,1,2,0:0:0:0:
86,140,135638,2,0,L|-15:137,1,85.2500026016236,10|0,0:0|0:0,0:0:0:0:
35,232,135966,2,0,P|45:280|31:330,1,85.2500026016236,2|0,0:0|1:0,0:0:0:0:
116,364,136294,2,0,P|150:339|195:334,1,85.2500026016236,10|0,0:0|1:0,0:0:0:0:
291,352,136622,6,0,P|362:365|437:277,1,170.500005203247,2|10,1:0|0:0,0:0:0:0:
400,219,137114,2,0,P|355:252|342:287,1,85.2500026016236,2|0,0:0|0:0,0:0:0:0:
252,272,137442,2,0,P|231:235|195:213,1,85.2500026016236,2|8,1:2|0:0,0:0:0:0:
167,307,137769,1,2,0:0:0:0:
167,307,137933,6,0,P|127:322|77:314,1,85.2500026016236,0|0,0:0|0:0,0:0:0:0:
17,264,138261,2,0,P|7:216|18:173,1,85.2500026016236,10|2,0:0|0:1,0:0:0:0:
71,120,138589,2,0,P|109:100|151:102,1,85.2500026016236,2|0,0:0|1:0,0:0:0:0:
201,31,138917,2,0,P|233:64|242:102,1,85.2500026016236,10|0,0:0|1:0,0:0:0:0:
204,180,139245,6,0,P|238:145|361:162,1,170.500005203247,2|8,1:2|0:0,0:0:0:0:
411,213,139737,2,0,B|420:270|420:270|394:319|394:319|403:389,1,170.500005203247,2|0,0:1|1:0,0:0:0:0:
486,340,140228,1,8,0:0:0:0:
512,253,140392,5,2,1:2:0:0:
512,253,140474,1,2,0:0:0:0:
512,253,140556,2,0,L|491:159,2,85.2500026016236,2|6|8,1:2|1:2|0:0,0:0:0:0:
411,213,141048,1,2,1:2:0:0:
411,213,141376,2,0,L|401:177,8,21.3125006504059,0|0|0|0|0|0|0|0|0,0:0|0:0|0:0|0:0|0:0|0:0|0:0|0:0|0:0,0:0:0:0:
359,126,141868,6,0,P|310:101|214:126,1,139.499995742798,6|0,1:2|0:0,0:0:0:0:
168,168,142360,2,0,B|195:221|195:221|183:328,1,139.499995742798,2|0,1:2|1:0,0:0:0:0:
122,352,142851,2,0,B|90:359|90:359|37:345,1,65.8750012564659,8|0,0:0|0:0,0:0:0:0:
9,286,143179,1,2,1:2:0:0:
9,286,143343,1,2,1:2:0:0:
47,214,143507,2,0,B|54:173|54:173|40:134,1,73.6249980340005,0|2,0:0|1:2,0:0:0:0:
7,69,143835,2,0,B|81:57|81:57|116:69|116:69|138:62|138:62|159:64,1,147.249996068001,0|10,0:0|0:0,0:0:0:0:
226,35,144327,1,0,1:2:0:0:
252,113,144491,6,0,P|245:171|250:275,1,147.249996068001,6|0,1:2|0:0,0:0:0:0:
226,339,144983,2,0,B|271:353|309:324|309:324|350:317|382:355,1,155,4|0,1:2|1:0,0:0:0:0:
449,365,145474,2,0,B|484:344|484:344|494:295,1,77.5,10|0,0:0|0:0,0:0:0:0:
493,225,145802,1,2,1:2:0:0:
493,225,145966,2,0,L|493:146,1,73.6249980340005,2|0,1:2|0:0,0:0:0:0:
463,72,146294,2,0,B|417:41|417:41|318:65,1,147.249996068001,2|0,1:2|1:0,0:0:0:0:
245,97,146786,2,0,P|191:108|131:87,1,116.25,10|0,0:0|0:0,0:0:0:0:
110,82,147114,6,0,P|150:145|123:229,1,155,2|0,1:2|0:0,0:0:0:0:
59,256,147606,2,0,P|137:251|186:317,1,155,2|0,0:0|1:0,0:0:0:0:
97,334,148097,2,0,P|58:342|19:332,1,77.5,8|0,0:0|0:0,0:0:0:0:
183,305,148425,5,2,1:2:0:0:
183,305,148589,2,0,L|350:307,1,155,0|0,1:0|1:0,0:0:0:0:
378,152,149245,1,2,1:2:0:0:
378,152,149409,2,0,L|291:151,1,77.5,10|0,0:0|0:0,0:0:0:0:
251,226,149737,5,2,1:2:0:0:
251,226,149901,2,0,L|420:228,1,155,0|0,0:0|1:2,0:0:0:0:
411,57,150556,1,0,1:0:0:0:
411,57,150720,2,0,L|324:56,1,77.5,10|2,0:0|0:0,0:0:0:0:
249,61,151048,5,4,1:2:0:0:
249,61,151212,1,2,1:2:0:0:
187,194,151540,1,2,1:2:0:0:
66,105,151868,1,0,1:0:0:0:
21,181,152032,2,0,L|23:215,6,19.375,0|0|0|0|0|0|0,3:0|3:0|3:0|3:0|3:0|3:0|3:0,0:0:0:0:
40,220,152360,6,2,L|43:315,1,89.1250016999245,6|0,1:2|0:0,0:0:0:0:
125,333,152688,1,8,0:0:0:0:
125,333,152851,2,0,B|203:311|176:359|282:346,1,147.249996068001,2|0,0:0|0:0,0:0:0:0:
336,300,153343,2,0,P|346:259|337:220,1,73.6249980340005,8|0,0:0|0:0,0:0:0:0:
301,155,153671,2,2,B|275:106|275:106|277:51|277:51|318:0,2,162.749995033264,0|8|0,1:0|0:0|0:0,0:0:0:0:
340,228,154491,1,0,1:0:0:0:
419,181,154655,2,0,P|464:169|505:181,1,85.2500026016236,8|0,0:0|1:0,0:0:0:0:
502,268,154983,6,2,P|449:282|412:269,1,89.1250016999245,2|0,1:2|0:0,0:0:0:0:
340,228,155310,2,0,B|290:198|290:198|225:200|225:200|178:232,1,178.250003399849,8|0,0:0|0:0,0:0:0:0:
111,281,155802,2,0,L|25:276,1,73.6249980340005,0|8,0:0|0:0,0:0:0:0:
2,192,156130,2,0,L|88:197,1,73.6249980340005,0|2,0:0|1:2,0:0:0:0:
130,134,156458,1,0,1:0:0:0:
130,134,156622,2,0,L|135:51,1,73.6249980340005,8|0,0:0|1:0,0:0:0:0:
53,28,156950,2,0,L|24:22,4,20.343749379158,0|0|0|0|0,0:2|0:0|1:0|0:0|1:2,0:0:0:0:
134,60,157278,2,2,B|178:69|178:69|224:59,1,81.3749975166322,10|0,0:0|0:0,0:0:0:0:
286,10,157606,6,2,L|384:9,1,81.3749975166322,2|0,1:2|0:0,0:0:0:0:
414,91,157933,2,0,B|327:92,1,81.3749975166322,8|2,0:0|0:0,0:0:0:0:
266,145,158261,1,0,0:0:0:0:
266,145,158425,2,0,L|266:226,1,77.5,0|10,0:0|0:0,0:0:0:0:
196,290,158753,2,2,L|96:289,2,77.5,0|0|0,0:0|1:0|0:0,0:0:0:0:
282,330,159245,2,2,B|334:330|334:330|371:349|371:349|455:345,1,147.249996068001,8|0,0:0|0:0,0:0:0:0:
493,303,159737,2,0,B|503:263|503:263|489:221,1,81.3749975166322,0|8,1:0|0:0,0:0:0:0:
451,157,160065,1,0,1:0:0:0:
410,83,160228,6,0,L|412:29,2,40.6874987583161,2|0|0,1:2|1:2|1:2,0:0:0:0:
358,150,160556,2,0,B|302:153|302:153|266:134|266:134|181:146,1,162.749995033264,8|0,0:0|1:0,0:0:0:0:
133,88,161048,2,2,L|126:-7,1,73.6249980340005,0|8,1:0|0:0,0:0:0:0:
42,30,161376,2,0,L|48:107,1,77.5,0|0,1:0|1:2,0:0:0:0:
59,209,161704,1,0,1:2:0:0:
59,209,161786,1,0,1:2:0:0:
59,209,161868,2,0,L|61:262,3,38.75,8|8|8|8,0:0|0:0|0:0|0:0,0:0:0:0:
93,231,162196,2,0,L|97:278,3,38.75,0|0|0|0,1:2|1:2|1:2|1:2,0:0:0:0:
130,255,162524,2,0,L|135:336,1,77.5,8|0,0:0|1:0,0:0:0:0:
215,356,162851,6,0,L|290:348,1,73.6249980340005,10|8,1:2|1:2,0:0:0:0:
338,205,163343,2,0,L|254:214,1,73.6249980340005,10|8,1:2|1:2,0:0:0:0:
397,325,163835,2,0,L|480:316,1,73.6249980340005,8|8,1:2|1:2,0:0:0:0:
512,186,164327,2,0,L|429:196,1,73.6249980340005,8|8,1:2|1:2,0:0:0:0:
286,118,164819,6,0,B|273:79|273:79|281:42,1,73.6249980340005,14|8,1:2|1:2,0:0:0:0:
376,41,165147,2,0,B|388:79|388:79|380:116,1,73.6249980340005,8|8,1:2|1:2,0:0:0:0:
286,118,165474,6,0,L|207:126,1,73.6249980340005,10|8,1:2|1:2,0:0:0:0:
48,70,165966,2,0,L|127:62,1,73.6249980340005,10|8,1:2|1:2,0:0:0:0:
100,196,166458,2,0,L|21:204,1,73.6249980340005,8|8,1:2|1:2,0:0:0:0:
204,272,166950,2,0,L|283:264,1,73.6249980340005,14|8,1:2|1:2,0:0:0:0:
473,217,167442,6,0,B|479:179|479:179|461:140,1,73.6249980340005,10|8,1:2|1:2,0:0:0:0:
368,156,167769,2,0,B|361:193|361:193|379:232,1,73.6249980340005,10|8,1:2|1:2,0:0:0:0:
432,294,168097,6,0,L|437:375,1,73.6249980340005,10|8,1:2|1:2,0:0:0:0:
277,264,168589,2,0,L|271:182,1,73.6249980340005,10|8,1:2|1:2,0:0:0:0:
132,278,169081,2,0,L|137:359,1,73.6249980340005,8|8,1:2|1:2,0:0:0:0:
10,227,169573,2,0,L|4:145,1,73.6249980340005,8|8,1:2|1:2,0:0:0:0:
141,89,170065,6,0,B|130:52|130:52|139:14,1,73.6249980340005,10|8,1:2|1:2,0:0:0:0:
225,8,170392,2,0,B|235:44|235:44|227:80,1,73.6249980340005,14|8,1:2|1:2,0:0:0:0:
193,161,170720,6,0,L|196:247,1,73.6249980340005,10|8,1:2|1:2,0:0:0:0:
312,370,171212,2,0,L|308:283,1,73.6249980340005,10|8,1:2|1:2,0:0:0:0:
388,139,171704,2,0,L|391:225,1,73.6249980340005,8|8,1:2|1:2,0:0:0:0:
512,340,172196,2,0,L|508:253,1,73.6249980340005,12|8,1:2|1:2,0:0:0:0:
263,124,172688,5,10,1:2:0:0:
265,216,172851,1,8,1:2:0:0:
173,216,173015,1,10,1:2:0:0:
170,127,173179,1,8,1:2:0:0:
256,192,173343,12,0,174573,1:0:0:0:
256,192,174655,12,0,175966,0:0:0:0:
16,71,181212,6,0,P|34:109|38:151,1,85.2500026016236,6|2,1:2|0:0,0:0:0:0:
6,235,181540,1,10,0:0:0:0:
6,235,181704,2,0,P|50:240|98:221,1,85.2500026016236,2|0,0:1|1:0,0:0:0:0:
147,161,182032,2,0,P|191:155|239:175,1,85.2500026016236,2|8,0:2|0:0,0:0:0:0:
314,210,182360,2,0,P|322:161|313:122,2,85.2500026016236,2|0|0,0:0|0:0|0:0,0:0:0:0:
340,296,182851,6,0,P|382:267|397:233,1,85.2500026016236,10|2,0:0|0:1,0:0:0:0:
414,154,183179,2,0,P|392:107|396:70,1,85.2500026016236,2|0,1:2|0:0,0:0:0:0:
483,54,183507,2,0,P|504:100|500:137,1,85.2500026016236,10|0,0:0|0:0,0:0:0:0:
394,74,183835,6,0,L|281:68,1,85.2500026016236,2|0,1:2|0:0,0:0:0:0:
250,0,184163,1,10,0:0:0:0:
191,63,184327,2,0,B|158:150|236:138|196:243,1,170.500005203247,2|0,0:0|1:0,0:0:0:0:
172,313,184819,1,10,0:2:0:0:
86,274,184983,5,2,1:2:0:0:
86,274,185065,1,0,0:0:0:0:
86,274,185147,2,0,L|-9:267,2,85.2500026016236,2|6|8,0:0|0:0|0:0,0:0:0:0:
116,187,185638,1,6,1:2:0:0:
116,187,185966,2,0,L|85:184,8,20.343749379158,0|0|0|0|0|0|0|0|0,0:0|0:0|0:0|0:0|0:0|0:0|0:0|0:0|0:0,0:0:0:0:
168,109,186458,6,0,B|227:104|227:104|272:120|272:120|348:114,1,170.500005203247,6|8,1:2|0:0,0:0:0:0:
404,76,186950,1,2,0:0:0:0:
474,116,187114,2,0,P|496:151|502:193,1,85.2500026016236,0|2,0:0|1:2,0:0:0:0:
469,268,187442,2,0,P|433:290|391:296,1,85.2500026016236,10|2,0:0|0:0,0:0:0:0:
307,260,187769,5,2,1:0:0:0:
307,260,187933,2,0,L|304:165,1,85.2500026016236,2|8,0:0|0:0,0:0:0:0:
258,104,188261,2,0,P|217:93|175:103,1,85.2500026016236,2|0,0:0|0:0,0:0:0:0:
85,99,188589,2,0,P|96:58|125:27,1,85.2500026016236,2|8,1:2|0:0,0:0:0:0:
209,7,188917,1,0,1:0:0:0:
175,103,189081,6,0,B|163:162|107:185|107:185|129:210|124:240,1,170.500005203247,2|10,1:0|0:0,0:0:0:0:
160,347,189573,2,0,B|172:288|228:265|228:265|206:240|210:209,1,170.500005203247,2|0,0:1|1:0,0:0:0:0:
294,210,190065,1,8,0:0:0:0:
374,257,190228,6,0,L|464:255,1,85.2500026016236,2|2,0:0|1:0,0:0:0:0:
512,168,190556,1,2,0:0:0:0:
512,168,190720,2,0,L|422:170,1,85.2500026016236,10|0,0:0|0:0,0:0:0:0:
364,102,191048,2,0,P|350:62|357:20,1,85.2500026016236,2|0,0:0|1:2,0:0:0:0:
449,12,191376,2,0,P|462:51|455:93,1,85.2500026016236,10|0,0:0|1:0,0:0:0:0:
357,20,191704,6,0,B|252:12|296:72|185:50,1,170.500005203247,2|10,1:0|0:0,0:0:0:0:
113,27,192196,2,0,P|71:24|27:39,1,85.2500026016236,2|0,0:0|0:0,0:0:0:0:
19,123,192524,2,0,P|42:150|52:208,1,85.2500026016236,2|8,1:2|0:0,0:0:0:0:
29,284,192851,1,2,0:0:0:0:
29,284,193015,6,0,P|79:284|121:260,1,85.2500026016236,0|0,0:2|0:0,0:0:0:0:
173,207,193343,2,0,P|215:193|259:203,1,85.2500026016236,10|2,0:0|0:1,0:0:0:0:
326,253,193671,2,0,P|363:276|408:278,1,85.2500026016236,2|2,0:0|1:2,0:0:0:0:
486,250,193999,2,0,P|509:212|511:167,1,85.2500026016236,10|0,0:0|1:0,0:0:0:0:
486,82,194327,6,0,P|412:120|323:88,1,170.500005203247,2|10,1:2|0:0,0:0:0:0:
284,17,194819,2,0,L|294:187,1,170.500005203247,2|0,0:1|1:0,0:0:0:0:
234,257,195310,1,8,0:0:0:0:
166,199,195474,5,2,1:2:0:0:
166,199,195556,1,2,0:0:0:0:
166,199,195638,2,0,L|159:106,2,85.2500026016236,2|6|8,1:2|1:2|0:0,0:0:0:0:
67,232,196130,1,6,1:2:0:0:
67,232,196458,2,0,L|64:192,8,21.3125006504059,4|0|0|0|8|0|0|0|0,1:2|0:0|0:0|0:0|0:0|0:0|0:0|0:0|0:0,0:0:0:0:
100,324,196950,6,0,B|146:308|146:308|250:333,1,139.499995742798,6|2,1:2|0:0,0:0:0:0:
319,355,197442,2,0,B|364:367|364:367|410:348|410:348|464:353,1,139.499995742798,2|2,1:2|1:2,0:0:0:0:
512,291,197933,2,0,B|518:256|518:256|500:216,1,69.749997871399,8|2,0:0|0:0,0:0:0:0:
440,170,198261,1,0,1:0:0:0:
440,170,198425,1,0,1:0:0:0:
353,181,198589,2,0,B|295:175|295:175|269:192|269:192|203:192,1,139.499995742798,2|0,0:0|0:0,0:0:0:0:
159,131,199081,1,2,1:2:0:0:
94,191,199245,2,0,L|107:317,1,104.624996807098,10|0,0:0|0:0,0:0:0:0:
120,326,199573,6,0,P|175:291|246:303,1,139.499995742798,2|2,1:2|0:0,0:0:0:0:
289,374,200065,2,0,P|283:310|337:254,1,139.499995742798,2|0,1:2|1:0,0:0:0:0:
368,336,200556,1,10,0:0:0:0:
330,256,200720,2,0,B|323:202|323:202|335:166|335:166|326:108,2,139.499995742798,2|2|6,1:2|1:2|1:2,0:0:0:0:
330,256,201868,2,0,L|313:255,6,17.4374994678497,0|0|0|0|0|0|0,0:0|0:0|0:0|0:0|0:0|0:0|0:0,0:0:0:0:
240,207,202196,6,0,P|207:195|172:195,1,69.749997871399,6|2,1:2|0:0,0:0:0:0:
91,235,202524,2,0,P|38:248|16:244,1,69.749997871399,10|0,0:0|0:0,0:0:0:0:
42,167,202851,1,2,0:0:0:0:
42,167,203015,2,0,L|31:82,1,69.749997871399,2|8,1:2|0:0,0:0:0:0:
108,16,203343,1,2,0:0:0:0:
108,16,203507,6,0,L|119:101,1,69.749997871399,2|0,1:2|0:0,0:0:0:0:
185,136,203835,2,2,B|223:141|223:141|263:125,1,69.749997871399,10|0,0:0|0:0,0:0:0:0:
315,74,204163,2,0,B|365:67|365:67|410:87|410:87|468:80,1,155,10|8,0:0|0:0,0:0:0:0:
429,0,204655,1,0,0:0:0:0:
464,80,204819,6,0,P|473:114|471:152,1,69.749997871399,2|2,1:2|0:0,0:0:0:0:
397,199,205147,2,0,P|391:233|395:267,1,69.749997871399,10|0,0:0|0:0,0:0:0:0:
443,345,205474,1,2,0:0:0:0:
443,345,205638,2,0,L|526:338,1,69.749997871399,2|8,1:2|0:0,0:0:0:0:
347,338,205966,1,2,0:0:0:0:
347,338,206130,6,0,L|264:345,1,69.749997871399,2|0,0:2|1:0,0:0:0:0:
190,314,206458,2,2,B|181:278|181:278|190:237,1,69.749997871399,10|0,1:2|0:0,0:0:0:0:
231,175,206786,2,2,B|195:143|137:171|137:171|101:169|87:139,1,155,8|8,0:2|0:0,0:0:0:0:
34,89,207278,1,0,1:0:0:0:
34,89,207769,6,0,P|15:123|12:160,1,69.749997871399,14|2,0:2|0:0,0:0:0:0:
57,222,208097,2,0,P|76:256|79:293,1,69.749997871399,10|0,0:0|0:0,0:0:0:0:
56,368,208425,1,10,0:0:0:0:
143,348,208589,1,2,1:2:0:0:
143,348,208753,6,0,L|242:358,1,69.749997871399,0|2,0:0|1:2,0:0:0:0:
284,305,209081,2,0,B|294:269|294:269|286:233,1,69.749997871399,10|0,0:2|0:0,0:0:0:0:
228,175,209409,2,2,B|216:129|216:129|237:77|237:77|226:4,1,155,8|8,0:0|0:0,0:0:0:0:
147,60,209901,1,0,0:0:0:0:
229,26,210065,6,0,P|265:20|301:27,1,69.749997871399,0|0,0:0|1:2,0:0:0:0:
369,74,210392,2,0,P|405:79|441:73,1,69.749997871399,10|2,0:2|1:2,0:0:0:0:
512,134,210720,1,10,0:0:0:0:
512,134,210884,2,0,L|511:212,1,77.5,0|10,1:0|0:0,0:0:0:0:
422,284,211212,1,2,1:2:0:0:
422,284,211376,6,0,L|422:205,1,77.5,0|2,0:0|1:2,0:0:0:0:
360,154,211704,2,0,B|321:142|321:142|283:155,1,77.5,10|0,0:2|1:2,0:0:0:0:
209,196,212032,1,10,1:2:0:0:
116,190,212196,1,0,0:0:0:0:
26,187,212360,1,10,0:0:0:0:
129,192,212524,5,2,1:2:0:0:
