osu file format v14

[General]
AudioFilename: audio.mp3
AudioLeadIn: 0
PreviewTime: 175544
Countdown: 0
SampleSet: Soft
StackLeniency: 0.7
Mode: 0
LetterboxInBreaks: 0
WidescreenStoryboard: 1

[Editor]
DistanceSpacing: 1.6
BeatDivisor: 4
GridSize: 32
TimelineZoom: 2.8

[Metadata]
Title:No buts!
TitleUnicode:No buts!
Artist:Kawada Mami
ArtistUnicode:川田まみ
Creator:Akitoshi
Version:Level 5
Source:とある魔術の禁書目録Ⅱ
Tags:Corinn -Laura- To aru Majutsu no Index II 2 anime opening op 1 railgun pop jpop j-pop japanese
BeatmapID:3904762
BeatmapSetID:1885417

[Difficulty]
HPDrainRate:5.8
CircleSize:3.9
OverallDifficulty:8.5
ApproachRate:9.2
SliderMultiplier:1.7
SliderTickRate:1

[Events]
//Background and Video events
0,0,"biribiri.jpg",0,0
//Break Periods
2,176154,178007
//Storyboard Layer 0 (Background)
//Storyboard Layer 1 (Fail)
//Storyboard Layer 2 (Pass)
//Storyboard Layer 3 (Foreground)
//Storyboard Layer 4 (Overlay)
//Storyboard Sound Samples

[TimingPoints]
217,327.868852459017,4,2,2,70,1,0
217,-111.111111111111,4,2,2,70,0,0
2184,-83.3333333333333,4,2,2,70,0,0
2430,-83.3333333333333,4,2,2,5,0,0
2512,-166.666666666667,4,2,2,70,0,0
2839,-111.111111111111,4,2,2,70,0,0
4807,-83.3333333333333,4,2,2,70,0,0
5053,-83.3333333333333,4,2,2,5,0,0
5135,-166.666666666667,4,2,2,70,0,0
5462,-111.111111111111,4,2,2,70,0,0
7430,-83.3333333333333,4,2,2,70,0,0
7676,-83.3333333333333,4,2,2,5,0,0
7757,-166.666666666667,4,2,2,70,0,0
8085,-111.111111111111,4,2,2,70,0,0
9397,-111.111111111111,4,2,1,70,0,0
10217,-66.6666666666667,4,2,2,70,0,0
10708,-142.857142857143,4,2,2,50,0,0
12676,-100,4,2,2,70,0,0
12921,-100,4,2,2,5,0,0
13003,-200,4,2,2,70,0,0
13331,-125,4,2,2,70,0,0
13659,-125,4,2,1,40,0,0
14315,-125,4,2,1,50,0,0
15298,-111.111111111111,4,2,2,60,0,0
15954,-100,4,2,1,70,0,0
17921,-71.4285714285714,4,2,1,70,0,0
18167,-71.4285714285714,4,2,1,5,0,0
18249,-142.857142857143,4,2,1,70,0,0
18577,-100,4,2,1,70,0,0
20544,-71.4285714285714,4,2,1,50,0,0
20872,-71.4285714285714,4,2,1,70,0,0
21200,-125,4,2,1,50,0,0
31692,-111.111111111111,4,2,1,70,0,0
33659,-83.3333333333333,4,2,1,70,0,0
33905,-83.3333333333333,4,2,1,5,0,0
33987,-166.666666666667,4,2,1,70,0,0
34315,-111.111111111111,4,2,1,70,0,0
36282,-83.3333333333333,4,2,1,70,0,0
36938,-166.666666666667,4,2,1,70,0,0
42184,-111.111111111111,4,2,1,70,0,0
43741,-111.111111111111,4,2,1,5,0,0
43823,-111.111111111111,4,2,1,70,0,0
44807,-100,4,2,1,70,0,0
47430,-200,4,2,1,70,0,0
50053,-111.111111111111,4,2,1,70,0,0
51364,-100,4,2,1,70,0,0
52676,-83.3333333333333,4,2,2,80,0,1
55544,-83.3333333333333,4,2,2,5,0,1
55626,-83.3333333333333,4,2,2,80,0,1
59479,-83.3333333333333,4,2,2,5,0,1
59561,-83.3333333333333,4,2,2,80,0,1
62020,-58.8235294117647,4,2,1,80,0,1
62266,-58.8235294117647,4,2,1,80,0,1
62348,-58.8235294117647,4,2,1,80,0,1
62594,-58.8235294117647,4,2,1,5,0,1
62676,-58.8235294117647,4,2,1,80,0,0
63167,-83.3333333333333,4,2,1,80,0,1
66036,-83.3333333333333,4,2,1,5,0,1
66118,-83.3333333333333,4,2,1,80,0,1
69971,-83.3333333333333,4,2,1,5,0,1
70053,-83.3333333333333,4,2,1,80,0,1
72512,-58.8235294117647,4,2,1,80,0,1
72757,-58.8235294117647,4,2,1,5,0,1
72839,-58.8235294117647,4,2,1,80,0,1
73085,-58.8235294117647,4,2,1,5,0,1
73167,-58.8235294117647,4,2,1,80,0,1
73659,-142.857142857143,4,2,2,60,0,0
76200,-142.857142857143,4,2,2,5,0,0
76282,-142.857142857143,4,2,2,60,0,0
78577,-125,4,2,1,50,0,0
78905,-111.111111111111,4,2,1,70,0,0
80872,-83.3333333333333,4,2,1,70,0,0
81118,-83.3333333333333,4,2,1,5,0,0
81200,-166.666666666667,4,2,1,70,0,0
81528,-111.111111111111,4,2,1,70,0,0
83495,-83.3333333333333,4,2,1,70,0,0
83823,-166.666666666667,4,2,1,70,0,0
84151,-111.111111111111,4,2,1,70,0,0
86118,-83.3333333333333,4,2,1,70,0,0
86364,-83.3333333333333,4,2,1,5,0,0
86446,-166.666666666667,4,2,1,70,0,0
86774,-111.111111111111,4,2,1,70,0,0
89397,-142.857142857143,4,2,1,50,0,0
97266,-111.111111111111,4,2,1,70,0,0
99807,-111.111111111111,4,2,1,5,0,0
99889,-111.111111111111,4,2,1,70,0,0
101856,-83.3333333333334,4,2,1,70,0,0
102102,-83.3333333333334,4,2,1,5,0,0
102184,-166.666666666667,4,2,1,70,0,0
102512,-111.111111111111,4,2,1,70,0,0
104479,-83.3333333333333,4,2,1,70,0,0
105135,-166.666666666667,4,2,1,70,0,0
110380,-111.111111111111,4,2,1,70,0,0
111938,-111.111111111111,4,2,1,5,0,0
112020,-111.111111111111,4,2,1,70,0,0
113003,-100,4,2,1,70,0,0
115626,-200,4,2,1,70,0,0
118249,-111.111111111111,4,2,1,70,0,0
119561,-100,4,2,1,70,0,0
120872,-83.3333333333333,4,2,2,80,0,1
123741,-83.3333333333333,4,2,2,5,0,1
123823,-83.3333333333333,4,2,2,80,0,1
127676,-83.3333333333333,4,2,2,5,0,1
127757,-83.3333333333333,4,2,2,80,0,1
130217,-58.8235294117647,4,2,1,80,0,1
130462,-58.8235294117647,4,2,1,80,0,1
130544,-58.8235294117647,4,2,1,80,0,1
130790,-58.8235294117647,4,2,1,5,0,1
130872,-58.8235294117647,4,2,1,80,0,0
131364,-83.3333333333333,4,2,1,80,0,1
134233,-83.3333333333333,4,2,1,5,0,1
134315,-83.3333333333333,4,2,1,80,0,1
138167,-83.3333333333333,4,2,1,5,0,1
138249,-83.3333333333333,4,2,1,80,0,1
140708,-58.8235294117647,4,2,1,80,0,1
140954,-58.8235294117647,4,2,1,80,0,1
141036,-58.8235294117647,4,2,1,80,0,1
141856,-142.857142857143,4,2,2,60,0,0
147020,-142.857142857143,4,2,2,5,0,0
147102,-142.857142857143,4,2,2,60,0,0
152020,-125,4,2,1,60,0,0
152348,-111.111111111111,4,2,1,70,0,0
152594,-111.111111111111,4,2,1,5,0,0
152676,-111.111111111111,4,2,1,70,0,0
162839,-100,4,2,1,70,0,0
173331,-200,4,2,1,40,0,0
174643,-111.111111111111,4,2,1,70,0,0
175298,-58.8235294117647,4,2,1,70,0,0
175544,-58.8235294117647,4,2,1,5,0,0
175626,-58.8235294117647,4,2,1,40,0,0
175954,-333.333333333333,4,2,1,70,0,0
180544,-90.9090909090909,4,2,1,70,0,0
181200,-83.3333333333333,4,2,2,80,0,1
182757,-83.3333333333333,4,2,2,5,0,1
182839,-83.3333333333333,4,2,2,80,0,1
185298,-58.8235294117647,4,2,1,80,0,1
185544,-58.8235294117647,4,2,1,5,0,1
185626,-58.8235294117647,4,2,1,80,0,1
185872,-58.8235294117647,4,2,1,5,0,1
185954,-58.8235294117647,4,2,1,80,0,0
186446,-83.3333333333333,4,2,1,80,0,1
189315,-83.3333333333333,4,2,1,5,0,1
189397,-83.3333333333333,4,2,1,80,0,1
193249,-83.3333333333333,4,2,1,5,0,1
193331,-83.3333333333333,4,2,1,80,0,1
195790,-58.8235294117647,4,2,1,80,0,1
196364,-58.8235294117647,4,2,1,5,0,1
196446,-58.8235294117647,4,2,1,80,0,1
196938,-142.857142857143,4,2,2,60,0,0
199479,-142.857142857143,4,2,2,5,0,0
199561,-142.857142857143,4,2,2,60,0,0
202184,-100,4,2,1,70,0,0
204151,-76.9230769230769,4,2,1,70,0,0
204479,-142.857142857143,4,2,1,70,0,0
204807,-100,4,2,1,70,0,0
206774,-76.9230769230769,4,2,1,70,0,0
207102,-142.857142857143,4,2,1,70,0,0
207757,-100,4,2,1,70,0,0
209397,-76.9230769230769,4,2,1,70,0,0
209725,-142.857142857143,4,2,1,70,0,0
210053,-100,4,2,1,70,0,0
212020,-76.9230769230769,4,2,1,70,0,0

[Colours]
Combo1 : 0,255,255
Combo2 : 74,165,255
Combo3 : 255,128,64
Combo4 : 255,224,9

[HitObjects]
99,161,217,5,6,3:2:0:0:
147,238,380,1,2,0:0:0:0:
191,157,544,2,0,L|179:78,1,76.4999976654053,8|0,0:0|0:0,0:0:0:0:
253,242,872,5,0,3:0:0:0:
297,161,1036,2,0,L|285:82,1,76.4999976654053,2|8,0:0|0:0,0:0:0:0:
371,239,1364,5,2,0:0:0:0:
415,158,1528,2,0,L|403:79,1,76.4999976654053,0|0,3:0|0:0,0:0:0:0:
494,234,1856,2,0,B|497:265|497:265|501:271|501:271|506:313,1,76.4999976654053,10|0,0:0|0:0,0:0:0:0:
346,352,2184,6,2,B|291:326|247:343|247:343|226:362|201:364,1,152.999995330811,2|0,3:1|0:1,0:1:0:0:
142,314,2512,6,0,B|132:277|132:277|151:298,1,50.9999984436036,8|0,0:0|0:0,0:0:0:0:
221,242,2839,5,0,3:0:0:0:
157,176,3003,1,2,0:0:0:0:
246,154,3167,2,0,L|329:167,1,76.4999976654053,8|0,0:0|0:0,0:0:0:0:
157,176,3495,5,0,3:0:0:0:
223,59,3659,2,0,L|306:72,1,76.4999976654053,2|8,0:0|0:0,0:0:0:0:
157,176,3987,5,2,0:0:0:0:
112,95,4151,1,0,3:0:0:0:
31,138,4315,1,2,0:0:0:0:
76,217,4479,6,0,B|68:253|68:253|70:259|70:259|64:298,1,76.4999976654053,10|0,0:0|0:0,0:0:0:0:
228,354,4807,6,2,B|252:352|271:347|271:347|303:361|303:361|330:348|330:348|350:355|378:359,1,152.999995330811,2|0,3:1|0:1,0:1:0:0:
436,312,5135,6,0,B|442:293|450:280|450:280|421:292,1,50.9999984436036,8|0,0:0|0:0,0:0:0:0:
345,264,5462,5,6,3:2:0:0:
315,176,5626,1,2,0:0:0:0:
255,245,5790,2,0,P|210:248|165:229,1,76.4999976654053,8|0,0:0|0:0,0:0:0:0:
315,176,6118,5,0,3:0:0:0:
226,152,6282,2,0,P|200:114|194:66,1,76.4999976654053,2|8,0:0|0:0,0:0:0:0:
315,176,6610,5,2,0:0:0:0:
291,80,6774,2,0,P|310:39|349:10,1,76.4999976654053,0|2,3:0|0:0,0:0:0:0:
462,116,7102,6,0,B|428:108|428:108|424:109|424:109|388:101,1,76.4999976654053,10|0,0:0|0:0,0:0:0:0:
255,245,7430,6,2,B|305:233|305:233|341:282|412:273,1,152.999995330811,2|0,3:1|0:1,0:1:0:0:
470,268,7757,6,0,B|474:279|485:291|485:291|489:273|483:256,1,50.9999984436036,8|0,0:0|0:0,0:0:0:0:
432,192,8085,5,0,3:0:0:0:
393,274,8249,1,2,0:0:0:0:
432,192,8413,2,0,L|414:106,1,76.4999976654053,8|0,0:0|0:0,0:0:0:0:
300,261,8741,5,0,3:0:0:0:
339,179,8905,2,0,L|321:93,1,76.4999976654053,2|0,0:0|3:0,0:0:0:0:
249,48,9233,1,2,0:0:0:0:
194,212,9397,5,8,0:0:0:0:
194,212,9479,1,8,0:0:0:0:
194,212,9561,1,0,3:0:0:0:
323,104,9725,1,0,3:0:0:0:
304,289,9889,1,8,0:0:0:0:
304,289,9971,1,8,0:0:0:0:
304,289,10053,5,2,3:1:0:0:
101,209,10217,6,0,L|49:220,1,31.8750012159348,8|0,0:0|0:0,0:0:0:0:
149,132,10380,6,0,L|165:81,1,31.8750012159348,8|0,0:0|0:0,0:0:0:0:
194,212,10544,6,0,L|229:251,1,31.8750012159348,8|0,0:0|0:0,0:0:0:0:
261,146,10708,5,6,3:2:0:0:
261,146,10872,2,0,B|333:131|314:182|384:164,1,118.999996368408,2|0,0:0|0:0,0:0:0:0:
462,148,11364,6,0,P|491:199|478:268,1,118.999996368408,2|0,0:0|0:0,0:0:0:0:
396,275,11856,2,0,P|367:224|380:155,1,118.999996368408,2|0,0:0|0:0,0:0:0:0:
397,79,12348,6,0,B|400:61|409:43|409:43|398:51|388:60,1,59.4999981842042,2|0,0:0|0:0,0:0:0:0:
233,91,12676,6,2,B|198:44|133:61|133:61|147:93,1,127.5,2|0,0:1|0:1,0:1:0:0:
157,151,13003,6,0,B|151:160|154:173|154:173|161:163|175:149,1,42.5,2|0,0:0|0:0,0:0:0:0:
309,130,13331,5,6,3:2:0:0:
236,228,13495,1,0,3:0:0:0:
357,214,13659,6,0,P|375:215|401:222,3,34,0|0|0|0,3:0|3:0|3:0|3:0,0:0:0:0:
441,275,13987,6,0,P|459:275|485:267,3,34,0|0|0|0,3:0|3:0|3:0|3:0,0:0:0:0:
501,199,14315,6,0,P|501:167|495:150,3,34,0|0|0|0,3:0|3:0|3:0|3:0,0:0:0:0:
467,96,14643,5,0,3:0:0:0:
448,75,14725,1,0,3:0:0:0:
425,61,14807,1,0,3:0:0:0:
400,53,14889,1,0,3:0:0:0:
373,52,14971,5,0,3:0:0:0:
346,58,15053,1,0,3:0:0:0:
322,71,15135,1,0,3:0:0:0:
302,90,15217,1,0,3:0:0:0:
287,112,15298,6,0,L|220:98,1,38.2499988327027,2|0,3:2|3:0,0:0:0:0:
195,201,15462,2,0,L|262:187,1,38.2499988327027,0|0,3:2|3:0,0:0:0:0:
294,268,15626,6,2,L|284:299,6,19.1249994163513,8|2|2|2|2|2|2,0:0|0:0|0:0|0:0|0:0|0:0|0:0,0:0:0:0:
282,306,15954,6,0,B|249:318|249:318|190:302,1,85,6|2,3:2|0:0,0:0:0:0:
29,237,16282,2,0,L|214:197,1,170,8|2,0:0|0:0,0:0:0:0:
40,151,16774,1,0,3:0:0:0:
32,329,16938,2,0,L|124:309,1,85,8|2,0:0|0:0,0:0:0:0:
216,196,17266,6,0,P|201:152|217:104,1,85,0|2,3:0|0:0,0:0:0:0:
359,16,17594,2,0,B|350:55|350:55|354:58|354:58|347:101,1,85,8|0,0:0|0:0,0:0:0:0:
391,282,17921,6,2,B|436:236|500:250|539:293|506:330|479:299,1,178.499994552612,2|0,0:1|0:1,0:1:0:0:
426,358,18249,6,0,B|409:359|395:368|395:368|380:359|351:355,1,59.4999981842042,8|0,0:0|0:0,0:0:0:0:
291,246,18577,6,0,L|299:161,1,85,2|2,3:2|0:0,0:0:0:0:
152,73,18905,2,0,L|168:242,1,170,8|2,0:0|0:0,0:0:0:0:
183,378,19397,1,0,3:0:0:0:
62,258,19561,2,0,P|50:218|69:160,1,85,8|0,0:0|0:0,0:0:0:0:
152,73,19889,5,2,3:2:0:0:
168,242,20053,1,2,0:0:0:0:
264,81,20217,1,8,0:0:0:0:
292,273,20380,1,0,3:0:0:0:
292,273,20462,1,0,3:0:0:0:
292,273,20544,6,0,L|281:323,6,29.7499990921021,2|0|0|0|0|0|0,3:1|3:0|3:0|3:0|3:0|3:0|3:0,3:0:0:0:
268,314,20872,6,0,L|280:375,1,59.4999981842042,8|8,0:0|0:0,0:0:0:0:
390,383,21036,2,0,L|402:322,1,59.4999981842042,8|8,0:0|0:0,0:0:0:0:
428,208,21200,5,6,3:2:0:0:
428,208,21528,2,0,P|470:213|500:202,1,68,8|0,0:0|0:0,0:0:0:0:
396,99,21856,1,2,0:0:0:0:
341,186,22020,1,0,3:0:0:0:
296,64,22184,1,8,0:0:0:0:
241,151,22348,6,0,L|163:135,1,68,2|0,0:0|3:0,0:0:0:0:
77,170,22676,1,2,0:0:0:0:
159,259,22839,2,0,L|237:243,1,68,8|0,0:0|0:0,0:0:0:0:
314,330,23167,6,2,L|308:357,6,17,10|2|2|2|2|2|2,0:0|0:0|0:0|0:0|3:2|0:0|0:0,0:0:0:0:
235,373,23495,2,2,L|231:356,6,17,10|2|2|2|2|2|2,0:0|0:0|0:0|0:0|0:0|0:0|0:0,0:0:0:0:
153,335,23823,5,0,3:0:0:0:
153,335,24151,2,0,P|126:346|81:343,1,68,8|0,0:0|0:0,0:0:0:0:
5,309,24479,1,2,0:0:0:0:
5,309,24561,1,2,0:0:0:0:
5,309,24643,1,0,3:0:0:0:
89,220,24807,2,0,L|78:152,1,68,8|2,0:0|0:0,0:0:0:0:
76,132,25053,1,2,0:0:0:0:
76,132,25135,6,0,P|39:142|4:135,1,68,0|0,3:0|0:0,0:0:0:0:
116,41,25462,2,0,P|149:36|181:46,1,68,8|0,0:0|0:0,0:0:0:0:
269,132,25790,6,2,L|264:162,6,17,2|2|2|2|2|2|2,0:0|0:0|0:0|0:0|3:2|0:0|0:0,0:0:0:0:
217,205,26118,2,0,L|226:250,1,34,8|0,0:0|0:0,0:0:0:0:
313,237,26282,2,0,L|319:203,1,34,8|0,3:2|0:0,0:0:0:0:
378,137,26446,5,0,3:0:0:0:
378,137,26774,2,0,P|409:133|455:149,1,68,8|0,0:0|0:0,0:0:0:0:
507,223,27102,1,2,0:0:0:0:
404,225,27266,1,0,3:0:0:0:
466,305,27430,1,8,0:0:0:0:
380,359,27594,6,0,P|345:362|298:343,1,68,2|0,0:0|3:0,0:0:0:0:
237,284,27921,1,2,0:0:0:0:
140,316,28085,2,0,L|154:389,1,68,8|0,0:0|0:0,0:0:0:0:
44,278,28413,6,2,L|17:271,6,17,2|2|2|2|2|2|2,0:0|0:0|0:0|0:0|3:2|0:0|0:0,0:0:0:0:
4,198,28741,2,2,L|31:191,6,17,10|2|2|2|2|2|2,0:0|0:0|0:0|0:0|0:2|0:0|0:0,0:0:0:0:
60,129,29069,6,0,B|20:90|34:38|34:38|72:28,1,136,0|8,3:0|0:0,0:0:0:0:
192,10,29561,1,2,0:0:0:0:
192,10,29643,1,2,0:0:0:0:
192,10,29725,1,2,0:0:0:0:
204,118,29889,1,0,3:0:0:0:
298,40,30053,2,0,L|379:55,1,68,8|0,0:0|0:0,0:0:0:0:
455,134,30380,6,0,L|374:149,1,68,0|2,3:0|0:0,0:0:0:0:
274,223,30708,1,8,0:0:0:0:
376,258,30872,1,0,3:0:0:0:
294,132,31036,5,8,0:0:0:0:
201,274,31200,1,0,3:0:0:0:
113,120,31364,2,0,B|119:89|119:89|116:82|116:82|124:47,1,68,12|0,0:0|0:0,0:0:0:0:
294,132,31692,6,0,B|241:134|191:160|191:160|204:142|212:118,1,152.999995330811,6|8,3:2|0:0,0:0:0:0:
368,82,32184,2,0,P|383:120|376:166,1,76.4999976654053,2|0,0:0|0:0,0:0:0:0:
310,227,32512,1,0,3:0:0:0:
436,281,32676,2,0,L|520:265,1,76.4999976654053,8|0,0:0|0:0,0:0:0:0:
359,357,33003,5,0,3:0:0:0:
321,240,33167,1,2,0:0:0:0:
241,352,33331,2,0,B|219:365|219:365|193:364|161:351,1,76.4999976654053,8|0,0:0|0:0,0:0:0:0:
30,232,33659,6,2,B|59:220|91:223|91:223|110:245|110:245|135:255|181:236,1,152.999995330811,2|2,0:1|0:1,0:1:0:0:
211,173,33987,6,0,B|194:164|176:162|176:162|185:154|203:153,1,50.9999984436036,8|0,0:0|0:0,0:0:0:0:
296,113,34315,5,0,3:0:0:0:
344,217,34479,2,0,L|323:310,2,76.4999976654053,2|8|0,0:0|0:0|0:0,0:0:0:0:
386,352,34971,1,2,0:0:0:0:
247,275,35135,1,0,3:0:0:0:
427,249,35298,2,0,P|472:257|513:246,1,76.4999976654053,8|0,0:0|0:0,0:0:0:0:
509,97,35626,5,0,3:0:0:0:
478,74,35708,1,0,3:0:0:0:
441,65,35789,1,0,3:0:0:0:
403,69,35871,1,0,3:0:0:0:
368,87,35954,2,8,L|382:138,1,38.2499988327027
272,75,36118,2,8,L|282:38,1,38.2499988327027
166,10,36282,6,2,B|136:23|94:2|94:2|107:16|119:38,1,101.999996887207,2|0,3:1|0:1,0:1:0:0:
142,184,36610,1,8,0:0:0:0:
20,75,36774,1,0,3:0:0:0:
217,107,36938,5,6,3:2:0:0:
217,107,37102,2,0,L|287:93,1,50.9999984436036,8|0,0:0|0:0,0:0:0:0:
235,207,37430,1,8,0:2:0:0:
235,207,37594,2,0,L|305:193,1,50.9999984436036,8|0,0:0|0:0,0:0:0:0:
426,177,37921,5,8,0:0:0:0:
488,237,38085,2,0,P|495:268|492:302,1,50.9999984436036,8|0,0:0|0:0,0:0:0:0:
386,381,38413,1,8,0:0:0:0:
326,318,38577,2,0,P|295:325|261:322,1,50.9999984436036,8|0,0:0|0:0,0:0:0:0:
145,297,38905,5,8,0:0:0:0:
235,207,39069,1,8,0:0:0:0:
145,297,39233,1,8,0:0:0:0:
235,207,39397,1,8,0:0:0:0:
76,200,39561,5,8,0:0:0:0:
157,122,39725,2,0,L|142:59,1,50.9999984436036,8|0,0:0|0:0,0:0:0:0:
235,207,40053,1,8,0:0:0:0:
315,129,40217,2,0,L|300:66,1,50.9999984436036,8|0,0:0|0:0,0:0:0:0:
416,9,40544,5,8,0:0:0:0:
502,53,40708,2,0,P|510:85|508:117,1,50.9999984436036,8|0,0:0|0:0,0:0:0:0:
493,235,41036,1,8,0:0:0:0:
400,206,41200,2,0,P|368:214|336:212,1,50.9999984436036,8|0,0:0|0:0,0:0:0:0:
217,193,41528,5,8,0:0:0:0:
256,286,41692,1,8,0:0:0:0:
217,193,41856,1,8,0:0:0:0:
256,286,42020,1,8,0:2:0:0:
379,205,42184,6,0,L|350:53,1,152.999995330811,6|8,3:2|0:0,0:0:0:0:
479,191,42676,2,0,L|464:267,1,76.4999976654053,2|0,0:0|0:0,0:0:0:0:
437,377,43003,1,0,3:0:0:0:
303,302,43167,2,0,P|264:313|217:305,1,76.4999976654053,8|0,0:0|0:0,0:0:0:0:
115,204,43495,6,0,L|237:180,1,114.749996498108,0|0,3:0|0:0,0:0:0:0:
273,119,43823,2,0,P|276:81|265:44,1,76.4999976654053,8|0,0:0|0:0,0:0:0:0:
132,114,44151,1,2,0:0:0:0:
132,114,44233,1,2,0:0:0:0:
132,114,44315,1,0,3:0:0:0:
310,189,44479,2,0,L|405:170,1,76.4999976654053,8|0,0:0|0:0,0:0:0:0:
255,26,44807,5,8,0:0:0:0:
184,208,44971,1,0,3:0:0:0:
93,34,45135,1,0,3:0:0:0:
308,95,45298,5,8,0:0:0:0:
106,186,45462,1,0,3:0:0:0:
309,272,45626,1,0,3:0:0:0:
177,73,45790,5,8,0:0:0:0:
111,301,45954,1,0,3:0:0:0:
9,77,46118,5,8,0:0:0:0:
9,77,46200,1,8,0:0:0:0:
9,77,46282,1,8,0:0:0:0:
243,152,46446,1,0,3:0:0:0:
11,247,46610,5,8,0:0:0:0:
11,247,46692,1,8,0:0:0:0:
11,247,46774,1,8,0:0:0:0:
111,21,46938,1,0,3:0:0:0:
232,264,47102,5,12,0:0:0:0:
332,38,47266,1,0,3:0:0:0:
415,226,47430,5,6,3:2:0:0:
256,192,47512,12,0,49889,0:0:0:0:
222,143,50053,5,6,3:2:0:0:
271,287,50217,1,0,3:0:0:0:
387,189,50380,2,0,L|377:103,1,76.4999976654053,0|0,3:0|0:0,0:0:0:0:
231,67,50708,2,0,L|221:153,1,76.4999976654053,0|0,3:0|0:0,0:0:0:0:
163,0,51036,1,0,3:0:0:0:
318,41,51200,1,0,3:0:0:0:
125,109,51364,6,0,P|83:97|39:106,1,85,2|2,0:0|0:0,0:0:0:0:
8,175,51610,1,2,0:0:0:0:
8,175,51692,2,0,L|18:222,1,42.5,2|0,0:0|0:0,0:0:0:0:
86,249,51856,2,0,L|96:202,1,42.5,2|0,0:0|0:0,0:0:0:0:
172,202,52020,6,2,L|179:238,6,21.25
248,249,52348,2,0,P|284:234|333:244,1,85,2|2,0:0|0:0,0:0:0:0:
402,286,52594,1,2,0:0:0:0:
402,286,52676,6,0,B|423:245|423:245|401:171,1,101.999996887207,6|0,3:2|0:0,0:0:0:0:
356,2,53003,1,8,0:0:0:0:
223,97,53167,2,0,L|112:77,1,101.999996887207,2|0,0:0|3:0,0:0:0:0:
307,210,53495,1,2,0:0:0:0:
307,210,53577,1,2,0:0:0:0:
307,210,53659,2,0,L|418:190,1,101.999996887207,8|2,0:0|0:0,0:0:0:0:
268,16,53987,5,0,3:0:0:0:
206,195,54151,2,0,P|155:199|100:173,1,101.999996887207,2|8,0:0|0:0,0:0:0:0:
316,97,54479,2,0,P|362:77|413:82,1,101.999996887207,2|0,0:0|3:0,0:0:0:0:
512,183,54807,1,2,0:0:0:0:
307,210,54971,2,0,L|201:194,1,101.999996887207,8|2,0:0|0:0,0:0:0:0:
61,309,55298,6,0,B|142:294|121:365|206:348,1,152.999995330811,0|0,3:0|0:0,0:0:0:0:
222,344,55626,1,8,0:0:0:0:
206,194,55790,2,0,B|171:223|190:266|190:266|196:258|206:252,1,101.999996887207,2|0,0:0|3:0,0:0:0:0:
335,72,56118,2,0,B|345:77|351:85|351:85|370:42|335:13,1,101.999996887207,2|8,0:0|0:0,0:0:0:0:
165,94,56446,6,0,B|195:108|237:86|237:86|222:99|215:120,1,101.999996887207,2|0,0:0|3:0,0:0:0:0:
292,288,56774,1,2,0:0:0:0:
102,213,56938,2,0,P|49:208|1:242,1,101.999996887207,8|2,0:0|0:0,0:0:0:0:
180,361,57266,6,0,L|238:354,1,50.9999984436036,2|0,3:2|0:0,0:0:0:0:
292,278,57430,2,0,L|241:271,1,50.9999984436036,0|0,3:2|0:0,0:0:0:0:
180,371,57594,6,0,L|238:364,1,50.9999984436036,8|0,0:0|0:0,0:0:0:0:
292,268,57757,2,0,L|241:261,1,50.9999984436036,0|0,3:2|0:0,0:0:0:0:
163,154,57921,6,0,P|201:132|270:136,1,101.999996887207,4|0,3:2|0:0,0:0:0:0:
449,199,58249,1,8,0:0:0:0:
292,268,58413,2,0,L|311:369,1,101.999996887207,2|0,0:0|3:0,0:0:0:0:
144,254,58741,2,0,L|163:153,1,101.999996887207,2|8,0:0|0:0,0:0:0:0:
270,15,59069,1,2,0:0:0:0:
368,158,59233,6,0,P|428:177|507:126,1,152.999995330811,0|0,3:0|0:0,0:0:0:0:
475,50,59561,2,0,L|372:71,1,101.999996887207,8|2,0:0|0:0,0:0:0:0:
278,251,59889,1,0,3:0:0:0:
448,203,60053,1,2,0:0:0:0:
266,118,60217,2,0,L|288:4,1,101.999996887207,8|2,0:0|0:0,0:0:0:0:
89,93,60544,6,0,B|126:144|98:209|98:209|83:221|83:221|80:252|101:290,1,203.999993774414,0|8,3:0|0:0,0:0:0:0:
278,234,61036,2,0,P|215:235|174:266,1,101.999996887207,2|0,0:0|3:0,0:0:0:0:
381,310,61364,1,0,3:0:0:0:
266,118,61528,1,8,0:0:0:0:
195,357,61692,1,0,3:0:0:0:
195,357,61774,1,2,0:0:0:0:
195,357,61856,1,2,0:0:0:0:
359,193,62020,6,0,B|397:149|465:146|515:173|515:173|497:218,1,216.750004134178,6|0,3:2|0:0,0:0:0:0:
461,312,62348,6,0,B|407:263|335:280|335:280|308:317|262:318,1,216.750004134178,6|0,3:2|0:0,0:0:0:0:
255,216,62676,6,2,L|262:174,10,36.1250006890297,6|2|2|2|2|2|2|2|2|2|2,3:2|0:0|0:0|0:0|0:0|0:0|0:0|0:0|0:0|0:0|0:0,0:0:0:0:
320,112,63167,6,0,B|436:146|436:146|484:127|469:51,1,203.999993774414,6|8,3:2|0:0,0:0:0:0:
292,3,63659,2,0,L|176:20,1,101.999996887207,2|0,0:0|0:0,0:0:0:0:
38,42,63987,1,2,3:2:0:0:
178,176,64151,2,0,P|194:228|177:286,1,101.999996887207,8|2,0:0|0:0,0:0:0:0:
32,134,64479,5,0,3:0:0:0:
218,100,64643,2,0,L|320:117,1,101.999996887207,2|8,0:0|0:0,0:0:0:0:
184,273,64971,2,0,L|82:289,1,101.999996887207,2|0,0:0|0:0,0:0:0:0:
270,371,65298,1,2,3:2:0:0:
159,177,65462,1,8,0:0:0:0:
98,374,65626,1,2,3:2:0:0:
296,267,65790,6,0,B|372:260|364:326|444:314,1,152.999995330811,0|0,3:0|0:0,0:0:0:0:
455,307,66118,1,8,0:0:0:0:
475,134,66282,2,0,B|444:110|396:116|396:116|413:141,1,101.999996887207,2|0,0:0|0:0,0:0:0:0:
512,225,66610,1,2,3:2:0:0:
486,32,66774,1,8,0:0:0:0:
318,165,66938,6,0,B|287:189|239:183|239:183|206:156,1,101.999996887207,2|0,0:0|3:0,0:0:0:0:
105,57,67266,1,2,0:0:0:0:
123,270,67430,2,0,P|168:289|225:275,1,101.999996887207,8|2,0:0|0:0,0:0:0:0:
320,78,67757,6,0,L|308:19,1,50.9999984436036,2|0,0:0|0:0,0:0:0:0:
406,131,67921,2,0,L|394:190,1,50.9999984436036,0|0,3:0|0:0,0:0:0:0:
310,78,68085,6,0,L|298:19,1,50.9999984436036,10|0,0:0|0:0,0:0:0:0:
416,131,68249,2,0,L|404:190,1,50.9999984436036,0|0,3:0|0:0,0:0:0:0:
378,313,68413,6,0,P|429:334|488:318,1,101.999996887207,6|2,3:2|0:0,0:0:0:0:
318,165,68741,1,8,0:0:0:0:
218,278,68905,2,0,L|236:390,1,101.999996887207,2|0,0:0|0:0,0:0:0:0:
344,240,69233,1,0,3:0:0:0:
135,192,69397,1,8,0:0:0:0:
310,78,69561,1,2,0:0:0:0:
310,78,69643,1,2,0:0:0:0:
310,78,69725,6,0,B|395:69|376:140|466:122,1,152.999995330811,0|0,3:0|0:0,0:0:0:0:
506,191,70053,2,0,L|482:303,1,101.999996887207,8|0,0:0|0:0,0:0:0:0:
321,378,70380,1,2,0:0:0:0:
323,163,70544,1,0,3:0:0:0:
200,363,70708,1,8,0:0:0:0:
398,316,70872,1,0,3:0:0:0:
183,237,71036,6,0,P|134:251|84:240,1,101.999996887207,0|0,3:0|0:0,0:0:0:0:
287,87,71364,1,8,0:0:0:0:
323,276,71528,2,0,L|303:375,1,101.999996887207,2|0,0:0|0:0,0:0:0:0:
228,164,71856,1,0,3:0:0:0:
425,236,72020,1,8,0:0:0:0:
346,32,72184,1,0,3:0:0:0:
346,32,72266,1,2,0:0:0:0:
346,32,72348,1,0,3:0:0:0:
183,237,72512,6,0,B|150:259|120:260|120:260|91:236|35:230|35:230|58:220|86:195,1,216.750004134178,6|0,3:2|0:0,0:0:0:0:
152,126,72839,6,0,B|164:61|113:2|113:2|147:40|203:34,1,216.750004134178,6|0,3:2|0:0,0:0:0:0:
259,108,73167,6,2,P|251:130|248:160,10,36.1250006890297,2|2|2|2|10|2|2|2|2|2|2,3:2|0:0|0:0|0:0|0:2|0:0|0:0|0:0|3:2|0:0|0:0,0:0:0:0:
249,161,73659,6,0,B|321:150|321:150|335:171|370:190,1,118.999996368408,6|2,3:2|0:0,0:0:0:0:
397,95,74151,2,0,P|427:87|461:93,1,59.4999981842042,0|0,3:0|0:0,0:0:0:0:
506,172,74479,1,0,3:0:0:0:
441,241,74643,2,0,L|451:312,1,59.4999981842042,8|0,0:0|0:0,0:0:0:0:
372,357,74971,5,0,3:0:0:0:
372,357,75135,2,0,P|334:341|305:339,1,59.4999981842042,0|0,3:0|0:0,0:0:0:0:
250,269,75462,2,0,P|279:263|305:250,1,59.4999981842042,0|0,3:0|0:0,0:0:0:0:
250,172,75790,1,0,3:0:0:0:
152,229,75954,2,0,P|143:272|155:320,1,89.2499972763062,8|0,0:0|0:0,0:0:0:0:
161,338,76282,6,0,B|107:328|107:328|100:317|100:317|39:306,1,118.999996368408,4|0,3:2|0:0,0:0:0:0:
0,180,76774,2,0,B|54:170|54:170|61:159|61:159|122:148,1,118.999996368408,4|0,3:2|3:0,0:0:0:0:
229,130,77266,1,8,0:0:0:0:
150,65,77430,6,0,L|161:6,1,59.4999981842042,4|0,3:2|0:0,0:0:0:0:
292,6,77757,2,0,L|303:64,1,59.4999981842042,0|0,3:2|0:0,0:0:0:0:
334,198,78085,1,8,0:0:0:0:
334,198,78577,6,2,L|330:228,6,17
316,289,78905,6,0,B|277:297|277:297|234:283,1,76.4999976654053,6|2,3:2|0:0,0:0:0:0:
130,203,79233,2,0,L|212:188,1,76.4999976654053,8|0,0:0|0:0,0:0:0:0:
291,124,79561,5,2,0:0:0:0:
179,86,79725,1,0,3:0:0:0:
291,124,79889,1,8,0:0:0:0:
179,86,80053,1,2,0:0:0:0:
279,23,80217,6,0,P|335:20|362:34,1,76.4999976654053,0|2,3:0|0:0,0:0:0:0:
486,83,80544,2,0,B|450:92|450:92|446:91|446:91|408:100,1,76.4999976654053,10|0,0:0|0:0,0:0:0:0:
278,241,80872,6,0,B|311:276|312:326|279:355|279:355|249:336,1,152.999995330811,2|0,0:1|0:1,0:1:0:0:
183,317,81200,6,0,P|159:325|122:322,1,50.9999984436036,8|0,0:0|0:0,0:0:0:0:
30,293,81528,5,0,3:0:0:0:
121,236,81692,1,2,0:0:0:0:
28,181,81856,2,0,L|40:96,1,76.4999976654053,8|0,0:0|0:0,0:0:0:0:
121,14,82184,5,2,0:0:0:0:
152,136,82348,1,0,3:0:0:0:
121,14,82512,1,8,0:0:0:0:
152,136,82676,1,2,0:0:0:0:
239,50,82839,5,0,3:0:0:0:
261,52,82920,1,0,3:0:0:0:
284,54,83002,1,0,3:0:0:0:
307,56,83084,1,0,3:0:0:0:
336,81,83167,5,8,0:0:0:0:
370,75,83248,1,8,0:0:0:0:
403,68,83330,1,8,0:0:0:0:
437,62,83412,1,8,0:0:0:0:
471,56,83495,6,2,B|502:96|490:137|490:137|471:163|471:163|488:211,1,152.999995330811,2|0,3:1|0:0,0:1:0:0:
424,246,83823,6,0,B|409:232|386:230|386:230|399:243,1,50.9999984436036,8|0,0:0|3:0,0:0:0:0:
311,336,84151,6,0,B|285:340|274:350|274:350|259:339|229:337,1,76.4999976654053,6|2,3:2|0:0,0:0:0:0:
152,220,84479,2,0,B|189:225|189:225|194:230|194:230|231:236,1,76.4999976654053,8|0,0:2|0:0,0:0:0:0:
311,169,84807,5,2,0:0:0:0:
206,114,84971,1,0,3:0:0:0:
311,169,85135,1,8,0:0:0:0:
206,114,85299,1,2,0:0:0:0:
315,60,85462,6,0,P|356:69|398:56,1,76.4999976654053,0|2,3:0|0:0,0:0:0:0:
185,11,85790,2,0,B|149:16|149:16|142:23|142:23|98:30,1,76.4999976654053,10|0,0:0|0:0,0:0:0:0:
9,193,86118,6,2,B|43:177|77:177|77:177|104:194|104:194|127:182|171:187,1,152.999995330811,2|0,0:1|0:1,0:1:0:0:
206,242,86446,6,0,B|201:258|194:268|194:268|203:261|225:257,1,50.9999984436036,8|0,0:0|0:0,0:0:0:0:
320,241,86774,5,0,3:0:0:0:
280,340,86938,1,2,0:0:0:0:
406,309,87102,2,0,P|454:320|492:311,1,76.4999976654053,8|0,0:0|0:0,0:0:0:0:
506,210,87430,5,2,0:0:0:0:
388,197,87594,1,0,3:0:0:0:
506,210,87757,1,8,0:0:0:0:
388,197,87921,1,2,0:0:0:0:
470,108,88085,5,0,3:0:0:0:
479,87,88166,1,0,3:0:0:0:
482,64,88248,1,0,3:0:0:0:
479,42,88330,1,0,3:0:0:0:
467,21,88413,5,8,0:0:0:0:
443,46,88494,1,8,0:0:0:0:
413,61,88576,1,8,0:0:0:0:
378,64,88658,1,8,0:0:0:0:
345,54,88741,6,2,B|311:49|311:49|303:43|303:43|250:35,1,76.4999976654053,0|0,3:1|3:1,0:1:0:0:
144,126,89069,1,8,0:0:0:0:
295,150,89233,1,0,3:0:0:0:
175,24,89397,5,6,3:2:0:0:
175,24,89725,2,0,P|138:22|105:35,1,59.4999981842042,0|0,3:0|0:0,0:0:0:0:
35,116,90053,2,0,L|56:244,1,118.999996368408,8|0,0:0|0:0,0:0:0:0:
140,256,90544,6,0,L|159:138,1,118.999996368408,0|0,3:0|0:0,0:0:0:0:
229,83,91036,1,2,0:0:0:0:
246,170,91200,1,0,3:0:0:0:
341,80,91364,6,2,L|337:55,6,14.874999546051,10|2|2|2|2|2|2,0:0|0:0|0:0|0:0|0:0|0:0|0:0,0:0:0:0:
410,122,91692,2,2,L|406:147,6,14.874999546051,2|2|2|2|2|2|2,3:2|0:0|0:0|0:0|0:0|0:0|0:0,0:0:0:0:
489,96,92020,5,0,3:0:0:0:
489,96,92348,2,0,P|503:129|498:166,1,59.4999981842042,0|2,3:0|0:0,0:0:0:0:
494,177,92594,1,2,0:0:0:0:
494,177,92676,2,0,B|483:217|483:217|496:241|496:241|483:295,1,118.999996368408,8|0,0:0|0:0,0:0:0:0:
409,338,93167,6,0,P|367:340|337:328,1,59.4999981842042,0|0,3:0|0:0,0:0:0:0:
269,297,93495,1,0,3:0:0:0:
328,231,93659,1,2,0:0:0:0:
328,231,93741,2,0,L|313:154,1,59.4999981842042,0|0,3:0|0:0,0:0:0:0:
255,119,93987,6,2,L|259:93,6,14.874999546051,10|2|2|2|2|2|2,0:0|0:0|0:0|0:0|0:0|0:0|0:0,0:0:0:0:
193,172,94315,2,0,L|198:201,1,29.7499990921021,10|0,0:0|0:0,0:0:0:0:
112,184,94479,2,0,L|117:213,1,29.7499990921021,10|0,0:0|0:0,0:0:0:0:
133,303,94643,5,6,3:2:0:0:
133,303,94971,2,0,P|92:302|67:315,1,59.4999981842042,0|0,3:0|0:0,0:0:0:0:
219,380,95298,2,0,L|351:354,1,118.999996368408,8|0,0:0|0:0,0:0:0:0:
368,273,95790,6,0,P|330:266|302:273,1,59.4999981842042,0|0,3:0|0:0,0:0:0:0:
435,213,96118,2,0,P|422:176|402:155,1,59.4999981842042,0|2,3:0|0:0,0:0:0:0:
332,113,96446,1,0,3:0:0:0:
260,166,96610,6,2,L|264:191,6,14.874999546051,10|2|2|2|2|2|2,0:0|0:0|0:0|0:0|0:0|0:0|0:0,0:0:0:0:
191,122,96938,2,2,L|195:97,6,14.874999546051,10|2|2|2|2|2|2,0:0|0:0|0:0|0:0|3:2|0:0|0:0,0:0:0:0:
122,165,97266,6,0,B|79:116|12:142|12:142|42:177,1,152.999995330811,0|8,3:0|0:0,0:0:0:0:
120,262,97757,2,0,L|207:241,1,76.4999976654053,2|0,0:0|3:0,0:0:0:0:
319,302,98085,1,0,3:0:0:0:
199,335,98249,1,8,0:0:0:0:
280,219,98413,1,0,3:0:0:0:
408,302,98577,6,0,P|445:306|488:290,1,76.4999976654053,0|2,3:0|0:0,0:0:0:0:
413,114,98905,1,8,0:0:0:0:
303,221,99069,1,0,3:0:0:0:
328,31,99233,5,8,0:0:0:0:
394,210,99397,1,0,3:0:0:0:
205,125,99561,2,0,B|137:145|137:145|115:138|93:114,1,114.749996498108,12|0,0:0|0:0,0:0:0:0:
103,40,99889,6,0,B|156:51|156:51|194:33|194:33|254:45,1,152.999995330811,6|8,3:2|0:0,0:0:0:0:
354,120,100380,2,0,L|436:102,1,76.4999976654053,2|0,0:0|0:0,0:0:0:0:
338,32,100708,1,0,3:0:0:0:
355,207,100872,2,0,L|437:189,1,76.4999976654053,8|0,0:0|0:0,0:0:0:0:
276,170,101200,6,0,P|268:211|282:255,1,76.4999976654053,0|0,3:0|0:0,0:0:0:0:
374,372,101528,2,0,B|380:337|380:337|377:329|377:329|385:282,1,76.4999976654053,10|0,0:0|0:0,0:0:0:0:
335,107,101856,6,2,B|302:117|283:134|283:134|243:100|190:112,1,152.999995330811,2|0,0:1|0:1,0:1:0:0:
124,142,102184,6,0,B|126:162|135:179|135:179|128:175|120:172,1,50.9999984436036,8|0,0:0|0:0,0:0:0:0:
16,132,102512,5,0,3:0:0:0:
60,238,102676,2,0,L|41:323,2,76.4999976654053,2|8|0,0:0|0:0|0:0,0:0:0:0:
124,142,103167,1,2,0:0:0:0:
159,267,103331,1,0,3:0:0:0:
250,175,103495,2,0,L|233:100,1,76.4999976654053,8|0,0:0|0:0,0:0:0:0:
341,26,103823,5,0,3:0:0:0:
364,31,103904,1,0,3:0:0:0:
386,35,103986,1,0,3:0:0:0:
409,40,104068,1,0,3:0:0:0:
431,45,104152,5,8,0:0:0:0:
428,79,104233,1,8,0:0:0:0:
407,106,104315,1,8,0:0:0:0:
376,119,104397,1,8,0:0:0:0:
342,114,104479,6,2,B|345:132|343:148|343:148|355:166|355:166|350:189|353:221,1,101.999996887207,2|0,3:1|3:1,0:1:0:0:
232,352,104807,1,8,0:0:0:0:
250,175,104971,1,0,3:0:0:0:
350,328,105135,5,6,3:2:0:0:
350,328,105298,2,0,L|413:317,1,50.9999984436036,8|0,0:0|0:0,0:0:0:0:
270,257,105626,1,8,0:2:0:0:
270,257,105789,2,0,L|207:268,1,50.9999984436036,8|0,0:0|0:0,0:0:0:0:
81,286,106118,5,8,0:0:0:0:
14,229,106282,2,0,P|10:200|17:168,1,50.9999984436036,8|0,0:0|0:0,0:0:0:0:
83,53,106610,1,8,0:0:0:0:
148,110,106774,2,0,P|173:113|198:109,1,50.9999984436036,8|0,0:0|0:0,0:0:0:0:
332,58,107102,5,8,0:0:0:0:
281,177,107266,1,8,0:0:0:0:
332,58,107430,1,8,0:0:0:0:
281,177,107594,1,8,0:0:0:0:
428,138,107757,5,8,0:0:0:0:
389,243,107921,2,0,L|403:307,1,50.9999984436036,8|0,0:0|0:0,0:0:0:0:
287,158,108249,1,8,0:0:0:0:
248,263,108413,2,0,L|262:327,1,50.9999984436036,8|0,0:0|0:0,0:0:0:0:
141,380,108741,5,8,0:0:0:0:
66,318,108905,2,0,P|25:323|2:318,1,50.9999984436036,8|0,0:0|0:0,0:0:0:0:
80,193,109233,1,8,0:0:0:0:
165,230,109397,2,0,P|170:271|165:294,1,50.9999984436036,8|0,0:0|0:0,0:0:0:0:
244,383,109725,5,8,0:0:0:0:
281,290,109889,1,8,0:0:0:0:
244,383,110053,1,8,0:0:0:0:
281,290,110217,1,8,0:0:0:0:
404,365,110380,6,0,B|509:342|509:342|492:333|470:314,1,152.999995330811,6|8,3:2|0:0,0:0:0:0:
378,217,110872,2,0,L|395:126,1,76.4999976654053,2|0,0:0|0:0,0:0:0:0:
467,229,111200,1,0,3:0:0:0:
291,242,111364,2,0,L|274:151,1,76.4999976654053,8|0,0:0|0:0,0:0:0:0:
181,76,111692,6,0,P|119:66|68:101,1,114.749996498108,0|0,3:0|0:0,0:0:0:0:
31,154,112020,2,0,L|45:229,1,76.4999976654053,8|0,0:0|0:0,0:0:0:0:
123,373,112348,1,2,0:0:0:0:
123,373,112430,1,2,0:0:0:0:
123,373,112512,1,0,3:0:0:0:
216,248,112676,2,0,P|259:237|301:245,1,76.4999976654053,8|0,0:0|0:0,0:0:0:0:
465,327,113003,5,8,0:0:0:0:
362,160,113167,1,0,3:0:0:0:
320,351,113331,1,0,3:0:0:0:
252,140,113495,5,8,0:0:0:0:
455,226,113659,1,0,3:0:0:0:
376,19,113823,1,0,3:0:0:0:
290,241,113987,5,8,0:0:0:0:
210,16,114151,1,0,3:0:0:0:
136,265,114315,5,8,0:0:0:0:
136,265,114397,1,8,0:0:0:0:
136,265,114479,1,8,0:0:0:0:
350,143,114643,1,0,3:0:0:0:
104,114,114807,5,8,0:0:0:0:
104,114,114889,1,8,0:0:0:0:
104,114,114971,1,8,0:0:0:0:
227,327,115135,1,0,3:0:0:0:
281,62,115298,5,12,0:0:0:0:
117,246,115462,1,0,3:0:0:0:
115,26,115626,5,6,3:2:0:0:
256,192,115708,12,0,118085,0:0:0:0:
192,185,118249,5,6,3:2:0:0:
272,315,118413,1,0,3:0:0:0:
345,180,118577,2,0,L|431:192,1,76.4999976654053,0|0,3:0|0:0,0:0:0:0:
324,70,118905,2,0,L|248:59,1,76.4999976654053,0|0,3:0|0:0,0:0:0:0:
117,140,119233,1,0,3:0:0:0:
267,165,119397,1,0,3:0:0:0:
144,46,119561,6,0,P|93:44|55:63,1,85,2|2,0:0|0:0,0:0:0:0:
8,112,119807,1,2,0:0:0:0:
8,112,119889,2,0,L|18:166,1,42.5,2|0,0:0|0:0,0:0:0:0:
65,213,120053,2,0,L|55:267,1,42.5,2|0,0:0|0:0,0:0:0:0:
121,161,120217,6,2,L|116:134,6,21.25
182,213,120544,2,0,P|229:228|270:216,1,85,2|2,0:0|0:0,0:0:0:0:
335,180,120790,1,2,0:0:0:0:
335,180,120872,6,0,B|355:227|355:227|333:276,1,101.999996887207,6|0,3:2|0:0,0:0:0:0:
219,79,121200,1,8,0:0:0:0:
399,112,121364,2,0,L|506:87,1,101.999996887207,2|0,0:0|3:0,0:0:0:0:
262,220,121692,1,2,0:0:0:0:
262,220,121774,1,2,0:0:0:0:
262,220,121856,2,0,L|155:195,1,101.999996887207,8|2,0:0|0:0,0:0:0:0:
15,53,122184,5,0,3:0:0:0:
212,1,122348,2,0,P|230:50|225:103,1,101.999996887207,2|8,0:0|0:0,0:0:0:0:
78,241,122676,2,0,P|60:192|65:139,1,101.999996887207,2|0,0:0|3:0,0:0:0:0:
262,220,123003,1,2,0:0:0:0:
108,354,123167,2,0,L|-4:330,1,101.999996887207,8|2,0:0|0:0,0:0:0:0:
248,239,123495,6,0,B|335:238|309:306|397:303,1,152.999995330811,0|0,3:0|0:0,0:0:0:0:
402,302,123823,1,8,0:0:0:0:
504,188,123987,2,0,B|466:160|425:169|425:169|444:187,1,101.999996887207,2|0,0:0|3:0,0:0:0:0:
265,70,124315,2,0,B|303:42|344:51|344:51|325:69,1,101.999996887207,2|8,0:0|0:0,0:0:0:0:
122,118,124643,6,0,B|117:84|104:50|104:50|119:66|138:79,1,101.999996887207,2|0,0:0|3:0,0:0:0:0:
268,155,124971,1,2,0:0:0:0:
98,259,125135,2,0,P|48:265|2:243,1,101.999996887207,8|2,0:0|0:0,0:0:0:0:
188,172,125462,6,0,L|180:232,1,50.9999984436036,2|0,3:2|0:0,0:0:0:0:
278,155,125626,2,0,L|271:104,1,50.9999984436036,0|0,3:2|0:0,0:0:0:0:
178,172,125790,6,0,L|170:232,1,50.9999984436036,10|0,0:2|0:0,0:0:0:0:
288,155,125954,2,0,L|281:104,1,50.9999984436036,0|0,3:2|0:0,0:0:0:0:
367,30,126118,6,0,P|418:24|475:53,1,101.999996887207,6|2,3:2|0:0,0:0:0:0:
436,246,126446,1,8,0:0:0:0:
288,155,126610,2,0,L|174:175,1,101.999996887207,2|0,0:0|3:0,0:0:0:0:
332,247,126938,1,2,0:0:0:0:
203,75,127102,1,8,0:0:0:0:
195,268,127266,1,2,0:0:0:0:
367,124,127430,6,0,P|439:109|512:167,1,152.999995330811,0|0,3:2|0:0,0:0:0:0:
512,236,127757,2,0,L|402:256,1,101.999996887207,8|2,0:0|0:0,0:0:0:0:
209,288,128085,1,0,3:0:0:0:
374,367,128249,1,2,0:0:0:0:
271,179,128413,2,0,L|288:64,1,101.999996887207,8|2,0:0|0:0,0:0:0:0:
73,181,128741,6,0,B|97:250|97:250|72:301|72:301|96:380,1,203.999993774414,0|8,3:0|0:0,0:0:0:0:
271,179,129233,2,0,P|218:173|164:204,1,101.999996887207,2|0,0:0|3:0,0:0:0:0:
337,280,129561,1,0,3:0:0:0:
272,64,129725,1,8,0:0:0:0:
193,300,129889,1,0,3:0:0:0:
193,300,129971,1,2,0:0:0:0:
193,300,130053,1,2,0:0:0:0:
418,170,130217,6,0,B|447:177|468:192|468:192|502:154|506:69|426:31,1,216.750004134178,6|0,3:2|0:0,0:0:0:0:
355,18,130544,6,0,B|302:52|248:45|248:45|216:20|216:20|181:27|136:34,1,216.750004134178,6|0,3:2|0:0,0:0:0:0:
77,100,130872,6,2,P|83:119|86:137,10,36.1250006890297,6|2|2|2|2|2|2|2|2|2|2,3:2|0:0|0:0|0:0|0:0|0:0|0:0|0:0|0:0|0:0|0:0,0:0:0:0:
35,205,131364,6,0,B|90:139|179:175|179:175|161:226,1,203.999993774414,6|8,3:2|0:0,0:0:0:0:
309,347,131856,2,0,L|289:238,1,101.999996887207,2|0,0:0|0:0,0:0:0:0:
208,364,132184,1,0,3:0:0:0:
410,337,132348,2,0,L|390:228,1,101.999996887207,8|2,0:0|0:0,0:0:0:0:
357,44,132676,5,0,3:0:0:0:
194,165,132839,2,0,P|139:179|82:152,1,101.999996887207,2|8,0:0|0:0,0:0:0:0:
261,44,133167,2,0,P|316:30|373:57,1,101.999996887207,2|0,0:0|0:0,0:0:0:0:
487,203,133495,1,0,3:0:0:0:
275,129,133659,1,8,0:0:0:0:
475,88,133823,1,2,3:2:0:0:
333,262,133987,6,0,B|246:249|275:315|175:303,1,152.999995330811,0|0,3:0|0:0,0:0:0:0:
170,301,134315,1,8,0:0:0:0:
119,124,134479,2,0,B|151:132|189:120|189:120|167:132|153:152,1,101.999996887207,2|0,0:0|0:0,0:0:0:0:
12,199,134807,1,0,3:0:0:0:
109,20,134971,1,8,0:0:0:0:
232,191,135135,6,0,B|261:206|301:202|301:202|334:171,1,101.999996887207,2|0,0:0|3:0,0:0:0:0:
404,15,135462,1,2,0:0:0:0:
491,199,135626,2,0,P|507:250|492:311,1,101.999996887207,8|2,0:0|0:0,0:0:0:0:
273,302,135954,6,0,L|214:289,1,50.9999984436036,2|0,0:2|0:0,0:0:0:0:
182,202,136118,2,0,L|241:189,1,50.9999984436036,0|0,3:2|0:0,0:0:0:0:
273,312,136282,6,0,L|214:299,1,50.9999984436036,10|0,0:2|0:0,0:0:0:0:
182,192,136446,2,0,L|241:179,1,50.9999984436036,0|0,3:2|0:0,0:0:0:0:
288,82,136610,6,0,P|240:66|178:77,1,101.999996887207,6|0,3:2|0:0,0:0:0:0:
127,278,136938,1,8,0:0:0:0:
323,224,137102,2,0,L|425:245,1,101.999996887207,2|0,0:0|0:0,0:0:0:0:
318,384,137430,1,0,3:0:0:0:
220,204,137594,1,8,0:0:0:0:
77,349,137757,1,2,0:0:0:0:
77,349,137839,1,2,0:0:0:0:
77,349,137921,6,0,B|34:306|34:306|60:205,1,152.999995330811,0|0,3:0|0:0,0:0:0:0:
81,132,138249,2,0,P|126:116|190:135,1,101.999996887207,8|0,0:0|0:0,0:0:0:0:
354,230,138577,1,2,0:0:0:0:
283,60,138741,1,0,3:0:0:0:
254,282,138905,1,8,0:0:0:0:
383,123,139069,1,0,3:0:0:0:
177,127,139233,6,0,P|164:69|184:18,1,101.999996887207,0|0,3:0|0:0,0:0:0:0:
346,248,139561,1,8,0:0:0:0:
119,221,139725,2,0,L|15:245,1,101.999996887207,2|0,0:0|0:0,0:0:0:0:
168,343,140053,1,0,3:0:0:0:
177,127,140217,1,8,0:0:0:0:
70,338,140380,1,2,3:2:0:0:
70,338,140462,1,2,0:0:0:0:
70,338,140544,1,2,3:2:0:0:
339,234,140708,6,0,B|370:199|432:194|475:217|475:217|448:185|443:148,1,216.750004134178,6|0,3:2|0:0,0:0:0:0:
376,78,141036,6,0,B|336:130|271:127|224:89|224:89|242:76|254:53,1,216.750004134178,6|0,3:2|0:0,0:0:0:0:
160,10,141364,6,2,L|114:19,10,36.1250006890297,2|2|2|2|10|2|2|2|2|2|2,3:2|0:0|0:0|0:0|0:0|0:0|0:0|0:0|3:0|0:0|0:0,0:0:0:0:
115,41,141856,6,0,B|49:21|49:21|21:31|11:54,1,118.999996368408,6|2,3:2|0:0,0:0:0:0:
40,143,142348,2,0,L|100:129,1,59.4999981842042,0|0,3:0|0:0,0:0:0:0:
187,163,142676,1,0,3:0:0:0:
118,227,142839,2,0,L|131:284,1,59.4999981842042,8|0,0:0|0:0,0:0:0:0:
213,343,143167,5,0,3:0:0:0:
213,343,143331,2,0,P|240:351|279:345,1,59.4999981842042,0|0,3:0|0:0,0:0:0:0:
306,259,143659,2,0,P|279:251|240:257,1,59.4999981842042,0|0,3:0|0:0,0:0:0:0:
353,329,143987,1,0,3:0:0:0:
399,245,144151,1,8,0:0:0:0:
450,325,144315,1,0,3:0:0:0:
496,241,144479,6,0,B|481:192|481:192|491:170|491:170|475:113,1,118.999996368408,6|0,3:2|0:0,0:0:0:0:
385,35,144971,2,0,B|373:76|373:76|383:98|383:98|368:147,1,118.999996368408,6|0,3:2|3:0,0:0:0:0:
276,172,145462,2,0,P|238:154|211:152,1,59.4999981842042,8|0,0:0|0:0,0:0:0:0:
144,207,145790,5,0,3:0:0:0:
144,207,145954,2,0,L|155:276,1,59.4999981842042,0|0,3:0|0:0,0:0:0:0:
56,168,146282,2,0,L|65:109,1,59.4999981842042,0|0,3:0|0:0,0:0:0:0:
82,15,146610,1,0,3:0:0:0:
164,62,146774,2,0,B|197:77|197:77|254:66,1,89.2499972763062,8|0,0:0|0:0,0:0:0:0:
265,53,147102,6,0,B|336:69|336:69|348:50|374:40,1,118.999996368408,6|0,3:2|0:0,0:0:0:0:
475,132,147594,2,0,B|404:116|404:116|392:135|366:145,1,118.999996368408,0|0,3:2|3:0,0:0:0:0:
249,152,148085,2,0,P|243:183|247:213,1,59.4999981842042,8|0,0:0|0:0,0:0:0:0:
316,283,148413,5,0,3:0:0:0:
316,283,148577,2,0,L|382:273,1,59.4999981842042,0|0,3:0|0:0,0:0:0:0:
292,369,148905,2,0,L|233:360,1,59.4999981842042,0|0,3:0|0:0,0:0:0:0:
119,339,149233,1,0,3:0:0:0:
162,228,149397,1,8,0:0:0:0:
119,339,149561,1,0,3:0:0:0:
31,258,149725,6,0,B|5:214|17:167|17:167|43:144,1,118.999996368408,0|4,3:0|0:0,0:0:0:0:
75,63,150217,2,0,L|8:52,1,59.4999981842042,0|0,3:0|0:0,0:0:0:0:
149,1,150544,1,0,3:0:0:0:
203,79,150708,2,0,L|270:68,1,59.4999981842042,8|0,0:0|0:0,0:0:0:0:
338,167,151036,5,6,3:2:0:0:
338,167,151200,2,0,P|328:201|332:239,1,59.4999981842042,0|0,3:0|0:0,0:0:0:0:
423,236,151528,2,0,P|433:202|429:164,1,59.4999981842042,0|0,3:0|0:0,0:0:0:0:
394,90,151856,1,0,3:0:0:0:
251,160,152020,2,8,L|221:154,6,17
219,137,152348,6,0,B|180:150|180:150|133:136,1,76.4999976654053,6|0,3:2|0:0,0:0:0:0:
8,41,152676,2,0,L|27:206,1,152.999995330811,8|0,0:0|0:0,0:0:0:0:
42,329,153167,1,0,3:0:0:0:
156,251,153331,2,0,P|198:248|241:266,1,76.4999976654053,8|0,0:0|0:0,0:0:0:0:
303,118,153659,6,0,P|266:129|228:125,1,76.4999976654053,0|0,3:0|0:0,0:0:0:0:
372,25,153987,2,0,P|414:63|427:166,1,152.999995330811,8|0,0:0|0:0,0:0:0:0:
348,266,154479,1,0,3:0:0:0:
323,124,154643,1,8,0:0:0:0:
430,243,154807,1,0,3:0:0:0:
262,298,154971,6,0,L|181:281,1,76.4999976654053,0|0,3:0|0:0,0:0:0:0:
19,230,155298,2,0,L|168:198,1,152.999995330811,8|0,0:0|0:0,0:0:0:0:
55,132,155790,1,0,3:0:0:0:
112,298,155954,2,0,L|193:281,1,76.4999976654053,8|0,0:0|0:0,0:0:0:0:
309,176,156282,5,0,3:0:0:0:
165,103,156446,1,0,3:0:0:0:
331,80,156610,1,8,0:0:0:0:
189,194,156774,1,0,3:0:0:0:
247,27,156938,6,0,L|242:2,4,19.1249994163513,0|0|0|0|0,3:0|3:0|3:0|3:0|3:0,0:0:0:0:
299,196,157266,2,0,B|282:289,1,76.4999976654053,8|0,0:0|3:0,0:0:0:0:
115,193,157594,6,0,B|153:184|153:184|193:195,1,76.4999976654053,6|0,3:2|0:0,0:0:0:0:
35,263,157921,2,0,P|7:191|51:108,1,152.999995330811,8|0,0:0|0:0,0:0:0:0:
141,37,158413,1,0,3:0:0:0:
189,194,158577,2,0,L|173:275,1,76.4999976654053,8|0,0:0|0:0,0:0:0:0:
320,184,158905,6,0,L|304:103,1,76.4999976654053,0|0,3:0|0:0,0:0:0:0:
270,266,159233,2,0,P|324:226|411:228,1,152.999995330811,8|0,0:0|0:0,0:0:0:0:
303,350,159725,1,0,3:0:0:0:
209,191,159889,1,8,0:0:0:0:
155,350,160053,1,0,3:0:0:0:
82,183,160217,5,0,3:0:0:0:
82,183,160298,1,0,3:0:0:0:
82,183,160380,1,0,3:0:0:0:
252,269,160544,1,8,0:0:0:0:
220,103,160708,2,0,L|236:17,1,76.4999976654053,0|0,3:0|3:0,0:0:0:0:
289,172,161036,1,0,3:0:0:0:
125,88,161200,1,8,0:0:0:0:
258,29,161364,1,0,3:0:0:0:
169,198,161528,5,0,3:0:0:0:
173,224,161609,1,0,3:0:0:0:
177,250,161691,1,0,3:0:0:0:
181,277,161773,1,0,3:0:0:0:
185,303,161856,5,8,0:0:0:0:
158,330,161937,1,8,0:0:0:0:
123,345,162019,1,8,0:0:0:0:
85,346,162101,1,8,0:0:0:0:
50,332,162184,6,0,P|27:335|11:335,1,38.2499988327027,0|0,3:0|3:0,0:0:0:0:
3,241,162348,2,0,P|21:239|41:238,1,38.2499988327027,0|0,3:0|3:0,0:0:0:0:
94,153,162512,2,0,P|85:113|97:68,1,76.4999976654053,8|0,0:0|3:0,0:0:0:0:
256,8,162839,5,6,3:2:0:0:
223,186,163003,1,8,3:2:0:0:
223,186,163331,5,8,3:2:0:0:
375,92,163495,1,8,3:2:0:0:
375,92,163823,5,8,3:2:0:0:
342,270,163987,1,8,3:2:0:0:
342,270,164315,5,8,3:2:0:0:
494,176,164479,1,8,3:2:0:0:
494,176,164807,5,8,3:2:0:0:
319,175,164971,1,8,3:2:0:0:
494,176,165135,1,8,3:2:0:0:
319,175,165299,1,8,3:2:0:0:
397,352,165462,5,8,3:2:0:0:
408,177,165626,1,8,3:2:0:0:
408,177,165954,5,8,3:2:0:0:
248,258,166118,1,8,3:2:0:0:
248,258,166446,5,8,3:2:0:0:
259,83,166610,1,8,3:2:0:0:
259,83,166938,5,8,3:2:0:0:
99,164,167102,1,8,3:2:0:0:
99,164,167430,5,8,3:2:0:0:
155,351,167594,1,8,3:2:0:0:
99,164,167757,1,8,3:2:0:0:
155,351,167921,1,8,3:2:0:0:
233,171,168085,5,6,3:2:0:0:
105,270,168249,2,0,P|52:272|20:260,1,85,8|0,3:2|0:0,0:0:0:0:
172,110,168577,5,8,3:2:0:0:
261,254,168741,2,0,P|273:294|269:336,1,85,8|0,3:2|0:0,0:0:0:0:
105,270,169069,5,8,3:2:0:0:
233,171,169233,2,0,L|336:154,1,85,8|0,3:2|0:0,0:0:0:0:
476,125,169561,5,8,3:2:0:0:
369,257,169725,2,0,L|386:360,1,85,8|0,3:2|0:0,0:0:0:0:
501,217,170053,5,8,3:2:0:0:
316,157,170217,1,8,3:2:0:0:
487,112,170380,1,8,3:2:0:0:
386,257,170544,1,8,3:2:0:0:
321,54,170708,5,6,3:2:0:0:
217,188,170872,2,0,P|174:193|122:179,1,85,8|0,3:2|0:0,0:0:0:0:
16,59,171200,5,8,3:2:0:0:
177,6,171364,2,0,P|185:47|180:89,1,85,8|0,3:2|0:0,0:0:0:0:
38,184,171692,5,8,3:2:0:0:
166,294,171856,2,0,L|255:279,1,85,8|0,3:2|0:0,0:0:0:0:
124,163,172184,5,8,3:2:0:0:
15,294,172348,2,0,L|29:377,1,85,8|0,3:2|0:0,0:0:0:0:
209,287,172676,5,8,3:2:0:0:
43,205,172839,1,8,3:2:0:0:
155,374,173003,1,8,3:2:0:0:
228,165,173167,1,8,3:2:0:0:
256,192,173331,12,2,174315,0:0:0:0:
203,159,174643,6,2,P|125:174|209:239,1,229.499992996216,2|2,0:0|0:1,0:1:0:0:
289,207,175298,6,2,B|301:231|298:260|298:260|346:225|348:164|302:114,1,216.750004134178,2|0,0:2|0:1,0:1:0:0:
218,63,175626,6,0,L|226:26,6,36.1250006890297,0|0|0|0|0|0|0,3:0|3:0|3:0|3:0|3:0|3:0|3:0,3:0:0:0:
212,13,175954,5,6,0:0:0:0:
225,154,178577,5,0,3:0:0:0:
225,154,178741,1,0,3:0:0:0:
246,267,179069,1,0,3:0:0:0:
246,267,180544,6,2,L|241:301,6,23.3750007133484
175,338,180872,6,2,L|181:360,1,23.3750007133484
149,346,180954,6,2,L|149:368,1,23.3750007133484
122,348,181036,6,0,L|116:370,1,23.3750007133484,0|0,3:0|3:0,3:0:0:0:
96,342,181118,6,0,L|84:361,1,23.3750007133484,0|0,3:0|3:0,3:0:0:0:
73,330,181200,6,0,B|70:307|64:289|64:289|73:269|73:269|66:255|59:223,1,101.999996887207,6|0,3:2|0:0,0:0:0:0:
138,23,181528,1,8,0:0:0:0:
238,170,181692,2,0,L|342:148,1,101.999996887207,2|0,0:0|3:0,0:0:0:0:
508,34,182020,2,0,L|408:12,1,101.999996887207,2|8,0:0|0:0,0:0:0:0:
215,84,182348,1,2,0:0:0:0:
434,130,182512,6,0,P|466:195|431:275,1,152.999995330811,0|0,3:0|0:0,0:0:0:0:
357,294,182839,2,0,P|305:271|252:276,1,101.999996887207,8|2,0:0|0:0,0:0:0:0:
76,337,183167,1,0,3:0:0:0:
244,376,183331,1,2,0:0:0:0:
114,218,183495,2,0,L|132:115,1,101.999996887207,8|2,0:0|0:0,0:0:0:0:
351,187,183823,6,0,B|318:235|246:236|212:197|212:197|254:141,1,203.999993774414,0|8,3:0|0:0,0:0:0:0:
421,125,184315,2,0,P|444:180|435:227,1,101.999996887207,2|0,0:0|3:0,0:0:0:0:
259,322,184643,1,0,3:0:0:0:
318,95,184807,1,8,0:0:0:0:
441,329,184971,1,0,3:0:0:0:
441,329,185053,1,2,0:0:0:0:
441,329,185135,1,2,0:0:0:0:
191,218,185298,6,0,B|155:231|126:233|126:233|83:265|83:265|32:258|1:208,1,216.750004134178,6|0,3:2|0:0,0:0:0:0:
4,111,185626,6,0,B|60:80|117:113|117:113|156:92|156:92|183:106|221:113,1,216.750004134178,6|0,3:2|0:0,0:0:0:0:
288,48,185954,6,2,L|280:10,10,36.1250006890297,6|2|2|2|2|2|2|2|2|2|2,3:2|0:0|0:2|0:0|0:2|0:0|0:2|0:0|0:2|0:0|0:2,0:0:0:0:
363,93,186446,6,0,B|323:197|323:197|361:235|361:281,1,203.999993774414,6|8,3:2|0:0,0:0:0:0:
159,299,186938,2,0,P|204:277|255:280,1,101.999996887207,2|0,0:0|0:0,0:0:0:0:
428,368,187266,1,0,3:0:0:0:
326,189,187430,1,8,0:0:0:0:
318,382,187594,1,2,0:0:0:0:
445,198,187757,5,0,3:0:0:0:
222,167,187921,2,0,L|107:191,1,101.999996887207,2|8,0:0|0:0,0:0:0:0:
300,49,188249,2,0,L|415:73,1,101.999996887207,2|0,0:0|0:0,0:0:0:0:
496,285,188577,1,0,3:0:0:0:
311,176,188741,1,8,0:0:0:0:
512,144,188905,1,0,3:0:0:0:
358,299,189069,6,0,B|269:301|304:358|214:361,1,152.999995330811,0|0,3:0|0:0,0:0:0:0:
203,357,189397,1,8,0:0:0:0:
125,179,189561,2,0,B|153:149|204:157|204:157|191:168|184:179,1,101.999996887207,2|0,0:0|0:0,0:0:0:0:
50,270,189889,1,0,3:0:0:0:
76,78,190053,1,8,0:0:0:0:
258,225,190217,6,0,B|279:220|296:222|296:222|316:209|316:209|337:211|368:209,1,101.999996887207,2|0,0:0|3:0,0:0:0:0:
501,81,190544,1,2,0:0:0:0:
271,128,190708,1,8,0:0:0:0:
458,208,190872,1,2,0:0:0:0:
348,35,191036,6,0,L|286:49,1,50.9999984436036,2|0,0:0|0:0,0:0:0:0:
222,117,191200,2,0,L|284:131,1,50.9999984436036,0|0,3:2|0:0,0:0:0:0:
348,25,191364,6,0,L|286:39,1,50.9999984436036,8|0,0:0|0:0,0:0:0:0:
222,127,191528,2,0,L|284:141,1,50.9999984436036,0|0,3:2|0:0,0:0:0:0:
355,209,191692,6,0,P|372:262|356:314,1,101.999996887207,6|2,3:2|0:0,0:0:0:0:
169,379,192020,1,8,0:0:0:0:
239,227,192184,2,0,L|221:122,1,101.999996887207,2|0,0:0|0:0,0:0:0:0:
150,281,192512,1,0,3:0:0:0:
355,209,192676,1,8,0:0:0:0:
134,166,192839,1,2,0:0:0:0:
134,166,192921,1,2,0:0:0:0:
134,166,193003,6,0,P|57:187|1:138,1,152.999995330811,0|0,3:0|0:0,0:0:0:0:
30,61,193331,2,0,L|135:81,1,101.999996887207,8|0,0:0|0:0,0:0:0:0:
331,120,193659,1,2,0:0:0:0:
215,4,193823,1,0,3:0:0:0:
260,223,193987,1,8,0:0:0:0:
365,24,194151,1,0,3:0:0:0:
439,213,194315,6,0,L|415:316,1,101.999996887207,0|2,3:0|0:0,0:0:0:0:
226,145,194643,1,8,0:0:0:0:
413,105,194807,2,0,P|476:108|517:135,1,101.999996887207,2|0,0:0|0:0,0:0:0:0:
331,266,195135,1,0,3:0:0:0:
286,37,195298,1,8,0:0:0:0:
470,227,195462,1,0,3:0:0:0:
470,227,195544,1,2,0:0:0:0:
470,227,195626,1,2,0:0:0:0:
211,133,195790,6,0,B|169:148|132:118|132:118|90:111|43:136|43:136|70:141|94:161,1,216.750004134178,6|0,3:2|0:0,0:0:0:0:
151,223,196118,6,0,B|155:256|135:281|135:281|124:328|174:369|174:369|197:353|212:318,1,216.750004134178,6|0,3:2|0:0,0:0:0:0:
290,269,196446,6,2,L|334:280,10,36.1250006890297,6|2|2|2|10|2|2|2|2|2|2,3:2|0:0|0:0|0:0|0:0|0:0|0:0|0:0|3:2|0:0|0:0,0:0:0:0:
337,295,196938,6,0,B|388:287|388:287|412:299|412:299|467:289,1,118.999996368408,6|2,3:2|0:0,0:0:0:0:
501,209,197430,2,0,P|501:159|495:141,1,59.4999981842042,0|0,3:0|0:0,0:0:0:0:
445,71,197757,1,0,3:0:0:0:
379,139,197921,2,0,P|329:139|311:133,1,59.4999981842042,8|0,0:0|0:0,0:0:0:0:
260,68,198249,5,0,3:0:0:0:
260,68,198413,2,0,L|272:-2,1,59.4999981842042,0|0,3:0|0:0,0:0:0:0:
172,82,198741,2,0,L|184:152,1,59.4999981842042,0|0,3:0|0:0,0:0:0:0:
233,221,199069,1,0,3:0:0:0:
320,136,199233,2,0,P|363:130|413:155,1,89.2499972763062,8|0,0:0|0:0,0:0:0:0:
418,167,199561,6,0,B|386:204|401:255|401:255|430:239,1,118.999996368408,6|0,3:2|0:0,0:0:0:0:
300,352,200053,2,0,B|321:364|321:364|336:313|304:276,1,118.999996368408,6|0,3:2|3:0,0:0:0:0:
214,218,200544,1,8,0:0:0:0:
171,316,200708,6,0,L|182:379,1,59.4999981842042,6|0,3:2|0:0,0:0:0:0:
48,264,201036,2,0,L|59:201,1,59.4999981842042,0|0,3:2|0:0,0:0:0:0:
87,52,201364,1,8,0:0:0:0:
87,52,201856,6,2,L|113:45,6,14.874999546051
179,30,202184,6,0,B|199:31|219:41|219:41|238:29|260:29,1,85,6|0,3:2|3:0,0:0:0:0:
394,183,202512,1,10,0:0:0:0:
226,155,202676,1,0,3:0:0:0:
403,56,202839,5,10,0:0:0:0:
301,232,203003,1,0,3:0:0:0:
259,29,203167,1,10,0:0:0:0:
127,161,203331,6,0,L|145:264,1,85,0|2,3:2|0:0,0:0:0:0:
269,358,203659,1,0,3:0:0:0:
246,163,203823,1,10,0:0:0:0:
151,334,203987,1,0,3:0:0:0:
60,96,204151,5,10,0:0:0:0:
229,269,204315,1,0,3:0:0:0:
56,264,204479,5,10,0:0:0:0:
147,157,204643,2,0,L|152:81,1,59.4999981842042,0|0,3:0|0:0,0:0:0:0:
297,27,204971,5,0,3:0:0:0:
336,227,205135,1,10,0:0:0:0:
427,74,205298,1,0,3:0:0:0:
243,162,205462,5,10,0:0:0:0:
444,196,205626,1,0,3:0:0:0:
318,34,205790,1,10,0:0:0:0:
316,238,205954,6,0,L|331:322,1,85,0|2,3:2|0:0,0:0:0:0:
141,374,206282,1,0,3:0:0:0:
232,181,206446,1,10,0:0:0:0:
60,232,206610,1,0,3:0:0:0:
254,378,206774,5,10,0:0:0:0:
324,133,206938,1,0,3:0:0:0:
144,205,207102,5,10,0:0:0:0:
324,280,207266,1,0,3:0:0:0:
324,280,207757,6,0,B|356:291|356:291|417:278,1,85,12|0,0:0|3:0,0:0:0:0:
242,105,208085,5,10,0:0:0:0:
178,299,208249,1,0,3:0:0:0:
113,105,208413,1,10,0:0:0:0:
303,177,208577,6,0,P|350:182|408:156,1,85,0|2,3:0|0:0,0:0:0:0:
237,5,208905,1,0,3:0:0:0:
156,191,209069,1,8,0:0:0:0:
337,77,209233,1,0,3:0:0:0:
103,9,209397,5,10,0:0:0:0:
281,175,209561,1,0,3:0:0:0:
237,5,209725,5,10,0:0:0:0:
103,124,209889,2,0,L|36:113,1,59.4999981842042,0|0,3:0|0:0,0:0:0:0:
167,289,210217,5,0,3:0:0:0:
229,95,210380,1,10,0:0:0:0:
324,280,210544,1,0,3:0:0:0:
112,214,210708,5,10,0:0:0:0:
295,164,210872,1,0,3:0:0:0:
240,360,211036,1,10,0:0:0:0:
424,294,211200,6,0,P|481:300|510:289,1,85,0|2,3:0|0:0,0:0:0:0:
403,103,211528,1,0,3:0:0:0:
304,281,211692,1,10,0:0:0:0:
484,185,211856,1,0,3:0:0:0:
240,78,212020,5,10,0:0:0:0:
424,294,212184,1,0,3:0:0:0:
384,20,212348,5,10,0:0:0:0:
210,164,212512,1,0,3:0:0:0:
