osu file format v14

[General]
AudioFilename: audio.mp3
AudioLeadIn: 0
PreviewTime: 175544
Countdown: 0
SampleSet: Soft
StackLeniency: 0.6
Mode: 0
LetterboxInBreaks: 0
WidescreenStoryboard: 1

[Editor]
DistanceSpacing: 1.3
BeatDivisor: 4
GridSize: 32
TimelineZoom: 1.100001

[Metadata]
Title:No buts!
TitleUnicode:No buts!
Artist:Kawada Mami
ArtistUnicode:川田まみ
Creator:Akitoshi
Version:Level 3
Source:とある魔術の禁書目録Ⅱ
Tags:Corinn -Laura- To aru Majutsu no Index II 2 anime opening op 1 railgun pop jpop j-pop japanese
BeatmapID:3899795
BeatmapSetID:1885417

[Difficulty]
HPDrainRate:4.5
CircleSize:3.5
OverallDifficulty:6
ApproachRate:7.8
SliderMultiplier:1.4
SliderTickRate:1

[Events]
//Background and Video events
0,0,"biribiri.jpg",0,0
//Break Periods
2,79104,88618
2,176154,179765
//Storyboard Layer 0 (Background)
//Storyboard Layer 1 (Fail)
//Storyboard Layer 2 (Pass)
//Storyboard Layer 3 (Foreground)
//Storyboard Layer 4 (Overlay)
//Storyboard Sound Samples

[TimingPoints]
217,327.868852459017,4,2,2,70,1,0
9397,-100,4,2,1,70,0,0
10217,-100,4,2,2,70,0,0
10708,-125,4,2,2,50,0,0
13331,-111.111111111111,4,2,2,70,0,0
13659,-111.111111111111,4,2,1,40,0,0
14315,-111.111111111111,4,2,1,50,0,0
15298,-100,4,2,2,60,0,0
15954,-100,4,2,1,70,0,0
20544,-100,4,2,1,50,0,0
20872,-100,4,2,1,70,0,0
21200,-111.111111111111,4,2,1,50,0,0
31692,-111.111111111111,4,2,1,70,0,0
33659,-100,4,2,1,70,0,0
34315,-111.111111111111,4,2,1,70,0,0
36282,-100,4,2,1,70,0,0
36938,-125,4,2,1,70,0,0
42184,-111.111111111111,4,2,1,70,0,0
44807,-100,4,2,1,70,0,0
52676,-90.9090909090909,4,2,2,80,0,1
59479,-90.9090909090909,4,2,2,5,0,1
59561,-90.9090909090909,4,2,2,80,0,1
62020,-90.9090909090909,4,2,1,80,0,1
62676,-90.9090909090909,4,2,1,80,0,0
63167,-90.9090909090909,4,2,1,80,0,1
69971,-90.9090909090909,4,2,1,5,0,1
70053,-90.9090909090909,4,2,1,80,0,1
72512,-90.9090909090909,4,2,1,80,0,1
73659,-111.111111111111,4,2,2,60,0,0
76200,-111.111111111111,4,2,2,5,0,0
76282,-111.111111111111,4,2,2,60,0,0
78577,-111.111111111111,4,2,1,50,0,0
78905,-100,4,2,1,70,0,0
89397,-125,4,2,1,50,0,0
97266,-111.111111111111,4,2,1,70,0,0
99807,-111.111111111111,4,2,1,5,0,0
99889,-111.111111111111,4,2,1,70,0,0
101856,-100,4,2,1,70,0,0
102512,-111.111111111111,4,2,1,70,0,0
104479,-100,4,2,1,70,0,0
105135,-125,4,2,1,70,0,0
110380,-111.111111111111,4,2,1,70,0,0
111938,-111.111111111111,4,2,1,5,0,0
112020,-111.111111111111,4,2,1,70,0,0
113003,-100,4,2,1,70,0,0
115626,-100,4,2,1,70,0,0
118249,-100,4,2,1,70,0,0
119561,-100,4,2,1,70,0,0
120872,-90.9090909090909,4,2,2,80,0,1
127676,-90.9090909090909,4,2,2,5,0,1
127757,-90.9090909090909,4,2,2,80,0,1
130217,-90.9090909090909,4,2,1,80,0,1
130872,-90.9090909090909,4,2,1,80,0,0
131364,-90.9090909090909,4,2,1,80,0,1
138167,-90.9090909090909,4,2,1,5,0,1
138249,-90.9090909090909,4,2,1,80,0,1
140708,-90.9090909090909,4,2,1,80,0,1
141856,-111.111111111111,4,2,2,60,0,0
147020,-111.111111111111,4,2,2,5,0,0
147102,-111.111111111111,4,2,2,60,0,0
152020,-100,4,2,1,60,0,0
152348,-100,4,2,1,70,0,0
173331,-100,4,2,1,40,0,0
174643,-125,4,2,1,70,0,0
175298,-100,4,2,1,70,0,0
175626,-100,4,2,1,40,0,0
175954,-100,4,2,1,70,0,0
181200,-90.9090909090909,4,2,2,80,0,1
182757,-90.9090909090909,4,2,2,5,0,1
182839,-90.9090909090909,4,2,2,80,0,1
185298,-90.9090909090909,4,2,1,80,0,1
185954,-90.9090909090909,4,2,1,80,0,0
186446,-90.9090909090909,4,2,1,80,0,1
193249,-90.9090909090909,4,2,1,5,0,1
193331,-90.9090909090909,4,2,1,80,0,1
195790,-90.9090909090909,4,2,1,80,0,1
196446,-90.9090909090909,4,2,1,80,0,1
196938,-111.111111111111,4,2,2,60,0,0
199479,-111.111111111111,4,2,2,5,0,0
199561,-111.111111111111,4,2,2,60,0,0
202184,-100,4,2,1,70,0,0

[Colours]
Combo1 : 0,255,255
Combo2 : 74,165,255
Combo3 : 255,128,64
Combo4 : 255,224,9

[HitObjects]
158,93,217,6,0,P|165:130|170:163,1,70,6|2,3:2|0:0,0:0:0:0:
255,192,544,2,0,P|248:229|243:262,1,70,8|0,0:0|0:0,0:0:0:0:
302,337,872,1,0,3:0:0:0:
302,337,1036,2,0,P|353:359|439:328,1,140,2|2,0:0|0:0,0:0:0:0:
465,250,1528,6,0,P|421:237|394:234,1,70,0|0,3:0|0:0,0:0:0:0:
355,152,1856,2,0,P|389:146|422:136,1,70,10|0,0:0|0:0,0:0:0:0:
368,37,2184,6,2,B|326:34|297:51|297:51|273:39|273:39|246:38|219:50,1,140,2|8,3:1|0:0,0:1:0:0:
234,45,2839,6,0,P|246:85|242:118,1,70,0|2,3:0|0:0,0:0:0:0:
154,132,3167,2,0,P|142:172|146:205,1,70,8|0,0:0|0:0,0:0:0:0:
224,254,3495,1,0,3:0:0:0:
224,254,3659,2,0,P|145:244|97:294,1,140,2|2,0:0|0:0,0:0:0:0:
71,366,4151,5,0,3:0:0:0:
71,366,4315,1,2,0:0:0:0:
161,352,4479,2,0,P|194:357|233:366,1,70,10|0,0:0|0:0,0:0:0:0:
332,319,4807,6,2,B|315:289|315:289|336:218|336:218|369:264,1,140,2|8,3:1|0:0,0:1:0:0:
354,243,5462,6,0,P|399:233|426:229,1,70,6|2,3:2|0:0,0:0:0:0:
453,143,5790,2,0,P|418:137|384:129,1,70,8|0,0:0|0:0,0:0:0:0:
315,77,6118,1,0,3:0:0:0:
315,77,6282,2,0,P|239:58|171:96,1,140,2|2,0:0|0:0,0:0:0:0:
124,150,6774,6,0,P|89:155|50:161,1,70,0|2,3:0|0:0,0:0:0:0:
54,251,7102,2,0,P|88:256|123:261,1,70,10|0,0:0|0:0,0:0:0:0:
235,273,7430,6,2,B|264:182|264:182|249:194|220:200,1,140,2|8,3:1|0:0,0:1:0:0:
223,199,8085,6,0,P|212:163|220:120,1,70,0|2,3:0|0:0,0:0:0:0:
137,83,8413,2,0,P|162:55|203:40,1,70,8|0,0:0|0:0,0:0:0:0:
286,36,8741,1,0,3:0:0:0:
286,36,8905,2,0,P|321:67|411:53,1,140,2|2,0:0|0:0,0:0:0:0:
495,114,9397,6,0,B|475:157|475:157|492:196|492:196|475:245,1,140,8|0,0:0|3:0,0:0:0:0:
374,274,9889,2,0,P|334:264|305:268,1,70,8|2,0:0|3:1,0:0:0:0:
206,303,10217,1,8,0:0:0:0:
219,199,10380,1,8,0:0:0:0:
121,237,10544,1,8,0:0:0:0:
134,133,10708,5,6,3:2:0:0:
134,133,13331,5,6,3:2:0:0:
134,133,13495,2,0,P|179:102|260:115,1,125.999996154785,0|0,3:0|3:0,0:0:0:0:
316,62,13987,2,0,P|361:93|442:80,1,125.999996154785,0|0,3:0|3:0,0:0:0:0:
494,36,14479,6,0,P|474:101|467:176,1,125.999996154785,0|0,3:0|3:0,0:0:0:0:
404,212,14971,2,0,P|371:191|341:178,1,62.9999980773927,0|0,3:0|3:0,0:0:0:0:
267,221,15298,2,0,P|273:240|277:258,3,35,2|0|0|0,3:2|3:0|3:2|3:0,0:0:0:0:
284,285,15626,2,2,P|230:275|176:312,1,105,8|2,0:0|0:0,0:0:0:0:
163,319,15954,6,0,P|128:311|87:306,1,70,6|2,3:2|0:0,0:0:0:0:
26,244,16282,2,0,P|10:170|45:113,1,140,8|2,0:0|0:0,0:0:0:0:
127,83,16774,1,0,3:0:0:0:
127,83,16938,2,0,P|137:124|143:154,1,70,8|2,0:0|0:0,0:0:0:0:
226,188,17266,6,0,P|258:175|297:172,1,70,0|2,3:0|0:0,0:0:0:0:
345,96,17594,2,0,P|310:92|277:79,1,70,8|0,0:0|0:0,0:0:0:0:
193,26,17921,6,2,B|162:29|139:37|139:37|114:26|114:26|87:35|51:37,1,140,2|8,0:1|0:0,0:1:0:0:
58,36,18577,6,0,P|73:75|69:109,1,70,2|2,3:2|0:0,0:0:0:0:
24,181,18905,2,0,P|60:149|156:165,1,140,8|2,0:0|0:0,0:0:0:0:
216,224,19397,1,0,3:0:0:0:
216,224,19561,2,0,P|208:267|203:309,1,70,8|0,0:0|0:0,0:0:0:0:
270,363,19889,5,2,3:2:0:0:
325,290,20053,1,2,0:0:0:0:
396,346,20217,2,0,P|428:353|475:342,1,70,8|0,0:0|3:0,0:0:0:0:
491,329,20462,1,0,3:0:0:0:
491,329,20544,2,0,P|486:287|480:258,1,70,2|0,3:1|3:0,3:0:0:0:
457,171,20872,1,8,0:0:0:0:
379,211,21036,1,8,0:0:0:0:
379,211,21118,1,8,0:0:0:0:
379,211,21200,6,0,P|327:203|293:201,1,62.9999980773927,6|0,3:2|0:0,0:0:0:0:
257,144,21528,2,0,P|272:88|240:22,1,125.999996154785,8|2,0:0|0:0,0:0:0:0:
164,16,22020,1,0,3:0:0:0:
164,16,22184,2,0,P|155:66|152:90,1,62.9999980773927,8|2,0:0|0:0,0:0:0:0:
88,128,22512,6,0,P|52:124|20:133,1,62.9999980773927,0|2,3:0|0:0,0:0:0:0:
26,212,22839,2,0,P|56:218|87:214,1,62.9999980773927,8|0,0:0|0:0,0:0:0:0:
162,176,23167,1,10,0:0:0:0:
162,176,23331,1,2,3:2:0:0:
229,222,23495,2,2,P|216:265|207:353,1,125.999996154785,10|0,0:0|3:0,0:0:0:0:
207,345,24151,6,0,P|171:333|140:332,1,62.9999980773927,8|0,0:0|0:0,0:0:0:0:
67,336,24479,1,2,0:0:0:0:
67,336,24643,1,0,3:0:0:0:
12,272,24807,2,0,P|14:240|25:211,1,62.9999980773927,8|2,0:0|0:0,0:0:0:0:
92,162,25135,6,0,P|121:172|152:175,1,62.9999980773927,0|0,3:0|0:0,0:0:0:0:
230,149,25462,2,0,P|216:77|246:32,1,125.999996154785,8|2,0:0|0:0,0:0:0:0:
320,8,25954,1,2,3:2:0:0:
386,64,26118,1,8,0:0:0:0:
386,64,26282,2,0,P|377:109|373:140,1,62.9999980773927,8|0,3:2|3:0,0:0:0:0:
375,126,26774,6,0,P|414:127|440:136,1,62.9999980773927,8|0,0:0|0:0,0:0:0:0:
484,201,27102,2,0,P|477:231|470:273,1,62.9999980773926,2|0,0:0|3:0,0:0:0:0:
427,332,27430,1,8,0:0:0:0:
352,297,27594,6,0,B|285:287|300:327|224:312,1,125.999996154785,2|2,0:0|0:0,0:0:0:0:
156,276,28085,2,0,P|126:282|93:289,1,62.9999980773926,8|0,0:0|0:0,0:0:0:0:
27,239,28413,1,2,0:0:0:0:
27,239,28577,1,2,3:2:0:0:
35,157,28741,2,0,P|64:163|98:170,1,62.9999980773926,10|2,0:0|0:0,0:0:0:0:
189,189,29069,6,0,P|239:223|307:206,1,125.999996154785,0|8,3:0|0:0,0:0:0:0:
370,167,29561,2,0,P|336:217|353:285,1,125.999996154785,2|0,0:0|3:0,0:0:0:0:
380,353,30053,2,0,B|447:340|434:342|507:330,1,125.999996154785,8|0,0:0|3:0,0:0:0:0:
512,246,30544,5,2,0:0:0:0:
512,246,30708,2,0,P|509:203|502:178,1,62.9999980773926,8|0,0:0|3:0,0:0:0:0:
473,99,31036,1,8,0:0:0:0:
473,99,31200,1,0,3:0:0:0:
383,134,31364,2,0,P|340:131|315:124,1,62.9999980773926,12|0,0:0|0:0,0:0:0:0:
246,67,31692,6,0,B|275:106|275:106|248:193,1,125.999996154785,6|8,3:2|0:0,0:0:0:0:
179,218,32184,2,0,P|129:186|55:203,1,125.999996154785,2|0,0:0|3:0,0:0:0:0:
11,257,32676,2,0,P|19:289|27:331,1,62.9999980773926,8|0,0:0|0:0,0:0:0:0:
91,365,33003,6,0,P|115:351|158:349,1,62.9999980773926,0|2,3:0|0:0,0:0:0:0:
215,298,33331,2,0,P|239:312|282:314,1,62.9999980773926,8|0,0:0|0:0,0:0:0:0:
357,240,33659,6,2,B|364:187|331:148|331:148|351:157|376:162,1,140,2|8,0:1|0:0,0:1:0:0:
369,160,34315,6,0,P|400:151|431:147,1,62.9999980773926,0|2,3:0|0:0,0:0:0:0:
460,70,34643,2,0,P|414:42|344:53,1,125.999996154785,8|2,0:0|0:0,0:0:0:0:
270,79,35135,1,0,3:0:0:0:
270,79,35298,2,0,P|260:36|255:13,1,62.9999980773926,8|0,0:0|0:0,0:0:0:0:
173,10,35626,6,0,P|148:16|139:18,3,31.4999990386963,0|0|0|0,3:0|3:0|3:0|3:0,0:0:0:0:
121,36,35954,2,8,P|96:30|87:28,3,31.4999990386963
62,44,36282,6,2,B|67:75|74:95|74:95|61:125|61:125|69:148|72:180,1,140,2|8,3:1|0:0,0:1:0:0:
81,269,36774,1,0,3:0:0:0:
154,225,36938,5,6,3:2:0:0:
154,225,37102,2,0,L|215:236,1,56,8|0,0:0|0:0,0:0:0:0:
272,298,37430,1,8,0:2:0:0:
272,298,37594,2,0,L|333:287,1,56,8|0,0:0|0:0,0:0:0:0:
387,229,37921,5,8,0:0:0:0:
387,229,38085,2,0,P|389:196|379:160,1,56,8|0,0:0|0:0,0:0:0:0:
310,145,38413,1,8,0:0:0:0:
310,145,38577,2,0,P|308:112|318:76,1,56,8|0,0:0|0:0,0:0:0:0:
265,25,38905,5,8,0:0:0:0:
265,25,39069,1,8,0:0:0:0:
265,25,39233,2,0,P|233:33|194:41,1,56,8|8,0:0|0:0,0:0:0:0:
124,37,39561,5,8,0:0:0:0:
124,37,39725,2,0,P|88:39|62:49,1,56,8|0,0:0|0:0,0:0:0:0:
109,125,40053,1,8,0:0:0:0:
109,125,40217,2,0,P|92:157|88:184,1,56,8|0,0:0|0:0,0:0:0:0:
93,264,40544,5,8,0:0:0:0:
93,264,40708,2,0,P|55:269|30:276,1,56,8|0,0:0|0:0,0:0:0:0:
47,361,41036,1,8,0:0:0:0:
47,361,41200,2,0,P|84:355|110:349,1,56,8|0,0:0|0:0,0:0:0:0:
196,343,41528,5,8,0:0:0:0:
196,343,41692,1,8,0:0:0:0:
196,343,41856,2,0,P|201:310|195:271,1,56,8|8,0:0|0:0,0:0:0:0:
151,205,42184,6,0,P|91:225|20:187,1,125.999996154785,6|8,3:2|0:0,0:0:0:0:
32,120,42676,2,0,P|92:100|163:138,1,125.999996154785,2|0,0:0|3:0,0:0:0:0:
221,157,43167,2,0,B|289:145|275:148|354:135,1,125.999996154785,8|0,0:0|3:0,0:0:0:0:
345,136,43823,6,0,P|358:167|359:202,1,62.9999980773926,8|0,0:0|0:0,0:0:0:0:
354,281,44151,1,2,0:0:0:0:
354,281,44315,1,0,3:0:0:0:
275,246,44479,2,0,P|237:242|199:256,1,62.9999980773926,8|0,0:0|0:0,0:0:0:0:
122,286,44807,6,0,B|142:383|142:383|130:372|103:358,1,140,8|0,0:0|3:0,0:0:0:0:
19,317,45298,2,0,B|26:286|35:266|35:266|24:237|24:237|34:220|46:172,1,140,8|0,0:0|3:0,0:0:0:0:
130,140,45790,2,0,P|164:151|208:143,1,70,8|0,0:0|3:0,0:0:0:0:
303,115,46118,5,8,0:0:0:0:
303,115,46200,1,8,0:0:0:0:
303,115,46282,2,0,P|310:149|318:185,1,70,8|0,0:0|3:0,0:0:0:0:
424,227,46610,1,8,0:0:0:0:
424,227,46692,1,8,0:0:0:0:
424,227,46774,2,0,P|416:261|409:297,1,70,8|0,0:0|3:0,0:0:0:0:
331,342,47102,6,0,B|256:331|270:373|190:358,1,140,12|6,0:0|3:2,0:0:0:0:
256,192,47512,12,0,49725,0:0:0:0:
225,152,50053,5,6,3:2:0:0:
225,152,50217,1,0,3:0:0:0:
225,152,50380,2,0,P|217:196|212:229,1,70,0|0,3:0|0:0,0:0:0:0:
125,248,50708,2,0,P|133:292|138:325,1,70,0|0,3:0|0:0,0:0:0:0:
215,373,51036,1,0,3:0:0:0:
215,373,51200,1,0,3:0:0:0:
293,326,51364,6,0,P|340:344|408:320,1,105,2|2,0:0|0:0,0:0:0:0:
412,307,51692,2,0,P|401:272|409:234,1,70,2|2,0:0|0:0,0:0:0:0:
348,168,52020,2,2,B|313:170|291:179|291:179|263:166|263:166|239:175|204:178,1,140
130,193,52512,1,2,0:0:0:0:
130,193,52594,1,2,0:0:0:0:
130,193,52676,6,0,B|90:149|111:82|111:82|153:54,1,154.000004699707,6|8,3:2|0:0,0:0:0:0:
235,29,53167,2,0,P|284:68|375:55,1,154.000004699707,2|2,0:0|0:0,0:0:0:0:
471,56,53659,2,0,P|452:107|450:136,1,77.0000023498536,8|2,0:0|0:0,0:0:0:0:
372,192,53987,5,0,3:0:0:0:
372,192,54151,2,0,P|329:174|277:176,1,77.0000023498536,2|8,0:0|0:0,0:0:0:0:
279,271,54479,2,0,P|322:289|374:287,1,77.0000023498536,2|0,0:0|3:0,0:0:0:0:
447,258,54807,1,2,0:0:0:0:
475,162,54971,2,0,P|466:124|456:79,1,77.0000023498536,8|2,0:0|0:0,0:0:0:0:
375,30,55298,6,0,P|332:73|235:66,1,154.000004699707,0|8,3:0|0:0,0:0:0:0:
158,16,55790,2,0,P|113:25|81:37,1,77.0000023498536,2|0,0:0|3:0,0:0:0:0:
23,116,56118,2,0,P|59:128|97:135,1,77.0000023498536,2|8,0:0|0:0,0:0:0:0:
197,146,56446,6,0,P|185:183|194:229,1,77.0000023498536,2|0,0:0|3:0,0:0:0:0:
270,281,56774,1,2,0:0:0:0:
342,212,56938,2,0,P|380:210|416:223,1,77.0000023498536,8|2,0:0|0:0,0:0:0:0:
496,315,57266,1,2,3:2:0:0:
496,315,57430,1,0,3:2:0:0:
390,356,57594,1,8,0:0:0:0:
390,356,57757,1,0,3:2:0:0:
291,295,57921,6,0,B|257:300|230:302|230:302|209:320|209:320|181:321|144:329,1,154.000004699707,4|8,3:2|0:0,0:0:0:0:
57,278,58413,2,0,P|46:242|54:192,1,77.0000023498536,2|0,0:0|3:0,0:0:0:0:
161,235,58741,2,0,P|186:207|233:189,1,77.0000023498536,2|8,0:0|0:0,0:0:0:0:
322,185,59069,1,2,0:0:0:0:
406,238,59233,6,0,P|452:246|515:210,1,115.50000352478,0|0,3:0|0:0,0:0:0:0:
509,187,59561,2,0,P|504:151|499:111,1,77.0000023498536,8|2,0:0|0:0,0:0:0:0:
406,71,59889,2,0,P|410:109|416:147,1,77.0000023498536,0|2,3:0|0:0,0:0:0:0:
322,185,60217,2,0,P|317:149|312:109,1,77.0000023498536,8|2,0:0|0:0,0:0:0:0:
264,20,60544,6,0,P|219:66|222:157,1,154.000004699707,0|8,3:0|0:0,0:0:0:0:
181,243,61036,2,0,P|143:236|106:246,1,77.0000023498536,2|0,0:0|3:0,0:0:0:0:
13,283,61364,1,0,3:0:0:0:
63,369,61528,1,8,0:0:0:0:
164,341,61692,1,0,3:0:0:0:
164,341,61774,1,2,0:0:0:0:
164,341,61856,1,2,0:0:0:0:
107,247,62020,6,0,B|115:220|115:220|105:157,1,77.0000023498536,6|10,3:2|0:0,0:0:0:0:
215,129,62348,2,0,B|207:156|207:156|217:219,1,77.0000023498536,6|0,3:2|0:0,0:0:0:0:
298,270,62676,2,2,B|338:260|371:272|371:272|374:277|374:277|404:297|461:286,1,154.000004699707,6|2,3:2|0:0,0:0:0:0:
508,191,63167,6,0,B|499:156|479:136|479:136|510:46,1,154.000004699707,6|8,3:2|0:0,0:0:0:0:
414,14,63659,2,0,P|364:54|268:40,1,154.000004699707,2|2,0:0|3:2,0:0:0:0:
178,36,64151,2,0,P|189:72|192:118,1,77.0000023498536,8|2,0:0|0:0,0:0:0:0:
107,163,64479,5,0,3:0:0:0:
107,163,64643,2,0,P|60:154|32:151,1,77.0000023498536,2|8,0:0|0:0,0:0:0:0:
120,257,64971,2,0,P|158:252|195:244,1,77.0000023498536,2|0,0:0|0:0,0:0:0:0:
292,217,65298,1,2,3:2:0:0:
375,272,65462,2,0,P|368:313|385:353,1,77.0000023498536,8|2,0:0|3:2,0:0:0:0:
479,355,65790,6,0,B|504:269|451:294|478:193,1,154.000004699707,0|8,3:0|0:0,0:0:0:0:
412,125,66282,2,0,P|372:139|329:135,1,77.0000023498536,2|0,0:0|0:0,0:0:0:0:
241,106,66610,1,2,3:2:0:0:
321,45,66774,1,8,0:0:0:0:
225,14,66938,6,0,P|188:22|145:31,1,77.0000023498536,2|0,0:0|3:0,0:0:0:0:
52,54,67266,1,2,0:0:0:0:
117,129,67430,2,0,P|110:170|105:208,1,77.0000023498536,8|2,0:0|0:0,0:0:0:0:
144,318,67757,5,2,0:0:0:0:
144,318,67921,1,0,3:0:0:0:
226,236,68085,2,0,P|282:241|301:253,1,77.0000023498536,10|0,0:0|3:0,0:0:0:0:
360,350,68413,6,0,B|419:336|419:336|456:353|456:353|513:338,1,154.000004699707,6|8,3:2|0:0,0:0:0:0:
472,244,68905,2,0,P|429:230|390:234,1,77.0000023498536,2|0,0:0|0:0,0:0:0:0:
298,251,69233,1,0,3:0:0:0:
329,155,69397,2,0,P|321:116|313:73,1,77.0000023498536,8|2,0:0|0:0,0:0:0:0:
223,35,69725,6,0,B|147:48|186:43|88:60,1,115.50000352478,0|0,3:0|0:0,0:0:0:0:
83,65,70053,2,0,P|99:98|97:139,1,77.0000023498536,8|0,0:0|0:0,0:0:0:0:
53,229,70380,1,2,0:0:0:0:
53,229,70544,1,0,3:0:0:0:
136,284,70708,2,0,P|178:288|217:273,1,77.0000023498536,8|0,0:0|3:0,0:0:0:0:
284,209,71036,6,0,P|262:239|287:353,1,154.000004699707,0|8,3:0|0:0,0:0:0:0:
377,372,71528,2,0,B|423:366|404:367|458:361,1,77.0000023498536,2|0,0:0|0:0,0:0:0:0:
506,275,71856,1,0,3:0:0:0:
406,261,72020,1,8,0:0:0:0:
459,179,72184,1,0,3:0:0:0:
459,179,72266,1,2,0:0:0:0:
459,179,72348,1,2,3:2:0:0:
361,102,72512,6,0,B|372:75|372:75|361:17,1,77.0000023498536,6|10,3:2|0:2,0:0:0:0:
247,27,72839,2,0,B|238:74|238:74|249:101,1,77.0000023498536,6|0,3:2|0:0,0:0:0:0:
297,189,73167,1,2,3:2:0:0:
204,227,73331,2,0,B|169:220|169:220|163:216|163:216|119:208,1,77.0000023498536,10|2,0:2|3:2,0:0:0:0:
223,323,73659,6,0,B|252:320|272:315|272:315|294:327|294:327|316:332|357:321,1,125.999996154785,6|2,3:2|0:0,0:0:0:0:
422,295,74151,2,0,P|441:242|419:177,1,125.999996154785,0|0,3:0|3:0,0:0:0:0:
363,117,74643,1,8,0:0:0:0:
233,215,74971,5,0,3:0:0:0:
233,215,75135,2,0,P|194:207|159:199,1,62.9999980773926,0|0,3:0|0:0,0:0:0:0:
90,190,75462,2,0,P|71:137|93:72,1,125.999996154785,0|0,3:0|3:0,0:0:0:0:
152,16,75954,2,0,P|200:14|242:37,1,94.499997116089,8|0,0:0|0:0,0:0:0:0:
242,60,76282,6,0,B|317:73|317:73|337:65|366:33,1,125.999996154785,4|0,3:2|0:0,0:0:0:0:
449,24,76774,2,0,B|470:96|470:96|454:115|448:147,1,125.999996154785,4|0,3:2|3:0,0:0:0:0:
447,241,77266,1,8,0:0:0:0:
447,241,77430,6,0,P|483:233|511:229,1,62.9999980773926,4|0,3:2|0:0,0:0:0:0:
460,328,77757,2,0,P|428:323|398:316,1,62.9999980773926,0|0,3:2|0:0,0:0:0:0:
307,287,78085,1,8,0:0:0:0:
307,287,78577,6,2,B|239:293|263:318|181:326,1,125.999996154785,2|6,0:0|3:2,0:0:0:0:
265,150,89397,6,0,B|252:192|252:192|261:212|261:212|249:258,1,112,6|0,3:2|3:0,0:0:0:0:
102,311,90053,2,0,B|90:266|90:266|99:246|99:246|86:204,1,112,8|0,0:0|0:0,0:0:0:0:
19,163,90544,6,0,P|94:177|168:109,1,168,0|2,3:0|0:0,0:0:0:0:
201,56,91200,1,0,3:0:0:0:
263,128,91364,6,2,P|298:138|322:142,1,56,10|2,0:0|0:0,0:0:0:0:
342,48,91692,2,2,P|377:38|401:34,1,56,2|2,3:2|0:0,0:0:0:0:
481,78,92020,5,0,3:0:0:0:
508,232,92348,2,0,P|497:264|490:293,1,56,0|2,3:0|0:0,0:0:0:0:
440,345,92676,2,0,P|391:357|332:329,1,112,8|0,0:0|0:0,0:0:0:0:
276,282,93167,6,0,P|245:286|155:304,1,112,0|0,3:0|3:0,0:0:0:0:
112,242,93659,1,2,0:0:0:0:
112,242,93741,2,0,P|115:203|105:169,1,56,0|0,3:0|0:0,0:0:0:0:
92,170,93987,6,2,P|89:131|99:97,1,56,10|2,0:0|0:0,0:0:0:0:
142,33,94315,1,10,0:0:0:0:
208,101,94479,2,0,P|237:95|266:91,1,56,10|6,0:0|3:2,0:0:0:0:
352,221,94971,6,0,P|324:217|296:211,1,56,0|0,3:0|0:0,0:0:0:0:
223,182,95298,2,0,P|248:228|226:292,1,112,8|0,0:0|0:0,0:0:0:0:
176,335,95790,2,0,P|147:324|121:324,1,56,0|0,3:0|0:0,0:0:0:0:
45,342,96118,2,0,P|36:284|27:228,1,112,0|0,3:0|3:0,0:0:0:0:
5,138,96610,6,2,P|9:109|14:81,1,56,10|2,0:0|0:0,0:0:0:0:
76,10,96938,1,10,0:0:0:0:
117,95,97102,1,2,3:2:0:0:
195,42,97266,6,0,B|265:62|265:62|288:49|308:29,1,125.999996154785,0|8,3:0|0:0,0:0:0:0:
388,22,97757,2,0,P|401:60|399:94,1,62.9999980773926,2|0,0:0|3:0,0:0:0:0:
351,149,98085,1,0,3:0:0:0:
351,149,98249,2,0,P|402:127|478:158,1,125.999996154785,8|0,0:0|3:0,0:0:0:0:
493,230,98741,5,2,0:0:0:0:
493,230,98905,2,0,P|483:266|479:296,1,62.9999980773926,8|0,0:0|3:0,0:0:0:0:
396,291,99233,2,0,P|391:259|382:229,1,62.9999980773926,8|0,0:0|3:0,0:0:0:0:
351,149,99561,2,0,B|312:170|312:170|237:156,1,94.499997116089,12|0,0:0|0:0,0:0:0:0:
237,155,99889,6,0,B|266:197|260:241|260:241|230:274,1,125.999996154785,6|8,3:2|0:0,0:0:0:0:
171,316,100380,2,0,B|97:298|123:304|40:285,1,125.999996154785,2|0,0:0|3:0,0:0:0:0:
16,210,100872,2,0,P|12:179|22:145,1,62.9999980773926,8|0,0:0|0:0,0:0:0:0:
66,80,101200,6,0,P|61:49|57:15,1,62.9999980773926,0|0,3:0|0:0,0:0:0:0:
149,95,101528,2,0,P|145:126|140:157,1,62.9999980773926,10|0,0:0|0:0,0:0:0:0:
233,220,101856,6,2,B|281:204|323:232|323:232|343:218|366:215,1,140,2|8,0:1|0:0,0:1:0:0:
365,215,102512,6,0,P|359:244|372:282,1,62.9999980773926,0|2,3:0|0:0,0:0:0:0:
448,291,102839,2,0,P|455:228|464:157,1,125.999996154785,8|2,0:0|0:0,0:0:0:0:
474,84,103331,1,0,3:0:0:0:
397,54,103495,2,0,P|359:62|327:59,1,62.9999980773926,8|0,0:0|0:0,0:0:0:0:
253,49,103823,6,0,P|247:74|246:88,3,31.4999990386963,0|0|0|0,3:0|3:0|3:0|3:0,0:0:0:0:
228,102,104151,2,0,P|234:127|235:141,3,31.4999990386963,8|8|8|8,0:0|0:0|0:0|0:0,0:0:0:0:
216,158,104479,6,2,B|176:158|151:134|151:134|117:125|73:145,1,140,2|8,3:1|0:0,0:1:0:0:
8,192,104971,1,0,3:0:0:0:
77,247,105135,5,6,3:2:0:0:
77,247,105298,2,0,P|83:278|87:312,1,56,8|0,0:0|0:0,0:0:0:0:
173,321,105626,1,8,0:2:0:0:
173,321,105790,2,0,P|179:290|183:256,1,56,8|0,0:0|0:0,0:0:0:0:
253,219,106118,5,8,0:0:0:0:
253,219,106282,2,0,P|283:229|321:228,1,56,8|0,0:0|0:0,0:0:0:0:
371,174,106610,1,8,0:0:0:0:
371,174,106774,2,0,P|401:164|439:165,1,56,8|0,0:0|0:0,0:0:0:0:
503,227,107102,5,8,0:0:0:0:
503,227,107266,1,8,0:0:0:0:
503,227,107430,2,0,P|501:254|491:281,1,56,8|8,0:0|0:0,0:0:0:0:
407,297,107757,5,8,0:0:0:0:
407,297,107921,2,0,P|400:343|398:367,1,56,8|0,0:0|0:0,0:0:0:0:
318,352,108249,1,8,0:0:0:0:
318,352,108413,2,0,P|311:306|309:282,1,56,8|0,0:0|0:0,0:0:0:0:
232,261,108741,5,8,0:0:0:0:
232,261,108905,2,0,P|195:271|175:271,1,56,8|0,0:0|0:0,0:0:0:0:
166,191,109233,1,8,0:0:0:0:
166,191,109397,2,0,P|203:181|223:181,1,56,8|0,0:0|0:0,0:0:0:0:
317,203,109725,5,8,0:0:0:0:
317,203,109889,1,8,0:0:0:0:
317,203,110053,2,0,P|320:169|323:144,1,56,8|8,0:0|0:0,0:0:0:0:
330,53,110380,6,0,P|274:70|208:26,1,125.999996154785,6|8,3:2|0:0,0:0:0:0:
141,8,110872,2,0,B|81:21|90:19|1:39,1,125.999996154785,2|0,0:0|3:0,0:0:0:0:
9,117,111364,2,0,P|22:147|25:185,1,62.9999980773926,8|0,0:0|0:0,0:0:0:0:
100,212,111692,6,0,P|129:188|186:178,1,94.499997116089,0|0,3:0|0:0,0:0:0:0:
208,183,112020,2,0,P|198:222|197:255,1,62.9999980773926,8|0,0:0|0:0,0:0:0:0:
239,321,112348,1,2,0:0:0:0:
239,321,112512,1,0,3:0:0:0:
308,277,112676,2,0,P|347:287|380:288,1,62.9999980773926,8|0,0:0|0:0,0:0:0:0:
460,236,113003,6,0,B|499:189|468:134|468:134|426:158,1,140,8|0,0:0|3:0,0:0:0:0:
343,190,113495,2,0,B|305:187|288:181|288:181|260:194|260:194|234:186|194:181,1,140,8|0,0:0|3:0,0:0:0:0:
129,112,113987,2,0,P|94:117|60:123,1,70,8|0,0:0|3:0,0:0:0:0:
15,223,114315,5,8,0:0:0:0:
15,223,114397,1,8,0:0:0:0:
15,223,114479,2,0,P|9:264|19:300,1,70,8|0,0:0|3:0,0:0:0:0:
121,260,114807,1,8,0:0:0:0:
121,260,114889,1,8,0:0:0:0:
121,260,114971,2,0,P|153:285|189:295,1,70,8|0,0:0|3:0,0:0:0:0:
285,292,115298,6,0,B|300:214|255:233|281:131,1,140,12|6,0:0|3:2,0:0:0:0:
256,192,115708,12,0,117921,0:0:0:0:
230,148,118249,5,6,3:2:0:0:
230,148,118413,1,0,3:0:0:0:
230,148,118577,2,0,P|194:155|148:163,1,70,0|0,3:0|0:0,0:0:0:0:
123,244,118905,2,0,P|157:250|191:256,1,70,0|0,3:0|0:0,0:0:0:0:
281,275,119233,1,0,3:0:0:0:
281,275,119397,1,0,3:0:0:0:
342,207,119561,6,0,P|394:226|445:215,1,105,2|2,0:0|0:0,0:0:0:0:
461,196,119889,2,0,P|448:162|454:129,1,70,2|2,0:0|0:0,0:0:0:0:
409,49,120217,2,2,B|357:61|321:32|321:32|301:42|269:48,1,140
195,34,120708,1,2,0:0:0:0:
195,34,120790,1,2,0:0:0:0:
195,34,120872,6,0,B|168:118|168:118|198:141|207:182,1,154.000004699707,6|8,3:2|0:0,0:0:0:0:
140,249,121364,2,0,P|79:222|0:283,1,154.000004699707,2|2,0:0|0:0,0:0:0:0:
50,354,121856,2,0,P|85:349|126:344,1,77.0000023498536,8|2,0:0|0:0,0:0:0:0:
228,325,122184,5,0,3:0:0:0:
228,325,122348,2,0,P|241:286|243:242,1,77.0000023498536,2|8,0:0|0:0,0:0:0:0:
339,219,122676,2,0,P|342:257|354:293,1,77.0000023498536,2|0,0:0|3:0,0:0:0:0:
423,366,123003,1,2,0:0:0:0:
497,298,123167,2,0,B|490:237|495:274|488:221,1,77.0000023498536,8|2,0:0|0:0,0:0:0:0:
413,153,123495,6,0,P|359:178|275:124,1,154.000004699707,0|8,3:0|0:0,0:0:0:0:
186,102,123987,2,0,P|176:149|172:180,1,77.0000023498536,2|0,0:0|3:0,0:0:0:0:
78,213,124315,2,0,P|86:250|91:288,1,77.0000023498536,2|8,0:0|0:0,0:0:0:0:
175,345,124643,6,0,P|212:353|258:340,1,77.0000023498536,2|0,0:0|3:0,0:0:0:0:
333,288,124971,1,2,0:0:0:0:
267,212,125135,2,0,P|275:174|280:136,1,77.0000023498536,8|2,0:0|0:0,0:0:0:0:
290,24,125462,5,2,3:2:0:0:
290,24,125626,1,0,3:2:0:0:
409,24,125790,1,10,0:2:0:0:
409,24,125954,1,0,3:2:0:0:
491,104,126118,6,0,B|501:162|471:193|471:193|495:262,1,154.000004699707,6|8,3:2|0:0,0:0:0:0:
424,324,126610,2,0,P|375:312|336:319,1,77.0000023498536,2|0,0:0|3:0,0:0:0:0:
296,229,126938,2,0,P|261:265|247:302,1,77.0000023498536,2|8,0:0|0:0,0:0:0:0:
209,381,127266,1,2,0:0:0:0:
136,311,127430,6,0,P|75:329|19:304,1,115.50000352478,0|0,3:2|0:0,0:0:0:0:
4,292,127757,2,0,P|10:253|17:209,1,77.0000023498536,8|2,0:0|0:0,0:0:0:0:
116,215,128085,2,0,P|122:176|129:132,1,77.0000023498536,0|2,3:0|0:0,0:0:0:0:
228,138,128413,2,0,P|234:99|241:55,1,77.0000023498536,8|2,0:0|0:0,0:0:0:0:
333,24,128741,6,0,P|419:15|474:69,1,154.000004699707,0|8,3:0|0:0,0:0:0:0:
466,156,129233,2,0,P|417:144|387:142,1,77.0000023498536,2|0,0:0|3:0,0:0:0:0:
298,182,129561,1,0,3:0:0:0:
385,231,129725,1,8,0:0:0:0:
297,278,129889,1,0,3:0:0:0:
297,278,129971,1,2,0:0:0:0:
297,278,130053,1,2,0:0:0:0:
264,372,130217,6,0,B|231:377|231:377|222:375|222:375|188:381,1,77.0000023498536,6|8,3:2|0:2,0:0:0:0:
103,301,130544,2,0,B|135:295|135:295|144:297|144:297|178:291,1,77.0000023498536,6|0,3:2|0:0,0:0:0:0:
207,186,130872,2,2,B|160:166|118:183|118:183|98:212|66:217,1,154.000004699707,6|2,3:2|0:0,0:0:0:0:
18,111,131364,6,0,B|0:8|0:8|18:26|49:40,1,154.000004699707,6|8,3:2|0:0,0:0:0:0:
139,53,131856,2,0,P|199:9|273:22,1,154.000004699707,2|0,0:0|3:0,0:0:0:0:
297,118,132348,2,0,P|259:110|221:103,1,77.0000023498536,8|2,0:0|0:0,0:0:0:0:
357,54,132676,5,0,3:0:0:0:
357,54,132839,2,0,P|401:46|442:58,1,77.0000023498536,2|8,0:0|0:0,0:0:0:0:
469,146,133167,2,0,P|425:154|384:142,1,77.0000023498536,2|0,0:0|0:0,0:0:0:0:
297,118,133495,1,0,3:0:0:0:
238,199,133659,2,0,P|247:241|254:279,1,77.0000023498536,8|2,0:0|3:2,0:0:0:0:
188,351,133987,6,0,P|114:373|38:315,1,154.000004699707,0|8,3:0|0:0,0:0:0:0:
22,240,134479,2,0,P|77:230|108:222,1,77.0000023498536,2|0,0:0|0:0,0:0:0:0:
181,169,134807,1,0,3:0:0:0:
89,127,134971,1,8,0:0:0:0:
173,72,135135,6,0,P|215:66|254:78,1,77.0000023498536,2|0,0:0|3:0,0:0:0:0:
331,129,135462,1,2,0:0:0:0:
264,204,135626,2,0,P|274:243|280:285,1,77.0000023498536,8|2,0:0|0:0,0:0:0:0:
357,372,135954,5,2,0:2:0:0:
357,372,136118,1,0,3:2:0:0:
420,275,136282,2,0,P|466:284|504:271,1,77.0000023498536,10|0,0:2|3:2,0:0:0:0:
500,160,136610,6,0,B|459:153|438:153|438:153|417:134|417:134|388:131|336:118,1,154.000004699707,6|8,3:2|0:0,0:0:0:0:
268,71,137102,2,0,P|229:78|184:87,1,77.0000023498536,2|0,0:0|0:0,0:0:0:0:
93,106,137430,1,0,3:0:0:0:
158,181,137594,2,0,P|172:220|160:266,1,77.0000023498536,8|2,0:0|0:0,0:0:0:0:
123,345,137921,6,0,B|186:336|179:364|241:352,1,115.50000352478,0|0,3:0|0:0,0:0:0:0:
264,338,138249,2,0,P|258:300|272:264,1,77.0000023498536,8|0,0:0|0:0,0:0:0:0:
338,189,138577,1,2,0:0:0:0:
338,189,138741,1,0,3:0:0:0:
411,257,138905,2,0,P|463:246|494:242,1,77.0000023498536,8|0,0:0|3:0,0:0:0:0:
506,144,139233,6,0,P|461:94|373:100,1,154.000004699707,0|8,3:0|0:0,0:0:0:0:
280,116,139725,2,0,P|241:110|197:101,1,77.0000023498536,2|0,0:0|0:0,0:0:0:0:
104,89,140053,1,0,3:0:0:0:
38,165,140217,1,8,0:0:0:0:
109,234,140380,1,2,3:2:0:0:
109,234,140462,1,2,0:0:0:0:
109,234,140544,1,2,3:2:0:0:
219,199,140708,6,0,B|248:188|248:188|297:199,1,77.0000023498536,6|8,3:2|0:2,0:0:0:0:
333,306,141036,2,0,B|305:295|305:295|254:305,1,77.0000023498536,6|0,3:2|0:0,0:0:0:0:
159,321,141364,1,2,3:2:0:0:
109,234,141528,2,0,B|72:240|72:240|65:239|65:239|23:247,1,77.0000023498536,10|2,0:0|3:0,0:0:0:0:
5,147,141856,6,0,B|31:138|56:137|56:137|74:120|74:120|92:111|130:109,1,125.999996154785,6|2,3:2|0:0,0:0:0:0:
203,121,142348,2,0,P|257:155|334:126,1,125.999996154785,0|0,3:0|3:0,0:0:0:0:
366,79,142839,1,8,0:0:0:0:
505,174,143167,5,0,3:0:0:0:
505,174,143331,2,0,P|497:216|494:245,1,62.9999980773926,0|0,3:0|0:0,0:0:0:0:
421,273,143659,2,0,P|429:315|432:344,1,62.9999980773926,0|0,3:0|0:0,0:0:0:0:
357,372,143987,1,0,3:0:0:0:
290,323,144151,2,0,P|254:333|221:329,1,62.9999980773926,8|0,0:0|3:0,0:0:0:0:
170,255,144479,6,0,B|225:241|225:241|237:228|237:228|290:216,1,125.999996154785,6|0,3:2|0:0,0:0:0:0:
343,139,144971,2,0,B|361:113|356:73|334:46|334:46|314:66,1,125.999996154785,6|0,3:2|3:0,0:0:0:0:
260,125,145462,1,8,0:0:0:0:
132,31,145790,5,0,3:0:0:0:
132,31,145954,2,0,P|94:38|63:45,1,62.9999980773926,0|0,3:0|0:0,0:0:0:0:
18,107,146282,2,0,P|54:153|49:223,1,125.999996154785,0|0,3:0|3:0,0:0:0:0:
16,292,146774,2,0,P|76:311|110:302,1,94.499997116089,8|0,0:0|0:0,0:0:0:0:
123,285,147102,6,0,B|174:293|174:293|195:283|195:283|250:292,1,125.999996154785,6|0,3:2|0:0,0:0:0:0:
320,233,147594,2,0,B|331:189|303:151|303:151|320:104,1,125.999996154785,0|0,3:2|3:0,0:0:0:0:
389,54,148085,2,0,P|426:58|454:71,1,62.9999980773926,8|0,0:0|0:0,0:0:0:0:
491,145,148413,5,0,3:0:0:0:
491,145,148577,2,0,P|450:154|422:162,1,62.9999980773926,0|0,3:0|0:0,0:0:0:0:
406,238,148905,2,0,P|437:297|415:360,1,125.999996154785,0|0,3:0|3:0,0:0:0:0:
342,372,149397,2,0,P|301:363|273:355,1,62.9999980773926,8|0,0:0|3:0,0:0:0:0:
207,319,149725,6,0,B|198:247|203:289|188:180,1,125.999996154785,0|4,3:0|0:0,0:0:0:0:
151,121,150217,2,0,P|81:108|25:146,1,125.999996154785,0|0,3:0|3:0,0:0:0:0:
0,207,150708,2,0,B|6:254|4:233|8:269,1,62.9999980773926,8|0,0:0|0:0,0:0:0:0:
65,336,151036,5,6,3:2:0:0:
65,336,151200,2,0,P|93:344|136:339,1,62.9999980773926,0|0,3:0|0:0,0:0:0:0:
207,319,151528,2,0,P|235:311|278:316,1,62.9999980773926,0|0,3:0|0:0,0:0:0:0:
342,350,151856,1,0,3:0:0:0:
412,292,152020,2,8,B|403:252|403:252|410:233|410:233|399:181,1,105
394,162,152348,6,0,B|319:153|328:191|255:182,2,140,6|8|0,3:2|0:0|0:0,0:0:0:0:
483,180,153167,1,0,3:0:0:0:
508,92,153331,2,0,P|504:57|498:22,1,70,8|0,0:0|0:0,0:0:0:0:
409,1,153659,6,0,P|402:35|398:70,1,70,0|0,3:0|0:0,0:0:0:0:
308,89,153987,2,0,P|255:56|179:72,1,140,8|0,0:0|0:0,0:0:0:0:
108,124,154479,1,0,3:0:0:0:
176,183,154643,2,0,P|169:217|165:252,1,70,8|0,0:0|3:0,0:0:0:0:
77,279,154971,6,0,P|72:244|66:209,1,70,0|0,3:0|0:0,0:0:0:0:
10,338,155298,2,0,P|72:368|148:331,1,140,8|0,0:0|0:0,0:0:0:0:
184,267,155790,1,0,3:0:0:0:
273,284,155954,2,0,P|268:320|278:356,1,70,8|0,0:0|0:0,0:0:0:0:
369,374,156282,5,0,3:0:0:0:
369,374,156446,1,0,3:0:0:0:
437,313,156610,2,0,P|470:318|513:326,1,70,8|0,0:0|3:0,0:0:0:0:
480,214,156938,2,0,B|422:223|422:223|407:216|407:216|335:227,1,140,0|8,3:0|0:0,0:0:0:0:
267,174,157430,1,0,3:0:0:0:
323,102,157594,6,0,P|385:115|450:80,2,140,6|8|0,3:2|0:0|0:0,0:0:0:0:
248,49,158413,1,0,3:0:0:0:
169,94,158577,2,0,P|179:138|183:166,1,70,8|0,0:0|0:0,0:0:0:0:
196,253,158905,6,0,P|159:263|120:258,1,70,0|0,3:0|0:0,0:0:0:0:
39,235,159233,2,0,B|28:148|75:178|59:69,1,140,8|0,0:0|0:0,0:0:0:0:
111,22,159725,1,0,3:0:0:0:
169,94,159889,2,0,P|204:100|243:92,1,70,8|0,0:0|3:0,0:0:0:0:
317,48,160217,6,0,P|311:24|308:10,2,35,0|0|0,3:0|3:0|3:0,0:0:0:0:
399,86,160544,2,0,P|391:133|388:159,1,70,8|0,0:0|3:0,0:0:0:0:
374,248,160872,1,0,3:0:0:0:
374,248,161036,1,0,3:0:0:0:
296,199,161200,2,0,P|261:190|218:198,1,70,8|0,0:0|3:0,0:0:0:0:
142,227,161528,6,0,P|150:252|153:268,3,35,0|0|0|0,3:0|3:0|3:0|3:0,0:0:0:0:
134,287,161856,2,0,P|153:304|164:317,3,35,8|8|8|8,0:0|0:0|0:0|0:0,0:0:0:0:
155,342,162184,2,0,P|180:347|196:352,3,35,0|0|0|0,3:0|3:0|3:0|3:0,0:0:0:0:
207,376,162512,2,0,P|239:366|283:358,1,70,8|0,0:0|3:0,0:0:0:0:
368,351,162839,5,6,3:2:0:0:
368,351,163003,2,0,P|374:313|379:281,1,70,8|0,3:2|0:0,0:0:0:0:
433,209,163331,1,8,3:2:0:0:
433,209,163495,2,0,P|439:171|444:139,1,70,8|0,3:2|0:0,0:0:0:0:
358,121,163823,5,8,3:2:0:0:
358,121,163987,2,0,P|352:159|347:191,1,70,8|0,3:2|0:0,0:0:0:0:
293,263,164315,1,8,3:2:0:0:
293,263,164479,2,0,P|287:301|282:333,1,70,8|0,3:2|0:0,0:0:0:0:
203,369,164807,5,8,3:2:0:0:
203,369,164971,1,8,3:2:0:0:
203,369,165135,2,0,P|162:356|122:359,1,70,8|8,3:2|3:2,0:2:0:0:
69,300,165462,5,8,3:2:0:0:
69,300,165626,2,0,P|32:306|0:298,1,70,8|0,3:2|0:0,0:0:0:0:
37,216,165954,1,8,3:2:0:0:
37,216,166118,2,0,P|13:186|4:155,1,70,8|0,3:2|0:0,0:0:0:0:
98,143,166446,5,8,3:2:0:0:
98,143,166610,2,0,P|111:107|134:84,1,70,8|0,3:2|0:0,0:0:0:0:
192,162,166938,1,8,3:2:0:0:
192,162,167102,2,0,P|229:155|261:164,1,70,8|0,3:2|0:0,0:0:0:0:
344,220,167430,5,8,3:2:0:0:
344,220,167594,1,8,3:2:0:0:
344,220,167757,2,0,P|356:184|358:144,1,70,8|8,3:2|3:2,0:0:0:0:
346,66,168085,5,6,3:2:0:0:
346,66,168249,2,0,B|247:56|284:58|196:49,1,140,8|8,3:2|3:2,0:0:0:0:
121,17,168741,2,0,B|71:22|90:20|46:25,1,70,8|0,3:2|0:0,0:0:0:0:
21,113,169069,5,8,3:2:0:0:
21,113,169233,2,0,B|44:188|1:176|25:256,1,140,8|8,3:2|3:2,0:0:0:0:
65,331,169725,2,0,P|98:339|141:330,1,70,8|0,3:2|0:0,0:0:0:0:
217,294,170053,5,8,3:2:0:0:
217,294,170217,1,8,3:2:0:0:
217,294,170380,2,0,P|213:246|209:209,1,70,8|8,3:2|3:2,0:0:0:0:
253,145,170708,5,6,3:2:0:0:
253,145,170872,2,0,B|337:132|315:184|400:170,1,140,8|8,3:2|3:2,0:0:0:0:
469,211,171364,2,0,P|483:248|480:289,1,70,8|0,3:2|0:0,0:0:0:0:
438,359,171692,5,8,3:2:0:0:
438,359,171856,2,0,B|354:341|367:344|281:329,1,140,8|8,3:2|3:2,0:0:0:0:
217,294,172348,2,0,B|175:303|181:301|138:309,1,70,8|0,3:2|0:0,0:0:0:0:
65,297,172676,5,8,3:2:0:0:
65,297,172839,1,8,3:2:0:0:
65,297,173003,2,0,P|54:253|60:221,1,70,8|8,3:2|3:2,0:0:0:0:
57,229,174643,6,2,B|148:214|121:286|220:258,1,168,2|2,0:0|0:1,0:1:0:0:
262,181,175298,6,2,B|267:141|250:113|250:113|260:88|260:88|253:70|254:41,1,140,2|0,0:2|3:0,0:1:0:0:
432,8,175954,5,6,0:0:0:0:
262,136,180544,6,2,P|223:140|181:146,1,70
255,47,180872,2,2,P|289:51|324:55,1,70,2|0,0:0|3:0,0:0:0:0:
410,133,181200,6,0,B|380:175|380:175|423:220|406:282,1,154.000004699707,6|8,3:2|0:0,0:0:0:0:
334,336,181692,2,0,P|296:321|260:322,1,77.0000023498536,2|0,0:0|3:0,0:0:0:0:
213,232,182020,2,0,P|181:257|163:289,1,77.0000023498536,2|8,0:0|0:0,0:0:0:0:
96,363,182348,1,2,0:0:0:0:
25,291,182512,6,0,P|7:241|29:159,1,115.50000352478,0|0,3:0|0:0,0:0:0:0:
31,153,182839,2,0,P|25:113|19:75,1,77.0000023498536,8|2,0:0|0:0,0:0:0:0:
122,130,183167,2,0,P|116:90|110:52,1,77.0000023498536,0|2,3:0|0:0,0:0:0:0:
214,107,183495,2,0,P|208:67|202:29,1,77.0000023498536,8|2,0:0|0:0,0:0:0:0:
301,12,183823,6,0,B|391:2|366:63|466:45,1,154.000004699707,0|8,3:0|0:0,0:0:0:0:
508,127,184315,2,0,B|500:181|500:173|495:216,1,77.0000023498536,2|0,0:0|3:0,0:0:0:0:
433,281,184643,1,0,3:0:0:0:
384,193,184807,1,8,0:0:0:0:
321,271,184971,1,0,3:0:0:0:
321,271,185053,1,2,0:0:0:0:
321,271,185135,1,2,0:0:0:0:
232,224,185298,6,0,B|216:246|216:246|213:272|225:301,1,77.0000023498536,6|8,3:2|0:2,0:0:0:0:
298,159,185626,2,0,B|307:136|304:110|304:110|288:88,1,77.0000023498536,6|0,3:2|0:0,0:0:0:0:
208,27,185954,2,2,B|175:50|130:42|130:42|113:28|113:28|80:28|48:43,1,154.000004699707,6|2,3:2|0:2,0:0:0:0:
12,140,186446,6,0,B|39:224|39:224|19:247|13:284,1,154.000004699707,6|8,3:2|0:0,0:0:0:0:
94,343,186938,2,0,B|191:323|158:378|250:360,1,154.000004699707,2|0,0:0|3:0,0:0:0:0:
312,288,187430,2,0,P|317:252|303:209,1,77.0000023498536,8|2,0:0|0:0,0:0:0:0:
384,150,187757,5,0,3:0:0:0:
384,150,187921,2,0,P|436:161|468:166,1,77.0000023498536,2|8,0:0|0:0,0:0:0:0:
402,54,188249,2,0,P|364:62|326:68,1,77.0000023498536,2|0,0:0|0:0,0:0:0:0:
227,87,188577,1,0,3:0:0:0:
192,180,188741,2,0,P|208:223|199:269,1,77.0000023498536,8|0,0:0|3:0,0:0:0:0:
159,343,189069,6,0,B|79:329|103:333|-3:315,1,154.000004699707,0|8,3:0|0:0,0:0:0:0:
1,216,189561,2,0,P|1:177|17:137,1,77.0000023498536,2|0,0:0|0:0,0:0:0:0:
80,65,189889,1,0,3:0:0:0:
105,161,190053,1,8,0:0:0:0:
171,85,190217,6,0,P|205:89|254:97,1,77.0000023498536,2|0,0:0|3:0,0:0:0:0:
345,114,190544,1,2,0:0:0:0:
281,191,190708,2,0,P|285:225|293:274,1,77.0000023498536,8|2,0:0|0:0,0:0:0:0:
311,370,191036,1,2,0:0:0:0:
311,370,191200,1,0,3:2:0:0:
398,321,191364,2,0,P|441:331|493:319,1,77.0000023498536,8|0,0:0|3:2,0:0:0:0:
499,229,191692,6,0,B|486:197|487:170|487:170|504:146|504:146|495:118|488:78,1,154.000004699707,6|8,3:2|0:0,0:0:0:0:
409,22,192184,2,0,P|370:14|321:24,1,77.0000023498536,2|0,0:0|0:0,0:0:0:0:
239,56,192512,1,0,3:0:0:0:
301,133,192676,2,0,P|289:181|282:222,1,77.0000023498536,8|2,0:0|0:0,0:0:0:0:
187,234,193003,6,0,P|119:218|70:243,1,115.50000352478,0|0,3:0|0:0,0:0:0:0:
54,253,193331,2,0,P|63:299|68:337,1,77.0000023498536,8|0,0:0|0:0,0:0:0:0:
160,379,193659,1,2,0:0:0:0:
160,379,193823,1,0,3:0:0:0:
236,314,193987,2,0,P|282:323|320:328,1,77.0000023498536,8|0,0:0|3:0,0:0:0:0:
403,284,194315,6,0,P|434:230|384:139,1,154.000004699707,0|8,3:0|0:0,0:0:0:0:
318,93,194807,2,0,P|306:150|303:181,1,77.0000023498536,2|0,0:0|0:0,0:0:0:0:
224,231,195135,1,0,3:0:0:0:
192,136,195298,1,8,0:0:0:0:
118,203,195462,1,0,3:0:0:0:
118,203,195544,1,2,0:0:0:0:
118,203,195626,1,2,3:2:0:0:
103,103,195790,6,0,B|71:109|71:109|63:107|63:107|18:117,1,77.0000023498536,6|8,3:2|0:2,0:0:0:0:
75,6,196118,2,0,B|110:13|110:13|118:11|118:11|150:17,1,77.0000023498536,6|0,3:2|0:0,0:0:0:0:
249,37,196446,1,6,3:2:0:0:
314,112,196610,2,0,P|352:119|397:111,1,77.0000023498536,10|2,0:0|3:2,0:0:0:0:
474,58,196938,6,0,B|502:100|502:100|478:177,1,125.999996154785,6|2,3:2|0:0,0:0:0:0:
452,250,197430,2,0,B|381:240|403:288|321:278,1,125.999996154785,0|0,3:0|3:0,0:0:0:0:
253,260,197921,1,8,0:0:0:0:
314,112,198249,5,0,3:0:0:0:
314,112,198413,2,0,P|316:77|300:38,1,62.9999980773926,0|0,3:0|0:0,0:0:0:0:
229,25,198741,2,0,P|183:60|110:51,1,125.999996154785,0|0,3:0|3:0,0:0:0:0:
37,35,199233,2,0,P|15:84|28:136,1,94.499997116089,8|0,0:0|0:0,0:0:0:0:
34,144,199561,6,0,B|17:239|17:239|65:217,1,125.999996154785,6|0,3:2|0:0,0:0:0:0:
137,209,200053,2,0,B|208:231|208:231|225:212|254:200,1,125.999996154785,6|0,3:2|3:0,0:0:0:0:
345,182,200544,1,8,0:0:0:0:
345,182,200708,6,0,P|358:219|364:247,1,62.9999980773926,6|0,3:2|0:0,0:0:0:0:
445,289,201036,2,0,P|452:258|463:228,1,62.9999980773926,0|0,3:2|0:0,0:0:0:0:
507,144,201364,1,8,0:0:0:0:
507,144,202184,6,0,B|481:152|481:152|425:138,1,70,6|0,3:2|3:0,0:0:0:0:
349,125,202512,2,0,P|335:168|340:201,1,70,10|0,0:0|3:0,0:0:0:0:
283,265,202839,1,10,0:0:0:0:
213,205,203003,2,0,P|178:203|145:216,1,70,0|10,3:0|0:0,0:0:0:0:
95,293,203331,6,0,P|111:241|60:153,1,140,0|0,3:2|3:0,0:0:0:0:
14,106,203823,1,10,0:0:0:0:
14,106,203987,1,0,3:0:0:0:
93,61,204151,6,0,B|115:72|115:72|169:58,1,70,10|0,0:0|3:0,0:0:0:0:
251,43,204479,1,10,0:0:0:0:
251,43,204643,2,0,B|233:123|286:106|270:194,1,140,0|0,3:0|3:0,0:0:0:0:
238,262,205135,6,0,P|270:269|313:260,1,70,10|0,0:0|3:0,0:0:0:0:
386,220,205462,1,10,0:0:0:0:
452,282,205626,2,0,P|461:323|447:369,1,70,0|10,3:0|0:0,0:0:0:0:
368,378,205954,6,0,B|297:366|315:370|213:355,1,140,0|0,3:2|3:0,0:0:0:0:
138,343,206446,1,10,0:0:0:0:
138,343,206610,1,0,3:0:0:0:
85,268,206774,6,0,B|88:238|88:238|84:229|84:229|90:188,1,70,10|0,0:0|3:0,0:0:0:0:
139,123,207102,1,10,0:0:0:0:
176,205,207266,1,0,3:0:0:0:
176,205,207757,6,0,B|201:217|201:217|264:204,1,70,12|0,0:0|3:0,0:0:0:0:
331,186,208085,1,10,0:0:0:0:
387,114,208249,2,0,P|391:76|378:35,1,70,0|10,3:0|0:0,0:0:0:0:
297,12,208577,6,0,P|260:46|155:31,1,140,0|0,3:0|3:0,0:0:0:0:
92,16,209069,1,8,0:0:0:0:
92,16,209233,1,0,3:0:0:0:
30,82,209397,6,0,B|37:109|37:109|37:123|37:123|45:154,1,70,10|0,0:0|3:0,0:0:0:0:
72,242,209725,1,10,0:0:0:0:
72,242,209889,2,0,B|153:229|132:283|214:266,1,140,0|0,3:0|3:0,0:0:0:0:
279,214,210380,6,0,P|293:248|293:286,1,70,10|0,0:0|3:0,0:0:0:0:
330,364,210708,1,10,0:0:0:0:
411,323,210872,2,0,P|446:331|484:325,1,70,0|10,3:0|0:0,0:0:0:0:
509,240,211200,6,0,B|498:159|501:186|491:100,1,140,0|0,3:0|3:0,0:0:0:0:
430,32,211692,2,0,P|391:28|349:42,1,70,10|0,0:0|3:0,0:0:0:0:
279,76,212020,5,10,0:0:0:0:
339,144,212184,1,0,3:0:0:0:
235,159,212348,1,10,0:0:0:0:
295,227,212512,1,0,3:0:0:0:
