osu file format v14

[General]
AudioFilename: audio.mp3
AudioLeadIn: 0
PreviewTime: 175544
Countdown: 0
SampleSet: Soft
StackLeniency: 0.7
Mode: 0
LetterboxInBreaks: 0
WidescreenStoryboard: 1

[Editor]
DistanceSpacing: 1
BeatDivisor: 2
GridSize: 32
TimelineZoom: 1.100001

[Metadata]
Title:No buts!
TitleUnicode:No buts!
Artist:Kawada Mami
ArtistUnicode:川田まみ
Creator:Akitoshi
Version:Level 2
Source:とある魔術の禁書目録Ⅱ
Tags:Corinn -Laura- To aru Majutsu no Index II 2 anime opening op 1 railgun pop jpop j-pop japanese
BeatmapID:3883626
BeatmapSetID:1885417

[Difficulty]
HPDrainRate:3
CircleSize:3.2
OverallDifficulty:4
ApproachRate:5.5
SliderMultiplier:1
SliderTickRate:1

[Events]
//Background and Video events
0,0,"biribiri.jpg",0,0
//Break Periods
2,79104,88272
2,176154,179419
//Storyboard Layer 0 (Background)
//Storyboard Layer 1 (Fail)
//Storyboard Layer 2 (Pass)
//Storyboard Layer 3 (Foreground)
//Storyboard Layer 4 (Overlay)
//Storyboard Sound Samples

[TimingPoints]
217,327.868852459017,4,2,2,70,1,0
9397,-100,4,2,1,70,0,0
10217,-100,4,2,2,70,0,0
10708,-100,4,2,2,50,0,0
13331,-100,4,2,2,70,0,0
13659,-100,4,2,1,40,0,0
14315,-100,4,2,1,50,0,0
15298,-100,4,2,2,60,0,0
15954,-100,4,2,1,70,0,0
20544,-100,4,2,1,50,0,0
20872,-100,4,2,1,70,0,0
21200,-100,4,2,1,50,0,0
31692,-100,4,2,1,70,0,0
52676,-90.9090909090909,4,2,2,80,0,1
62676,-90.9090909090909,4,2,1,80,0,0
63167,-90.9090909090909,4,2,1,80,0,1
73659,-100,4,2,2,60,0,0
78577,-100,4,2,1,50,0,0
78905,-100,4,2,1,70,0,0
89397,-100,4,2,1,50,0,0
97266,-100,4,2,1,70,0,0
120872,-90.9090909090909,4,2,2,80,0,1
130872,-90.9090909090909,4,2,1,80,0,0
131364,-90.9090909090909,4,2,1,80,0,1
141856,-100,4,2,2,60,0,0
152020,-100,4,2,1,60,0,0
152348,-100,4,2,1,70,0,0
173331,-100,4,2,1,40,0,0
174643,-100,4,2,1,70,0,0
175298,-100,4,2,1,70,0,0
175626,-100,4,2,1,40,0,0
175954,-100,4,2,1,70,0,0
181200,-90.9090909090909,4,2,2,80,0,1
185954,-90.9090909090909,4,2,1,80,0,0
186446,-90.9090909090909,4,2,1,80,0,1
196938,-100,4,2,2,60,0,0
202184,-100,4,2,1,70,0,0

[Colours]
Combo1 : 0,255,255
Combo2 : 74,165,255
Combo3 : 255,128,64
Combo4 : 255,224,9

[HitObjects]
211,216,217,6,0,L|318:198,1,100,6|8,3:2|0:0,0:0:0:0:
412,186,872,1,0,3:0:0:0:
412,186,1036,2,0,P|424:144|403:80,1,100,2|2,0:0|0:0,0:0:0:0:
381,49,1528,1,0,3:0:0:0:
286,15,1856,1,10,0:0:0:0:
202,69,2184,2,2,P|160:81|96:60,1,100,2|8,3:1|0:0,0:1:0:0:
7,54,2839,6,0,L|25:155,1,100,0|8,3:0|0:0,0:0:0:0:
117,203,3495,1,0,3:0:0:0:
117,203,3659,2,0,L|99:304,1,100,2|2,0:0|0:0,0:0:0:0:
94,351,4151,1,0,3:0:0:0:
189,381,4479,1,10,0:0:0:0:
276,333,4807,2,2,P|331:350|376:340,1,100,2|8,3:1|0:0,0:1:0:0:
447,277,5462,6,0,L|429:178,1,100,6|8,3:2|0:0,0:0:0:0:
381,96,6118,1,0,3:0:0:0:
381,96,6282,2,0,P|330:115|277:102,1,100,2|2,0:0|0:0,0:0:0:0:
241,83,6774,1,0,3:0:0:0:
175,158,7102,1,10,0:0:0:0:
244,230,7430,2,2,P|263:281|250:334,1,100,2|8,3:1|0:0,0:1:0:0:
165,370,8085,6,0,P|100:361|43:353,1,100,0|8,3:0|0:0,0:0:0:0:
1,279,8741,1,0,3:0:0:0:
55,195,9069,1,0,3:0:0:0:
148,232,9397,2,0,P|196:242|244:230,1,100,8|0,0:0|3:0,0:0:0:0:
288,205,9889,1,8,0:0:0:0:
390,224,10217,1,8,0:0:0:0:
390,224,10380,2,0,L|449:211,1,50,8|8,0:0|0:0,0:0:0:0:
486,197,10708,5,6,3:2:0:0:
486,197,13331,6,0,P|429:177|371:186,1,100,6|0,3:2|3:0,0:0:0:0:
304,231,13987,2,0,P|247:251|189:242,1,100,0|0,3:0|3:0,0:0:0:0:
114,212,14643,1,0,3:0:0:0:
77,120,14971,1,0,3:0:0:0:
143,45,15298,2,0,L|196:54,1,50,2|0,3:2|3:2,0:0:0:0:
227,89,15626,2,2,L|280:80,1,50,8|2,0:0|0:0,0:0:0:0:
325,69,15954,5,6,3:2:0:0:
404,129,16282,2,0,P|426:184|412:235,2,100,8|2|8,0:0|0:0|0:0,0:0:0:0:
325,69,17266,1,0,3:0:0:0:
227,89,17594,2,0,L|174:80,1,50,8|0,0:0|0:0,0:0:0:0:
128,73,17921,2,2,L|145:175,1,100,2|8,0:1|0:0,0:1:0:0:
161,270,18577,5,2,3:2:0:0:
253,306,18905,2,0,P|294:289|354:299,2,100,8|2|8,0:0|0:0|0:0,0:0:0:0:
172,365,19889,1,2,3:2:0:0:
74,343,20217,2,0,L|65:282,1,50,8|0,0:0|3:0,0:0:0:0:
25,265,20544,2,0,L|38:163,1,100,2|8,3:1|0:0,3:0:0:0:
49,120,21036,1,8,0:0:0:0:
49,120,21200,6,0,P|79:136|145:134,1,100,6|8,3:2|0:0,0:0:0:0:
220,70,21856,2,0,P|269:64|314:84,1,100,2|8,0:0|0:0,0:0:0:0:
344,124,22348,2,0,P|335:174|326:239,1,100,2|2,0:0|0:0,0:0:0:0:
319,271,22839,1,8,0:0:0:0:
239,331,23167,2,2,P|243:356|248:388,2,50,10|2|10,0:0|3:2|0:0,0:0:0:0:
159,269,23823,6,0,P|108:285|56:268,1,100,0|8,3:0|0:0,0:0:0:0:
8,189,24479,2,0,B|15:144|14:152|23:82,1,100,2|8,0:0|0:0,0:0:0:0:
26,39,24971,2,0,P|72:58|130:49,1,100,2|0,0:0|0:0,0:0:0:0:
166,32,25462,1,8,0:0:0:0:
246,91,25790,1,2,0:0:0:0:
189,173,26118,2,0,P|193:200|199:240,1,50,8|8,0:0|3:2,0:0:0:0:
202,272,26446,5,0,3:0:0:0:
281,332,26774,1,8,0:0:0:0:
368,284,27102,2,0,P|414:298|476:281,1,100,2|8,0:0|0:0,0:0:0:0:
501,254,27594,2,0,P|491:203|481:141,1,100,2|2,0:0|0:0,0:0:0:0:
472,106,28085,1,8,0:0:0:0:
382,61,28413,2,2,P|387:35|392:4,2,50,2|2|10,0:0|3:2|0:0,0:0:0:0:
295,111,29069,6,0,P|246:94|182:112,1,100,0|8,3:0|0:0,0:0:0:0:
164,137,29561,2,0,P|115:154|51:136,1,100,2|0,0:0|3:0,0:0:0:0:
21,128,30053,2,0,P|34:197|40:245,1,100,8|0,0:0|3:0,0:0:0:0:
53,325,30708,1,8,0:0:0:0:
145,363,31036,1,8,0:0:0:0:
235,320,31364,1,12,0:0:0:0:
242,220,31692,6,0,P|284:202|350:214,1,100,6|8,3:2|0:0,0:0:0:0:
373,172,32184,2,0,P|415:190|481:178,1,100,2|0,0:0|3:0,0:0:0:0:
505,151,32676,1,8,0:0:0:0:
506,51,33003,1,0,3:0:0:0:
412,14,33331,2,0,P|383:22|354:29,1,50,8|0,0:0|0:0,0:0:0:0:
319,50,33659,2,2,P|271:69|211:57,1,100,2|8,0:1|0:0,0:1:0:0:
139,8,34315,5,0,3:0:0:0:
74,87,34643,2,0,P|85:140|95:204,1,100,8|2,0:0|0:0,0:0:0:0:
103,239,35135,1,0,3:0:0:0:
103,239,35298,1,8,0:0:0:0:
177,305,35626,2,0,P|170:338|166:364,2,50,0|0|8,3:0|3:0|0:0,0:0:0:0:
254,241,36282,2,2,P|301:253|347:236,1,100,2|8,3:1|0:0,0:1:0:0:
376,195,36774,1,0,3:0:0:0:
376,195,36938,6,0,B|385:140|385:140|364:113|364:113|375:40,1,150,6|8,3:2|0:2,0:0:0:0:
225,28,37921,2,0,P|174:64|82:52,1,150,8|8,0:0|0:0,0:0:0:0:
45,33,38577,1,8,0:0:0:0:
2,123,38905,2,0,P|6:147|11:182,1,50,8|8,0:0|0:0,0:0:0:0:
48,205,39233,2,0,P|43:229|39:264,1,50,8|8,0:0|0:0,0:0:0:0:
32,304,39561,6,0,B|118:330|118:330|145:322|176:284,1,150,8|8,0:0|0:0,0:0:0:0:
217,154,40544,2,0,B|303:128|303:128|330:136|361:174,1,150,8|8,0:0|0:0,0:0:0:0:
367,210,41200,1,8,0:0:0:0:
337,305,41528,2,0,P|311:313|280:318,1,50,8|8,0:0|0:0,0:0:0:0:
247,346,41856,2,0,P|221:338|190:333,1,50,8|8,0:0|0:2,0:0:0:0:
157,363,42184,5,6,3:2:0:0:
70,311,42512,2,0,P|55:265|75:202,1,100,8|0,0:0|0:0,0:0:0:0:
88,173,43003,1,0,3:0:0:0:
88,173,43167,1,8,0:0:0:0:
175,124,43495,2,0,P|223:135|270:119,1,100,0|8,3:0|0:0,0:0:0:0:
344,52,44151,1,2,0:0:0:0:
344,52,44315,2,0,P|375:60|404:66,1,50,0|8,3:0|0:0,0:0:0:0:
464,134,44807,6,0,P|480:183|468:241,1,100,8|0,0:0|3:0,0:0:0:0:
444,271,45298,2,0,P|395:255|337:267,1,100,8|0,0:0|3:0,0:0:0:0:
305,289,45790,1,8,0:0:0:0:
251,204,46118,2,0,B|267:163|267:163|252:99,1,100,8|0,0:0|3:0,0:0:0:0:
240,60,46610,2,0,P|191:83|132:71,1,100,8|0,0:0|3:0,0:0:0:0:
104,50,47102,2,0,L|50:60,1,50,12|0,0:0|3:0,0:0:0:0:
6,72,47430,5,6,3:2:0:0:
256,192,47594,12,0,49397,0:0:0:0:
256,192,50053,6,0,B|217:173|217:173|146:185,1,100,6|0,3:2|3:0,0:0:0:0:
64,207,50708,1,0,3:0:0:0:
88,303,51036,2,0,P|121:307|146:311,1,50,0|0,3:0|3:0,0:0:0:0:
186,320,51364,6,0,P|235:353|365:305,1,200,2|2,0:0|0:0,0:0:0:0:
394,220,52348,1,2,0:0:0:0:
297,167,52676,6,0,B|244:174|244:174|238:179|238:179|182:187,1,110.000003356934,6|8,3:2|0:0,0:0:0:0:
134,188,53167,2,0,P|117:149|137:70,1,110.000003356934,2|2,0:0|0:0,0:0:0:0:
158,38,53659,1,8,0:0:0:0:
269,18,53987,1,0,3:0:0:0:
269,18,54151,2,0,P|300:22|326:26,1,55.0000016784668,2|8,0:0|0:0,0:0:0:0:
378,34,54479,2,0,P|387:86|398:151,1,110.000003356934,2|2,0:0|0:0,0:0:0:0:
397,197,54971,1,8,0:0:0:0:
329,283,55298,6,0,P|278:270|210:295,1,110.000003356934,0|8,3:0|0:0,0:0:0:0:
178,316,55790,1,2,0:0:0:0:
70,291,56118,2,0,L|57:229,1,55.0000016784668,2|8,0:0|0:0,0:0:0:0:
14,203,56446,2,0,P|21:146|30:85,1,110.000003356934,2|2,0:0|0:0,0:0:0:0:
40,40,56938,1,8,0:0:0:0:
148,21,57266,2,0,P|176:32|201:32,1,55.0000016784668,2|0,3:2|3:2,0:0:0:0:
248,60,57594,2,0,P|276:49|301:48,1,55.0000016784668,8|0,0:0|3:2,0:0:0:0:
354,61,57921,5,4,3:2:0:0:
420,155,58249,1,8,0:0:0:0:
420,155,58413,2,0,P|406:216|398:280,1,110.000003356934,2|2,0:0|0:0,0:0:0:0:
386,319,58905,1,8,0:0:0:0:
386,319,59069,2,0,P|333:301|274:311,1,110.000003356934,2|0,0:0|0:0,0:0:0:0:
228,327,59561,1,8,0:0:0:0:
118,315,59889,1,0,3:0:0:0:
93,207,60217,1,8,0:0:0:0:
155,116,60544,6,0,P|206:129|260:112,1,110.000003356934,0|8,3:0|0:0,0:0:0:0:
290,66,61036,2,0,P|341:53|395:70,1,110.000003356934,2|0,0:0|3:0,0:0:0:0:
432,110,61528,1,8,0:0:0:0:
475,216,61856,1,2,0:0:0:0:
475,216,62020,2,0,P|467:246|459:275,1,55.0000016784668,6|8,3:2|0:0,0:0:0:0:
442,321,62348,1,6,3:2:0:0:
331,330,62676,2,2,P|282:317|222:307,1,110.000003356934,6|2,3:2|0:0,0:0:0:0:
171,289,63167,6,0,P|164:235|186:185,1,110.000003356934,6|8,3:2|0:0,0:0:0:0:
230,151,63659,2,0,P|279:173|333:166,1,110.000003356934,2|2,0:0|3:2,0:0:0:0:
380,136,64151,1,8,0:0:0:0:
369,30,64479,1,0,3:0:0:0:
369,30,64643,2,0,L|306:43,1,55.0000016784668,2|8,0:0|0:0,0:0:0:0:
262,58,64971,2,0,P|209:49|143:38,1,110.000003356934,2|2,0:0|3:2,0:0:0:0:
99,29,65462,1,8,0:0:0:0:
29,113,65790,6,0,P|13:165|27:217,1,110.000003356934,0|8,3:0|0:0,0:0:0:0:
54,265,66282,1,2,0:0:0:0:
146,324,66610,2,0,P|176:329|215:335,1,55.0000016784668,2|8,3:2|0:0,0:0:0:0:
247,361,66938,2,0,P|300:350|364:340,1,110.000003356934,2|2,0:0|0:0,0:0:0:0:
409,329,67430,1,8,0:0:0:0:
475,241,67757,2,0,P|471:214|466:174,1,55.0000016784668,2|0,0:0|3:0,0:0:0:0:
426,151,68085,2,0,P|431:124|435:84,1,55.0000016784668,10|0,0:0|3:0,0:0:0:0:
437,41,68413,5,6,3:2:0:0:
334,15,68741,1,8,0:0:0:0:
334,15,68905,2,0,P|294:41|217:33,1,110.000003356934,2|0,0:0|3:0,0:0:0:0:
184,28,69397,1,8,0:0:0:0:
184,28,69561,2,0,P|204:78|194:131,1,110.000003356934,2|0,0:0|0:0,0:0:0:0:
163,178,70053,1,8,0:0:0:0:
171,287,70380,1,2,0:0:0:0:
265,344,70708,2,0,P|303:337|343:329,1,55.0000016784668,8|0,0:0|3:0,0:0:0:0:
374,334,71036,6,0,P|432:346|483:325,1,110.000003356934,0|8,3:0|0:0,0:0:0:0:
507,281,71528,2,0,P|500:226|492:172,1,110.000003356934,2|0,0:0|3:0,0:0:0:0:
483,117,72020,1,8,0:0:0:0:
393,62,72348,1,0,3:0:0:0:
393,62,72512,2,0,P|363:67|334:62,1,55.0000016784668,6|10,3:2|0:2,0:0:0:0:
284,55,72839,2,0,P|257:108|268:168,1,110.000003356934,6|2,3:2|3:2,0:0:0:0:
279,209,73331,1,10,0:2:0:0:
361,265,73659,6,0,B|419:250|419:250|449:263|449:263|512:249,2,150,6|0|8,3:2|3:0|0:0,0:0:0:0:
270,301,74971,1,0,3:0:0:0:
270,301,75135,2,0,L|217:289,1,50,0|0,3:0|0:0,0:0:0:0:
185,254,75462,2,0,P|131:265|65:273,1,100,0|0,3:0|3:0,0:0:0:0:
36,276,75954,1,8,0:0:0:0:
5,180,76282,6,0,P|5:129|30:78,1,100,4|0,3:2|0:0,0:0:0:0:
60,49,76774,2,0,P|109:76|204:60,1,150,4|8,3:2|0:0,0:0:0:0:
241,36,77430,1,4,3:2:0:0:
310,107,77757,1,0,3:2:0:0:
251,186,78085,1,8,0:0:0:0:
400,175,78577,6,2,B|457:172|446:194|512:187,1,100,2|6,0:0|3:2,0:0:0:0:
285,245,89397,6,0,B|254:262|254:262|181:252,1,100,6|0,3:2|3:0,0:0:0:0:
90,237,90053,2,0,P|72:191|92:131,1,100,8|0,0:0|0:0,0:0:0:0:
106,98,90544,2,0,P|166:135|243:117,1,150,0|2,3:0|0:0,0:0:0:0:
311,48,91364,1,10,0:0:0:0:
411,48,91692,1,2,3:2:0:0:
469,128,92020,6,0,P|460:186|455:239,1,100,0|0,3:0|3:0,0:0:0:0:
407,315,92676,2,0,P|334:307|295:327,1,100,8|0,0:0|0:0,0:0:0:0:
267,340,93167,1,0,3:0:0:0:
171,308,93495,2,0,P|98:316|59:296,1,100,0|0,3:0|0:0,0:0:0:0:
39,270,93987,1,10,0:0:0:0:
4,176,94315,2,0,L|14:107,1,50,10|10,0:0|0:0,0:0:0:0:
19,76,94643,6,0,P|66:63|115:74,1,100,6|0,3:2|3:0,0:0:0:0:
172,156,95298,2,0,P|219:168|268:157,1,100,8|0,0:0|0:0,0:0:0:0:
308,127,95790,1,0,3:0:0:0:
395,175,96118,2,0,P|382:238|374:285,1,100,0|0,3:0|3:0,0:0:0:0:
361,321,96610,1,10,0:0:0:0:
266,287,96938,2,2,P|234:293|211:297,1,50,10|2,0:0|3:2,0:0:0:0:
168,308,97266,6,0,P|121:328|61:315,1,100,0|8,3:0|0:0,0:0:0:0:
35,288,97757,2,0,P|28:236|23:175,1,100,2|0,0:0|3:0,0:0:0:0:
18,138,98249,2,0,P|65:118|125:131,1,100,8|0,0:0|3:0,0:0:0:0:
198,175,98905,1,8,0:0:0:0:
298,176,99233,1,8,0:0:0:0:
365,102,99561,1,12,0:0:0:0:
317,14,99889,6,0,P|266:20|212:30,1,100,6|8,3:2|0:0,0:0:0:0:
171,47,100380,2,0,P|120:40|66:31,1,100,2|0,0:0|3:0,0:0:0:0:
22,23,100872,1,8,0:0:0:0:
0,120,101200,1,0,3:0:0:0:
71,190,101528,2,0,L|131:180,1,50,10|0,0:0|0:0,0:0:0:0:
169,171,101856,2,2,P|216:188|273:178,1,100,2|8,0:1|0:0,0:1:0:0:
346,122,102512,5,0,3:0:0:0:
442,147,102839,2,0,P|433:198|428:255,1,100,8|2,0:0|0:0,0:0:0:0:
424,299,103331,1,0,3:0:0:0:
424,299,103495,1,8,0:0:0:0:
327,326,103823,2,0,P|331:350|335:375,2,50,0|0|8,3:0|3:0|0:0,0:0:0:0:
254,256,104479,2,2,P|207:237|146:249,1,100,2|8,3:1|0:0,0:1:0:0:
115,263,104971,1,0,3:0:0:0:
115,263,105135,6,0,B|81:218|81:218|114:108,1,150,6|8,3:2|0:2,0:0:0:0:
233,46,106118,2,0,P|294:83|381:60,1,150,8|8,0:0|0:0,0:0:0:0:
403,33,106774,1,8,0:0:0:0:
482,93,107102,2,0,P|478:122|474:150,1,50,8|8,0:0|0:0,0:0:0:0:
435,173,107430,2,0,P|438:202|443:230,1,50,8|8,0:0|0:0,0:0:0:0:
446,272,107757,6,0,B|361:254|361:254|338:281|303:293,1,150,8|8,0:0|0:0,0:0:0:0:
195,193,108741,2,0,B|220:147|205:86|205:86|164:59,1,150,8|8,0:0|0:0,0:0:0:0:
126,42,109397,1,8,0:0:0:0:
38,90,109725,2,0,P|42:122|47:148,1,50,8|8,0:0|0:0,0:0:0:0:
81,174,110053,2,0,P|76:206|72:232,1,50,8|8,0:0|0:0,0:0:0:0:
63,272,110380,5,6,3:2:0:0:
127,348,110708,2,0,P|169:368|233:359,1,100,8|0,0:0|0:0,0:0:0:0:
268,341,111200,1,0,3:0:0:0:
268,341,111364,1,8,0:0:0:0:
314,252,111692,2,0,P|366:261|417:269,1,100,0|8,3:0|0:0,0:0:0:0:
493,208,112348,1,2,0:0:0:0:
493,208,112512,2,0,P|489:178|484:148,1,50,0|8,3:0|0:0,0:0:0:0:
421,81,113003,6,0,P|371:99|314:85,1,100,8|0,0:0|3:0,0:0:0:0:
277,78,113495,2,0,P|296:126|285:174,1,100,8|0,0:0|3:0,0:0:0:0:
260,214,113987,1,8,0:0:0:0:
184,279,114315,2,0,B|142:275|142:275|128:280|128:280|81:274,1,100,8|0,0:0|3:0,0:0:0:0:
35,267,114807,2,0,P|26:218|44:172,1,100,8|0,0:0|3:0,0:0:0:0:
78,136,115298,2,0,L|67:76,1,50,12|0,0:0|3:0,0:0:0:0:
57,37,115626,5,6,3:2:0:0:
256,192,115790,12,0,117594,0:0:0:0:
230,284,118249,6,0,B|267:297|267:297|340:284,1,100,6|0,3:2|3:0,0:0:0:0:
425,268,118905,1,0,3:0:0:0:
394,172,119233,2,0,P|371:166|342:161,1,50,0|0,3:0|3:0,0:0:0:0:
295,155,119561,6,0,B|186:174|209:96|88:129,1,200,2|2,0:0|0:0,0:0:0:0:
22,185,120544,1,2,0:0:0:0:
40,293,120872,6,0,B|98:309|98:309|121:305|147:285,1,110.000003356934,6|8,3:2|0:0,0:0:0:0:
190,260,121364,2,0,P|233:285|311:276,1,110.000003356934,2|2,0:0|0:0,0:0:0:0:
345,271,121856,1,8,0:0:0:0:
401,181,122184,1,0,3:0:0:0:
401,181,122348,2,0,P|405:150|409:124,1,55.0000016784668,2|8,0:0|0:0,0:0:0:0:
414,71,122676,2,0,P|360:82|309:64,1,110.000003356934,2|2,0:0|0:0,0:0:0:0:
258,44,123167,1,8,0:0:0:0:
168,108,123495,6,0,P|175:155|184:221,1,110.000003356934,0|8,3:0|0:0,0:0:0:0:
190,271,123987,1,2,0:0:0:0:
119,355,124315,2,0,P|86:344|62:341,1,55.0000016784668,2|8,0:0|0:0,0:0:0:0:
15,319,124643,2,0,P|36:266|26:201,1,110.000003356934,2|2,0:0|0:0,0:0:0:0:
10,163,125135,1,8,0:0:0:0:
66,69,125462,2,0,P|93:73|119:80,1,55.0000016784668,2|0,3:2|3:2,0:0:0:0:
168,108,125790,2,0,P|195:103|221:97,1,55.0000016784668,10|0,0:2|3:2,0:0:0:0:
272,74,126118,5,6,3:2:0:0:
381,109,126446,1,8,0:0:0:0:
381,109,126610,2,0,P|361:157|378:223,1,110.000003356934,2|2,0:0|0:0,0:0:0:0:
393,269,127102,1,8,0:0:0:0:
393,269,127266,2,0,P|336:277|274:289,1,110.000003356934,2|0,0:0|0:2,0:0:0:0:
230,295,127757,1,8,0:0:0:0:
123,268,128085,1,0,3:0:0:0:
91,162,128413,1,8,0:0:0:0:
142,64,128741,6,0,P|193:77|248:56,1,110.000003356934,0|8,3:0|0:0,0:0:0:0:
290,25,129233,2,0,P|351:34|415:45,1,110.000003356934,2|0,0:0|3:0,0:0:0:0:
452,53,129725,1,8,0:0:0:0:
495,160,130053,1,2,0:0:0:0:
495,160,130217,2,0,P|502:196|495:231,1,55.0000016784668,6|8,3:2|0:0,0:0:0:0:
469,259,130544,1,6,3:2:0:0:
366,219,130872,2,2,B|301:209|321:245|238:235,1,110.000003356934,6|2,3:2|0:0,0:0:0:0:
213,206,131364,6,0,P|165:181|99:186,1,110.000003356934,6|8,3:2|0:0,0:0:0:0:
57,199,131856,2,0,P|65:257|75:315,1,110.000003356934,2|0,0:0|3:0,0:0:0:0:
82,362,132348,1,8,0:0:0:0:
195,379,132676,1,0,3:0:0:0:
195,379,132839,2,0,L|258:366,1,55.0000016784668,2|8,0:0|0:0,0:0:0:0:
290,331,133167,2,0,P|347:341|411:353,1,110.000003356934,2|0,0:0|3:0,0:0:0:0:
453,356,133659,1,8,0:0:0:0:
504,258,133987,6,0,P|512:201|494:144,1,110.000003356934,0|8,3:0|0:0,0:0:0:0:
461,109,134479,1,2,0:0:0:0:
356,74,134807,2,0,P|321:80|287:86,1,55.0000016784668,0|8,3:0|0:0,0:0:0:0:
246,83,135135,2,0,P|186:70|132:87,1,110.000003356934,2|2,0:0|0:0,0:0:0:0:
98,118,135626,1,8,0:0:0:0:
115,226,135954,2,0,P|146:221|179:215,1,55.0000016784668,2|0,0:2|3:2,0:0:0:0:
219,192,136282,2,0,P|250:197|283:203,1,55.0000016784668,10|0,0:2|3:2,0:0:0:0:
327,214,136610,5,6,3:2:0:0:
440,232,136938,1,8,0:0:0:0:
440,232,137102,2,0,P|455:187|433:120,1,110.000003356934,2|0,0:0|3:0,0:0:0:0:
414,85,137594,1,8,0:0:0:0:
414,85,137757,2,0,P|369:100|302:78,1,110.000003356934,2|0,0:0|0:0,0:0:0:0:
266,49,138249,1,8,0:0:0:0:
180,117,138577,1,2,0:0:0:0:
240,209,138905,2,0,P|244:237|248:264,1,55.0000016784668,8|0,0:0|3:0,0:0:0:0:
249,318,139233,6,0,P|186:341|124:325,1,110.000003356934,0|8,3:0|0:0,0:0:0:0:
96,307,139725,2,0,P|100:252|79:202,1,110.000003356934,2|0,0:0|3:0,0:0:0:0:
43,160,140217,1,8,0:0:0:0:
93,64,140544,1,2,3:2:0:0:
93,64,140708,2,0,P|121:68|152:72,1,55.0000016784668,6|8,3:2|0:2,0:0:0:0:
196,97,141036,2,0,B|249:86|237:90|304:77,1,110.000003356934,6|2,3:2|3:2,0:0:0:0:
357,62,141528,1,10,0:0:0:0:
437,121,141856,6,0,B|441:153|454:177|454:177|440:215|440:215|450:237|452:264,2,150,6|0|8,3:2|3:0|0:0,0:0:0:0:
352,171,143167,1,0,3:0:0:0:
352,171,143331,2,0,P|314:175|290:167,1,50,0|0,3:0|0:0,0:0:0:0:
253,160,143659,2,0,P|273:209|258:268,1,100,0|0,3:0|3:0,0:0:0:0:
240,297,144151,1,8,0:0:0:0:
141,314,144479,6,0,P|135:271|128:209,1,100,6|0,3:2|0:0,0:0:0:0:
84,189,144971,2,0,P|89:146|97:84,1,100,6|0,3:2|3:0,0:0:0:0:
106,40,145462,1,8,0:0:0:0:
206,19,145790,1,0,3:0:0:0:
206,19,145954,2,0,P|233:19|259:27,1,50,0|0,3:0|0:0,0:0:0:0:
290,60,146282,2,0,P|344:51|399:42,1,100,0|0,3:0|3:0,0:0:0:0:
438,33,146774,1,8,0:0:0:0:
495,114,147102,6,0,P|512:162|492:222,1,100,6|0,3:2|0:0,0:0:0:0:
463,241,147594,2,0,P|415:224|355:244,1,100,0|0,3:2|3:0,0:0:0:0:
324,259,148085,1,8,0:0:0:0:
231,235,148413,1,0,3:0:0:0:
231,235,148577,2,0,P|235:206|239:186,1,50,0|0,3:0|0:0,0:0:0:0:
250,136,148905,2,0,P|202:153|142:133,1,100,0|0,3:0|3:0,0:0:0:0:
111,118,149397,1,8,0:0:0:0:
21,162,149725,6,0,P|27:187|37:269,1,100,0|4,3:0|0:0,0:0:0:0:
41,310,150217,2,0,P|89:299|135:316,1,100,0|0,3:0|3:0,0:0:0:0:
171,350,150708,1,8,0:0:0:0:
273,369,151036,1,6,3:2:0:0:
273,369,151200,2,0,L|336:358,1,50,0|0,3:0|0:0,0:0:0:0:
371,351,151528,2,0,P|381:296|359:246,1,100,0|0,3:0|3:0,0:0:0:0:
332,218,152020,2,8,L|343:155,1,50
350,119,152348,5,6,3:2:0:0:
266,64,152676,2,0,P|218:85|159:72,1,100,8|0,0:0|0:0,0:0:0:0:
129,63,153167,1,0,3:0:0:0:
129,63,153331,1,8,0:0:0:0:
49,123,153659,2,0,L|57:186,1,50,0|0,3:0|0:0,0:0:0:0:
63,222,153987,2,0,P|112:216|156:236,1,100,8|0,0:0|0:0,0:0:0:0:
194,278,154479,1,0,3:0:0:0:
194,278,154643,2,0,L|251:270,1,50,8|0,0:0|3:0,0:0:0:0:
293,266,154971,5,0,3:0:0:0:
319,169,155298,2,0,P|306:121|331:58,1,100,8|0,0:0|0:0,0:0:0:0:
356,39,155790,1,0,3:0:0:0:
356,39,155954,1,8,0:0:0:0:
450,72,156282,2,0,L|499:63,2,50,0|0|8,3:0|3:0|0:0,0:0:0:0:
409,163,156938,2,0,B|415:211|415:211|418:216|418:216|425:272,1,100,0|8,3:0|0:0,0:0:0:0:
432,315,157430,1,0,3:0:0:0:
432,315,157594,5,6,3:2:0:0:
341,356,157921,2,0,P|277:364|230:343,1,100,8|0,0:0|0:0,0:0:0:0:
207,327,158413,1,0,3:0:0:0:
207,327,158577,1,8,0:0:0:0:
248,235,158905,2,0,P|243:206|240:185,1,50,0|0,3:0|0:0,0:0:0:0:
232,135,159233,2,0,P|188:157|133:149,1,100,8|0,0:0|0:0,0:0:0:0:
104,123,159725,1,0,3:0:0:0:
104,123,159889,2,0,L|34:138,1,50,8|0,0:0|3:0,0:0:0:0:
6,146,160217,6,0,B|19:185|19:185|16:203|16:203|31:256,1,100,0|8,3:0|0:0,0:0:0:0:
52,338,160872,1,0,3:0:0:0:
147,368,161200,1,8,0:0:0:0:
225,305,161528,2,0,P|283:321|334:302,1,100,0|8,3:0|0:0,0:0:0:0:
379,229,162184,2,0,L|366:173,1,50,0|0,3:0|3:0,0:0:0:0:
331,145,162512,2,0,L|344:89,1,50,8|0,0:0|3:0,0:0:0:0:
353,50,162839,5,6,3:2:0:0:
353,50,163003,2,0,P|317:61|255:49,1,100,8|8,3:2|3:2,0:0:0:0:
211,28,163495,1,8,3:2:0:0:
133,89,163823,1,8,3:2:0:0:
133,89,163987,2,0,P|145:151|150:195,1,100,8|8,3:2|3:2,0:0:0:0:
153,237,164479,1,8,3:2:0:0:
228,303,164807,2,0,P|259:298|279:293,1,50,8|8,3:2|3:2,0:0:0:0:
317,263,165135,2,0,P|348:268|368:273,1,50,8|8,3:2|3:2,0:0:0:0:
419,283,165462,5,8,3:2:0:0:
419,283,165626,2,0,P|437:235|423:178,1,100,8|8,3:2|3:2,0:0:0:0:
405,143,166118,1,8,3:2:0:0:
347,68,166446,1,8,3:2:0:0:
347,68,166610,2,0,P|299:86|242:72,1,100,8|8,3:2|3:2,0:0:0:0:
206,55,167102,1,8,3:2:0:0:
151,139,167430,2,0,P|157:164|163:198,1,50,8|8,3:2|3:2,0:0:0:0:
200,219,167757,2,0,P|193:244|188:278,1,50,8|8,3:2|3:2,0:0:0:0:
183,321,168085,5,6,3:2:0:0:
183,321,168249,2,0,P|130:337|74:320,1,100,8|8,3:2|3:2,0:0:0:0:
43,303,168741,1,8,3:2:0:0:
27,208,169069,1,8,3:2:0:0:
27,208,169233,2,0,P|42:161|33:112,1,100,8|8,3:2|3:2,0:0:0:0:
9,68,169725,1,8,3:2:0:0:
100,27,170053,2,0,L|158:34,1,50,8|8,3:2|3:2,0:0:0:0:
175,75,170380,2,0,L|233:68,1,50,8|8,3:2|3:2,0:0:0:0:
278,68,170708,5,6,3:2:0:0:
278,68,170872,2,0,P|322:88|375:82,1,100,8|8,3:2|3:2,0:0:0:0:
418,62,171364,1,8,3:2:0:0:
502,124,171692,1,8,3:2:0:0:
502,124,171856,2,0,P|485:183|481:238,1,100,8|8,3:2|3:2,0:0:0:0:
475,271,172348,1,8,3:2:0:0:
378,297,172676,2,0,P|345:288|310:288,1,50,8|8,3:2|3:2,0:0:0:0:
286,260,173003,2,0,P|253:269|218:269,1,50,8|8,3:2|3:2,0:0:0:0:
237,270,174643,6,2,B|111:244|160:343|9:305|9:305|48:297|73:277,1,300,2|0,0:0|3:0,0:1:0:0:
104,192,175954,1,6,0:0:0:0:
256,192,180544,6,2,L|189:203,1,50
162,225,180872,2,2,L|95:214,1,50,2|0,0:0|3:0,0:0:0:0:
58,205,181200,5,6,3:2:0:0:
32,103,181528,1,8,0:0:0:0:
32,103,181692,2,0,P|75:81|139:83,1,110.000003356934,2|2,0:0|0:0,0:0:0:0:
192,101,182184,1,8,0:0:0:0:
192,101,182348,2,0,B|245:90|232:95|302:83,1,110.000003356934,2|0,0:0|0:0,0:0:0:0:
355,76,182839,1,8,0:0:0:0:
451,128,183167,1,0,3:0:0:0:
429,235,183495,1,8,0:0:0:0:
325,271,183823,6,0,P|277:262|213:253,1,110.000003356934,0|8,3:0|0:0,0:0:0:0:
179,211,184315,2,0,P|131:220|67:229,1,110.000003356934,2|0,0:0|3:0,0:0:0:0:
15,221,184807,1,8,0:0:0:0:
4,334,185135,1,2,0:0:0:0:
4,334,185298,2,0,P|36:338|61:344,1,55.0000016784668,6|8,3:2|0:0,0:0:0:0:
111,355,185626,1,6,3:2:0:0:
207,302,185954,2,2,B|270:293|258:325|322:315,1,110.000003356934,6|2,3:2|0:2,0:0:0:0:
369,312,186446,6,0,B|351:272|351:272|370:198,1,110.000003356934,6|8,3:2|0:0,0:0:0:0:
380,154,186938,2,0,P|326:175|271:164,1,110.000003356934,2|0,0:0|3:0,0:0:0:0:
227,140,187430,1,8,0:0:0:0:
196,248,187757,1,0,3:0:0:0:
196,248,187921,2,0,P|205:288|208:312,1,55.0000016784668,2|8,0:0|0:0,0:0:0:0:
213,356,188249,2,0,P|161:343|106:357,1,110.000003356934,2|0,0:0|3:0,0:0:0:0:
54,374,188741,1,8,0:0:0:0:
1,277,189069,6,0,P|6:219|18:157,1,110.000003356934,0|8,3:0|0:0,0:0:0:0:
30,114,189561,1,2,0:0:0:0:
122,54,189889,2,0,P|156:56|185:63,1,55.0000016784668,0|8,3:0|0:0,0:0:0:0:
226,82,190217,2,0,P|195:133|206:197,1,110.000003356934,2|2,0:0|0:0,0:0:0:0:
216,233,190708,1,8,0:0:0:0:
310,292,191036,2,0,P|334:285|366:281,1,55.0000016784668,2|0,0:0|3:2,0:0:0:0:
397,237,191364,2,0,P|421:243|453:248,1,55.0000016784668,8|0,0:0|3:2,0:0:0:0:
504,234,191692,5,6,3:2:0:0:
502,128,192020,1,8,0:0:0:0:
502,128,192184,2,0,P|450:105|382:113,1,110.000003356934,2|0,0:0|3:0,0:0:0:0:
347,122,192676,1,8,0:0:0:0:
347,122,192839,2,0,P|291:113|232:105,1,110.000003356934,2|0,0:0|0:0,0:0:0:0:
183,96,193331,1,8,0:0:0:0:
91,156,193659,1,2,0:0:0:0:
115,263,193987,1,8,0:0:0:0:
221,288,194315,6,0,P|272:291|329:267,1,110.000003356934,0|8,3:0|0:0,0:0:0:0:
362,228,194807,2,0,P|415:226|470:249,1,110.000003356934,2|0,0:0|3:0,0:0:0:0:
508,283,195298,1,8,0:0:0:0:
459,383,195626,1,2,3:2:0:0:
459,383,195790,2,0,P|427:379|391:376,1,55.0000016784668,6|8,3:2|0:0,0:0:0:0:
349,371,196118,1,6,3:2:0:0:
276,290,196446,2,2,B|269:239|269:239|272:231|272:231|266:180,1,110.000003356934,6|2,3:2|3:2,0:0:0:0:
257,131,196938,6,0,B|221:136|200:143|200:143|172:129|172:129|143:138|103:145,2,150,6|0|8,3:2|3:0|0:0,0:0:0:0:
360,131,198249,1,0,3:0:0:0:
360,131,198413,2,0,P|386:135|412:141,1,50,0|0,3:0|0:0,0:0:0:0:
457,152,198741,2,0,P|476:104|464:44,1,100,0|0,3:0|3:0,0:0:0:0:
434,21,199233,1,8,0:0:0:0:
333,19,199561,6,0,P|285:38|225:26,1,100,6|0,3:2|0:0,0:0:0:0:
189,20,200053,2,0,P|219:82|206:164,1,150,6|8,3:2|0:0,0:0:0:0:
175,197,200708,1,6,3:2:0:0:
217,287,201036,1,0,3:2:0:0:
316,297,201364,1,8,0:0:0:0:
217,67,202184,6,0,B|170:73|170:73|162:78|162:78|113:84,1,100,6|10,3:2|0:0,0:0:0:0:
73,95,202676,1,0,3:0:0:0:
73,95,202839,2,0,P|58:142|73:197,1,100,10|10,0:0|0:0,0:0:0:0:
87,237,203331,2,0,P|134:222|189:237,1,100,0|0,3:2|3:0,0:0:0:0:
223,261,203823,1,10,0:0:0:0:
321,242,204151,1,10,0:0:0:0:
363,153,204479,1,10,0:0:0:0:
363,153,204643,6,0,P|415:149|468:175,1,100,0|0,3:0|3:0,0:0:0:0:
490,205,205135,1,10,0:0:0:0:
502,303,205462,2,0,P|445:309|381:322,1,100,10|10,0:0|0:0,0:0:0:0:
368,353,205954,2,0,P|311:346|247:334,1,100,0|0,3:2|3:0,0:0:0:0:
219,329,206446,1,10,0:0:0:0:
151,254,206774,1,10,0:0:0:0:
195,166,207102,1,10,0:0:0:0:
195,166,207266,1,0,3:0:0:0:
337,210,207757,6,0,P|366:204|403:196,1,50,12|0,0:0|3:0,0:0:0:0:
434,186,208085,2,0,P|445:138|421:80,1,100,10|10,0:0|0:0,0:0:0:0:
396,52,208577,2,0,P|349:67|300:56,1,100,0|0,3:0|3:0,0:0:0:0:
258,29,209069,1,8,0:0:0:0:
171,78,209397,1,10,0:0:0:0:
240,157,209725,1,10,0:0:0:0:
240,157,209889,6,0,P|229:211|222:262,1,100,0|0,3:0|3:0,0:0:0:0:
213,304,210380,1,10,0:0:0:0:
129,359,210708,2,0,P|92:370|23:344,1,100,10|10,0:0|0:0,0:0:0:0:
9,310,211200,2,0,P|16:260|26:211,1,100,0|0,3:0|3:0,0:0:0:0:
42,163,211692,1,10,0:0:0:0:
111,91,212020,2,0,P|142:93|163:89,1,50,10|0,0:0|3:0,0:0:0:0:
211,75,212348,1,10,0:0:0:0:
211,75,212512,1,0,3:0:0:0:
