osu file format v14

[General]
AudioFilename: audio.mp3
AudioLeadIn: 0
PreviewTime: 175544
Countdown: 0
SampleSet: Soft
StackLeniency: 0.7
Mode: 0
LetterboxInBreaks: 0
WidescreenStoryboard: 1

[Editor]
DistanceSpacing: 0.95
BeatDivisor: 4
GridSize: 32
TimelineZoom: 0.6000009

[Metadata]
Title:No buts!
TitleUnicode:No buts!
Artist:Kawada Mami
ArtistUnicode:川田まみ
Creator:Akitoshi
Version:Level 0
Source:とある魔術の禁書目録Ⅱ
Tags:Corinn -Laura- To aru Majutsu no Index II 2 anime opening op 1 railgun pop jpop j-pop japanese
BeatmapID:3883111
BeatmapSetID:1885417

[Difficulty]
HPDrainRate:1
CircleSize:2
OverallDifficulty:1
ApproachRate:2
SliderMultiplier:0.600000005960464
SliderTickRate:0.5

[Events]
//Background and Video events
0,0,"biribiri.jpg",0,0
//Break Periods
2,79105,87837
2,176154,179640
2,202384,206197
//Storyboard Layer 0 (Background)
//Storyboard Layer 1 (Fail)
//Storyboard Layer 2 (Pass)
//Storyboard Layer 3 (Foreground)
//Storyboard Layer 4 (Overlay)
//Storyboard Sound Samples

[TimingPoints]
217,327.868852459017,4,2,2,70,1,0
217,-125,4,2,2,70,0,0
9397,-125,4,2,1,70,0,0
10708,-125,4,2,2,50,0,0
13331,-125,4,2,2,70,0,0
13659,-125,4,2,1,40,0,0
14315,-125,4,2,1,50,0,0
15298,-125,4,2,2,60,0,0
15954,-125,4,2,1,70,0,0
20544,-125,4,2,1,50,0,0
20872,-125,4,2,1,70,0,0
21200,-125,4,2,1,50,0,0
31692,-125,4,2,1,70,0,0
33659,-125,4,2,1,70,0,0
52676,-125,4,2,2,80,0,1
62676,-125,4,2,1,80,0,0
63167,-125,4,2,1,80,0,1
73659,-125,4,2,2,60,0,0
78577,-125,4,2,1,50,0,0
78905,-125,4,2,1,70,0,0
89397,-125,4,2,1,50,0,0
97266,-125,4,2,1,70,0,0
120872,-125,4,2,2,80,0,1
130872,-125,4,2,1,80,0,0
131364,-125,4,2,1,80,0,1
141856,-125,4,2,2,60,0,0
152020,-125,4,2,1,60,0,0
152348,-125,4,2,1,70,0,0
173331,-125,4,2,1,40,0,0
174643,-125,4,2,1,70,0,0
175626,-125,4,2,1,40,0,0
175954,-125,4,2,1,70,0,0
181200,-125,4,2,2,80,0,1
185954,-125,4,2,1,80,0,0
186446,-125,4,2,1,80,0,1
196938,-125,4,2,2,60,0,0
199479,-125,4,2,2,5,0,0
199561,-125,4,2,2,60,0,0
202184,-125,4,2,1,70,0,0

[Colours]
Combo1 : 0,255,255
Combo2 : 74,165,255
Combo3 : 255,128,64
Combo4 : 255,224,9

[HitObjects]
177,67,217,6,0,P|240:39|352:89,2,192.000001907348,6|0|0,3:2|3:0|3:0,0:0:0:0:
113,132,3495,1,0,3:0:0:0:
175,198,4151,2,0,L|273:181,1,96.0000009536742,0|2,3:0|3:1,0:0:0:0:
359,163,5462,6,0,B|385:216|385:216|359:277|359:277|392:341,2,192.000001907348,6|0|0,3:2|3:0|3:0,0:0:0:0:
309,86,8741,1,0,3:0:0:0:
224,120,9397,2,0,B|180:117|156:107|156:107|107:124|107:124|82:113|34:112,1,192.000001907348,8|6,0:0|3:2,0:2:0:0:
256,192,13331,12,6,15954,3:2:0:0:
292,132,18577,6,0,P|223:96|108:113,2,192.000001907348,2|2|6,3:2|3:2|3:2,0:0:0:0:
325,313,22512,6,0,B|219:293|251:357|138:334,1,192.000001907348,0|0,3:0|3:0,0:0:0:0:
19,196,25135,1,0,3:0:0:0:
153,76,26446,6,0,P|236:51|326:103,2,192.000001907348,0|0|0,3:0|3:0|3:0,0:0:0:0:
19,196,30380,2,0,L|214:230,1,192.000001907348,0|6,3:0|3:2,0:0:0:0:
388,254,33003,6,0,P|414:197|399:72,2,192.000001907348,0|0|0,3:0|3:0|3:0,0:0:0:0:
304,291,36282,1,2,3:1:0:0:
224,248,36938,6,0,B|152:238|152:238|120:262|85:266,2,144.000001430511,6|8|8,3:2|0:0|0:0,0:0:0:0:
300,195,39561,2,0,B|318:114|318:114|308:84|281:66,2,144.000001430511,8|8|8,0:0|0:0|0:0,0:0:0:0:
327,282,42184,6,0,P|376:304|467:282,2,144.000001430511,6|8|2,3:2|0:0|0:0,0:0:0:0:
237,265,44807,2,0,B|168:284|168:284|120:263|120:263|49:281,2,192.000001907348,8|8|6,0:0|0:0|3:2,0:0:0:0:
256,192,47757,12,6,50053,3:2:0:0:
262,226,52676,6,0,B|222:227|197:218|197:218|162:233|143:246|143:246|108:247|76:228,1,192.000001907348,6|0,3:2|3:0,0:0:0:0:
17,164,54643,1,0,3:0:0:0:
69,89,55298,2,0,L|175:73,1,96.0000009536742,0|0,3:0|3:0,0:0:0:0:
240,24,56610,2,0,L|346:40,1,96.0000009536742,0|2,3:0|3:2,0:0:0:0:
424,54,57921,6,0,P|464:135|426:233,1,192.000001907348,4|0,3:2|3:0,0:0:0:0:
357,278,59889,1,0,3:0:0:0:
272,246,60544,2,0,P|225:254|167:266,2,96.0000009536742,0|0|2,3:0|3:0|0:0,0:0:0:0:
449,203,63167,6,0,B|464:156|464:156|443:108,1,96.0000009536742,6|0,3:2|0:0,0:0:0:0:
374,56,64479,2,0,B|275:45|294:100|183:80,2,192.000001907348,0|0|0,3:0|3:0|3:0,0:0:0:0:
445,113,67757,1,2,0:0:0:0:
432,203,68413,6,0,P|345:240|252:195,1,192.000001907348,6|0,3:2|3:0,0:0:0:0:
192,142,70380,1,2,0:0:0:0:
119,197,71036,2,0,L|134:304,1,96.0000009536742,0|2,3:0|0:0,0:0:0:0:
202,350,72348,2,0,B|237:347|262:337|262:337|317:353|317:353|341:342|394:336,1,192.000001907348,2|6,3:2|3:2,0:0:0:0:
485,182,74971,6,0,P|490:105|454:47,1,144.000001430511,0|8,3:0|0:0,0:0:0:0:
256,192,76282,12,6,78905,3:2:0:0:
210,244,89397,6,0,P|258:322|399:240,1,288.000002861023,6|10,3:2|0:0,0:0:0:0:
344,171,92020,1,0,3:0:0:0:
266,124,92676,2,0,L|278:19,2,96.0000009536742,8|2|10,0:0|0:0|0:0,0:0:0:0:
180,156,94643,6,0,P|137:135|77:144,2,96.0000009536742,6|8|0,3:2|0:0|0:0,0:0:0:0:
210,242,96610,1,10,0:0:0:0:
162,319,97266,6,0,P|113:328|10:238,2,192.000001907348,0|0|6,3:0|3:0|3:2,0:0:0:0:
331,251,101200,2,0,P|375:244|428:238,1,96.0000009536742,0|2,3:0|0:1,0:0:0:0:
493,176,102512,6,0,P|502:85|435:14,1,192.000001907348,0|0,3:0|3:0,0:0:0:0:
346,15,104479,1,2,3:1:0:0:
277,75,105135,6,0,B|242:69|218:59|218:59|191:71|191:71|165:70|132:75,2,144.000001430511,6|8|8,3:2|0:0|0:0,0:0:0:0:
347,133,107757,2,0,B|392:120|436:122|436:122|454:139|483:149,2,144.000001430511,8|8|8,0:0|0:0|0:0,0:0:0:0:
260,161,110380,6,0,B|242:235|284:226|270:304,2,144.000001430511,6|8|2,3:2|0:0|0:0,0:0:0:0:
202,89,113003,2,0,B|132:84|88:119|88:119|65:98|23:90,2,192.000001907348,8|8|6,0:0|0:0|3:2,0:0:0:0:
256,192,115954,12,6,118249,3:2:0:0:
221,160,120872,6,0,B|261:161|292:144|292:144|317:159|339:161|339:161|366:149|410:153,1,192.000001907348,6|0,3:2|3:0,0:0:0:0:
483,200,122839,1,0,3:0:0:0:
461,288,123495,2,0,P|417:307|357:298,1,96.0000009536742,0|0,3:0|3:0,0:0:0:0:
288,261,124807,2,0,P|242:258|194:278,1,96.0000009536742,0|2,3:0|3:2,0:0:0:0:
114,316,126118,6,0,P|67:249|88:144,1,192.000001907348,6|0,3:2|3:2,0:0:0:0:
151,81,128085,1,0,3:0:0:0:
239,104,128741,2,0,L|342:86,2,96.0000009536742,0|0|2,3:0|3:0|0:0,0:0:0:0:
79,195,131364,6,0,B|84:233|84:233|78:250|78:250|86:293,1,96.0000009536742,6|0,3:2|0:0,0:0:0:0:
156,346,132676,2,0,P|242:369|322:315,2,192.000001907348,0|0|0,3:0|3:0|3:0,0:0:0:0:
85,289,135954,1,2,0:2:0:0:
140,216,136610,6,0,B|241:225|216:168|323:178,1,192.000001907348,6|0,3:2|3:0,0:0:0:0:
414,193,138577,1,2,0:0:0:0:
486,137,139233,2,0,P|491:92|476:44,1,96.0000009536742,0|2,3:0|0:0,0:0:0:0:
386,26,140544,2,0,B|351:25|325:17|325:17|302:39|269:40|269:40|244:22|207:12,1,192.000001907348,2|6,3:2|3:2,0:0:0:0:
256,192,142348,12,0,145790,3:0:0:0:
256,192,147102,12,6,152348,3:2:0:0:
227,173,153659,6,0,P|162:197|59:132,2,192.000001907348,0|0|0,3:0|3:0|3:0,0:0:0:0:
289,105,156938,1,0,3:0:0:0:
374,139,157594,6,0,B|385:222|385:222|399:241|399:241|413:334,2,192.000001907348,6|0|0,3:2|3:0|3:0,0:0:0:0:
289,105,160872,1,0,3:0:0:0:
219,164,161528,2,0,P|211:214|224:263,1,96.0000009536742,0|0,3:0|3:2,0:0:0:0:
271,334,162839,6,0,B|330:322|330:322|363:333|363:333|417:323,2,144.000001430511,6|8|8,3:2|3:2|3:2,0:0:0:0:
181,351,165462,2,0,B|128:372|128:372|39:354,2,144.000001430511,8|8|8,3:2|3:2|3:2,0:0:0:0:
209,264,168085,6,0,B|210:215|182:181|182:181|191:160|197:118,1,144.000001430511,6|8,3:2|3:2,0:0:0:0:
273,15,170053,1,8,3:2:0:0:
339,77,170708,2,0,B|395:68|395:68|426:83|426:83|481:73,1,144.000001430511,6|8,3:2|3:2,0:0:0:0:
511,206,172676,2,0,P|499:251|494:306,1,96.0000009536742,8|0,3:2|0:2,0:0:0:0:
319,353,174643,6,0,B|280:348|247:365|247:365|223:359|196:339|196:339|166:340|138:351,1,192.000001907348,2|6,0:0|3:2,0:0:0:0:
341,201,181200,6,0,B|297:198|272:192|272:192|229:214|229:214|201:200|147:204,1,192.000001907348,6|0,3:2|3:0,0:0:0:0:
97,134,183167,1,0,3:0:0:0:
145,57,183823,2,0,P|187:51|250:77,2,96.0000009536742,0|0|2,3:0|3:0|0:0,0:0:0:0:
48,211,186446,6,0,B|35:267|35:267|44:283|59:308,1,96.0000009536742,6|0,3:2|0:0,0:0:0:0:
128,354,187757,2,0,P|218:369|299:314,2,192.000001907348,0|0|0,3:0|3:0|3:0,0:0:0:0:
54,300,191036,1,2,0:0:0:0:
128,247,191692,6,0,L|108:55,1,192.000001907348,6|0,3:2|3:0,0:0:0:0:
188,12,193659,1,2,0:0:0:0:
266,58,194315,2,0,P|306:72|358:67,1,96.0000009536742,0|2,3:0|0:0,0:0:0:0:
448,49,195626,2,0,B|453:74|465:92|465:92|441:123|437:160|437:160|459:189|469:235,1,192.000001907348,2|6,3:2|3:2,0:0:0:0:
309,316,198249,6,0,P|254:290|166:309,1,144.000001430511,0|8,3:0|0:0,0:0:0:0:
256,192,199561,12,6,202184,3:2:0:0:
307,191,207757,6,0,B|276:226|276:226|228:239|174:214,1,144.000001430511,12|2,0:0|0:0,0:0:0:0:
104,166,209397,2,0,P|88:119|106:70,1,96.0000009536742,10|0,0:0|0:0,0:0:0:0:
181,33,210708,6,0,L|279:47,1,96.0000009536742,10|2,0:0|0:0,0:0:0:0:
350,100,212020,2,0,L|400:90,1,48.0000004768371,10|10,0:0|0:0,0:0:0:0:
