osu file format v14

[General]
AudioFilename: Joint.mp3
AudioLeadIn: 0
PreviewTime: 130588
Countdown: 0
SampleSet: Soft
StackLeniency: 0.5
Mode: 0
LetterboxInBreaks: 0
WidescreenStoryboard: 1

[Editor]
DistanceSpacing: 1.2
BeatDivisor: 4
GridSize: 4
TimelineZoom: 1.8

[Metadata]
Title:JOINT
TitleUnicode:JOINT
Artist:Kawada Mami
ArtistUnicode:川田まみ
Creator:Mariko Sakuragi
Version:Normal
Source:灼眼のシャナⅡ
Tags:shakugan no shana II season 2nd opening anime japanese
BeatmapID:2281380
BeatmapSetID:1051651

[Difficulty]
HPDrainRate:4
CircleSize:4
OverallDifficulty:4
ApproachRate:5.5
SliderMultiplier:1.2
SliderTickRate:2

[Events]
//Background and Video events
0,0,"shana.jpg",0,0
//Break Periods
2,840,2181
2,3506,4848
2,6506,7514
2,88839,89681
2,155506,156181
2,158172,158848
2,160839,161514
2,163506,164181
2,166172,166848
2,168839,169514
2,171505,172181
2,198506,199514
2,206006,207181
//Storyboard Layer 0 (Background)
//Storyboard Layer 1 (Fail)
//Storyboard Layer 2 (Pass)
//Storyboard Layer 3 (Foreground)
//Storyboard Layer 4 (Overlay)
//Storyboard Sound Samples

[TimingPoints]
640,333.333333333333,4,2,1,60,1,0
10639,-100,4,2,1,80,0,0
20806,-100,4,2,1,60,0,0
21306,-100,4,2,1,100,0,0
21973,-100,4,2,1,100,0,1
32639,-100,4,2,1,100,0,0
33306,-100,4,2,1,80,0,0
40723,-100,4,2,1,55,0,0
40973,-100,4,2,1,80,0,0
41389,-100,4,2,1,55,0,0
41639,-100,4,2,1,80,0,0
42056,-100,4,2,1,55,0,0
42306,-100,4,2,1,80,0,0
54639,-100,4,2,1,60,0,0
64639,-100,4,2,1,80,0,0
67139,-100,4,2,1,100,0,1
88639,-100,4,2,1,100,0,0
97306,-100,4,2,1,80,0,0
104723,-100,4,2,1,55,0,0
104973,-100,4,2,1,80,0,0
105389,-100,4,2,1,55,0,0
105639,-100,4,2,1,80,0,0
106056,-100,4,2,1,55,0,0
106306,-100,4,2,1,80,0,0
118639,-100,4,2,1,60,0,0
128639,-100,4,2,1,80,0,0
130639,-100,4,2,1,60,0,0
130806,-100,4,2,1,50,0,0
130973,-100,4,2,1,40,0,0
131139,-100,4,2,1,100,0,1
152639,-100,4,2,1,100,0,0
155639,-100,4,2,1,80,0,0
167973,-100,4,2,2,80,0,0
168639,-100,4,2,1,80,0,0
170639,-100,4,2,2,80,0,0
171306,-100,4,2,1,40,0,0
173306,-100,4,2,2,80,0,0
173806,-100,4,2,1,80,0,0
208473,-100,4,2,1,100,0,1
238973,-100,4,2,1,100,0,0

[Colours]
Combo1 : 236,207,45
Combo2 : 234,44,44
Combo3 : 237,61,149
Combo4 : 237,131,61

[HitObjects]
256,192,640,5,2,0:0:0:0:
256,192,3306,5,8,1:0:0:0:
256,192,5973,6,0,L|176:192,1,60,8|8,1:0|1:0,0:0:0:0:
124,192,6306,1,8,1:0:0:0:
256,192,8639,5,2,0:0:0:0:
256,192,9806,2,0,L|64:192,1,180,2|2,0:0|0:0,0:0:0:0:
32,64,10639,1,12,0:0:0:0:
32,64,10973,1,12,0:0:0:0:
32,64,11306,6,0,L|160:64,1,120,6|8,1:0|0:0,0:0:0:0:
224,160,11973,2,0,L|96:160,1,120,8|8,0:0|0:0,0:0:0:0:
32,256,12639,2,0,L|160:256,1,120,8|8,0:0|0:0,0:0:0:0:
224,352,13306,2,0,L|96:352,1,120,8|8,0:0|0:0,0:0:0:0:
32,352,13806,1,2,0:0:0:0:
32,352,13973,6,0,L|32:224,1,120,8|8,0:0|0:0,0:0:0:0:
128,160,14639,2,0,L|128:288,1,120,8|8,0:0|0:0,0:0:0:0:
224,352,15306,2,0,L|224:224,1,120,8|8,0:0|0:0,0:0:0:0:
224,160,15806,1,2,1:0:0:0:
224,160,15973,2,0,L|352:160,1,120,8|8,0:0|0:0,0:0:0:0:
420,160,16473,1,8,0:0:0:0:
420,160,16639,6,0,L|420:32,1,120,8|8,0:0|0:0,0:0:0:0:
308,96,17306,2,0,L|308:224,1,120,8|8,0:0|0:0,0:0:0:0:
196,160,17973,2,0,L|196:32,1,120,8|8,0:0|0:0,0:0:0:0:
84,96,18639,2,0,L|84:224,1,120,8|8,0:0|0:0,0:0:0:0:
88,292,19139,1,6,0:0:0:0:
88,292,19306,6,0,L|216:292,1,120,8|8,0:0|0:0,0:0:0:0:
280,192,19973,2,0,L|152:192,1,120,8|8,0:0|0:0,0:0:0:0:
88,192,20473,1,6,0:0:0:0:
88,192,20639,5,2,0:0:0:0:
256,192,20806,12,6,21973,1:0:0:0:
384,288,22639,6,0,L|384:160,1,120,2|8,0:0|0:0,0:0:0:0:
384,48,23306,2,0,L|256:48,1,120,2|8,0:0|0:0,0:0:0:0:
208,96,23806,1,2,0:0:0:0:
208,96,23973,2,0,L|88:96,1,120,2|8,0:0|0:0,0:0:0:0:
16,192,24639,6,0,L|144:192,1,120,6|8,0:0|0:0,0:0:0:0:
208,288,25306,2,0,L|88:288,1,120,2|8,0:0|0:0,0:0:0:0:
16,384,25973,2,0,L|144:384,1,120,2|8,0:0|0:0,0:0:0:0:
212,384,26473,1,2,0:0:0:0:
212,384,26639,2,0,L|340:384,1,120,2|8,0:0|0:0,0:0:0:0:
452,384,27306,6,0,L|452:256,1,120,6|8,1:0|0:0,0:0:0:0:
332,304,27973,2,0,L|332:176,1,120,2|8,0:0|0:0,0:0:0:0:
228,240,28639,6,0,L|84:240,1,120,2|8,0:0|0:0,0:0:0:0:
36,240,29139,1,2,0:0:0:0:
36,240,29306,2,0,L|36:368,1,120,2|8,0:0|0:0,0:0:0:0:
144,304,29973,6,0,L|144:176,1,120,6|8,0:0|0:0,0:0:0:0:
144,112,30473,1,2,0:0:0:0:
144,112,30639,2,0,L|264:112,1,120,2|8,0:0|0:0,0:0:0:0:
336,112,31139,1,8,0:0:0:0:
256,192,31306,12,6,32639,1:0:0:0:
448,96,33306,6,0,L|320:96,1,120,2|8,0:0|0:0,0:0:0:0:
288,160,33806,2,0,L|160:160,1,120,2|2,0:0|0:0,0:0:0:0:
96,160,34306,1,8,0:0:0:0:
32,256,34639,2,0,L|168:256,1,120,2|8,0:0|0:0,0:0:0:0:
192,320,35139,2,0,L|336:320,1,120,2|2,0:0|0:0,0:0:0:0:
384,320,35639,1,8,0:0:0:0:
504,320,35973,6,0,L|504:260,1,60,2|2,0:0|0:0,0:0:0:0:
504,188,36306,1,8,0:0:0:0:
408,256,36639,2,0,B|408:320|408:320|344:320,1,120,2|8,0:0|0:0,0:0:0:0:
280,320,37139,1,2,0:0:0:0:
280,320,37306,2,0,L|280:384,2,60,2|2|8,0:0|0:0|0:0,0:0:0:0:
280,244,37806,2,0,L|136:244,1,120,2|2,0:0|0:0,0:0:0:0:
88,244,38306,1,8,0:0:0:0:
16,152,38639,6,0,L|16:8,1,120,2|8,0:0|0:0,0:0:0:0:
88,32,39139,2,0,L|88:176,1,120,2|2,0:0|0:0,0:0:0:0:
88,224,39639,1,8,0:0:0:0:
184,152,39973,2,0,L|320:152,1,120,2|8,0:0|0:0,0:0:0:0:
380,152,40473,1,2,0:0:0:0:
380,152,40639,6,0,L|380:32,1,120,10|8,0:0|0:0,0:0:0:0:
476,104,41306,2,0,L|476:240,1,120,10|8,0:0|0:0,0:0:0:0:
380,296,41973,2,0,L|380:160,1,120,10|8,0:0|0:0,0:0:0:0:
380,104,42473,1,2,0:0:0:0:
380,104,42639,2,0,L|308:104,1,60,2|8,0:0|0:0,0:0:0:0:
248,104,42973,2,0,L|176:104,1,60,8|8,0:0|0:0,0:0:0:0:
116,104,43306,5,2,0:0:0:0:
56,336,43973,2,0,L|184:336,1,120,2|8,0:0|0:0,0:0:0:0:
224,280,44473,2,0,L|360:280,1,120,2|0,0:0|0:0,0:0:0:0:
416,280,44973,1,8,0:0:0:0:
480,176,45306,2,0,L|352:176,1,120,2|8,0:0|0:0,0:0:0:0:
312,120,45806,2,0,L|176:120,1,120,2|2,0:0|0:0,0:0:0:0:
120,120,46306,1,8,0:0:0:0:
56,224,46639,6,0,L|192:224,1,120,2|8,0:0|0:0,0:0:0:0:
280,280,47306,2,0,L|280:160,1,120,2|8,0:0|0:0,0:0:0:0:
280,88,47806,1,2,0:0:0:0:
280,88,47973,2,0,L|400:88,1,120,2|8,0:0|0:0,0:0:0:0:
400,16,48473,2,0,L|264:16,1,120,2|2,0:0|0:0,0:0:0:0:
208,16,48973,1,8,0:0:0:0:
88,16,49306,6,0,B|24:16|24:16|24:80,1,120,2|8,0:0|0:0,0:0:0:0:
24,144,49806,2,0,L|24:264,1,120,2|0,0:0|0:0,0:0:0:0:
24,336,50306,1,8,0:0:0:0:
120,264,50639,2,0,L|120:128,1,120,2|8,0:0|0:0,0:0:0:0:
224,208,51306,6,0,B|288:208|288:208|288:272,1,120,2|8,0:0|0:0,0:0:0:0:
184,320,51973,2,0,B|120:320|120:320|120:256,1,120,2|8,0:0|0:0,0:0:0:0:
120,144,52639,6,0,L|120:72,1,60,2|2,0:0|0:0,0:0:0:0:
120,12,52973,1,8,0:0:0:0:
120,12,53139,2,0,L|32:12,2,60,2|10|2,0:0|0:0|0:0,0:0:0:0:
192,12,53639,1,10,0:0:0:0:
312,12,53973,5,6,1:0:0:0:
312,132,54306,1,2,0:0:0:0:
192,132,54639,2,0,L|192:252,1,120,2|2,0:0|0:0,0:0:0:0:
192,324,55139,1,2,0:0:0:0:
72,192,55639,1,2,0:0:0:0:
72,72,55973,2,0,L|152:72,1,60,2|10,0:0|0:0,0:0:0:0:
204,72,56306,1,2,0:0:0:0:
304,132,56639,5,6,0:0:0:0:
304,12,56973,1,2,0:0:0:0:
408,72,57306,2,0,L|408:216,1,120,2|2,0:0|0:0,0:0:0:0:
408,264,57806,1,2,0:0:0:0:
272,144,58306,1,2,0:0:0:0:
276,268,58639,1,2,0:0:0:0:
276,268,58806,2,0,L|208:268,2,60,8|8|8,0:0|0:0|0:0,0:0:0:0:
348,268,59306,5,6,0:0:0:0:
468,268,59639,1,2,0:0:0:0:
468,148,59973,2,0,L|348:148,1,120,2|2,1:0|1:0,0:0:0:0:
276,148,60473,1,2,0:0:0:0:
396,12,60973,1,2,0:0:0:0:
276,12,61306,2,0,L|208:12,1,60,2|8,0:0|0:0,0:0:0:0:
212,84,61639,2,0,L|276:84,1,60,2|2,0:0|0:0,0:0:0:0:
344,84,61973,6,0,L|344:204,1,120,2|8,0:0|0:0,0:0:0:0:
272,300,62639,2,0,L|272:180,1,120,2|8,0:0|0:0,0:0:0:0:
200,84,63306,2,0,L|200:224,1,120,2|8,0:0|0:0,0:0:0:0:
128,300,63973,2,0,L|128:180,1,120,2|8,0:0|0:0,0:0:0:0:
128,60,64639,6,0,L|200:60,1,60,2|2,0:0|0:0,0:0:0:0:
260,60,64973,2,0,L|324:60,1,60,8|2,0:0|0:0,0:0:0:0:
440,60,65473,2,0,L|440:140,1,60,2|8,0:0|0:0,0:0:0:0:
440,192,65806,1,2,0:0:0:0:
72,316,67139,6,0,P|152:352|236:308,1,180,4|8,1:0|0:0,0:0:0:0:
232,196,67973,2,0,L|352:196,1,120,2|8,0:0|0:0,0:0:0:0:
424,191,68473,2,0,P|438:134|422:77,1,120,2|2,0:0|0:0,0:0:0:0:
352,52,68973,1,8,0:0:0:0:
352,52,69139,2,0,L|232:52,1,120,2|2,0:1|0:0,0:0:0:0:
112,52,69806,6,0,P|148:132|104:216,1,180,6|10,0:0|0:0,0:0:0:0:
44,308,70639,2,0,L|164:308,1,120,2|8,0:0|0:0,0:0:0:0:
236,308,71139,2,0,P|251:250|235:193,1,120,6|2,0:0|0:0,0:0:0:0:
164,192,71639,2,0,L|88:192,1,60,8|0,0:0|0:0,0:0:0:0:
32,192,71973,2,0,P|17:134|33:77,1,120,2|8,0:0|0:0,0:0:0:0:
100,52,72473,1,6,0:0:0:0:
216,192,72973,1,8,0:0:0:0:
296,104,73306,6,0,L|440:104,1,120,2|8,0:0|0:0,0:0:0:0:
488,105,73806,1,2,0:0:0:0:
352,224,74306,2,0,L|272:224,1,60,8|0,0:0|0:0,0:0:0:0:
219,224,74639,2,0,L|219:100,1,120,2|8,0:0|0:0,0:0:0:0:
219,32,75139,6,0,P|163:16|99:36,1,120,6|2,0:0|0:0,0:0:0:0:
60,88,75639,1,8,0:0:0:0:
104,200,75973,2,0,P|159:214|223:194,1,120,2|8,0:0|0:0,0:0:0:0:
221,124,76473,2,0,P|276:108|340:128,1,120,2|2,0:0|0:0,0:0:0:0:
361,192,76973,1,8,0:0:0:0:
464,132,77306,2,0,L|464:72,2,60,8|0|8,3:0|1:0|0:0,0:0:0:0:
464,204,77806,6,0,P|384:240|300:196,1,180,2|12,0:0|0:0,0:0:0:0:
304,84,78639,2,0,P|246:67|189:81,1,120,2|8,0:0|0:0,0:0:0:0:
152,144,79139,2,0,L|152:288,1,120,6|2,0:0|0:0,0:0:0:0:
156,340,79639,1,8,0:0:0:0:
156,340,79806,2,0,P|98:356|41:342,1,120,2|2,0:0|0:0,0:0:0:0:
40,220,80473,6,0,B|48:172|40:128|40:128|68:164|116:184,1,180,6|8,0:0|0:0,0:0:0:0:
192,268,81306,2,0,P|249:284|306:270,1,120,2|8,0:0|0:0,0:0:0:0:
368,232,81806,2,0,P|384:174|370:117,1,120,2|2,0:0|0:0,0:0:0:0:
308,80,82306,2,0,L|236:80,1,60,8|0,0:0|0:0,0:0:0:0:
208,140,82639,2,0,L|60:140,1,120,2|8,0:0|0:0,0:0:0:0:
16,140,83139,1,6,0:0:0:0:
148,264,83639,1,8,0:0:0:0:
220,168,83973,6,0,L|344:168,1,120,2|8,0:0|0:0,0:0:0:0:
412,168,84473,1,2,0:0:0:0:
508,16,84973,2,0,L|436:16,1,60,12|0,0:0|0:0,0:0:0:0:
376,16,85306,2,0,P|360:74|374:131,1,120,2|8,0:0|0:0,0:0:0:0:
448,132,85806,6,0,P|464:190|450:247,1,120,6|2,0:0|0:0,0:0:0:0:
384,276,86306,1,8,0:0:0:0:
304,188,86639,2,0,L|168:188,1,120,2|8,0:0|0:0,0:0:0:0:
256,192,87139,12,8,88639,0:0:0:0:
436,140,90806,6,0,L|436:200,1,60,0|8,0:0|0:0,0:0:0:0:
436,320,91306,6,0,L|360:320,1,60,12|0,1:0|0:0,0:0:0:0:
304,320,91639,1,8,1:0:0:0:
244,216,91973,2,0,L|120:216,1,120,8|8,0:0|0:0,0:0:0:0:
52,216,92473,1,2,0:0:0:0:
184,96,92973,1,8,1:0:0:0:
260,188,93306,2,0,L|336:188,1,60,8|2,0:0|0:0,0:0:0:0:
392,188,93639,1,8,0:0:0:0:
492,252,93973,6,0,L|492:332,1,60,12|0,1:0|0:0,0:0:0:0:
492,384,94306,1,8,1:0:0:0:
392,308,94639,2,0,L|392:160,1,120,8|8,0:0|0:0,0:0:0:0:
392,116,95139,2,0,B|392:56|392:56|328:56,1,120,2|2,0:0|0:0,0:0:0:0:
260,56,95639,1,8,1:0:0:0:
140,56,95973,1,2,0:0:0:0:
140,56,96139,2,0,L|64:56,2,60,8|8|8,0:0|0:0|0:0,0:0:0:0:
140,128,96639,6,0,L|140:204,1,60,2|2,0:0|0:0,0:0:0:0:
140,260,96973,1,8,0:0:0:0:
248,312,97306,2,0,L|248:172,1,120,2|8,0:0|0:0,0:0:0:0:
320,192,97806,2,0,L|320:48,1,120,2|2,0:0|0:0,0:0:0:0:
320,0,98306,1,8,0:0:0:0:
416,72,98639,2,0,L|416:212,1,120,2|8,0:0|0:0,0:0:0:0:
488,192,99139,2,0,L|488:324,1,120,2|2,0:0|0:0,0:0:0:0:
488,384,99639,1,8,0:0:0:0:
392,312,99973,6,0,L|316:312,1,60,2|2,0:0|0:0,0:0:0:0:
260,312,100306,1,8,0:0:0:0:
332,216,100639,2,0,B|392:216|392:216|392:148,1,120,2|8,0:0|0:0,0:0:0:0:
392,84,101139,1,2,0:0:0:0:
392,84,101306,2,0,L|456:84,2,60,2|2|8,0:0|0:0|0:0,0:0:0:0:
320,84,101806,2,0,L|184:84,1,120,2|2,0:0|0:0,0:0:0:0:
128,84,102306,1,8,0:0:0:0:
40,164,102639,6,0,L|40:296,1,120,2|8,0:0|0:0,0:0:0:0:
40,356,103139,2,0,L|168:356,1,120,2|2,0:0|0:0,0:0:0:0:
232,356,103639,1,8,0:0:0:0:
304,260,103973,2,0,L|448:260,1,120,2|8,0:0|0:0,0:0:0:0:
500,260,104473,1,2,0:0:0:0:
500,260,104639,6,0,L|500:140,1,120,10|8,0:0|0:0,0:0:0:0:
424,232,105306,2,8,L|424:352,1,120,10|8,0:0|0:0,0:0:0:0:
348,260,105973,2,8,L|348:140,1,120,10|8,0:0|0:0,0:0:0:0:
348,68,106473,1,2,0:0:0:0:
348,68,106639,2,0,L|272:68,1,60,2|8,0:0|0:0,0:0:0:0:
216,68,106973,2,0,L|144:68,1,60,8|8,0:0|0:0,0:0:0:0:
84,68,107306,5,2,0:0:0:0:
16,300,107973,2,0,L|152:300,1,120,2|8,0:0|0:0,0:0:0:0:
176,360,108473,2,0,L|308:360,1,120,2|2,0:0|0:0,0:0:0:0:
368,364,108973,1,8,0:0:0:0:
488,364,109306,2,0,B|488:236,1,120,2|8,0:0|0:0,0:0:0:0:
416,244,109806,2,0,L|416:100,1,120,2|2,0:0|0:0,0:0:0:0:
416,52,110306,1,8,0:0:0:0:
320,124,110639,6,0,L|188:124,1,120,2|8,0:0|0:0,0:0:0:0:
292,200,111306,2,0,L|172:200,1,120,2|8,0:0|0:0,0:0:0:0:
264,276,111973,2,0,L|136:276,1,120,2|8,0:0|0:0,0:0:0:0:
200,384,112639,6,0,L|336:384,1,120,2|8,0:0|0:0,0:0:0:0:
396,384,113139,1,2,0:0:0:0:
396,384,113306,2,0,L|396:252,1,120,2|8,0:0|0:0,0:0:0:0:
468,264,113806,2,0,L|468:120,1,120,2|2,0:0|0:0,0:0:0:0:
468,72,114306,1,8,0:0:0:0:
372,144,114639,2,0,L|296:144,1,60,2|2,0:0|0:0,0:0:0:0:
252,104,114973,2,0,L|180:104,1,60,8|0,0:0|0:0,0:0:0:0:
120,104,115306,6,0,B|56:104|56:104|56:176,1,120,2|8,0:0|0:0,0:0:0:0:
56,280,115973,2,0,B|120:280|120:280|120:208,1,120,2|8,0:0|0:0,0:0:0:0:
120,104,116639,6,0,L|196:104,1,60,2|2,0:0|0:0,0:0:0:0:
256,108,116973,1,8,0:0:0:0:
256,108,117139,2,0,L|256:32,2,60,2|10|2,0:0|0:0|0:0,0:0:0:0:
256,180,117639,2,0,L|332:180,1,60,10|8,0:0|0:0,0:0:0:0:
392,180,117973,5,6,1:0:0:0:
392,60,118306,1,2,0:0:0:0:
496,120,118639,2,0,L|496:244,1,120,2|2,0:0|0:0,0:0:0:0:
496,312,119139,1,2,0:0:0:0:
416,152,119639,2,0,L|416:80,1,60,2|0,0:0|0:0,0:0:0:0:
416,20,119973,1,2,0:0:0:0:
320,92,120306,1,2,0:0:0:0:
224,20,120639,5,6,0:0:0:0:
104,20,120973,1,2,0:0:0:0:
164,124,121306,2,0,L|164:260,1,120,2|2,0:0|0:0,0:0:0:0:
164,316,121806,1,2,0:0:0:0:
296,192,122306,1,2,0:0:0:0:
300,316,122639,1,2,0:0:0:0:
300,316,122806,2,0,L|240:316,2,60,8|8|8,0:0|0:0|0:0,0:0:0:0:
372,316,123306,5,6,0:0:0:0:
476,380,123639,1,2,0:0:0:0:
476,260,123973,2,0,L|476:128,1,120,2|2,1:0|1:0,0:0:0:0:
476,68,124473,2,0,L|356:68,1,120,2|2,0:0|0:0,0:0:0:0:
284,68,124973,1,2,0:0:0:0:
184,136,125306,2,0,L|184:196,1,60,2|8,0:0|0:0,0:0:0:0:
256,204,125639,2,0,L|256:264,1,60,2|2,0:0|0:0,0:0:0:0:
256,336,125973,6,0,L|392:336,1,120,2|8,0:0|0:0,0:0:0:0:
472,264,126639,2,0,L|324:264,1,120,2|8,0:0|0:0,0:0:0:0:
256,192,127306,2,0,L|384:192,1,120,0|8,0:0|0:0,0:0:0:0:
472,120,127973,2,0,L|328:120,1,120,2|8,0:0|0:0,0:0:0:0:
232,120,128639,6,0,L|172:120,1,60,2|2,0:0|0:0,0:0:0:0:
164,192,128973,2,0,L|88:192,1,60,8|2,0:0|0:0,0:0:0:0:
0,136,129473,2,0,L|0:76,1,60,2|8,0:0|0:0,0:0:0:0:
0,4,129806,1,2,0:0:0:0:
456,172,131139,6,0,P|492:252|448:336,1,180,6|8,1:0|0:0,0:0:0:0:
364,252,131973,2,0,L|228:252,1,120,2|8,0:0|0:0,0:0:0:0:
172,252,132473,2,0,P|158:195|174:138,1,120,2|2,0:0|0:0,0:0:0:0:
244,108,132973,1,8,0:0:0:0:
244,108,133139,2,0,L|364:108,1,120,2|2,0:0|0:0,0:0:0:0:
308,216,133806,6,0,P|228:252|144:208,1,180,6|10,0:0|0:0,0:0:0:0:
88,112,134639,2,0,P|45:153|28:210,1,120,2|8,0:0|0:0,0:0:0:0:
88,252,135139,2,0,P|102:309|143:352,1,120,6|2,0:0|0:0,0:0:0:0:
216,352,135639,2,0,L|292:352,1,60,8|0,0:0|0:0,0:0:0:0:
348,352,135973,2,0,P|388:309|403:251,1,120,2|8,0:0|0:0,0:0:0:0:
404,180,136473,1,6,0:0:0:0:
472,348,136973,1,8,0:0:0:0:
364,292,137306,6,0,L|244:292,1,120,2|8,0:0|0:0,0:0:0:0:
172,288,137806,1,2,0:0:0:0:
336,212,138306,2,0,L|404:212,1,60,8|0,0:0|0:0,0:0:0:0:
468,212,138639,2,0,P|487:156|477:97,1,120,2|8,0:0|0:0,0:0:0:0:
423,48,139139,6,0,P|366:63|308:48,1,120,6|2,0:0|0:0,0:0:0:0:
256,0,139639,1,8,0:0:0:0:
143,48,139973,2,0,P|126:104|140:162,1,120,2|8,0:0|0:0,0:0:0:0:
212,168,140473,2,0,P|228:224|214:283,1,120,2|2,0:0|0:0,0:0:0:0:
156,324,140973,1,8,0:0:0:0:
80,232,141306,2,0,L|16:232,2,60,8|0|8,3:0|1:0|0:0,0:0:0:0:
152,232,141806,6,0,P|188:152|144:68,1,180,2|12,0:0|0:0,0:0:0:0:
264,112,142639,2,0,P|320:128|379:114,1,120,2|8,0:0|0:0,0:0:0:0:
444,84,143139,2,0,P|460:141|446:198,1,120,6|2,0:0|0:0,0:0:0:0:
376,196,143639,1,8,0:0:0:0:
376,196,143806,2,0,P|359:252|373:311,1,120,2|2,0:0|0:0,0:0:0:0:
480,256,144473,6,0,P|471:168|391:117,1,180,6|8,0:0|0:0,0:0:0:0:
308,200,145306,2,0,P|252:217|193:203,1,120,2|8,0:0|0:0,0:0:0:0:
144,256,145806,2,0,P|101:216|83:157,1,120,2|2,0:0|0:0,0:0:0:0:
112,92,146306,2,0,L|176:92,1,60,8|0,0:0|0:0,0:0:0:0:
196,24,146639,2,0,L|340:24,1,120,2|8,0:0|0:0,0:0:0:0:
388,24,147139,1,6,0:0:0:0:
508,160,147639,1,8,0:0:0:0:
388,160,147973,6,0,L|256:160,1,120,2|8,0:0|0:0,0:0:0:0:
196,160,148473,1,2,0:0:0:0:
304,304,148973,2,0,L|372:304,1,60,12|0,0:0|0:0,0:0:0:0:
436,304,149306,6,0,P|453:248|439:189,1,120,2|8,0:0|0:0,0:0:0:0:
368,192,149806,2,0,P|350:135|364:77,1,120,6|2,0:0|0:0,0:0:0:0:
436,80,150306,1,8,0:0:0:0:
336,12,150639,2,0,L|216:12,1,120,2|8,0:0|0:0,0:0:0:0:
256,192,151139,12,2,152639,0:0:0:0:
96,224,153973,6,0,L|96:312,1,60,6|0,1:0|0:0,0:0:0:0:
96,356,154306,1,8,0:0:0:0:
0,284,154639,2,0,L|0:212,1,60,2|4,0:0|0:0,0:0:0:0:
0,152,154973,2,0,L|0:76,1,60,8|2,0:0|0:0,0:0:0:0:
0,20,155306,37,6,1:0:0:0:
316,192,157306,38,0,L|252:192,1,60,8|2,0:0|0:0,0:0:0:0:
184,192,157639,2,0,L|184:56,1,120,8|6,0:0|0:0,0:0:0:0:
292,164,159973,6,0,L|292:228,1,60,2|8,0:0|0:0,0:0:0:0:
220,224,160306,2,0,L|220:140,1,60,8|8,0:0|0:0,0:0:0:0:
220,92,160639,1,6,0:0:0:0:
192,192,162639,38,0,L|264:192,1,60,8|2,0:0|0:0,0:0:0:0:
324,192,162973,2,0,L|324:312,1,120,8|6,0:0|0:0,0:0:0:0:
220,220,165306,6,0,L|220:156,1,60,8|8,0:0|0:0,0:0:0:0:
292,160,165639,2,0,L|292:244,1,60,8|8,0:0|0:0,0:0:0:0:
292,292,165972,1,4,1:0:0:0:
256,132,167973,37,8,0:0:0:0:
256,252,168306,1,8,0:0:0:0:
152,192,168639,1,0,0:0:0:0:
256,264,170639,6,0,L|256:340,2,60,8|8|8,0:0|0:0|0:0,0:0:0:0:
256,192,171139,2,0,L|256:128,1,60,8|6,0:0|0:0,0:0:0:0:
284,228,173306,6,0,L|224:228,1,60,8|0,0:0|0:0,0:0:0:0:
224,156,173639,2,0,L|284:156,2,60,8|8|6,0:0|1:0|0:0,0:0:0:0:
160,52,174306,1,8,1:0:0:0:
40,52,174639,1,8,0:0:0:0:
100,156,174973,1,8,1:0:0:0:
128,272,175306,6,0,L|68:272,1,60,2|2,0:0|0:0,0:0:0:0:
68,344,175639,2,0,L|128:344,1,60,2|2,0:0|0:0,0:0:0:0:
200,344,175973,2,0,L|280:344,2,60,8|8|8,0:0|0:0|0:0,0:0:0:0:
204,272,176473,1,8,0:0:0:0:
204,272,176639,6,0,P|304:212|256:104,1,240,6|2,1:0|0:0,0:0:0:0:
160,160,177639,2,0,L|88:160,1,60,8|2,0:0|0:0,0:0:0:0:
28,160,177973,2,0,P|9:104|19:45,1,120,2|8,0:0|0:0,0:0:0:0:
84,16,178473,1,2,0:0:0:0:
184,84,178806,2,0,L|264:84,1,60,2|8,0:0|0:0,0:0:0:0:
316,84,179139,6,0,P|335:140|325:199,1,120,6|2,0:0|0:0,0:0:0:0:
252,198,179639,2,0,P|233:254|243:313,2,120,8|2|8,0:0|0:0|0:0,0:0:0:0:
325,198,180473,1,2,0:0:0:0:
416,120,180806,1,2,0:0:0:0:
416,120,180973,2,0,L|416:44,1,60,8|2,0:0|0:0,0:0:0:0:
488,60,181306,2,0,L|488:196,1,120,2|8,0:0|0:0,0:0:0:0:
488,252,181806,5,6,0:0:0:0:
420,352,182139,1,2,0:0:0:0:
420,352,182306,2,0,L|336:352,1,60,8|0,0:0|0:0,0:0:0:0:
288,352,182639,2,0,P|274:294|291:236,1,120,2|8,0:0|0:0,0:0:0:0:
360,216,183139,1,2,0:0:0:0:
480,220,183473,1,2,0:0:0:0:
480,220,183639,2,0,L|480:144,1,60,8|0,0:0|0:0,0:0:0:0:
480,88,183973,6,0,P|422:73|364:89,1,120,2|10,0:0|0:0,0:0:0:0:
335,156,184473,2,0,P|278:170|220:155,1,120,6|2,0:0|0:0,0:0:0:0:
180,96,184973,1,8,0:0:0:0:
76,156,185306,2,0,L|76:276,1,120,2|8,0:0|0:0,0:0:0:0:
76,348,185806,1,2,0:0:0:0:
240,276,186306,2,0,L|300:276,1,60,8|8,0:0|3:0,0:0:0:0:
340,336,186639,2,0,L|416:336,2,60,8|2|8,0:0|0:0|0:0,0:0:0:0:
436,264,187306,6,0,P|342:193|401:91,1,240,6|2,0:0|0:0,0:0:0:0:
308,8,188306,2,0,L|244:8,1,60,8|2,0:0|0:0,0:0:0:0:
208,68,188639,2,0,L|84:68,1,120,2|8,0:0|0:0,0:0:0:0:
16,68,189139,1,2,0:0:0:0:
88,164,189473,2,0,L|160:164,1,60,2|8,0:0|0:0,0:0:0:0:
220,164,189806,6,0,P|234:221|219:279,1,120,6|2,0:0|0:0,0:0:0:0:
152,308,190306,2,0,L|28:308,2,120,8|2|8,0:0|0:0|0:0,0:0:0:0:
224,308,191139,1,2,0:0:0:0:
324,372,191473,1,2,0:0:0:0:
324,372,191639,2,0,L|392:372,1,60,8|2,0:0|0:0,0:0:0:0:
456,368,191973,6,0,P|470:311|455:253,1,120,2|8,0:0|0:0,0:0:0:0:
388,224,192473,1,6,0:0:0:0:
268,224,192806,1,2,0:0:0:0:
268,224,192973,2,0,L|184:224,1,60,8|0,0:0|0:0,0:0:0:0:
208,152,193306,2,0,L|344:152,1,120,2|8,0:0|0:0,0:0:0:0:
400,152,193806,1,2,0:0:0:0:
400,332,194306,1,8,0:0:0:0:
484,244,194639,6,0,L|352:244,1,120,2|12,0:0|0:0,0:0:0:0:
292,244,195139,2,0,P|278:187|293:129,1,120,2|2,0:0|0:0,0:0:0:0:
360,100,195639,2,0,L|428:100,1,60,8|0,0:0|0:0,0:0:0:0:
424,28,195973,2,0,L|296:28,1,120,2|8,0:0|0:0,0:0:0:0:
232,28,196473,1,6,0:0:0:0:
84,132,196973,2,0,L|84:204,1,60,12|0,0:0|0:0,0:0:0:0:
156,204,197306,2,0,L|156:284,1,60,2|2,0:0|0:0,0:0:0:0:
156,336,197639,1,12,0:0:0:0:
256,268,197973,5,12,1:0:0:0:
356,336,198306,1,8,1:0:0:0:
460,288,200639,6,0,L|460:156,1,120,8|8,1:0|1:0,0:0:0:0:
388,44,201306,2,0,L|388:188,1,120,2|0,0:0|0:0,0:0:0:0:
316,288,201973,2,0,L|316:144,1,120,2|8,0:0|0:0,0:0:0:0:
244,44,202639,2,0,L|244:188,1,120,2|8,0:0|0:0,0:0:0:0:
244,308,203306,6,0,L|172:308,1,60,6|2,0:0|0:0,0:0:0:0:
144,368,203639,2,0,L|80:368,1,60,8|2,0:0|0:0,0:0:0:0:
0,252,204139,2,0,L|68:252,1,60,2|0,0:0|0:0,0:0:0:0:
132,252,204473,1,6,0:0:0:0:
256,192,204806,12,6,205806,0:0:0:0:
260,272,208306,5,8,0:0:0:0:
260,272,208473,2,0,P|340:308|424:264,1,180,6|10,1:0|0:0,0:0:0:0:
420,152,209306,2,0,L|420:20,1,120,2|8,0:0|0:0,0:0:0:0:
492,32,209806,2,0,L|492:164,1,120,6|2,0:0|0:0,0:0:0:0:
492,224,210306,2,0,L|492:292,1,60,8|0,0:0|0:0,0:0:0:0:
492,356,210639,2,0,P|436:373|377:359,1,120,2|8,0:0|0:0,0:0:0:0:
336,300,211139,1,6,0:0:0:0:
168,360,211639,1,8,0:0:0:0:
52,324,211973,6,0,P|36:268|50:209,1,120,2|8,0:0|0:0,0:0:0:0:
112,172,212473,1,2,0:0:0:0:
264,272,212973,2,0,L|344:272,1,60,8|0,0:0|0:0,0:0:0:0:
364,332,213306,2,0,L|500:332,1,120,2|8,0:0|0:0,0:0:0:0:
484,260,213806,6,0,L|484:124,1,120,6|2,0:0|0:0,0:0:0:0:
484,68,214306,1,8,0:0:0:0:
388,140,214639,2,0,P|332:156|273:142,1,120,2|8,0:0|0:0,0:0:0:0:
244,76,215139,2,0,P|188:60|129:74,1,120,2|2,0:0|0:0,0:0:0:0:
84,132,215639,1,8,0:0:0:0:
184,196,215973,2,0,L|184:272,2,60,8|0|8,3:0|1:0|0:0,0:0:0:0:
256,196,216473,6,0,P|335:232|414:195,1,180,2|12,0:0|0:0,0:0:0:0:
472,88,217306,2,0,P|416:72|357:86,1,120,2|8,0:0|0:0,0:0:0:0:
336,156,217806,2,0,L|336:292,1,120,6|2,0:0|0:0,0:0:0:0:
336,352,218306,1,8,0:0:0:0:
336,352,218473,2,0,P|280:368|221:354,1,120,2|2,0:0|0:0,0:0:0:0:
104,384,219139,6,0,P|68:305|104:226,1,180,6|8,0:0|0:0,0:0:0:0:
196,308,219973,2,0,P|252:324|311:310,1,120,2|8,0:0|0:0,0:0:0:0:
364,260,220473,2,0,L|364:124,1,120,2|2,0:0|0:0,0:0:0:0:
364,68,220973,2,0,L|296:68,1,60,8|0,0:0|0:0,0:0:0:0:
264,128,221306,2,0,L|136:128,1,120,2|8,0:0|0:0,0:0:0:0:
72,128,221806,1,6,0:0:0:0:
196,256,222306,1,8,0:0:0:0:
304,208,222639,6,0,L|428:208,1,120,2|8,0:0|0:0,0:0:0:0:
496,208,223139,1,2,0:0:0:0:
496,28,223639,1,12,0:0:0:0:
408,112,223973,6,0,P|352:128|293:114,1,120,2|8,0:0|0:0,0:0:0:0:
256,52,224473,2,0,P|200:36|141:50,1,120,6|2,0:0|0:0,0:0:0:0:
104,112,224973,1,8,0:0:0:0:
196,188,225306,2,0,L|196:324,1,120,2|8,0:0|0:0,0:0:0:0:
196,380,225806,1,6,0:0:0:0:
324,252,226306,6,2,L|400:252,1,60
456,252,226639,1,2,0:0:0:0:
508,144,226973,2,0,L|444:144,1,60,12|2,0:0|0:0,0:0:0:0:
256,192,227306,12,2,229306,0:0:0:0:
420,224,229973,6,0,L|420:140,2,60,6|0|8,0:0|0:0|0:0,0:0:0:0:
420,296,230473,1,0,0:0:0:0:
420,296,230639,2,0,L|492:296,2,60,2|2|8,0:0|0:0|0:0,0:0:0:0:
348,296,231139,1,8,0:0:0:0:
348,296,231306,1,2,0:0:0:0:
228,296,231639,1,8,0:0:0:0:
228,176,231973,1,2,0:0:0:0:
348,176,232306,1,8,0:0:0:0:
348,56,232639,6,0,L|432:56,2,60,6|0|8,1:0|0:0|0:0,0:0:0:0:
276,56,233139,1,0,0:0:0:0:
276,56,233306,2,0,L|196:56,2,60,2|2|8,0:0|0:0|0:0,0:0:0:0:
276,132,233806,1,8,0:0:0:0:
276,132,233973,1,2,0:0:0:0:
276,252,234306,1,8,0:0:0:0:
156,252,234639,1,2,0:0:0:0:
156,132,234973,1,8,0:0:0:0:
36,132,235306,6,0,L|36:56,2,60,6|0|8,0:0|0:0|0:0,0:0:0:0:
40,208,235806,1,0,0:0:0:0:
40,208,235973,2,0,L|40:280,2,60,2|2|8,0:0|0:0|0:0,0:0:0:0:
116,208,236473,1,8,0:0:0:0:
116,208,236639,2,0,L|244:208,1,120,2|8,0:0|0:0,0:0:0:0:
280,320,237306,6,0,L|356:320,1,60,2|2,0:0|0:0,0:0:0:0:
380,260,237639,2,0,L|460:260,1,60,8|2,0:0|0:0,0:0:0:0:
512,260,237973,1,8,0:0:0:0:
512,80,238473,5,8,1:0:0:0:
432,172,238806,1,8,1:0:0:0:
