osu file format v14

[General]
AudioFilename: audio.mp3
AudioLeadIn: 0
PreviewTime: 62476
Countdown: 0
SampleSet: Drum
StackLeniency: 0.7
Mode: 3
LetterboxInBreaks: 0
SpecialStyle: 0
WidescreenStoryboard: 1

[Editor]
Bookmarks: 7514,14678,32588,46917,63036,77364,89902,104230
DistanceSpacing: 0.7
BeatDivisor: 4
GridSize: 8
TimelineZoom: 0.9000059

[Metadata]
Title:INITIATIVE
TitleUnicode:INITIATIVE
Artist:Kawada Mami
ArtistUnicode:川田まみ
Creator:Muse Dash
Version:DH's EZ
Source:恋と選挙とチョコレート
Tags:Drum-Hitnormal dudehacker [Ping] TheNewBungping Love Election Koi Senkyo to Chocolate sprite galgame visual novel vn op opening short version japanese pop jpop j-pop eroge video game Tomoyuki Nakazawa 中沢伴行
BeatmapID:2800010
BeatmapSetID:1264866

[Difficulty]
HPDrainRate:7
CircleSize:4
OverallDifficulty:7
ApproachRate:5
SliderMultiplier:1.4
SliderTickRate:1

[Events]
//Background and Video events
0,0,"old bg.jpg",0,0
//Break Periods
//Storyboard Layer 0 (Background)
//Storyboard Layer 1 (Fail)
//Storyboard Layer 2 (Pass)
//Storyboard Layer 3 (Foreground)
//Storyboard Layer 4 (Overlay)
//Storyboard Sound Samples

[TimingPoints]
350,447.761194029851,4,3,1,75,1,0
63036,-100,4,3,1,75,0,1
89902,-100,4,3,1,75,0,0

[HitObjects]
448,192,350,128,4,1021:0:0:0:0:
64,192,1021,128,0,2141:0:0:0:0:
320,192,2141,128,0,2812:0:0:0:0:
192,192,2812,128,0,3932:0:0:0:0:
448,192,3932,128,0,4603:0:0:0:0:
64,192,4603,128,0,5723:0:0:0:0:
192,192,5723,128,0,6394:0:0:0:0:
448,192,6394,128,0,7514:0:0:0:0:
192,192,7514,1,2,0:0:0:0:
192,192,7961,1,2,0:0:0:0:
320,192,8409,1,2,0:0:0:0:
320,192,8857,1,2,0:0:0:0:
64,192,9305,1,2,0:0:0:0:
64,192,9752,1,2,0:0:0:0:
448,192,10200,1,2,0:0:0:0:
448,192,10648,1,2,0:0:0:0:
192,192,11096,1,2,0:0:0:0:
192,192,11544,1,2,0:0:0:0:
320,192,11991,1,2,0:0:0:0:
320,192,12439,1,2,0:0:0:0:
64,192,12887,128,2,13335:0:0:0:0:
448,192,13335,1,0,0:0:0:0:
192,192,13782,1,2,0:0:0:0:
320,192,14230,128,0,14678:0:0:0:0:
64,192,14678,1,2,0:0:0:0:
448,192,14678,128,4,15350:0:0:0:0:
64,192,15350,128,0,16469:0:0:0:0:
320,192,16469,128,2,17141:0:0:0:0:
192,192,17141,128,0,18260:0:0:0:0:
448,192,18260,128,2,18932:0:0:0:0:
64,192,18932,128,0,20051:0:0:0:0:
320,192,20051,128,2,20723:0:0:0:0:
192,192,20723,128,0,21842:0:0:0:0:
320,192,21842,1,2,0:0:0:0:
448,192,21842,128,4,22514:0:0:0:0:
64,192,22514,128,0,23633:0:0:0:0:
320,192,23633,128,2,24305:0:0:0:0:
192,192,24305,128,0,25424:0:0:0:0:
448,192,25424,128,2,26096:0:0:0:0:
64,192,26096,128,0,27215:0:0:0:0:
192,192,27215,128,2,27887:0:0:0:0:
448,192,27887,128,0,29006:0:0:0:0:
64,192,29006,128,2,29454:0:0:0:0:
192,192,29006,1,4,0:0:0:0:
320,192,29454,1,2,0:0:0:0:
192,192,29678,1,8,0:0:0:0:
448,192,29902,128,2,30350:0:0:0:0:
64,192,30350,1,2,0:0:0:0:
320,192,30573,1,8,0:0:0:0:
192,192,30797,1,2,0:0:0:0:
448,192,31133,1,2,0:0:0:0:
64,192,31469,1,2,0:0:0:0:
192,192,31469,1,4,0:0:0:0:
320,192,31917,1,0,0:0:0:0:
192,192,32141,128,0,32588:0:0:0:0:
64,192,32588,1,2,0:0:0:0:
448,192,32588,1,4,0:0:0:0:
320,192,33036,1,8,0:0:0:0:
64,192,33484,1,2,0:0:0:0:
320,192,33932,1,8,0:0:0:0:
192,192,34379,1,2,0:0:0:0:
448,192,34827,1,8,0:0:0:0:
192,192,35275,1,2,0:0:0:0:
448,192,35723,1,8,0:0:0:0:
64,192,36170,1,2,0:0:0:0:
192,192,36618,1,8,0:0:0:0:
448,192,37066,1,2,0:0:0:0:
320,192,37514,1,8,0:0:0:0:
64,192,37961,1,2,0:0:0:0:
448,192,38409,1,8,0:0:0:0:
64,192,38857,1,2,0:0:0:0:
192,192,39305,1,8,0:0:0:0:
320,192,39752,1,2,0:0:0:0:
448,192,39752,1,4,0:0:0:0:
192,192,40200,1,8,0:0:0:0:
448,192,40648,1,2,0:0:0:0:
192,192,41096,1,8,0:0:0:0:
64,192,41544,1,2,0:0:0:0:
320,192,41991,1,8,0:0:0:0:
64,192,42439,1,2,0:0:0:0:
448,192,42887,1,8,0:0:0:0:
64,192,43335,1,2,0:0:0:0:
192,192,43335,1,4,0:0:0:0:
448,192,43558,1,8,0:0:0:0:
320,192,43782,1,10,0:0:0:0:
64,192,44230,1,2,0:0:0:0:
448,192,44454,1,8,0:0:0:0:
192,192,44678,1,10,0:0:0:0:
64,192,45126,1,2,0:0:0:0:
320,192,45126,1,4,0:0:0:0:
192,192,45573,1,8,0:0:0:0:
320,192,46021,1,2,0:0:0:0:
448,192,46021,1,4,0:0:0:0:
64,192,46469,1,8,0:0:0:0:
192,192,46469,1,4,0:0:0:0:
320,192,46917,1,2,0:0:0:0:
448,192,46917,1,4,0:0:0:0:
64,192,47141,1,2,0:0:0:0:
192,192,47588,1,2,0:0:0:0:
192,192,48036,1,2,0:0:0:0:
448,192,48484,1,2,0:0:0:0:
64,192,48708,1,2,0:0:0:0:
64,192,48932,1,2,0:0:0:0:
320,192,49379,1,2,0:0:0:0:
320,192,49827,1,2,0:0:0:0:
64,192,50499,1,2,0:0:0:0:
192,192,50499,1,4,0:0:0:0:
448,192,50723,1,2,0:0:0:0:
320,192,51170,1,2,0:0:0:0:
320,192,51618,1,2,0:0:0:0:
64,192,52066,1,2,0:0:0:0:
448,192,52290,1,2,0:0:0:0:
448,192,52514,1,2,0:0:0:0:
192,192,52961,1,2,0:0:0:0:
192,192,53409,1,2,0:0:0:0:
320,192,53857,1,4,0:0:0:30:
64,192,54081,1,2,0:0:0:0:
192,192,54081,1,4,0:0:0:0:
448,192,54529,1,8,0:0:0:0:
192,192,54976,1,2,0:0:0:0:
448,192,55424,1,8,0:0:0:0:
64,192,55872,1,2,0:0:0:0:
320,192,56320,1,8,0:0:0:0:
64,192,56767,1,2,0:0:0:0:
320,192,57215,1,8,0:0:0:0:
192,192,57663,1,2,0:0:0:0:
64,192,58111,1,8,0:0:0:0:
320,192,58558,1,2,0:0:0:0:
448,192,59006,1,8,0:0:0:0:
192,192,59454,1,6,0:0:0:0:
320,192,59790,1,6,0:0:0:0:
64,192,60126,1,2,0:0:0:0:
192,192,60126,128,4,61021:0:0:0:0:
448,192,61021,128,2,61469:0:0:0:0:
64,192,61469,128,8,61917:0:0:0:0:
192,192,61917,128,8,62364:0:0:0:0:
320,192,62364,128,8,62812:0:0:0:0:
448,192,62812,1,8,0:0:0:0:
64,192,63036,1,4,0:0:0:0:
192,192,63036,1,2,0:0:0:0:
448,192,63484,1,8,0:0:0:0:
64,192,63932,1,2,0:0:0:0:
320,192,64379,1,8,0:0:0:0:
64,192,64827,1,2,0:0:0:0:
192,192,65163,1,0,0:0:0:0:
320,192,65499,1,0,0:0:0:0:
192,192,66170,1,8,0:0:0:0:
448,192,66618,1,2,0:0:0:0:
192,192,67066,1,8,0:0:0:0:
448,192,67514,1,2,0:0:0:0:
64,192,67961,1,8,0:0:0:0:
448,192,68409,1,2,0:0:0:0:
320,192,68745,1,0,0:0:0:0:
192,192,69081,1,0,0:0:0:0:
64,192,69752,1,8,0:0:0:0:
448,192,69752,1,4,0:0:0:50:
64,192,70200,1,2,0:0:0:0:
192,192,70200,1,4,0:0:0:0:
448,192,70648,1,8,0:0:0:0:
192,192,71096,1,2,0:0:0:0:
320,192,71544,1,8,0:0:0:0:
448,192,71991,1,2,0:0:0:0:
64,192,72439,1,8,0:0:0:0:
448,192,72887,1,2,0:0:0:0:
320,192,73335,1,8,0:0:0:0:
64,192,73782,1,2,0:0:0:0:
192,192,73782,1,4,0:0:0:0:
320,192,74118,1,0,0:0:0:0:
448,192,74454,1,0,0:0:0:0:
320,192,75126,1,8,0:0:0:0:
64,192,75573,1,2,0:0:0:0:
192,192,75573,1,4,0:0:0:0:
448,192,76021,1,8,0:0:0:0:
192,192,76245,1,2,0:0:0:0:
64,192,76693,1,2,0:0:0:0:
320,192,77141,1,2,0:0:0:0:
64,192,77364,1,2,0:0:0:0:
192,192,77364,1,4,0:0:0:0:
448,192,77812,1,8,0:0:0:0:
192,192,78260,1,2,0:0:0:0:
448,192,78708,1,8,0:0:0:0:
64,192,79155,1,2,0:0:0:0:
320,192,79603,1,8,0:0:0:0:
64,192,80051,1,2,0:0:0:0:
320,192,80499,1,8,0:0:0:0:
192,192,80947,1,2,0:0:0:0:
448,192,81170,1,0,0:0:0:0:
64,192,81394,1,8,0:0:0:0:
320,192,81842,1,2,0:0:0:0:
192,192,82290,1,8,0:0:0:0:
448,192,82738,1,2,0:0:0:0:
192,192,83185,1,8,0:0:0:0:
320,192,83633,1,2,0:0:0:0:
64,192,84081,1,8,0:0:0:0:
448,192,84081,1,4,0:0:0:50:
64,192,84529,1,2,0:0:0:0:
192,192,84529,1,4,0:0:0:0:
320,192,84976,1,8,0:0:0:0:
192,192,85424,1,2,0:0:0:0:
448,192,85872,1,8,0:0:0:0:
64,192,86320,1,2,0:0:0:0:
320,192,86767,1,8,0:0:0:0:
192,192,87215,1,2,0:0:0:0:
320,192,87663,1,8,0:0:0:0:
448,192,87663,1,4,0:0:0:50:
64,192,88111,1,2,0:0:0:0:
192,192,88111,1,4,0:0:0:0:
320,192,88558,1,8,0:0:0:0:
192,192,89006,1,2,0:0:0:0:
448,192,89006,1,4,0:0:0:0:
64,192,89454,1,8,0:0:0:0:
320,192,89902,1,2,0:0:0:0:
448,192,89902,128,4,90573:0:0:0:0:
64,192,90573,128,0,91693:0:0:0:0:
320,192,91693,128,2,92364:0:0:0:0:
192,192,92364,128,0,93484:0:0:0:0:
448,192,93484,128,2,94155:0:0:0:0:
64,192,94155,128,0,95275:0:0:0:0:
320,192,95275,128,2,95947:0:0:0:0:
192,192,95947,128,0,97066:0:0:0:0:
320,192,97066,1,2,0:0:0:0:
448,192,97066,128,4,97738:0:0:0:0:
64,192,97738,128,0,98857:0:0:0:0:
320,192,98857,128,2,99529:0:0:0:0:
192,192,99529,128,0,100648:0:0:0:0:
448,192,100648,128,2,101320:0:0:0:0:
64,192,101320,128,0,102439:0:0:0:0:
320,192,102439,128,2,103111:0:0:0:0:
192,192,103111,128,0,104230:0:0:0:0:
64,192,104230,1,4,0:0:0:0:
448,192,104230,128,2,105573:0:0:0:0:
192,192,105573,1,2,0:0:0:0:
64,192,106021,1,6,0:0:0:0:
320,192,106357,1,6,0:0:0:0:
64,192,106693,1,2,0:0:0:0:
448,192,106693,1,4,0:0:0:0:
192,192,107141,1,8,0:0:0:30:
320,192,107364,128,8,107812:0:0:0:30:
64,192,107812,1,4,0:0:0:0:
448,192,107812,128,0,111394:0:0:0:0:
