osu file format v14

[General]
AudioFilename: audio.mp3
AudioLeadIn: 0
PreviewTime: 62476
Countdown: 0
SampleSet: Drum
StackLeniency: 0.7
Mode: 3
LetterboxInBreaks: 0
SpecialStyle: 0
WidescreenStoryboard: 1

[Editor]
Bookmarks: 7514,14678,32588,46917,63036,77364,89902,104230
DistanceSpacing: 0.7
BeatDivisor: 4
GridSize: 8
TimelineZoom: 0.9000059

[Metadata]
Title:INITIATIVE
TitleUnicode:INITIATIVE
Artist:Kawada Mami
ArtistUnicode:川田まみ
Creator:Muse Dash
Version:DH vs. MD's Chocolate
Source:恋と選挙とチョコレート
Tags:Drum-Hitnormal dudehacker [Ping] TheNewBungping Love Election Koi Senkyo to Chocolate sprite galgame visual novel vn op opening short version japanese pop jpop j-pop eroge video game Tomoyuki Nakazawa 中沢伴行
BeatmapID:2800007
BeatmapSetID:1264866

[Difficulty]
HPDrainRate:8.5
CircleSize:4
OverallDifficulty:8.5
ApproachRate:5
SliderMultiplier:1.4
SliderTickRate:1

[Events]
//Background and Video events
0,0,"old bg.jpg",0,0
//Break Periods
//Storyboard Layer 0 (Background)
//Storyboard Layer 1 (Fail)
//Storyboard Layer 2 (Pass)
//Storyboard Layer 3 (Foreground)
//Storyboard Layer 4 (Overlay)
//Storyboard Sound Samples

[TimingPoints]
350,447.761194029851,4,3,1,75,1,0
63036,-100,4,3,1,75,0,1
89902,-100,4,3,1,75,0,0

[HitObjects]
64,192,350,5,4,0:0:0:0:
448,192,350,128,0,1917:0:0:0:0:
192,192,1021,128,0,1917:0:0:0:0:
320,192,2141,128,0,3708:0:0:0:0:
64,192,2812,128,0,3708:0:0:0:0:
448,192,3932,128,0,5499:0:0:0:0:
192,192,4603,128,0,5499:0:0:0:0:
64,192,5723,128,0,7290:0:0:0:0:
320,192,6394,128,0,7290:0:0:0:0:
320,192,7514,1,2,0:0:0:0:
448,192,7514,128,0,9305:0:0:0:0:
64,192,7961,1,2,0:0:0:0:
320,192,7961,1,0,0:0:0:0:
192,192,8185,1,0,0:0:0:0:
64,192,8409,1,2,0:0:0:0:
320,192,8409,1,0,0:0:0:0:
64,192,8857,1,2,0:0:0:0:
320,192,8857,1,0,0:0:0:0:
64,192,9305,128,2,11096:0:0:0:0:
192,192,9305,1,0,0:0:0:0:
192,192,9752,1,2,0:0:0:0:
448,192,9752,1,0,0:0:0:0:
320,192,9976,1,0,0:0:0:0:
192,192,10200,1,2,0:0:0:0:
448,192,10200,1,0,0:0:0:0:
192,192,10648,1,2,0:0:0:0:
448,192,10648,1,0,0:0:0:0:
320,192,11096,1,2,0:0:0:0:
448,192,11096,128,0,12887:0:0:0:0:
64,192,11544,1,2,0:0:0:0:
320,192,11544,1,0,0:0:0:0:
192,192,11767,1,0,0:0:0:0:
64,192,11991,1,2,0:0:0:0:
320,192,11991,1,0,0:0:0:0:
64,192,12439,1,2,0:0:0:0:
320,192,12439,1,0,0:0:0:0:
64,192,12887,1,2,0:0:0:0:
192,192,12887,1,0,0:0:0:0:
320,192,12999,1,0,0:0:0:0:
64,192,13111,1,0,0:0:0:0:
192,192,13167,1,0,0:0:0:0:
320,192,13223,1,0,0:0:0:0:
448,192,13279,1,0,0:0:0:0:
64,192,13335,1,0,0:0:0:0:
192,192,13335,1,0,0:0:0:0:
320,192,13558,1,0,0:0:0:0:
448,192,13558,1,0,0:0:0:0:
192,192,13670,1,0,0:0:0:0:
64,192,13782,1,2,0:0:0:0:
448,192,13782,1,0,0:0:0:0:
320,192,13894,1,0,0:0:0:0:
64,192,14006,1,0,0:0:0:0:
192,192,14006,1,0,0:0:0:0:
320,192,14230,1,0,0:0:0:0:
448,192,14230,1,0,0:0:0:0:
64,192,14286,1,0,0:0:0:0:
192,192,14342,1,0,0:0:0:0:
320,192,14398,1,0,0:0:0:0:
448,192,14454,1,0,0:0:0:0:
64,192,14510,1,0,0:0:0:0:
192,192,14566,1,0,0:0:0:0:
320,192,14622,1,0,0:0:0:0:
64,192,14678,1,2,0:0:0:0:
448,192,14678,128,4,15126:0:0:0:0:
192,192,14902,1,0,0:0:0:0:
192,192,15126,1,8,0:0:0:0:
320,192,15126,1,0,0:0:0:0:
64,192,15350,128,0,16021:0:0:0:0:
448,192,15350,1,0,0:0:0:0:
320,192,15573,1,2,0:0:0:0:
448,192,15573,1,0,0:0:0:0:
192,192,15797,1,0,0:0:0:0:
192,192,16021,1,8,0:0:0:0:
448,192,16021,1,0,0:0:0:0:
64,192,16245,1,0,0:0:0:0:
320,192,16245,1,0,0:0:0:0:
192,192,16357,1,0,0:0:0:0:
64,192,16469,128,2,16917:0:0:0:0:
448,192,16469,1,0,0:0:0:0:
192,192,16693,1,0,0:0:0:0:
192,192,16917,1,8,0:0:0:0:
448,192,16917,1,0,0:0:0:0:
320,192,17141,1,0,0:0:0:0:
448,192,17141,128,0,17812:0:0:0:0:
192,192,17364,1,2,0:0:0:0:
320,192,17364,1,0,0:0:0:0:
64,192,17588,1,0,0:0:0:0:
64,192,17812,1,8,0:0:0:0:
320,192,17812,1,0,0:0:0:0:
320,192,18036,1,0,0:0:0:0:
448,192,18036,1,0,0:0:0:0:
192,192,18148,1,0,0:0:0:0:
64,192,18260,1,2,0:0:0:0:
448,192,18260,128,0,18708:0:0:0:0:
192,192,18484,1,0,0:0:0:0:
192,192,18708,1,8,0:0:0:0:
320,192,18708,1,0,0:0:0:0:
64,192,18932,128,0,19603:0:0:0:0:
448,192,18932,1,0,0:0:0:0:
320,192,19155,1,2,0:0:0:0:
448,192,19155,1,0,0:0:0:0:
192,192,19379,1,0,0:0:0:0:
192,192,19603,1,8,0:0:0:0:
448,192,19603,1,0,0:0:0:0:
64,192,19827,1,0,0:0:0:0:
320,192,19827,1,0,0:0:0:0:
192,192,19939,1,0,0:0:0:0:
64,192,20051,128,2,20499:0:0:0:0:
448,192,20051,1,0,0:0:0:0:
192,192,20275,1,0,0:0:0:0:
192,192,20499,1,8,0:0:0:0:
448,192,20499,1,0,0:0:0:0:
64,192,20723,1,0,0:0:0:0:
320,192,20723,128,0,21394:0:0:0:0:
64,192,20947,1,2,0:0:0:0:
192,192,20947,1,0,0:0:0:0:
448,192,21170,1,0,0:0:0:0:
64,192,21394,1,8,0:0:0:0:
192,192,21394,1,0,0:0:0:0:
320,192,21618,1,4,0:0:0:30:
448,192,21618,1,0,0:0:0:0:
192,192,21730,1,0,0:0:0:0:
64,192,21842,1,2,0:0:0:0:
320,192,21842,1,4,0:0:0:0:
448,192,21842,128,0,22290:0:0:0:0:
192,192,22066,1,0,0:0:0:0:
192,192,22290,1,8,0:0:0:0:
320,192,22290,1,0,0:0:0:0:
64,192,22514,128,0,23185:0:0:0:0:
448,192,22514,1,0,0:0:0:0:
320,192,22738,1,2,0:0:0:0:
448,192,22738,1,0,0:0:0:0:
192,192,22961,1,0,0:0:0:0:
192,192,23185,1,8,0:0:0:0:
448,192,23185,1,0,0:0:0:0:
64,192,23409,1,0,0:0:0:0:
320,192,23409,1,0,0:0:0:0:
192,192,23521,1,0,0:0:0:0:
64,192,23633,128,2,24081:0:0:0:0:
448,192,23633,1,0,0:0:0:0:
192,192,23857,1,0,0:0:0:0:
192,192,24081,1,8,0:0:0:0:
448,192,24081,1,0,0:0:0:0:
320,192,24305,1,0,0:0:0:0:
448,192,24305,128,0,24976:0:0:0:0:
192,192,24529,1,2,0:0:0:0:
320,192,24529,1,0,0:0:0:0:
64,192,24752,1,0,0:0:0:0:
64,192,24976,1,8,0:0:0:0:
320,192,24976,1,0,0:0:0:0:
320,192,25200,1,0,0:0:0:0:
448,192,25200,1,0,0:0:0:0:
192,192,25312,1,0,0:0:0:0:
64,192,25424,1,2,0:0:0:0:
448,192,25424,128,0,25872:0:0:0:0:
192,192,25648,1,0,0:0:0:0:
192,192,25872,1,8,0:0:0:0:
320,192,25872,1,0,0:0:0:0:
64,192,26096,128,0,26767:0:0:0:0:
448,192,26096,1,0,0:0:0:0:
320,192,26320,1,2,0:0:0:0:
448,192,26320,1,0,0:0:0:0:
192,192,26544,1,0,0:0:0:0:
192,192,26767,1,8,0:0:0:0:
448,192,26767,1,0,0:0:0:0:
64,192,26991,1,0,0:0:0:0:
320,192,26991,1,0,0:0:0:0:
192,192,27103,1,0,0:0:0:0:
64,192,27215,128,2,27663:0:0:0:0:
448,192,27215,1,0,0:0:0:0:
192,192,27439,1,0,0:0:0:0:
192,192,27663,1,8,0:0:0:0:
448,192,27663,1,0,0:0:0:0:
64,192,27887,1,0,0:0:0:0:
320,192,27887,128,0,28558:0:0:0:0:
64,192,28111,1,2,0:0:0:0:
192,192,28111,1,0,0:0:0:0:
448,192,28335,1,0,0:0:0:0:
64,192,28558,1,8,0:0:0:0:
192,192,28558,1,0,0:0:0:0:
320,192,28782,1,0,0:0:0:0:
448,192,28782,1,0,0:0:0:0:
192,192,28894,1,0,0:0:0:0:
64,192,29006,1,2,0:0:0:0:
320,192,29006,1,4,0:0:0:0:
448,192,29006,1,0,0:0:0:0:
64,192,29230,1,8,0:0:0:0:
448,192,29230,1,0,0:0:0:0:
192,192,29342,1,8,0:0:0:0:
320,192,29342,1,0,0:0:0:0:
64,192,29454,1,2,0:0:0:0:
448,192,29454,1,0,0:0:0:0:
64,192,29678,1,8,0:0:0:0:
192,192,29678,1,0,0:0:0:0:
320,192,29790,1,8,0:0:0:0:
448,192,29790,1,0,0:0:0:0:
64,192,29902,1,2,0:0:0:0:
192,192,29902,1,0,0:0:0:0:
320,192,30126,1,8,0:0:0:0:
448,192,30126,1,0,0:0:0:0:
64,192,30238,1,8,0:0:0:0:
192,192,30238,1,0,0:0:0:0:
320,192,30350,1,2,0:0:0:0:
448,192,30350,1,0,0:0:0:0:
192,192,30461,1,8,0:0:0:0:
64,192,30573,1,8,0:0:0:0:
448,192,30573,1,0,0:0:0:0:
320,192,30629,1,0,0:0:0:0:
192,192,30685,1,8,0:0:0:0:
64,192,30741,1,0,0:0:0:0:
320,192,30797,128,2,30909:0:0:0:0:
448,192,30797,128,0,30909:0:0:0:0:
64,192,31133,1,2,0:0:0:0:
320,192,31133,128,0,31245:0:0:0:0:
448,192,31133,128,0,31245:0:0:0:0:
64,192,31469,128,2,31693:0:0:0:0:
192,192,31469,128,4,31693:0:0:0:0:
448,192,31469,1,0,0:0:0:0:
320,192,31805,1,0,0:0:0:0:
192,192,31861,1,0,0:0:0:0:
64,192,31917,1,0,0:0:0:0:
448,192,31917,1,0,0:0:0:0:
64,192,32141,1,0,0:0:0:0:
192,192,32141,1,0,0:0:0:0:
320,192,32252,1,0,0:0:0:0:
448,192,32252,1,0,0:0:0:0:
64,192,32364,1,0,0:0:0:0:
192,192,32364,1,0,0:0:0:0:
320,192,32476,1,0,0:0:0:0:
64,192,32588,128,2,32812:0:0:0:0:
192,192,32588,1,4,0:0:0:0:
448,192,32588,1,0,0:0:0:0:
320,192,32812,1,0,0:0:0:0:
448,192,32812,1,0,0:0:0:0:
64,192,32924,1,0,0:0:0:0:
192,192,33036,1,8,0:0:0:0:
320,192,33036,1,0,0:0:0:0:
320,192,33260,1,0,0:0:0:0:
448,192,33260,1,0,0:0:0:0:
192,192,33372,1,0,0:0:0:0:
320,192,33484,1,2,0:0:0:0:
448,192,33484,128,0,33708:0:0:0:0:
64,192,33708,1,0,0:0:0:0:
192,192,33708,1,0,0:0:0:0:
448,192,33820,1,0,0:0:0:0:
192,192,33932,1,8,0:0:0:0:
320,192,33932,1,0,0:0:0:0:
64,192,34155,1,0,0:0:0:0:
192,192,34155,1,0,0:0:0:0:
320,192,34267,1,0,0:0:0:0:
64,192,34379,1,2,0:0:0:0:
192,192,34379,128,0,34603:0:0:0:0:
320,192,34603,1,0,0:0:0:0:
448,192,34603,1,0,0:0:0:0:
192,192,34715,1,0,0:0:0:0:
64,192,34827,1,8,0:0:0:0:
448,192,34827,1,0,0:0:0:0:
320,192,35051,128,0,35275:0:0:0:0:
448,192,35051,1,0,0:0:0:0:
64,192,35275,1,2,0:0:0:0:
192,192,35275,1,0,0:0:0:0:
448,192,35387,1,0,0:0:0:0:
64,192,35499,1,0,0:0:0:0:
320,192,35499,1,0,0:0:0:0:
64,192,35723,128,8,35947:0:0:0:0:
448,192,35723,1,0,0:0:0:0:
320,192,35947,1,0,0:0:0:0:
448,192,35947,1,0,0:0:0:0:
64,192,36058,1,0,0:0:0:0:
192,192,36058,1,0,0:0:0:0:
320,192,36170,1,2,0:0:0:0:
448,192,36170,128,0,36394:0:0:0:0:
64,192,36394,1,0,0:0:0:0:
192,192,36394,1,0,0:0:0:0:
448,192,36506,1,0,0:0:0:0:
192,192,36618,1,8,0:0:0:0:
320,192,36618,1,0,0:0:0:0:
64,192,36842,1,0,0:0:0:0:
192,192,36842,1,0,0:0:0:0:
320,192,36954,1,0,0:0:0:0:
64,192,37066,128,2,37290:0:0:0:0:
192,192,37066,1,0,0:0:0:0:
320,192,37290,1,0,0:0:0:0:
448,192,37290,1,0,0:0:0:0:
64,192,37402,1,0,0:0:0:0:
192,192,37514,1,8,0:0:0:0:
320,192,37514,1,0,0:0:0:0:
320,192,37738,1,0,0:0:0:0:
448,192,37738,1,0,0:0:0:0:
192,192,37850,1,0,0:0:0:0:
320,192,37961,128,2,38185:0:0:0:0:
448,192,37961,1,0,0:0:0:0:
64,192,38185,1,0,0:0:0:0:
192,192,38185,1,0,0:0:0:0:
320,192,38297,1,0,0:0:0:0:
64,192,38409,1,8,0:0:0:0:
448,192,38409,1,0,0:0:0:0:
64,192,38633,1,0,0:0:0:0:
320,192,38633,128,0,38857:0:0:0:0:
192,192,38857,1,2,0:0:0:0:
448,192,38857,1,0,0:0:0:0:
64,192,38969,1,0,0:0:0:0:
192,192,39081,128,0,39305:0:0:0:0:
448,192,39081,1,0,0:0:0:0:
320,192,39305,1,8,0:0:0:0:
448,192,39305,128,0,39529:0:0:0:0:
64,192,39529,1,0,0:0:0:0:
192,192,39529,1,0,0:0:0:0:
320,192,39641,1,0,0:0:0:0:
64,192,39752,128,2,39976:0:0:0:0:
192,192,39752,1,4,0:0:0:0:
448,192,39752,1,0,0:0:0:0:
192,192,39976,1,0,0:0:0:0:
320,192,39976,1,0,0:0:0:0:
448,192,40088,1,0,0:0:0:0:
64,192,40200,128,8,40424:0:0:0:0:
192,192,40200,1,0,0:0:0:0:
320,192,40424,1,0,0:0:0:0:
448,192,40424,1,0,0:0:0:0:
192,192,40536,1,0,0:0:0:0:
64,192,40648,1,2,0:0:0:0:
448,192,40648,128,0,40872:0:0:0:0:
192,192,40872,1,0,0:0:0:0:
320,192,40872,1,0,0:0:0:0:
64,192,40984,1,0,0:0:0:0:
320,192,41096,1,8,0:0:0:0:
448,192,41096,128,0,41320:0:0:0:0:
64,192,41320,1,0,0:0:0:0:
192,192,41320,1,0,0:0:0:0:
320,192,41432,1,0,0:0:0:0:
64,192,41544,1,2,0:0:0:0:
448,192,41544,1,0,0:0:0:0:
192,192,41655,1,0,0:0:0:0:
320,192,41767,1,0,0:0:0:0:
448,192,41767,1,0,0:0:0:0:
64,192,41991,128,8,42215:0:0:0:0:
192,192,41991,1,0,0:0:0:0:
320,192,42215,1,0,0:0:0:0:
448,192,42215,1,0,0:0:0:0:
192,192,42327,1,0,0:0:0:0:
64,192,42439,1,2,0:0:0:0:
448,192,42439,128,0,42663:0:0:0:0:
320,192,42663,1,0,0:0:0:0:
64,192,42775,1,8,0:0:0:0:
192,192,42775,1,0,0:0:0:0:
320,192,42887,128,8,43111:0:0:0:0:
448,192,42887,1,0,0:0:0:0:
64,192,43111,1,8,0:0:0:0:
192,192,43111,128,0,43335:0:0:0:0:
64,192,43335,1,2,0:0:0:0:
320,192,43335,1,4,0:0:0:0:
448,192,43335,1,0,0:0:0:0:
192,192,43558,1,8,0:0:0:0:
320,192,43558,128,0,43782:0:0:0:0:
64,192,43782,1,2,0:0:0:0:
192,192,43782,1,8,0:0:0:0:
448,192,43782,1,0,0:0:0:0:
320,192,44006,1,8,0:0:0:0:
448,192,44006,1,0,0:0:0:0:
64,192,44118,1,8,0:0:0:0:
192,192,44118,1,0,0:0:0:0:
320,192,44230,1,2,0:0:0:0:
448,192,44230,1,0,0:0:0:0:
192,192,44454,1,8,0:0:0:0:
320,192,44454,1,0,0:0:0:0:
64,192,44678,1,8,0:0:0:0:
192,192,44678,1,2,0:0:0:0:
320,192,44790,1,8,0:0:0:0:
448,192,44790,1,0,0:0:0:0:
64,192,44902,1,0,0:0:0:0:
192,192,44902,1,0,0:0:0:0:
320,192,45014,1,8,0:0:0:0:
64,192,45126,1,2,0:0:0:0:
192,192,45126,1,4,0:0:0:0:
448,192,45126,1,0,0:0:0:0:
448,192,45350,1,0,0:0:0:0:
320,192,45405,1,0,0:0:0:0:
192,192,45461,1,0,0:0:0:0:
64,192,45517,1,0,0:0:0:0:
320,192,45573,1,8,0:0:0:0:
448,192,45573,1,0,0:0:0:0:
64,192,45797,1,0,0:0:0:0:
192,192,45797,1,0,0:0:0:0:
320,192,45909,1,0,0:0:0:0:
64,192,46021,1,2,0:0:0:0:
192,192,46021,1,4,0:0:0:0:
448,192,46021,1,0,0:0:0:0:
320,192,46245,1,0,0:0:0:0:
448,192,46245,1,0,0:0:0:0:
192,192,46357,1,0,0:0:0:0:
64,192,46469,1,8,0:0:0:0:
320,192,46469,1,4,0:0:0:0:
448,192,46469,1,0,0:0:0:0:
64,192,46693,1,0,0:0:0:0:
192,192,46749,1,0,0:0:0:0:
320,192,46805,1,0,0:0:0:0:
448,192,46861,1,0,0:0:0:0:
64,192,46917,1,2,0:0:0:0:
192,192,46917,1,4,0:0:0:0:
64,192,47141,1,2,0:0:0:0:
192,192,47141,1,0,0:0:0:0:
320,192,47364,1,0,0:0:0:0:
448,192,47364,128,0,48036:0:0:0:0:
64,192,47588,1,2,0:0:0:0:
192,192,47588,1,0,0:0:0:0:
320,192,47812,1,0,0:0:0:0:
64,192,48036,1,2,0:0:0:0:
192,192,48036,1,0,0:0:0:0:
64,192,48260,1,0,0:0:0:0:
448,192,48260,128,0,48484:0:0:0:0:
64,192,48484,1,2,0:0:0:0:
192,192,48484,1,0,0:0:0:0:
320,192,48596,1,2,0:0:0:0:
448,192,48596,1,0,0:0:0:0:
64,192,48708,128,2,49827:0:0:0:0:
192,192,48708,1,0,0:0:0:0:
320,192,48932,1,2,0:0:0:0:
448,192,48932,1,0,0:0:0:0:
192,192,49155,1,0,0:0:0:0:
320,192,49379,1,2,0:0:0:0:
448,192,49379,1,0,0:0:0:0:
192,192,49603,1,0,0:0:0:0:
320,192,49827,1,2,0:0:0:0:
448,192,49827,1,0,0:0:0:0:
64,192,50051,1,0,0:0:0:0:
448,192,50051,1,0,0:0:0:0:
192,192,50163,1,0,0:0:0:0:
320,192,50275,1,0,0:0:0:0:
192,192,50387,1,0,0:0:0:0:
64,192,50499,1,2,0:0:0:0:
320,192,50499,1,4,0:0:0:0:
448,192,50499,1,0,0:0:0:0:
320,192,50723,1,2,0:0:0:0:
448,192,50723,1,0,0:0:0:0:
64,192,50947,128,0,51618:0:0:0:0:
192,192,50947,1,0,0:0:0:0:
320,192,51170,1,2,0:0:0:0:
448,192,51170,1,0,0:0:0:0:
192,192,51394,1,0,0:0:0:0:
320,192,51618,1,2,0:0:0:0:
448,192,51618,1,0,0:0:0:0:
64,192,51842,128,0,52066:0:0:0:0:
448,192,51842,1,0,0:0:0:0:
320,192,52066,1,2,0:0:0:0:
448,192,52066,1,0,0:0:0:0:
64,192,52178,1,2,0:0:0:0:
192,192,52178,1,0,0:0:0:0:
320,192,52290,1,2,0:0:0:0:
448,192,52290,128,0,53409:0:0:0:0:
64,192,52514,1,2,0:0:0:0:
192,192,52514,1,0,0:0:0:0:
320,192,52738,1,0,0:0:0:0:
64,192,52961,1,2,0:0:0:0:
192,192,52961,1,0,0:0:0:0:
320,192,53185,1,0,0:0:0:0:
64,192,53409,1,2,0:0:0:0:
192,192,53409,1,0,0:0:0:0:
64,192,53633,1,0,0:0:0:0:
448,192,53633,1,0,0:0:0:0:
320,192,53745,1,0,0:0:0:0:
64,192,53857,1,4,0:0:0:30:
192,192,53857,1,0,0:0:0:0:
320,192,53969,1,0,0:0:0:0:
64,192,54081,1,2,0:0:0:0:
192,192,54081,1,4,0:0:0:0:
448,192,54081,128,0,54529:0:0:0:0:
192,192,54305,1,0,0:0:0:0:
64,192,54529,1,8,0:0:0:0:
192,192,54529,1,0,0:0:0:0:
320,192,54529,1,0,0:0:0:0:
320,192,54752,1,0,0:0:0:0:
192,192,54864,1,0,0:0:0:0:
64,192,54976,128,2,55424:0:0:0:0:
320,192,54976,1,0,0:0:0:0:
448,192,54976,1,0,0:0:0:0:
320,192,55200,1,0,0:0:0:0:
192,192,55424,1,8,0:0:0:0:
320,192,55424,1,0,0:0:0:0:
448,192,55424,1,0,0:0:0:0:
64,192,55648,1,0,0:0:0:0:
448,192,55760,1,0,0:0:0:0:
64,192,55872,1,2,0:0:0:0:
192,192,55872,1,0,0:0:0:0:
320,192,55872,128,0,56320:0:0:0:0:
64,192,56096,1,0,0:0:0:0:
64,192,56320,1,8,0:0:0:0:
192,192,56320,1,0,0:0:0:0:
448,192,56320,1,0,0:0:0:0:
448,192,56544,1,0,0:0:0:0:
64,192,56655,1,0,0:0:0:0:
192,192,56767,128,2,57215:0:0:0:0:
320,192,56767,1,0,0:0:0:0:
448,192,56767,1,0,0:0:0:0:
448,192,56991,1,0,0:0:0:0:
64,192,57215,1,8,0:0:0:0:
320,192,57215,1,0,0:0:0:0:
448,192,57215,1,0,0:0:0:0:
320,192,57439,1,0,0:0:0:0:
192,192,57551,1,0,0:0:0:0:
64,192,57663,1,2,0:0:0:0:
320,192,57663,1,0,0:0:0:0:
448,192,57663,128,0,58558:0:0:0:0:
64,192,57887,1,0,0:0:0:0:
64,192,58111,1,8,0:0:0:0:
192,192,58111,1,0,0:0:0:0:
320,192,58335,1,0,0:0:0:0:
64,192,58558,1,2,0:0:0:0:
192,192,58558,1,0,0:0:0:0:
320,192,58558,1,0,0:0:0:0:
192,192,58782,1,0,0:0:0:0:
320,192,58782,128,0,59006:0:0:0:0:
64,192,59006,128,8,59230:0:0:0:0:
192,192,59006,1,0,0:0:0:0:
448,192,59006,1,0,0:0:0:0:
320,192,59230,1,0,0:0:0:0:
448,192,59230,128,0,59454:0:0:0:0:
64,192,59454,1,2,0:0:0:0:
192,192,59454,1,4,0:0:0:0:
320,192,59454,1,0,0:0:0:0:
64,192,59790,1,2,0:0:0:0:
192,192,59790,1,4,0:0:0:0:
320,192,59902,1,0,0:0:0:0:
448,192,59902,1,0,0:0:0:0:
192,192,60126,1,2,0:0:0:0:
320,192,60126,1,4,0:0:0:0:
448,192,60126,1,0,0:0:0:0:
64,192,60350,1,0,0:0:0:0:
192,192,60350,1,0,0:0:0:0:
320,192,60573,1,0,0:0:0:0:
448,192,60573,1,0,0:0:0:0:
64,192,60797,1,0,0:0:0:0:
192,192,60797,1,0,0:0:0:0:
320,192,61021,1,2,0:0:0:0:
448,192,61021,1,0,0:0:0:0:
64,192,61133,1,2,0:0:0:0:
192,192,61245,1,2,0:0:0:0:
320,192,61245,1,4,0:0:0:0:
64,192,61357,1,8,0:0:0:0:
448,192,61357,1,0,0:0:0:0:
192,192,61469,1,8,0:0:0:0:
320,192,61469,1,0,0:0:0:0:
448,192,61581,1,8,0:0:0:0:
64,192,61693,1,8,0:0:0:0:
192,192,61693,1,0,0:0:0:0:
320,192,61805,1,8,0:0:0:0:
448,192,61805,1,0,0:0:0:0:
64,192,61917,1,8,0:0:0:0:
192,192,61917,1,0,0:0:0:0:
448,192,62029,1,8,0:0:0:0:
192,192,62141,1,8,0:0:0:0:
320,192,62141,1,0,0:0:0:0:
64,192,62252,1,8,0:0:0:0:
448,192,62252,1,0,0:0:0:0:
192,192,62364,1,8,0:0:0:0:
320,192,62364,1,0,0:0:0:0:
64,192,62476,1,8,0:0:0:0:
320,192,62588,1,8,0:0:0:0:
448,192,62588,1,0,0:0:0:0:
64,192,62700,1,8,0:0:0:0:
192,192,62700,1,0,0:0:0:0:
448,192,62812,1,8,0:0:0:0:
320,192,62868,1,0,0:0:0:0:
192,192,62924,1,0,0:0:0:0:
64,192,62980,1,0,0:0:0:0:
320,192,63036,1,4,0:0:0:0:
448,192,63036,128,2,63484:0:0:0:0:
64,192,63260,1,0,0:0:0:0:
192,192,63260,1,0,0:0:0:0:
320,192,63372,1,0,0:0:0:0:
64,192,63484,128,8,63932:0:0:0:0:
192,192,63484,1,0,0:0:0:0:
192,192,63708,128,0,63932:0:0:0:0:
320,192,63708,1,0,0:0:0:0:
320,192,63932,1,2,0:0:0:0:
448,192,63932,128,0,64379:0:0:0:0:
64,192,64155,1,0,0:0:0:0:
192,192,64155,1,0,0:0:0:0:
320,192,64267,1,0,0:0:0:0:
64,192,64379,128,8,64827:0:0:0:0:
192,192,64379,1,0,0:0:0:0:
192,192,64603,128,0,64827:0:0:0:0:
320,192,64603,1,0,0:0:0:0:
320,192,64827,1,2,0:0:0:0:
448,192,64827,128,0,65051:0:0:0:0:
64,192,65051,1,0,0:0:0:0:
192,192,65051,1,0,0:0:0:0:
320,192,65163,1,0,0:0:0:0:
64,192,65275,1,8,0:0:0:0:
448,192,65275,1,0,0:0:0:0:
192,192,65387,1,0,0:0:0:0:
320,192,65499,1,0,0:0:0:0:
448,192,65499,128,0,65723:0:0:0:0:
64,192,65723,128,2,65947:0:0:0:0:
192,192,65723,1,0,0:0:0:0:
320,192,65947,1,0,0:0:0:0:
448,192,65947,1,0,0:0:0:0:
192,192,66058,1,0,0:0:0:0:
64,192,66170,1,8,0:0:0:0:
448,192,66170,1,0,0:0:0:0:
320,192,66282,1,0,0:0:0:0:
192,192,66338,1,0,0:0:0:0:
64,192,66394,1,0,0:0:0:0:
448,192,66394,1,0,0:0:0:0:
320,192,66506,1,0,0:0:0:0:
64,192,66618,128,2,67066:0:0:0:0:
192,192,66618,1,0,0:0:0:0:
320,192,66842,1,0,0:0:0:0:
448,192,66842,1,0,0:0:0:0:
192,192,66954,1,0,0:0:0:0:
320,192,67066,1,8,0:0:0:0:
448,192,67066,128,0,67514:0:0:0:0:
192,192,67290,1,0,0:0:0:0:
320,192,67290,128,0,67514:0:0:0:0:
64,192,67514,128,2,67961:0:0:0:0:
192,192,67514,1,0,0:0:0:0:
320,192,67738,1,0,0:0:0:0:
448,192,67738,1,0,0:0:0:0:
192,192,67850,1,0,0:0:0:0:
320,192,67961,1,8,0:0:0:0:
448,192,67961,128,0,68409:0:0:0:0:
192,192,68185,1,0,0:0:0:0:
320,192,68185,128,0,68409:0:0:0:0:
64,192,68409,128,2,68633:0:0:0:0:
192,192,68409,1,0,0:0:0:0:
320,192,68633,1,0,0:0:0:0:
448,192,68633,1,0,0:0:0:0:
192,192,68745,1,0,0:0:0:0:
64,192,68857,1,8,0:0:0:0:
448,192,68857,1,0,0:0:0:0:
320,192,68969,1,0,0:0:0:0:
64,192,69081,128,0,69305:0:0:0:0:
192,192,69081,1,0,0:0:0:0:
320,192,69305,1,2,0:0:0:0:
448,192,69305,128,0,69529:0:0:0:0:
64,192,69529,1,0,0:0:0:0:
192,192,69529,1,0,0:0:0:0:
320,192,69641,1,0,0:0:0:0:
64,192,69752,128,8,69976:0:0:0:0:
192,192,69752,1,4,0:0:0:50:
448,192,69752,1,0,0:0:0:0:
192,192,69976,128,2,70200:0:0:0:0:
320,192,69976,1,0,0:0:0:0:
64,192,70200,1,2,0:0:0:0:
320,192,70200,1,4,0:0:0:0:
448,192,70200,128,0,70424:0:0:0:0:
64,192,70424,1,0,0:0:0:0:
192,192,70424,1,0,0:0:0:0:
320,192,70536,1,0,0:0:0:0:
64,192,70648,1,8,0:0:0:0:
192,192,70648,1,0,0:0:0:0:
448,192,70760,1,0,0:0:0:0:
192,192,70872,128,0,71096:0:0:0:0:
320,192,70872,1,0,0:0:0:0:
64,192,71096,128,2,71320:0:0:0:0:
448,192,71096,1,0,0:0:0:0:
320,192,71320,1,0,0:0:0:0:
448,192,71320,1,0,0:0:0:0:
192,192,71432,1,0,0:0:0:0:
320,192,71544,1,8,0:0:0:0:
448,192,71544,1,0,0:0:0:0:
64,192,71655,1,0,0:0:0:0:
192,192,71767,1,0,0:0:0:0:
320,192,71767,128,0,71991:0:0:0:0:
64,192,71991,128,2,72215:0:0:0:0:
448,192,71991,1,0,0:0:0:0:
320,192,72215,1,0,0:0:0:0:
448,192,72215,1,0,0:0:0:0:
192,192,72327,1,0,0:0:0:0:
64,192,72439,1,8,0:0:0:0:
320,192,72439,1,0,0:0:0:0:
448,192,72551,1,0,0:0:0:0:
64,192,72663,1,0,0:0:0:0:
192,192,72663,128,0,72887:0:0:0:0:
320,192,72887,1,2,0:0:0:0:
448,192,72887,128,0,73111:0:0:0:0:
64,192,73111,1,0,0:0:0:0:
192,192,73111,1,0,0:0:0:0:
320,192,73223,1,0,0:0:0:0:
192,192,73335,1,8,0:0:0:0:
448,192,73335,1,0,0:0:0:0:
64,192,73447,1,0,0:0:0:0:
320,192,73558,128,0,73782:0:0:0:0:
448,192,73558,1,0,0:0:0:0:
64,192,73782,1,2,0:0:0:0:
192,192,73782,1,4,0:0:0:0:
448,192,73782,128,0,74006:0:0:0:0:
64,192,74006,1,0,0:0:0:0:
320,192,74006,1,0,0:0:0:0:
192,192,74118,1,0,0:0:0:0:
64,192,74230,128,8,74454:0:0:0:0:
320,192,74230,1,0,0:0:0:0:
320,192,74454,1,0,0:0:0:0:
448,192,74454,1,0,0:0:0:0:
192,192,74566,1,0,0:0:0:0:
64,192,74678,1,2,0:0:0:0:
448,192,74678,1,0,0:0:0:0:
320,192,74790,1,0,0:0:0:0:
64,192,74902,1,0,0:0:0:0:
192,192,74902,1,0,0:0:0:0:
448,192,75014,1,0,0:0:0:0:
192,192,75126,1,8,0:0:0:0:
320,192,75126,1,0,0:0:0:0:
64,192,75238,1,0,0:0:0:0:
320,192,75350,1,0,0:0:0:0:
448,192,75350,1,0,0:0:0:0:
192,192,75461,1,0,0:0:0:0:
64,192,75573,128,2,75797:0:0:0:0:
320,192,75573,1,4,0:0:0:0:
448,192,75573,1,0,0:0:0:0:
192,192,75797,1,0,0:0:0:0:
320,192,75909,1,2,0:0:0:0:
448,192,75909,1,0,0:0:0:0:
64,192,76021,1,8,0:0:0:0:
192,192,76021,1,0,0:0:0:0:
320,192,76133,1,0,0:0:0:0:
192,192,76245,1,2,0:0:0:0:
448,192,76245,1,0,0:0:0:0:
64,192,76357,1,0,0:0:0:0:
320,192,76469,1,2,0:0:0:0:
448,192,76469,1,0,0:0:0:0:
64,192,76581,1,2,0:0:0:0:
192,192,76581,1,0,0:0:0:0:
320,192,76693,1,2,0:0:0:0:
448,192,76693,1,0,0:0:0:0:
192,192,76805,1,0,0:0:0:0:
64,192,76917,1,8,0:0:0:0:
320,192,76917,1,0,0:0:0:0:
448,192,77029,1,0,0:0:0:0:
64,192,77141,1,2,0:0:0:0:
192,192,77141,1,0,0:0:0:0:
320,192,77252,1,2,0:0:0:0:
64,192,77364,128,2,78708:0:0:0:0:
192,192,77364,1,4,0:0:0:0:
448,192,77364,1,0,0:0:0:0:
320,192,77588,1,0,0:0:0:0:
448,192,77588,1,0,0:0:0:0:
192,192,77812,1,8,0:0:0:0:
320,192,77812,1,0,0:0:0:0:
448,192,77924,1,0,0:0:0:0:
192,192,78036,1,0,0:0:0:0:
448,192,78148,1,0,0:0:0:0:
192,192,78260,1,2,0:0:0:0:
320,192,78260,1,0,0:0:0:0:
192,192,78484,1,0,0:0:0:0:
448,192,78484,1,0,0:0:0:0:
320,192,78708,1,8,0:0:0:0:
448,192,78708,1,0,0:0:0:0:
192,192,78820,1,0,0:0:0:0:
64,192,78932,1,0,0:0:0:0:
448,192,78932,1,0,0:0:0:0:
320,192,79044,1,0,0:0:0:0:
64,192,79155,1,2,0:0:0:0:
192,192,79155,1,0,0:0:0:0:
320,192,79379,1,0,0:0:0:0:
448,192,79379,1,0,0:0:0:0:
192,192,79491,1,0,0:0:0:0:
64,192,79603,1,8,0:0:0:0:
448,192,79603,1,0,0:0:0:0:
320,192,79715,1,0,0:0:0:0:
64,192,79827,1,0,0:0:0:0:
192,192,79827,128,0,80051:0:0:0:0:
64,192,80051,1,2,0:0:0:0:
320,192,80051,128,0,80275:0:0:0:0:
448,192,80051,1,0,0:0:0:0:
64,192,80275,1,0,0:0:0:0:
448,192,80275,1,0,0:0:0:0:
192,192,80387,1,0,0:0:0:0:
64,192,80499,1,8,0:0:0:0:
320,192,80499,1,0,0:0:0:0:
448,192,80611,1,0,0:0:0:0:
64,192,80723,1,0,0:0:0:0:
192,192,80723,1,0,0:0:0:0:
320,192,80835,1,0,0:0:0:0:
192,192,80947,1,2,0:0:0:0:
448,192,80947,1,0,0:0:0:0:
64,192,81170,1,0,0:0:0:0:
192,192,81170,1,0,0:0:0:0:
320,192,81282,1,0,0:0:0:0:
448,192,81282,1,0,0:0:0:0:
64,192,81394,1,8,0:0:0:0:
192,192,81394,1,0,0:0:0:0:
320,192,81618,1,0,0:0:0:0:
448,192,81618,1,0,0:0:0:0:
192,192,81730,1,0,0:0:0:0:
64,192,81842,1,2,0:0:0:0:
448,192,81842,1,0,0:0:0:0:
320,192,81954,1,0,0:0:0:0:
64,192,82066,1,0,0:0:0:0:
192,192,82066,1,0,0:0:0:0:
320,192,82290,1,8,0:0:0:0:
448,192,82290,1,0,0:0:0:0:
64,192,82402,1,0,0:0:0:0:
192,192,82402,1,0,0:0:0:0:
320,192,82514,1,0,0:0:0:0:
448,192,82514,1,0,0:0:0:0:
64,192,82738,1,2,0:0:0:0:
320,192,82738,1,0,0:0:0:0:
192,192,82850,1,0,0:0:0:0:
320,192,82961,1,0,0:0:0:0:
448,192,82961,1,0,0:0:0:0:
64,192,83073,1,0,0:0:0:0:
192,192,83185,1,8,0:0:0:0:
320,192,83185,1,0,0:0:0:0:
448,192,83297,1,0,0:0:0:0:
64,192,83409,1,0,0:0:0:0:
192,192,83409,1,0,0:0:0:0:
320,192,83521,1,0,0:0:0:0:
192,192,83633,128,2,83857:0:0:0:0:
448,192,83633,1,0,0:0:0:0:
320,192,83857,1,0,0:0:0:0:
448,192,83857,1,0,0:0:0:0:
192,192,83969,1,0,0:0:0:0:
64,192,84081,1,8,0:0:0:0:
320,192,84081,1,4,0:0:0:50:
448,192,84081,128,0,84305:0:0:0:0:
64,192,84305,1,0,0:0:0:0:
192,192,84305,1,0,0:0:0:0:
320,192,84417,1,0,0:0:0:0:
64,192,84529,1,2,0:0:0:0:
192,192,84529,128,4,84752:0:0:0:0:
448,192,84529,1,0,0:0:0:0:
320,192,84752,1,0,0:0:0:0:
448,192,84752,1,0,0:0:0:0:
64,192,84864,1,0,0:0:0:0:
320,192,84976,128,8,85200:0:0:0:0:
448,192,84976,1,0,0:0:0:0:
64,192,85200,1,0,0:0:0:0:
192,192,85200,1,0,0:0:0:0:
320,192,85312,1,0,0:0:0:0:
64,192,85424,128,2,85648:0:0:0:0:
448,192,85424,1,0,0:0:0:0:
320,192,85648,1,0,0:0:0:0:
448,192,85648,1,0,0:0:0:0:
192,192,85760,1,0,0:0:0:0:
320,192,85872,1,8,0:0:0:0:
448,192,85872,1,0,0:0:0:0:
64,192,85984,1,0,0:0:0:0:
192,192,86096,1,0,0:0:0:0:
320,192,86096,1,0,0:0:0:0:
448,192,86208,1,0,0:0:0:0:
64,192,86320,1,2,0:0:0:0:
192,192,86320,1,0,0:0:0:0:
320,192,86544,1,0,0:0:0:0:
448,192,86544,1,0,0:0:0:0:
64,192,86655,1,0,0:0:0:0:
320,192,86767,128,8,86991:0:0:0:0:
448,192,86767,1,0,0:0:0:0:
64,192,86991,1,0,0:0:0:0:
192,192,86991,1,0,0:0:0:0:
320,192,87103,1,0,0:0:0:0:
64,192,87215,1,2,0:0:0:0:
192,192,87215,1,0,0:0:0:0:
320,192,87439,1,0,0:0:0:0:
448,192,87439,1,0,0:0:0:0:
192,192,87551,1,0,0:0:0:0:
64,192,87663,1,8,0:0:0:0:
320,192,87663,1,4,0:0:0:50:
448,192,87663,128,0,87887:0:0:0:0:
64,192,87887,1,0,0:0:0:0:
192,192,87887,1,0,0:0:0:0:
320,192,87999,1,0,0:0:0:0:
64,192,88111,128,2,88335:0:0:0:0:
192,192,88111,1,4,0:0:0:0:
448,192,88111,1,0,0:0:0:0:
320,192,88335,1,0,0:0:0:0:
448,192,88335,1,0,0:0:0:0:
192,192,88447,1,0,0:0:0:0:
64,192,88558,1,8,0:0:0:0:
448,192,88558,128,0,88782:0:0:0:0:
192,192,88782,1,0,0:0:0:0:
320,192,88782,128,0,89006:0:0:0:0:
64,192,89006,128,2,89230:0:0:0:0:
192,192,89006,1,4,0:0:0:0:
448,192,89006,1,0,0:0:0:0:
320,192,89230,1,0,0:0:0:0:
448,192,89230,1,0,0:0:0:0:
192,192,89342,1,0,0:0:0:0:
64,192,89454,1,8,0:0:0:0:
448,192,89454,128,0,89678:0:0:0:0:
64,192,89678,1,0,0:0:0:0:
192,192,89678,1,0,0:0:0:0:
320,192,89790,1,0,0:0:0:0:
64,192,89902,128,2,90350:0:0:0:0:
192,192,89902,1,4,0:0:0:0:
448,192,89902,1,0,0:0:0:0:
320,192,90126,1,0,0:0:0:0:
192,192,90350,1,8,0:0:0:0:
320,192,90350,1,0,0:0:0:0:
64,192,90573,1,0,0:0:0:0:
448,192,90573,128,0,91245:0:0:0:0:
64,192,90797,1,2,0:0:0:0:
192,192,90797,1,0,0:0:0:0:
320,192,91021,1,0,0:0:0:0:
64,192,91245,1,8,0:0:0:0:
320,192,91245,1,0,0:0:0:0:
192,192,91469,1,0,0:0:0:0:
448,192,91469,1,0,0:0:0:0:
320,192,91581,1,0,0:0:0:0:
64,192,91693,1,2,0:0:0:0:
448,192,91693,128,0,92141:0:0:0:0:
320,192,91917,1,0,0:0:0:0:
64,192,92141,1,8,0:0:0:0:
320,192,92141,1,0,0:0:0:0:
64,192,92364,128,0,93036:0:0:0:0:
192,192,92364,1,0,0:0:0:0:
192,192,92588,1,2,0:0:0:0:
320,192,92588,1,0,0:0:0:0:
448,192,92812,1,0,0:0:0:0:
192,192,93036,1,8,0:0:0:0:
448,192,93036,1,0,0:0:0:0:
64,192,93260,1,0,0:0:0:0:
192,192,93260,1,0,0:0:0:0:
320,192,93372,1,0,0:0:0:0:
64,192,93484,128,2,93932:0:0:0:0:
448,192,93484,1,0,0:0:0:0:
320,192,93708,1,0,0:0:0:0:
192,192,93932,1,8,0:0:0:0:
320,192,93932,1,0,0:0:0:0:
64,192,94155,1,0,0:0:0:0:
448,192,94155,128,0,94827:0:0:0:0:
64,192,94379,1,2,0:0:0:0:
192,192,94379,1,0,0:0:0:0:
320,192,94603,1,0,0:0:0:0:
64,192,94827,1,8,0:0:0:0:
320,192,94827,1,0,0:0:0:0:
192,192,95051,1,0,0:0:0:0:
448,192,95051,1,0,0:0:0:0:
320,192,95163,1,0,0:0:0:0:
64,192,95275,1,2,0:0:0:0:
448,192,95275,128,0,95723:0:0:0:0:
320,192,95499,1,0,0:0:0:0:
64,192,95723,1,8,0:0:0:0:
320,192,95723,1,0,0:0:0:0:
192,192,95947,128,0,96618:0:0:0:0:
448,192,95947,1,0,0:0:0:0:
320,192,96170,1,2,0:0:0:0:
448,192,96170,1,0,0:0:0:0:
64,192,96394,1,0,0:0:0:0:
320,192,96618,1,8,0:0:0:0:
448,192,96618,1,0,0:0:0:0:
64,192,96842,1,4,0:0:0:30:
192,192,96842,1,0,0:0:0:0:
320,192,96954,1,0,0:0:0:0:
64,192,97066,128,2,97514:0:0:0:0:
192,192,97066,1,4,0:0:0:0:
448,192,97066,1,0,0:0:0:0:
320,192,97290,1,0,0:0:0:0:
192,192,97514,1,8,0:0:0:0:
320,192,97514,1,0,0:0:0:0:
64,192,97738,1,0,0:0:0:0:
448,192,97738,128,0,98409:0:0:0:0:
64,192,97961,1,2,0:0:0:0:
192,192,97961,1,0,0:0:0:0:
320,192,98185,1,0,0:0:0:0:
64,192,98409,1,8,0:0:0:0:
320,192,98409,1,0,0:0:0:0:
192,192,98633,1,0,0:0:0:0:
448,192,98633,1,0,0:0:0:0:
320,192,98745,1,0,0:0:0:0:
64,192,98857,1,2,0:0:0:0:
448,192,98857,128,0,99305:0:0:0:0:
320,192,99081,1,0,0:0:0:0:
64,192,99305,1,8,0:0:0:0:
320,192,99305,1,0,0:0:0:0:
64,192,99529,128,0,100200:0:0:0:0:
192,192,99529,1,0,0:0:0:0:
192,192,99752,1,2,0:0:0:0:
320,192,99752,1,0,0:0:0:0:
448,192,99976,1,0,0:0:0:0:
192,192,100200,1,8,0:0:0:0:
448,192,100200,1,0,0:0:0:0:
64,192,100424,1,0,0:0:0:0:
192,192,100424,1,0,0:0:0:0:
320,192,100536,1,0,0:0:0:0:
64,192,100648,128,2,101096:0:0:0:0:
448,192,100648,1,0,0:0:0:0:
320,192,100872,1,0,0:0:0:0:
192,192,101096,1,8,0:0:0:0:
320,192,101096,1,0,0:0:0:0:
64,192,101320,1,0,0:0:0:0:
448,192,101320,128,0,101991:0:0:0:0:
64,192,101544,1,2,0:0:0:0:
192,192,101544,1,0,0:0:0:0:
320,192,101767,1,0,0:0:0:0:
64,192,101991,1,8,0:0:0:0:
320,192,101991,1,0,0:0:0:0:
192,192,102215,1,0,0:0:0:0:
448,192,102215,1,0,0:0:0:0:
320,192,102327,1,0,0:0:0:0:
64,192,102439,1,2,0:0:0:0:
448,192,102439,128,0,102887:0:0:0:0:
320,192,102663,1,0,0:0:0:0:
64,192,102887,1,8,0:0:0:0:
320,192,102887,1,0,0:0:0:0:
192,192,103111,128,0,103782:0:0:0:0:
448,192,103111,1,0,0:0:0:0:
320,192,103335,1,2,0:0:0:0:
448,192,103335,1,0,0:0:0:0:
64,192,103558,1,0,0:0:0:0:
320,192,103782,1,8,0:0:0:0:
448,192,103782,1,0,0:0:0:0:
64,192,104006,1,0,0:0:0:0:
192,192,104006,1,0,0:0:0:0:
320,192,104118,1,0,0:0:0:0:
64,192,104230,1,4,0:0:0:0:
192,192,104230,1,2,0:0:0:0:
448,192,104230,1,0,0:0:0:0:
320,192,104454,1,0,0:0:0:0:
64,192,104566,1,8,0:0:0:0:
192,192,104566,1,0,0:0:0:0:
320,192,104678,1,2,0:0:0:0:
448,192,104678,1,0,0:0:0:0:
192,192,104790,1,0,0:0:0:0:
64,192,104902,1,8,0:0:0:0:
448,192,104902,1,0,0:0:0:0:
320,192,105126,1,2,0:0:0:0:
448,192,105126,1,0,0:0:0:0:
192,192,105350,1,0,0:0:0:0:
320,192,105461,1,8,0:0:0:0:
448,192,105461,1,0,0:0:0:0:
64,192,105573,1,2,0:0:0:0:
192,192,105573,1,0,0:0:0:0:
320,192,105685,1,0,0:0:0:0:
64,192,105797,1,8,0:0:0:0:
448,192,105797,1,0,0:0:0:0:
192,192,105853,1,0,0:0:0:0:
320,192,105909,1,0,0:0:0:0:
448,192,105965,1,0,0:0:0:0:
64,192,106021,128,2,106133:0:0:0:0:
192,192,106021,128,4,106133:0:0:0:0:
64,192,106357,128,2,106469:0:0:0:0:
192,192,106357,128,4,106469:0:0:0:0:
448,192,106357,1,0,0:0:0:0:
64,192,106693,1,2,0:0:0:0:
320,192,106693,128,4,106917:0:0:0:0:
448,192,106693,128,0,106917:0:0:0:0:
192,192,107029,1,0,0:0:0:0:
64,192,107141,1,8,0:0:0:30:
448,192,107141,1,0,0:0:0:0:
320,192,107364,1,8,0:0:0:30:
448,192,107364,1,0,0:0:0:0:
64,192,107476,1,8,0:0:0:30:
192,192,107476,1,0,0:0:0:0:
320,192,107588,1,8,0:0:0:30:
448,192,107588,1,0,0:0:0:0:
192,192,107700,1,8,0:0:0:30:
64,192,107812,1,4,0:0:0:0:
320,192,107812,1,0,0:0:0:0:
448,192,107812,128,0,111394:0:0:0:0:
