osu file format v14

[General]
AudioFilename: audio.mp3
AudioLeadIn: 0
PreviewTime: 62150
Countdown: 0
SampleSet: Normal
StackLeniency: 0.7
Mode: 3
LetterboxInBreaks: 0
SpecialStyle: 0
WidescreenStoryboard: 0

[Editor]
DistanceSpacing: 1.2
BeatDivisor: 4
GridSize: 4
TimelineZoom: 1

[Metadata]
Title:Hishoku no Sora ~TV SIZE~
TitleUnicode:Hishoku no Sora ~TV SIZE~
Artist:Kawada Mami
ArtistUnicode:川田まみ
Creator:- Ly0572 -
Version:Hard
Source:
Tags:
BeatmapID:1890870
BeatmapSetID:906057

[Difficulty]
HPDrainRate:5
CircleSize:4
OverallDifficulty:5
ApproachRate:5
SliderMultiplier:1.4
SliderTickRate:1

[Events]
//Background and Video events
//Break Periods
//Storyboard Layer 0 (Background)
//Storyboard Layer 1 (Fail)
//Storyboard Layer 2 (Pass)
//Storyboard Layer 3 (Foreground)
//Storyboard Sound Samples

[TimingPoints]
375,355.029585798817,4,1,0,100,1,0
62860,-100,4,1,0,100,0,1
85582,-100,4,1,0,100,0,0

[HitObjects]
448,192,375,5,0,0:0:0:0:
320,192,375,1,0,0:0:0:0:
64,192,375,1,0,0:0:0:0:
192,192,552,1,0,0:0:0:0:
64,192,730,1,0,0:0:0:0:
448,192,730,1,0,0:0:0:0:
320,192,907,1,0,0:0:0:0:
192,192,996,1,0,0:0:0:0:
64,192,1085,1,0,0:0:0:0:
448,192,1085,1,0,0:0:0:0:
320,192,1262,1,0,0:0:0:0:
192,192,1440,1,0,0:0:0:0:
320,192,1617,1,0,0:0:0:0:
448,192,1617,1,0,0:0:0:0:
64,192,1795,1,0,0:0:0:0:
448,192,1972,1,0,0:0:0:0:
320,192,2061,1,0,0:0:0:0:
64,192,2150,1,0,0:0:0:0:
192,192,2150,1,0,0:0:0:0:
320,192,2327,1,0,0:0:0:0:
192,192,2505,1,0,0:0:0:0:
448,192,2505,1,0,0:0:0:0:
320,192,2682,1,0,0:0:0:0:
64,192,2860,1,0,0:0:0:0:
448,192,2860,1,0,0:0:0:0:
192,192,3037,1,0,0:0:0:0:
320,192,3126,1,0,0:0:0:0:
64,192,3215,1,0,0:0:0:0:
448,192,3215,1,0,0:0:0:0:
192,192,3392,1,0,0:0:0:0:
448,192,3570,1,0,0:0:0:0:
320,192,3570,1,0,0:0:0:0:
64,192,3925,1,0,0:0:0:0:
448,192,3925,1,0,0:0:0:0:
192,192,4102,1,0,0:0:0:0:
320,192,4280,1,0,0:0:0:0:
192,192,4457,1,0,0:0:0:0:
64,192,4457,1,0,0:0:0:0:
192,192,4812,1,0,0:0:0:0:
320,192,4990,1,0,0:0:0:0:
448,192,4990,1,0,0:0:0:0:
448,192,6055,1,0,0:0:0:0:
192,192,6055,1,0,0:0:0:0:
64,192,6055,1,0,0:0:0:0:
64,192,6410,1,0,0:0:0:0:
448,192,6410,1,0,0:0:0:0:
192,192,6765,1,0,0:0:0:0:
192,192,6943,1,0,0:0:0:0:
448,192,7120,1,0,0:0:0:0:
64,192,7120,1,0,0:0:0:0:
320,192,7298,1,0,0:0:0:0:
320,192,7653,1,0,0:0:0:0:
64,192,7830,1,0,0:0:0:0:
448,192,7830,1,0,0:0:0:0:
192,192,8185,1,0,0:0:0:0:
192,192,8363,1,0,0:0:0:0:
64,192,8540,1,0,0:0:0:0:
448,192,8540,1,0,0:0:0:0:
320,192,8895,1,0,0:0:0:0:
64,192,9250,1,0,0:0:0:0:
448,192,9250,1,0,0:0:0:0:
320,192,9428,1,0,0:0:0:0:
448,192,9428,1,0,0:0:0:0:
192,192,9605,1,0,0:0:0:0:
192,192,9783,1,0,0:0:0:0:
448,192,9960,1,0,0:0:0:0:
64,192,9960,1,0,0:0:0:0:
320,192,10138,1,0,0:0:0:0:
320,192,10493,1,0,0:0:0:0:
64,192,10670,1,0,0:0:0:0:
448,192,10670,1,0,0:0:0:0:
192,192,11025,1,0,0:0:0:0:
192,192,11203,1,0,0:0:0:0:
64,192,11380,1,0,0:0:0:0:
448,192,11380,1,0,0:0:0:0:
320,192,11558,1,0,0:0:0:0:
320,192,11735,1,0,0:0:0:0:
192,192,11735,1,0,0:0:0:0:
64,192,11735,1,0,0:0:0:0:
448,192,12090,1,0,0:0:0:0:
64,192,12090,1,0,0:0:0:0:
192,192,12446,1,0,0:0:0:0:
192,192,12623,1,0,0:0:0:0:
64,192,12801,1,0,0:0:0:0:
448,192,12801,1,0,0:0:0:0:
320,192,12978,1,0,0:0:0:0:
192,192,12978,1,0,0:0:0:0:
448,192,12978,1,0,0:0:0:0:
320,192,13333,1,0,0:0:0:0:
448,192,13511,1,0,0:0:0:0:
64,192,13511,1,0,0:0:0:0:
192,192,13866,1,0,0:0:0:0:
192,192,14043,1,0,0:0:0:0:
448,192,14221,1,0,0:0:0:0:
64,192,14221,1,0,0:0:0:0:
320,192,14576,1,0,0:0:0:0:
192,192,14576,1,0,0:0:0:0:
64,192,14576,1,0,0:0:0:0:
64,192,14931,1,0,0:0:0:0:
448,192,14931,1,0,0:0:0:0:
448,192,15108,1,0,0:0:0:0:
192,192,15286,1,0,0:0:0:0:
192,192,15463,1,0,0:0:0:0:
448,192,15641,1,0,0:0:0:0:
64,192,15641,1,0,0:0:0:0:
320,192,15818,1,0,0:0:0:0:
64,192,15996,1,0,0:0:0:0:
192,192,15996,128,0,16351:0:0:0:0:
320,192,16351,128,0,16706:0:0:0:0:
448,192,16706,1,0,0:0:0:0:
192,192,16883,1,0,0:0:0:0:
64,192,17061,1,0,0:0:0:0:
448,192,17061,1,0,0:0:0:0:
192,192,17238,1,0,0:0:0:0:
320,192,17416,1,0,0:0:0:0:
448,192,17416,1,0,0:0:0:0:
64,192,17416,1,0,0:0:0:0:
192,192,17593,1,0,0:0:0:0:
448,192,17771,1,0,0:0:0:0:
64,192,17771,1,0,0:0:0:0:
320,192,17948,1,0,0:0:0:0:
192,192,18126,1,0,0:0:0:0:
192,192,18303,1,0,0:0:0:0:
64,192,18481,1,0,0:0:0:0:
448,192,18481,1,0,0:0:0:0:
320,192,18659,1,0,0:0:0:0:
192,192,18836,1,0,0:0:0:0:
320,192,19014,1,0,0:0:0:0:
448,192,19191,1,0,0:0:0:0:
64,192,19191,1,0,0:0:0:0:
320,192,19369,1,0,0:0:0:0:
192,192,19546,1,0,0:0:0:0:
192,192,19724,1,0,0:0:0:0:
448,192,19901,1,0,0:0:0:0:
64,192,19901,1,0,0:0:0:0:
192,192,20079,1,0,0:0:0:0:
320,192,20256,1,0,0:0:0:0:
448,192,20256,1,0,0:0:0:0:
64,192,20256,1,0,0:0:0:0:
192,192,20434,1,0,0:0:0:0:
64,192,20611,1,0,0:0:0:0:
448,192,20611,1,0,0:0:0:0:
320,192,20789,1,0,0:0:0:0:
192,192,20966,1,0,0:0:0:0:
320,192,21144,1,0,0:0:0:0:
448,192,21321,1,0,0:0:0:0:
64,192,21321,1,0,0:0:0:0:
320,192,21499,1,0,0:0:0:0:
192,192,21676,1,0,0:0:0:0:
320,192,21854,1,0,0:0:0:0:
64,192,22031,1,0,0:0:0:0:
448,192,22031,1,0,0:0:0:0:
320,192,22209,1,0,0:0:0:0:
192,192,22386,1,0,0:0:0:0:
192,192,22564,1,0,0:0:0:0:
64,192,22741,1,0,0:0:0:0:
448,192,22741,1,0,0:0:0:0:
320,192,22919,1,0,0:0:0:0:
192,192,23096,1,0,0:0:0:0:
64,192,23096,1,0,0:0:0:0:
448,192,23096,1,0,0:0:0:0:
320,192,23274,1,0,0:0:0:0:
448,192,23451,1,0,0:0:0:0:
64,192,23451,1,0,0:0:0:0:
320,192,23629,1,0,0:0:0:0:
192,192,23806,1,0,0:0:0:0:
192,192,23984,1,0,0:0:0:0:
64,192,24161,1,0,0:0:0:0:
448,192,24161,1,0,0:0:0:0:
320,192,24339,1,0,0:0:0:0:
192,192,24517,1,0,0:0:0:0:
192,192,24694,1,0,0:0:0:0:
448,192,24872,1,0,0:0:0:0:
64,192,24872,1,0,0:0:0:0:
320,192,25049,1,0,0:0:0:0:
192,192,25227,1,0,0:0:0:0:
192,192,25404,1,0,0:0:0:0:
448,192,25582,1,0,0:0:0:0:
64,192,25582,1,0,0:0:0:0:
320,192,25759,1,0,0:0:0:0:
192,192,25937,1,0,0:0:0:0:
64,192,25937,1,0,0:0:0:0:
448,192,25937,1,0,0:0:0:0:
320,192,26114,1,0,0:0:0:0:
64,192,26292,1,0,0:0:0:0:
448,192,26292,1,0,0:0:0:0:
320,192,26469,1,0,0:0:0:0:
192,192,26647,1,0,0:0:0:0:
192,192,26824,1,0,0:0:0:0:
448,192,27002,1,0,0:0:0:0:
64,192,27002,1,0,0:0:0:0:
320,192,27179,1,0,0:0:0:0:
192,192,27357,1,0,0:0:0:0:
320,192,27534,1,0,0:0:0:0:
64,192,27712,1,0,0:0:0:0:
448,192,27889,1,0,0:0:0:0:
192,192,28067,1,0,0:0:0:0:
320,192,28244,1,0,0:0:0:0:
64,192,28422,1,0,0:0:0:0:
448,192,28422,1,0,0:0:0:0:
192,192,28599,1,0,0:0:0:0:
320,192,28777,1,0,0:0:0:0:
64,192,28777,1,0,0:0:0:0:
448,192,28777,1,0,0:0:0:0:
64,192,29132,1,0,0:0:0:0:
192,192,29309,1,0,0:0:0:0:
320,192,29398,1,0,0:0:0:0:
448,192,29487,1,0,0:0:0:0:
64,192,29664,1,0,0:0:0:0:
320,192,29842,1,0,0:0:0:0:
192,192,29842,1,0,0:0:0:0:
448,192,30197,1,0,0:0:0:0:
320,192,30375,1,0,0:0:0:0:
64,192,30552,1,0,0:0:0:0:
192,192,30730,1,0,0:0:0:0:
320,192,30818,1,0,0:0:0:0:
448,192,30907,1,0,0:0:0:0:
64,192,31085,1,0,0:0:0:0:
192,192,31262,1,0,0:0:0:0:
320,192,31262,1,0,0:0:0:0:
448,192,31440,1,0,0:0:0:0:
448,192,31617,1,0,0:0:0:0:
192,192,31795,1,0,0:0:0:0:
320,192,31883,1,0,0:0:0:0:
448,192,31972,1,0,0:0:0:0:
64,192,32150,1,0,0:0:0:0:
192,192,32327,1,0,0:0:0:0:
320,192,32505,1,0,0:0:0:0:
448,192,32682,1,0,0:0:0:0:
192,192,32860,1,0,0:0:0:0:
64,192,33037,1,0,0:0:0:0:
192,192,33215,5,0,0:0:0:0:
320,192,33303,1,0,0:0:0:0:
448,192,33392,1,0,0:0:0:0:
64,192,33570,1,0,0:0:0:0:
192,192,33747,1,0,0:0:0:0:
320,192,33747,1,0,0:0:0:0:
448,192,34102,1,0,0:0:0:0:
320,192,34280,1,0,0:0:0:0:
448,192,34457,1,0,0:0:0:0:
64,192,34457,1,0,0:0:0:0:
320,192,34635,1,0,0:0:0:0:
192,192,34812,1,0,0:0:0:0:
448,192,34812,1,0,0:0:0:0:
320,192,34990,1,0,0:0:0:0:
192,192,35079,1,0,0:0:0:0:
64,192,35167,1,0,0:0:0:0:
320,192,35345,1,0,0:0:0:0:
448,192,35522,1,0,0:0:0:0:
192,192,35522,1,0,0:0:0:0:
320,192,35700,1,0,0:0:0:0:
64,192,35877,1,0,0:0:0:0:
192,192,35877,1,0,0:0:0:0:
320,192,36055,1,0,0:0:0:0:
448,192,36232,1,0,0:0:0:0:
64,192,36232,1,0,0:0:0:0:
192,192,36410,1,0,0:0:0:0:
320,192,36499,1,0,0:0:0:0:
448,192,36588,1,0,0:0:0:0:
192,192,36765,1,0,0:0:0:0:
320,192,36943,1,0,0:0:0:0:
64,192,36943,1,0,0:0:0:0:
192,192,37120,1,0,0:0:0:0:
192,192,37298,1,0,0:0:0:0:
448,192,37298,1,0,0:0:0:0:
320,192,37298,1,0,0:0:0:0:
64,192,37653,1,0,0:0:0:0:
448,192,37653,1,0,0:0:0:0:
192,192,38008,1,0,0:0:0:0:
192,192,38185,1,0,0:0:0:0:
448,192,38363,1,0,0:0:0:0:
320,192,38363,1,0,0:0:0:0:
64,192,38540,1,0,0:0:0:0:
320,192,38718,1,0,0:0:0:0:
448,192,38718,1,0,0:0:0:0:
192,192,38895,1,0,0:0:0:0:
192,192,39073,1,0,0:0:0:0:
448,192,39250,1,0,0:0:0:0:
320,192,39339,1,0,0:0:0:0:
192,192,39428,1,0,0:0:0:0:
64,192,39605,1,0,0:0:0:0:
64,192,39783,1,0,0:0:0:0:
448,192,39783,1,0,0:0:0:0:
320,192,39872,1,0,0:0:0:0:
192,192,39960,1,0,0:0:0:0:
448,192,40138,1,0,0:0:0:0:
320,192,40138,1,0,0:0:0:0:
64,192,40138,1,0,0:0:0:0:
192,192,40493,1,0,0:0:0:0:
64,192,40670,1,0,0:0:0:0:
192,192,40759,1,0,0:0:0:0:
320,192,40848,1,0,0:0:0:0:
448,192,41025,1,0,0:0:0:0:
192,192,41203,1,0,0:0:0:0:
64,192,41203,1,0,0:0:0:0:
448,192,41380,1,0,0:0:0:0:
320,192,41469,1,0,0:0:0:0:
192,192,41558,1,0,0:0:0:0:
64,192,41735,1,0,0:0:0:0:
192,192,41824,1,0,0:0:0:0:
320,192,41913,1,0,0:0:0:0:
448,192,42090,1,0,0:0:0:0:
192,192,42268,1,0,0:0:0:0:
320,192,42446,1,0,0:0:0:0:
64,192,42623,1,0,0:0:0:0:
192,192,42801,1,0,0:0:0:0:
192,192,42978,1,0,0:0:0:0:
448,192,43333,1,0,0:0:0:0:
64,192,43333,1,0,0:0:0:0:
192,192,43511,1,0,0:0:0:0:
320,192,43599,1,0,0:0:0:0:
448,192,43688,1,0,0:0:0:0:
192,192,43866,1,0,0:0:0:0:
64,192,44043,1,0,0:0:0:0:
448,192,44398,1,0,0:0:0:0:
320,192,44576,1,0,0:0:0:0:
192,192,44664,1,0,0:0:0:0:
64,192,44753,1,0,0:0:0:0:
448,192,44931,1,0,0:0:0:0:
64,192,45108,1,0,0:0:0:0:
192,192,45197,1,0,0:0:0:0:
320,192,45286,1,0,0:0:0:0:
448,192,45463,1,0,0:0:0:0:
192,192,45641,1,0,0:0:0:0:
64,192,45641,1,0,0:0:0:0:
320,192,45818,1,0,0:0:0:0:
448,192,46173,1,0,0:0:0:0:
320,192,46351,1,0,0:0:0:0:
192,192,46440,1,0,0:0:0:0:
64,192,46528,1,0,0:0:0:0:
448,192,46706,1,0,0:0:0:0:
320,192,46883,1,0,0:0:0:0:
192,192,46883,1,0,0:0:0:0:
64,192,47238,1,0,0:0:0:0:
192,192,47416,1,0,0:0:0:0:
320,192,47505,1,0,0:0:0:0:
448,192,47593,1,0,0:0:0:0:
64,192,47771,1,0,0:0:0:0:
320,192,47948,1,0,0:0:0:0:
192,192,48126,1,0,0:0:0:0:
448,192,48303,1,0,0:0:0:0:
192,192,48659,1,0,0:0:0:0:
320,192,48659,1,0,0:0:0:0:
64,192,49014,1,0,0:0:0:0:
448,192,49014,1,0,0:0:0:0:
320,192,49369,1,0,0:0:0:0:
320,192,49546,1,0,0:0:0:0:
448,192,49724,1,0,0:0:0:0:
64,192,49724,1,0,0:0:0:0:
192,192,49901,1,0,0:0:0:0:
320,192,50079,1,0,0:0:0:0:
448,192,50079,1,0,0:0:0:0:
192,192,50256,1,0,0:0:0:0:
64,192,50256,1,0,0:0:0:0:
320,192,50434,5,0,0:0:0:0:
448,192,50434,1,0,0:0:0:0:
192,192,50611,1,0,0:0:0:0:
64,192,50611,1,0,0:0:0:0:
320,192,50789,1,0,0:0:0:0:
320,192,50966,1,0,0:0:0:0:
448,192,51144,1,0,0:0:0:0:
64,192,51144,1,0,0:0:0:0:
192,192,51232,1,0,0:0:0:0:
320,192,51321,1,0,0:0:0:0:
448,192,51499,5,0,0:0:0:0:
192,192,51499,1,0,0:0:0:0:
64,192,51499,1,0,0:0:0:0:
448,192,51854,1,0,0:0:0:0:
320,192,51854,1,0,0:0:0:0:
192,192,52209,1,0,0:0:0:0:
192,192,52386,1,0,0:0:0:0:
320,192,52564,1,0,0:0:0:0:
64,192,52564,1,0,0:0:0:0:
448,192,52741,1,0,0:0:0:0:
192,192,52741,1,0,0:0:0:0:
320,192,53096,1,0,0:0:0:0:
64,192,53274,1,0,0:0:0:0:
192,192,53274,1,0,0:0:0:0:
320,192,53451,1,0,0:0:0:0:
448,192,53629,1,0,0:0:0:0:
448,192,53806,1,0,0:0:0:0:
320,192,53984,1,0,0:0:0:0:
192,192,53984,1,0,0:0:0:0:
448,192,54339,1,0,0:0:0:0:
192,192,54339,1,0,0:0:0:0:
64,192,54339,1,0,0:0:0:0:
192,192,54694,1,0,0:0:0:0:
320,192,54694,1,0,0:0:0:0:
64,192,55049,1,0,0:0:0:0:
64,192,55227,1,0,0:0:0:0:
192,192,55404,1,0,0:0:0:0:
320,192,55404,1,0,0:0:0:0:
64,192,55582,1,0,0:0:0:0:
320,192,55582,1,0,0:0:0:0:
448,192,55582,1,0,0:0:0:0:
192,192,55937,1,0,0:0:0:0:
320,192,56114,1,0,0:0:0:0:
448,192,56114,1,0,0:0:0:0:
192,192,56469,1,0,0:0:0:0:
192,192,56647,1,0,0:0:0:0:
448,192,56824,1,0,0:0:0:0:
64,192,56824,1,0,0:0:0:0:
320,192,57179,1,0,0:0:0:0:
448,192,57179,1,0,0:0:0:0:
64,192,57179,1,0,0:0:0:0:
192,192,57534,1,0,0:0:0:0:
320,192,57534,1,0,0:0:0:0:
448,192,57889,1,0,0:0:0:0:
448,192,58067,1,0,0:0:0:0:
320,192,58244,1,0,0:0:0:0:
192,192,58244,1,0,0:0:0:0:
64,192,58422,1,0,0:0:0:0:
192,192,58599,1,0,0:0:0:0:
448,192,58599,1,0,0:0:0:0:
320,192,58777,1,0,0:0:0:0:
192,192,58954,1,0,0:0:0:0:
64,192,58954,1,0,0:0:0:0:
448,192,59132,1,0,0:0:0:0:
320,192,59221,1,0,0:0:0:0:
192,192,59309,1,0,0:0:0:0:
64,192,59309,1,0,0:0:0:0:
448,192,59487,1,0,0:0:0:0:
320,192,59664,1,0,0:0:0:0:
192,192,59664,128,0,60019:0:0:0:0:
448,192,60019,128,0,60375:0:0:0:0:
64,192,60375,1,0,0:0:0:0:
320,192,60375,1,0,0:0:0:0:
64,192,60552,1,0,0:0:0:0:
192,192,60730,1,0,0:0:0:0:
320,192,60730,1,0,0:0:0:0:
448,192,60907,1,0,0:0:0:0:
320,192,61085,1,0,0:0:0:0:
192,192,61085,1,0,0:0:0:0:
64,192,61262,5,0,0:0:0:0:
448,192,61262,1,0,0:0:0:0:
192,192,61617,1,0,0:0:0:0:
320,192,61617,1,0,0:0:0:0:
192,192,61795,1,0,0:0:0:0:
320,192,61795,128,0,62238:0:0:0:0:
64,192,62327,5,0,0:0:0:0:
448,192,62505,1,0,0:0:0:0:
320,192,62593,1,0,0:0:0:0:
192,192,62682,1,0,0:0:0:0:
64,192,62860,1,0,0:0:0:0:
448,192,62860,128,0,64102:0:0:0:0:
320,192,62860,1,0,0:0:0:0:
192,192,63215,1,0,0:0:0:0:
64,192,63215,1,0,0:0:0:0:
320,192,63570,1,0,0:0:0:0:
320,192,63747,1,0,0:0:0:0:
64,192,63925,1,0,0:0:0:0:
192,192,63925,1,0,0:0:0:0:
320,192,64102,128,0,65700:0:0:0:0:
192,192,64457,1,0,0:0:0:0:
448,192,64635,1,0,0:0:0:0:
64,192,64635,1,0,0:0:0:0:
448,192,64990,1,0,0:0:0:0:
448,192,65167,1,0,0:0:0:0:
192,192,65345,1,0,0:0:0:0:
64,192,65345,1,0,0:0:0:0:
64,192,65700,128,0,67120:0:0:0:0:
448,192,65700,1,0,0:0:0:0:
448,192,66055,1,0,0:0:0:0:
192,192,66055,1,0,0:0:0:0:
320,192,66410,1,0,0:0:0:0:
320,192,66588,1,0,0:0:0:0:
448,192,66765,1,0,0:0:0:0:
192,192,66765,1,0,0:0:0:0:
320,192,66943,1,0,0:0:0:0:
192,192,67120,128,0,68540:0:0:0:0:
448,192,67298,1,0,0:0:0:0:
320,192,67475,1,0,0:0:0:0:
64,192,67475,1,0,0:0:0:0:
448,192,67653,1,0,0:0:0:0:
448,192,67830,1,0,0:0:0:0:
448,192,68008,1,0,0:0:0:0:
320,192,68185,1,0,0:0:0:0:
64,192,68185,1,0,0:0:0:0:
448,192,68363,1,0,0:0:0:0:
320,192,68540,128,0,69783:0:0:0:0:
64,192,68540,1,0,0:0:0:0:
192,192,68895,1,0,0:0:0:0:
448,192,68895,1,0,0:0:0:0:
64,192,69250,1,0,0:0:0:0:
64,192,69428,1,0,0:0:0:0:
448,192,69605,1,0,0:0:0:0:
192,192,69605,1,0,0:0:0:0:
192,192,69783,128,0,71380:0:0:0:0:
64,192,69783,1,0,0:0:0:0:
320,192,70138,1,0,0:0:0:0:
448,192,70315,1,0,0:0:0:0:
64,192,70315,1,0,0:0:0:0:
320,192,70493,1,0,0:0:0:0:
320,192,70670,1,0,0:0:0:0:
320,192,70848,1,0,0:0:0:0:
448,192,71025,1,0,0:0:0:0:
64,192,71025,1,0,0:0:0:0:
448,192,71380,1,0,0:0:0:0:
320,192,71380,1,0,0:0:0:0:
64,192,71380,128,0,72623:0:0:0:0:
448,192,71735,1,0,0:0:0:0:
192,192,71735,1,0,0:0:0:0:
320,192,72090,1,0,0:0:0:0:
320,192,72268,1,0,0:0:0:0:
448,192,72446,1,0,0:0:0:0:
320,192,72446,1,0,0:0:0:0:
320,192,72623,1,0,0:0:0:0:
192,192,72623,128,0,74221:0:0:0:0:
320,192,72978,1,0,0:0:0:0:
448,192,73156,1,0,0:0:0:0:
64,192,73156,1,0,0:0:0:0:
320,192,73333,1,0,0:0:0:0:
320,192,73511,1,0,0:0:0:0:
448,192,73688,1,0,0:0:0:0:
320,192,73866,1,0,0:0:0:0:
64,192,73866,1,0,0:0:0:0:
448,192,74043,1,0,0:0:0:0:
320,192,74221,1,0,0:0:0:0:
64,192,74221,128,0,75463:0:0:0:0:
448,192,74576,1,0,0:0:0:0:
192,192,74576,1,0,0:0:0:0:
320,192,74931,1,0,0:0:0:0:
320,192,75108,1,0,0:0:0:0:
448,192,75286,1,0,0:0:0:0:
320,192,75286,1,0,0:0:0:0:
320,192,75463,1,0,0:0:0:0:
192,192,75463,128,0,77061:0:0:0:0:
320,192,75818,1,0,0:0:0:0:
448,192,75996,1,0,0:0:0:0:
64,192,75996,1,0,0:0:0:0:
320,192,76351,1,0,0:0:0:0:
320,192,76528,1,0,0:0:0:0:
448,192,76706,1,0,0:0:0:0:
64,192,76706,1,0,0:0:0:0:
320,192,77061,1,0,0:0:0:0:
64,192,77061,128,0,78303:0:0:0:0:
448,192,77416,1,0,0:0:0:0:
192,192,77416,1,0,0:0:0:0:
320,192,77771,1,0,0:0:0:0:
320,192,77948,1,0,0:0:0:0:
448,192,78126,1,0,0:0:0:0:
192,192,78126,1,0,0:0:0:0:
320,192,78303,1,0,0:0:0:0:
192,192,78303,128,0,79901:0:0:0:0:
320,192,78659,1,0,0:0:0:0:
448,192,78836,1,0,0:0:0:0:
64,192,78836,1,0,0:0:0:0:
320,192,79014,1,0,0:0:0:0:
320,192,79191,1,0,0:0:0:0:
320,192,79369,1,0,0:0:0:0:
448,192,79546,1,0,0:0:0:0:
64,192,79546,1,0,0:0:0:0:
320,192,79901,1,0,0:0:0:0:
64,192,79901,128,0,82741:0:0:0:0:
448,192,80256,1,0,0:0:0:0:
192,192,80256,1,0,0:0:0:0:
320,192,80611,1,0,0:0:0:0:
320,192,80789,1,0,0:0:0:0:
448,192,80966,1,0,0:0:0:0:
192,192,80966,1,0,0:0:0:0:
320,192,81144,1,0,0:0:0:0:
448,192,81144,1,0,0:0:0:0:
320,192,81499,1,0,0:0:0:0:
448,192,81676,1,0,0:0:0:0:
192,192,81676,1,0,0:0:0:0:
320,192,82031,1,0,0:0:0:0:
320,192,82209,1,0,0:0:0:0:
448,192,82386,1,0,0:0:0:0:
192,192,82386,1,0,0:0:0:0:
320,192,82741,1,0,0:0:0:0:
192,192,82741,128,0,83984:0:0:0:0:
448,192,83096,1,0,0:0:0:0:
64,192,83096,1,0,0:0:0:0:
320,192,83451,1,0,0:0:0:0:
320,192,83629,1,0,0:0:0:0:
448,192,83806,1,0,0:0:0:0:
64,192,83806,1,0,0:0:0:0:
320,192,83984,1,0,0:0:0:0:
448,192,83984,1,0,0:0:0:0:
320,192,84339,1,0,0:0:0:0:
448,192,84517,1,0,0:0:0:0:
64,192,84517,1,0,0:0:0:0:
320,192,84694,1,0,0:0:0:0:
192,192,84694,128,0,85227:0:0:0:0:
320,192,85049,1,0,0:0:0:0:
448,192,85227,1,0,0:0:0:0:
64,192,85227,1,0,0:0:0:0:
320,192,85404,1,0,0:0:0:0:
192,192,85582,128,0,86292:0:0:0:0:
448,192,85937,1,0,0:0:0:0:
64,192,85937,1,0,0:0:0:0:
320,192,86292,1,0,0:0:0:0:
64,192,86292,128,0,87002:0:0:0:0:
320,192,86469,1,0,0:0:0:0:
448,192,86647,1,0,0:0:0:0:
192,192,86647,1,0,0:0:0:0:
320,192,86824,1,0,0:0:0:0:
192,192,87002,128,0,87712:0:0:0:0:
320,192,87179,1,0,0:0:0:0:
448,192,87357,1,0,0:0:0:0:
64,192,87357,1,0,0:0:0:0:
320,192,87712,1,0,0:0:0:0:
64,192,87712,1,0,0:0:0:0:
320,192,87889,1,0,0:0:0:0:
192,192,87889,1,0,0:0:0:0:
320,192,88422,1,0,0:0:0:0:
448,192,88422,128,0,89487:0:0:0:0:
64,192,88422,128,0,90907:0:0:0:0:
