osu file format v14

[General]
AudioFilename: audio.mp3
AudioLeadIn: 0
PreviewTime: 5345
Countdown: 0
SampleSet: Normal
StackLeniency: 0.7
Mode: 0
LetterboxInBreaks: 1
WidescreenStoryboard: 0

[Editor]
DistanceSpacing: 1
BeatDivisor: 4
GridSize: 4
TimelineZoom: 2.2

[Metadata]
Title:Hishoku no Sora (TV Size)
TitleUnicode:緋色の空 (TV Size)
Artist:Kawada Mami
ArtistUnicode:川田まみ
Creator:semaphore
Version:Insane
Source:灼眼のシャナ
Tags:e4pi4mak shakugan no shana season 1 opening j-pop jpop pop s1 op ver theme tv TVアニメ version short scarlet sky Burning-Eyed burning eyed I Shana: japanese anime
BeatmapID:3837452
BeatmapSetID:1865591

[Difficulty]
HPDrainRate:7
CircleSize:4
OverallDifficulty:7
ApproachRate:8
SliderMultiplier:1.6
SliderTickRate:1

[Events]
//Background and Video events
0,0,"shakugan-no-shana-pics_1024x768_4424.jpg",0,0
Video,275,"video.mp4"
//Break Periods
//Storyboard Layer 0 (Background)
//Storyboard Layer 1 (Fail)
//Storyboard Layer 2 (Pass)
//Storyboard Layer 3 (Foreground)
//Storyboard Layer 4 (Overlay)
//Storyboard Sound Samples

[TimingPoints]
375,355.029585798817,4,1,1,60,1,0
375,-133.333333333333,4,1,1,60,0,0
463,-133.333333333333,4,2,1,60,0,0
1085,-133.333333333333,4,1,1,60,0,0
1173,-133.333333333333,4,2,1,60,0,0
1528,-133.333333333333,4,1,1,60,0,0
2238,-133.333333333333,4,2,1,60,0,0
2416,-133.333333333333,4,1,1,60,0,0
2593,-133.333333333333,4,2,1,60,0,0
3215,-133.333333333333,4,1,1,60,0,0
3303,-133.333333333333,4,2,1,60,0,0
3836,-133.333333333333,4,1,1,60,0,0
4014,-133.333333333333,4,2,1,60,0,0
4369,-133.333333333333,4,1,1,60,0,0
4724,-133.333333333333,4,1,1,80,0,0
6055,-100,4,1,1,80,0,1
6144,-100,4,2,1,80,0,1
6321,-100,4,1,1,80,0,1
7919,-100,4,2,1,80,0,1
8096,-100,4,1,1,80,0,1
9161,-100,4,2,1,80,0,1
9250,-100,4,1,1,80,0,1
9339,-100,4,2,1,80,0,1
9517,-100,4,1,1,80,0,1
13599,-100,4,2,1,80,0,1
13777,-100,4,1,1,80,0,1
14309,-100,4,2,1,80,0,1
14487,-100,4,1,1,80,0,1
14753,-100,4,1,1,50,0,1
14931,-100,4,1,1,80,0,1
15197,-100,4,2,1,80,0,1
15375,-100,4,1,1,80,0,1
18037,-100,4,2,1,80,0,1
18215,-100,4,1,1,80,0,1
19280,-100,4,2,1,80,0,1
19457,-100,4,1,1,80,0,1
20700,-100,4,2,1,80,0,1
20877,-100,4,1,1,80,0,1
22120,-100,4,2,1,80,0,1
22298,-100,4,1,1,80,0,1
23540,-100,4,2,1,80,0,1
23718,-100,4,1,1,80,0,1
24960,-100,4,2,1,80,0,1
25138,-100,4,1,1,80,0,1
26558,-100,4,2,1,80,0,1
26735,-100,4,1,1,80,0,1
27978,-100,4,1,1,50,0,1
28422,-100,4,1,1,60,0,1
28777,-133.333333333333,4,1,1,60,0,0
28866,-133.333333333333,4,2,1,60,0,0
31351,-133.333333333333,4,1,1,60,0,0
31706,-133.333333333333,4,2,1,60,0,0
34191,-133.333333333333,4,1,1,60,0,0
34546,-133.333333333333,4,1,1,40,0,0
35611,-133.333333333333,4,2,1,60,0,0
35789,-133.333333333333,4,1,1,40,0,0
37031,-133.333333333333,4,1,1,60,0,0
37209,-133.333333333333,4,2,1,60,0,0
37298,-133.333333333333,4,1,1,60,0,0
37741,-133.333333333333,4,1,1,40,0,0
38008,-133.333333333333,4,1,1,60,0,0
38451,-133.333333333333,4,1,1,40,0,0
38629,-133.333333333333,4,1,1,60,0,0
39960,-133.333333333333,4,2,1,60,0,0
40138,-133.333333333333,4,1,1,60,0,0
40227,-133.333333333333,4,2,1,60,0,0
42712,-133.333333333333,4,1,1,60,0,0
43067,-133.333333333333,4,2,1,60,0,0
43422,-133.333333333333,4,1,1,60,0,0
43599,-133.333333333333,4,2,1,60,0,0
45552,-133.333333333333,4,1,1,60,0,0
45907,-133.333333333333,4,2,1,60,0,0
47416,-133.333333333333,4,2,1,20,0,0
47593,-133.333333333333,4,2,1,60,0,0
48570,-133.333333333333,4,1,1,60,0,0
48659,-100,4,1,1,60,0,1
48747,-100,4,1,1,60,0,0
49102,-100,4,1,1,40,0,0
49990,-100,4,1,1,60,0,0
51499,-100,4,1,1,60,0,0
61173,-100,4,1,1,80,0,0
62061,-133.333333333333,4,1,1,60,0,0
62860,-100,4,1,1,80,0,1
63303,-100,4,2,1,80,0,1
63481,-100,4,1,1,80,0,1
64724,-100,4,2,1,80,0,1
64901,-100,4,1,1,80,0,1
66144,-100,4,2,1,80,0,1
66321,-100,4,1,1,80,0,1
67564,-100,4,2,1,80,0,1
67741,-100,4,1,1,80,0,1
70404,-100,4,2,1,80,0,1
70582,-100,4,1,1,80,0,1
71824,-100,4,2,1,80,0,1
72002,-100,4,1,1,80,0,1
73599,-100,4,2,1,80,0,1
73777,-100,4,1,1,80,0,1
76085,-100,4,2,1,80,0,1
76262,-100,4,1,1,80,0,1
79635,-100,4,2,1,80,0,1
79812,-100,4,1,1,80,0,1
82475,-100,4,2,1,80,0,1
82653,-100,4,1,1,80,0,1
84783,-100,4,2,1,80,0,1
84960,-100,4,1,1,80,0,1
85315,-100,4,2,1,80,0,1
85493,-100,4,1,1,70,0,1
86735,-100,4,2,1,70,0,1
86913,-100,4,1,1,70,0,1
87446,-100,4,2,1,70,0,1
87623,-100,4,1,1,80,0,1
87978,-100,4,2,1,80,0,1
88422,-100,4,1,1,80,0,0
88511,-100,4,2,1,5,0,0

[Colours]
Combo1 : 1,224,152
Combo2 : 248,41,108
Combo3 : 0,255,128
Combo4 : 255,135,55

[HitObjects]
472,220,375,6,0,B|416:204|348:216,1,120.000004577637,4|8,0:0|0:0,0:0:0:0:
353,215,907,1,0,0:0:0:0:
353,215,996,1,0,0:0:0:0:
353,215,1085,1,8,0:0:0:0:
304,144,1262,1,0,0:0:0:0:
268,232,1440,1,8,0:0:0:0:
324,312,1617,6,0,B|272:328|200:316,1,120.000004577637
124,268,2150,2,0,B|120:304|112:332,1,60.0000022888184,8|0,0:2|0:0,0:0:0:0:
36,256,2505,2,0,B|32:196|32:128,1,120.000004577637,8|8,0:0|0:0,0:0:0:0:
144,48,3037,1,2,0:0:0:0:
144,48,3126,1,2,0:0:0:0:
144,48,3215,6,0,B|212:68|272:24,1,120.000004577637,4|8,0:0|0:0,0:0:0:0:
352,0,3747,1,0,0:0:0:0:
252,132,3925,2,0,B|224:152|216:192,2,60.0000022888184,8|0|8,0:0|0:0|0:0,0:0:0:0:
448,128,4457,2,0,B|388:92|332:96,1,120.000004577637,0|8,0:0|0:0,0:0:0:0:
64,228,4990,1,8,0:0:0:0:
64,228,6055,6,0,B|108:224|160:216,1,80,4|0,0:0|0:0,0:0:0:0:
256,192,6410,2,0,B|260:124|264:16,1,160,8|0,0:0|0:0,0:0:0:0:
124,20,6943,1,0,0:0:0:0:
263,32,7120,1,8,0:0:0:0:
176,140,7298,6,0,B|172:231|176:300,1,160,4|0,0:0|0:0,0:0:0:0:
268,356,7830,2,0,B|308:348|352:348,1,80,8|0,0:0|0:0,0:0:0:0:
404,244,8185,5,0,0:0:0:0:
308,248,8363,1,0,0:0:0:0:
175,299,8540,2,0,B|135:307|91:307,1,80,8|0,0:0|0:0,0:0:0:0:
40,184,8895,6,0,B|40:132|48:64,1,120
136,80,9250,2,0,L|140:-4,1,80,8|0,0:0|0:0,0:0:0:0:
136,184,9605,1,0,0:0:0:0:
136,184,9783,1,0,0:0:0:0:
175,299,9960,1,8,0:0:0:0:
264,216,10138,6,0,B|360:192|404:268,1,160
472,340,10670,1,8,0:0:0:0:
472,340,11025,2,0,B|436:368|384:356,1,80
308,308,11380,2,0,B|315:348|291:384,1,80,8|0,0:0|0:0,0:0:0:0:
402,265,11735,6,0,B|356:188|425:117,1,160,4|8,0:0|0:0,0:0:0:0:
422,119,12446,1,0,0:0:0:0:
452,20,12623,1,0,0:0:0:0:
352,0,12801,1,8,0:0:0:0:
328,96,12978,2,0,B|264:48|164:84,1,160,4|0,0:0|0:0,0:0:0:0:
104,144,13511,2,0,B|76:112|76:68,1,80,8|0,0:0|0:0,0:0:0:0:
208,164,13866,2,0,B|236:196|236:240,1,80
52,288,14221,2,0,B|24:256|24:212,1,80,8|0,0:0|0:0,0:0:0:0:
120,220,14576,6,0,B|176:288|168:376,1,160,4|0,0:0|0:0,0:0:0:0:
264,320,15108,2,0,B|304:312|352:316,1,80
412,384,15463,1,0,0:0:0:0:
440,260,15641,1,8,0:0:0:0:
336,176,15818,6,0,B|252:168|160:172,1,160,4|0,0:0|0:0,0:0:0:0:
84,184,16351,2,0,B|44:188|-16:220,1,80,8|0,0:0|0:0,0:0:0:0:
84,268,16706,1,0,0:0:0:0:
180,248,16883,1,0,0:0:0:0:
272,304,17061,1,8,0:0:0:0:
272,304,17150,1,8,0:0:0:0:
272,304,17238,1,8,0:0:0:0:
436,208,17416,6,0,B|504:144|480:48,1,160,4|8,0:0|0:0,0:0:0:0:
392,100,17948,2,0,B|380:144|344:168,1,80
252,184,18303,2,0,B|208:176|184:140,1,80,0|8,0:0|0:0,0:0:0:0:
136,24,18659,2,0,B|228:8|280:100,1,160
252,184,19191,1,8,0:0:0:0:
172,252,19369,1,0,0:0:0:0:
112,172,19546,2,0,B|80:168|24:176,1,80
0,96,19901,1,8,0:0:0:0:
68,272,20079,6,0,B|104:360|200:352,1,160
272,264,20611,2,0,L|360:260,1,80,8|0,0:0|0:0,0:0:0:0:
464,356,20966,2,0,L|376:360,1,80
288,376,21321,1,8,0:0:0:0:
464,256,21499,2,0,B|488:184|496:96,1,160
424,12,22031,2,0,B|416:64|404:104,1,80,8|0,0:0|0:0,0:0:0:0:
384,192,22386,5,0,0:0:0:0:
292,172,22564,1,0,0:0:0:0:
216,56,22741,5,8,0:0:0:0:
308,76,22919,1,0,0:0:0:0:
196,156,23096,6,0,B|120:144|32:168,1,160,4|8,0:0|0:0,0:0:0:0:
52,260,23629,1,0,0:0:0:0:
120,332,23806,2,0,B|168:332|208:340,1,80
312,384,24161,1,8,0:0:0:0:
328,264,24339,2,0,B|332:184|332:88,1,160
410,239,24872,2,0,B|406:279|416:344,1,80,8|0,0:0|0:0,0:0:0:0:
500,276,25227,1,0,0:0:0:0:
496,180,25404,1,0,0:0:0:0:
408,44,25582,5,8,0:0:0:0:
412,140,25759,1,0,0:0:0:0:
412,319,25937,6,0,B|332:303|236:311,1,160,4|8,0:0|0:0,0:0:0:0:
144,228,26469,2,0,B|104:216|36:224,1,80
0,144,26824,1,0,0:0:0:0:
96,124,27002,1,8,0:0:0:0:
240,184,27179,2,0,B|324:192|404:180,1,160
492,160,27712,1,8,0:0:0:0:
488,60,27889,1,8,0:0:0:0:
388,76,28067,5,0,0:0:0:0:
376,76,28156,1,0,0:0:0:0:
364,76,28244,1,0,0:0:0:0:
352,76,28333,1,0,0:0:0:0:
340,76,28422,1,8,0:0:0:0:
328,76,28511,1,8,0:0:0:0:
316,76,28599,1,8,0:0:0:0:
304,76,28688,1,8,0:0:0:0:
288,88,28777,6,0,B|228:96|228:96|152:68,1,120.000004577637,4|10,0:0|0:0,0:0:0:0:
100,12,29309,2,0,L|72:84,1,60.0000022888184,0|2,0:0|0:0,0:0:0:0:
0,124,29664,1,2,0:0:0:0:
80,244,29842,2,0,L|108:172,1,60.0000022888184,8|0,0:0|0:0,0:0:0:0:
204,188,30197,1,2,0:0:0:0:
204,188,30375,2,0,L|332:184,1,120.000004577637
323,184,31085,1,2,0:0:0:0:
420,180,31262,1,10,0:0:0:0:
424,276,31440,1,0,0:0:0:0:
328,288,31617,6,0,B|272:272|200:296,1,120.000004577637,4|8,0:0|0:0,0:0:0:0:
144,336,32150,2,0,B|112:348|80:340,1,60.0000022888184,0|2,0:0|0:0,0:0:0:0:
0,244,32505,2,0,B|32:232|64:240,1,60.0000022888184,0|10,0:0|0:0,0:0:0:0:
128,132,32860,1,0,0:0:0:0:
128,132,33037,6,0,B|156:192|140:252,1,120.000004577637,0|8,0:0|0:0,0:0:0:0:
236,160,33570,2,0,B|304:136|356:152,1,120.000004577637
440,192,34102,1,8,0:0:0:0:
480,104,34280,1,0,0:0:0:0:
400,64,34457,6,0,B|392:136|392:184,1,120.000004577637,0|8,0:0|0:0,0:0:0:0:
304,276,34990,1,0,0:0:0:0:
304,276,35079,1,0,0:0:0:0:
304,276,35167,2,0,B|308:244|308:212,1,60.0000022888184
368,384,35522,1,8,0:0:0:0:
292,360,35700,1,0,0:0:0:0:
216,332,35877,6,0,L|112:336,1,90.0000034332277
72,252,36232,2,0,L|-4:256,1,60.0000022888184,8|0,0:0|0:0,0:0:0:0:
12,255,36499,1,0,0:0:0:0:
12,255,36588,1,0,0:0:0:0:
116,252,36765,1,0,0:0:0:0:
208,168,36943,2,0,L|272:160,1,60.0000022888184,8|0,0:0|0:0,0:0:0:0:
284,128,37209,1,0,0:0:0:0:
288,92,37298,6,0,B|228:116|156:96,1,120.000004577637,0|8,0:0|0:0,0:0:0:0:
104,164,37830,1,0,0:0:0:0:
104,164,37919,1,0,0:0:0:0:
104,164,38008,1,0,0:0:0:0:
72,76,38185,1,0,0:0:0:0:
144,12,38363,2,0,B|184:8|220:24,1,60.0000022888184,8|0,0:0|0:0,0:0:0:0:
228,104,38718,6,0,B|200:92|168:98,1,60.0000022888184,0|8,0:0|0:0,0:0:0:0:
56,168,39073,2,0,B|32:188|16:232,1,60.0000022888184,8|0,0:0|0:0,0:0:0:0:
56,312,39428,1,0,0:0:0:0:
136,204,39605,1,8,0:0:0:0:
256,188,39783,2,0,B|304:176|360:184,1,90.0000034332277,8|0,0:0|0:0,0:0:0:0:
345,182,40138,6,0,L|365:314,1,120.000004577637,4|8,0:0|0:0,0:0:0:0:
436,360,40670,1,0,0:0:0:0:
384,56,41025,1,2,0:0:0:0:
472,40,41203,1,8,0:0:0:0:
488,128,41380,1,0,0:0:0:0:
400,148,41558,6,0,L|272:160,1,120.000004577637,2|0,0:0|0:0,0:0:0:0:
220,80,42090,2,0,L|152:84,1,60.0000022888184,0|2,0:0|0:0,0:0:0:0:
84,32,42446,1,2,0:0:0:0:
72,312,42801,1,2,0:2:0:0:
148,364,42978,6,0,B|156:308|160:220,1,120.000004577637,2|8,0:2|0:0,0:0:0:0:
76,160,43511,2,0,B|72:188|76:228,1,60.0000022888184,0|2,0:0|0:0,0:0:0:0:
252,240,43866,2,0,B|256:268|252:308,1,60.0000022888184,2|0,0:0|0:0,0:0:0:0:
328,356,44221,1,0,0:0:0:0:
448,256,44398,6,0,B|532:184|480:72,2,180.000006866455,2|2|0,0:0|0:0|0:0,0:0:0:0:
384,176,45641,1,2,0:2:0:0:
240,120,45818,6,0,B|192:116|96:132,1,120.000004577637,2|8,0:2|0:0,0:0:0:0:
24,148,46351,1,0,0:0:0:0:
24,148,46706,1,2,0:0:0:0:
32,240,46883,1,8,0:0:0:0:
128,224,47061,1,0,0:0:0:0:
248,296,47238,6,0,B|300:288|344:320,1,90.0000034332277,2|8,0:0|0:0,0:0:0:0:
334,313,47593,2,0,L|354:381,1,60.0000022888184,8|0,0:0|0:0,0:0:0:0:
416,264,47948,2,2,L|396:196,1,60.0000022888184
452,120,48303,1,8,0:0:0:0:
492,212,48481,1,2,0:0:0:0:
316,192,48659,6,0,B|232:216|152:176,1,160,4|8,0:0|0:0,0:0:0:0:
159,179,49369,1,0,0:0:0:0:
115,95,49546,1,0,0:0:0:0:
27,143,49724,1,8,0:0:0:0:
73,233,49901,1,0,0:0:0:0:
159,179,50079,6,0,B|200:164|248:168,1,80
484,248,50434,2,0,B|416:216|328:232,1,160,8|0,0:0|0:0,0:0:0:0:
268,308,50966,1,0,0:0:0:0:
204,380,51144,1,8,0:0:0:0:
188,368,51232,1,0,0:0:0:0:
168,368,51321,1,0,0:0:0:0:
148,360,51410,1,0,0:0:0:0:
128,364,51499,6,0,B|108:300|104:184,1,160,4|8,0:0|0:0,0:0:0:0:
84,104,52031,1,0,0:0:0:0:
176,136,52209,2,0,B|188:184|188:236,1,80
200,308,52564,1,8,0:0:0:0:
300,196,52741,6,0,B|380:208|464:192,1,160,4|0,0:0|0:0,0:0:0:0:
496,104,53274,2,0,L|508:20,1,80,8|0,0:0|0:0,0:0:0:0:
392,88,53629,2,0,L|380:172,1,80
440,284,53984,1,8,0:0:0:0:
459,192,54161,1,0,0:0:0:0:
288,24,54339,6,0,B|272:100|280:200,1,160,4|8,0:0|0:0,0:0:0:0:
278,183,55049,2,0,B|320:184|358:203,1,80
368,364,55404,1,8,0:0:0:0:
300,284,55582,2,0,B|224:276|140:304,1,160,4|0,0:0|0:0,0:0:0:0:
14,298,56114,2,0,L|-2:210,1,80,8|0,0:0|0:0,0:0:0:0:
56,80,56469,2,0,L|72:172,1,80
132,232,56824,1,8,0:0:0:0:
64,292,57002,1,0,0:0:0:0:
0,220,57179,6,0,B|28:204|84:200,1,80,4|0,0:0|0:0,0:0:0:0:
100,80,57534,2,0,B|192:92|204:196,1,160,8|0,0:0|0:0,0:0:0:0:
304,216,58067,2,0,B|328:188|384:188,1,80,0|8,0:0|0:0,0:0:0:0:
456,12,58422,2,0,B|400:80|312:52,1,160
229,15,58954,1,8,0:0:0:0:
229,15,59309,1,0,0:0:0:0:
181,95,59487,1,0,0:0:0:0:
269,139,59664,1,8,0:0:0:0:
313,53,59842,1,0,0:0:0:0:
181,95,60019,6,0,B|169:127|153:187,1,80
188,380,60375,2,0,B|196:328|232:224,1,160,8|0,0:0|0:0,0:0:0:0:
269,139,60907,1,0,0:0:0:0:
181,95,61085,1,8,0:0:0:0:
0,236,61262,6,0,B|94:255|144:187,1,160,8|8,0:0|0:0,0:0:0:0:
229,15,61795,1,8,0:0:0:0:
229,15,62150,1,0,0:0:0:0:
313,53,62327,1,0,0:0:0:0:
397,99,62505,1,8,0:0:0:0:
409,107,62593,1,8,0:0:0:0:
421,115,62682,1,8,0:0:0:0:
433,123,62771,1,8,0:0:0:0:
449,131,62860,5,4,0:0:0:0:
356,312,63215,1,8,0:0:0:0:
288,384,63392,1,0,0:0:0:0:
252,292,63570,2,0,B|220:264|160:268,1,80
32,368,63925,1,8,0:0:0:0:
84,288,64102,2,0,B|124:200|44:128,1,160
112,16,64635,6,0,L|144:100,1,80,8|0,0:0|0:0,0:0:0:0:
184,192,64990,2,0,B|228:180|276:188,1,80
336,264,65345,1,8,0:0:0:0:
319,376,65522,1,0,0:0:0:0:
319,376,65611,1,0,0:0:0:0:
319,376,65700,6,0,B|246:335|149:359,1,160,4|8,0:0|0:0,0:0:0:0:
48,328,66232,1,0,0:0:0:0:
84,212,66410,1,0,0:0:0:0:
196,244,66588,1,0,0:0:0:0:
164,357,66765,1,8,0:0:0:0:
84,212,66943,6,0,B|72:160|72:44,1,160
172,0,67475,2,0,B|172:48|180:100,1,80,8|0,0:0|0:0,0:0:0:0:
240,172,67830,1,0,0:0:0:0:
336,160,68008,1,0,0:0:0:0:
372,60,68185,5,8,0:0:0:0:
276,72,68363,1,0,0:0:0:0:
296,256,68540,6,0,B|388:232|456:288,1,160,4|8,0:0|0:0,0:0:0:0:
448,281,69250,2,0,L|472:368,1,80
500,192,69605,1,8,0:0:0:0:
360,348,69783,2,0,B|268:372|200:316,1,160,4|0,0:0|0:0,0:0:0:0:
64,220,70315,2,0,B|116:220|141:246,1,80,8|0,0:0|0:0,0:0:0:0:
256,148,70670,2,0,L|236:236,1,80
368,156,71025,2,0,B|420:155|445:129,1,80,8|0,0:0|0:0,0:0:0:0:
196,44,71380,6,0,B|104:20|36:76,1,160,4|8,0:0|0:0,0:0:0:0:
132,136,71913,1,0,0:0:0:0:
216,208,72090,2,0,B|208:252|200:292,1,80
112,340,72446,1,8,0:0:0:0:
300,236,72623,2,0,B|312:164|332:76,1,160,4|0,0:0|0:0,0:0:0:0:
232,128,73156,1,8,0:0:0:0:
331,79,73333,1,0,0:0:0:0:
436,32,73511,2,0,B|444:68|448:116,1,80,0|4,0:0|0:0,0:0:0:0:
484,292,73866,1,8,0:0:0:0:
452,136,74043,1,0,0:0:0:0:
484,292,74221,6,0,B|404:256|332:316,1,160,4|8,0:0|0:0,0:0:0:0:
334,313,74931,2,0,L|246:305,1,80
420,364,75286,1,8,0:0:0:0:
292,204,75463,2,0,B|212:240|140:180,1,160,4|0,0:0|0:0,0:0:0:0:
36,48,75996,2,0,B|68:72|76:120,1,80,8|0,0:0|0:0,0:0:0:0:
8,276,76351,2,0,B|12:236|50:205,1,80
142,182,76706,1,8,0:0:0:0:
112,284,76883,1,0,0:0:0:0:
232,128,77061,6,0,B|312:108|392:124,1,160,4|8,0:0|0:0,0:0:0:0:
484,80,77593,1,0,0:0:0:0:
408,224,77771,2,0,B|368:216|308:236,1,80
244,284,78126,1,8,0:0:0:0:
168,364,78303,2,0,B|246:379|326:359,1,160,4|0,0:0|0:0,0:0:0:0:
480,304,78836,1,8,0:0:0:0:
480,304,79191,1,0,0:0:0:0:
512,188,79369,1,0,0:0:0:0:
400,164,79546,1,8,0:0:0:0:
364,280,79724,1,4,0:0:0:0:
512,188,79901,6,0,B|508:148|500:108,1,80,4|0,0:0|0:0,0:0:0:0:
376,5,80256,2,0,B|384:85|400:165,1,160,8|0,0:0|0:0,0:0:0:0:
364,280,80789,2,0,B|328:272|280:276,1,80,0|8,0:0|0:0,0:0:0:0:
240,160,81144,2,0,B|160:172|76:148,1,160,4|0,0:0|0:0,0:0:0:0:
4,48,81676,1,8,0:0:0:0:
4,48,82031,5,0,0:0:0:0:
128,28,82209,1,0,0:0:0:0:
81,149,82386,2,0,B|56:184|52:232,1,80,8|0,0:0|0:0,0:0:0:0:
248,112,82741,6,0,B|272:144|272:192,1,80,4|0,0:0|0:0,0:0:0:0:
184,336,83096,2,0,B|148:272|176:176,1,160,8|0,0:0|0:0,0:0:0:0:
248,112,83629,1,0,0:0:0:0:
348,120,83806,1,8,0:0:0:0:
420,288,83984,6,0,B|360:264|260:276,1,160,4|0,0:0|0:0,0:0:0:0:
64,260,84517,1,8,0:0:0:0:
84,152,84694,2,0,B|96:116|100:68,1,80
12,44,85049,1,0,0:0:0:0:
164,260,85227,2,0,B|167:217|179:181,1,80,8|4,0:0|0:0,0:0:0:0:
340,64,85582,6,0,B|272:128|172:68,1,160,4|8,0:0|0:0,0:0:0:0:
191,78,86292,1,0,0:0:0:0:
300,172,86469,1,0,0:0:0:0:
432,200,86647,2,0,B|460:204|524:204,1,80,8|2,0:0|0:0,0:0:0:0:
340,332,87002,5,0,0:0:0:0:
340,332,87357,2,0,B|312:328|248:328,1,80,8|0,0:0|0:0,0:0:0:0:
56,320,87712,1,4,0:0:0:0:
136,384,87889,2,0,B|184:328|156:220,1,160,4|0,0:0|0:0,0:0:0:0:
256,32,88422,5,4,0:0:0:0:
256,192,88511,12,0,90552,0:0:0:0:
