osu file format v14

[General]
AudioFilename: audio.mp3
AudioLeadIn: 0
PreviewTime: 5256
Countdown: 0
SampleSet: Soft
StackLeniency: 0.7
Mode: 0
LetterboxInBreaks: 0
WidescreenStoryboard: 1

[Editor]
Bookmarks: 28688
DistanceSpacing: 1.4
BeatDivisor: 4
GridSize: 4
TimelineZoom: 2

[Metadata]
Title:Hishoku no Sora (TV Size)
TitleUnicode:緋色の空 (TV Size)
Artist:Kawada Mami
ArtistUnicode:川田まみ
Creator:browiec
Version:Insane
Source:灼眼のシャナ
Tags:shakugan no shana season 1 opening theme op japanese anime pop corinn -laura- kuki1537 akitoshi
BeatmapID:2399036
BeatmapSetID:1149042

[Difficulty]
HPDrainRate:5
CircleSize:3.8
OverallDifficulty:8
ApproachRate:9
SliderMultiplier:1.7
SliderTickRate:1

[Events]
//Background and Video events
0,0,"soshite kono sora.jpg",0,0
//Break Periods
//Storyboard Layer 0 (Background)
//Storyboard Layer 1 (Fail)
//Storyboard Layer 2 (Pass)
//Storyboard Layer 3 (Foreground)
//Storyboard Layer 4 (Overlay)
//Storyboard Sound Samples

[TimingPoints]
375,355.029585798817,4,2,2,60,1,0
375,-125,4,2,2,60,0,0
641,-125,4,2,1,60,0,0
818,-125,4,2,2,60,0,0
1351,-125,4,2,1,60,0,0
1528,-125,4,2,2,60,0,0
2061,-125,4,2,1,60,0,0
2238,-125,4,2,2,60,0,0
2771,-125,4,2,1,60,0,0
2948,-125,4,2,2,60,0,0
3481,-125,4,2,1,60,0,0
3658,-125,4,2,2,60,0,0
4191,-125,4,2,1,60,0,0
4368,-125,4,2,2,60,0,0
4901,-125,4,2,1,60,0,0
5078,-125,4,2,2,60,0,0
6055,-100,4,2,2,80,0,0
17416,-100,4,2,2,75,0,0
28777,-153.846153846154,4,2,1,60,0,0
37298,-111.111111111111,4,2,2,70,0,0
40138,-153.846153846154,4,2,1,60,0,0
48659,-111.111111111111,4,2,2,70,0,0
62860,-100,4,2,2,85,0,0
85582,-125,4,2,2,85,0,0
88511,-125,4,2,2,60,0,0
88777,-125,4,2,2,50,0,0
89132,-125,4,2,2,40,0,0
89487,-125,4,2,2,30,0,0
89842,-125,4,2,2,20,0,0
90197,-125,4,2,2,10,0,0
90552,-125,4,2,2,5,0,0

[Colours]
Combo1 : 255,149,43
Combo2 : 255,0,0
Combo3 : 251,238,0

[HitObjects]
60,144,375,6,0,B|128:164|128:164|208:136,1,136,6|8,1:2|0:2,0:2:0:0:
280,116,907,1,0,1:2:0:0:
280,116,996,1,0,1:2:0:0:
280,116,1085,2,0,L|272:196,1,68,10|0,0:2|0:2,0:2:0:0:
328,252,1440,1,8,0:2:0:0:
192,224,1617,6,0,P|136:220|76:300,1,136,2|2,1:2|1:2,0:2:0:0:
72,360,2150,1,8,0:2:0:0:
160,344,2327,2,0,L|164:284,2,34,2|0|8,1:2|1:2|1:2,0:2:0:0:
236,376,2682,1,2,0:2:0:0:
308,324,2860,1,10,0:2:0:0:
292,248,3037,1,0,1:2:0:0:
292,248,3126,1,0,1:2:0:0:
292,248,3215,6,0,B|284:192|284:192|296:156|296:156|288:92,1,136,6|8,1:2|0:2,0:2:0:0:
332,36,3747,1,0,0:2:0:0:
404,84,3925,2,0,L|400:176,1,68,10|0,0:2|0:2,0:2:0:0:
460,216,4280,1,10,0:2:0:0:
344,312,4457,6,0,P|292:335|216:272,1,136,2|2,1:2|1:2,0:2:0:0:
216,264,4901,1,0,1:2:0:0:
216,264,4990,1,10,1:2:0:0:
216,264,6055,5,6,1:2:0:0:
96,180,6232,1,2,0:2:0:0:
100,324,6410,1,10,0:2:0:0:
192,172,6588,2,0,P|248:172|284:200,1,85,2|0,0:2|1:2,0:2:0:0:
368,320,6943,1,0,1:2:0:0:
216,264,7120,1,8,0:2:0:0:
372,192,7298,6,0,B|400:80|400:80|368:24,1,170,0|0,1:2|1:2,0:2:0:0:
204,84,7830,2,0,L|212:196,1,85,10|0,0:2|0:2,0:2:0:0:
288,320,8185,1,2,1:2:0:0:
120,268,8363,1,0,1:2:0:0:
288,200,8540,2,0,P|328:188|376:200,1,85,10|0,0:2|0:2,0:2:0:0:
200,324,8895,6,0,B|210:256|210:256|193:213|193:213|204:148,1,170,2|8,1:2|0:2,0:2:0:0:
104,44,9428,1,0,0:2:0:0:
224,132,9605,2,0,L|328:124,1,85,0|0,1:2|1:2,0:2:0:0:
400,20,9960,1,10,0:2:0:0:
464,168,10138,6,0,P|408:164|352:260,1,170,2|0,1:2|1:2,0:2:0:0:
268,352,10670,2,0,L|260:244,1,85,8|0,0:2|0:2,0:2:0:0:
220,92,11025,1,2,1:2:0:0:
148,236,11203,1,2,1:2:0:0:
24,128,11380,1,10,0:2:0:0:
168,24,11558,1,2,1:2:0:0:
168,24,11647,1,0,1:2:0:0:
168,24,11735,6,0,P|216:4|260:16,1,85,4|2,1:2|0:2,0:2:0:0:
384,136,12090,2,0,P|336:116|292:128,1,85,10|0,0:2|0:2,0:2:0:0:
136,208,12446,1,0,1:2:0:0:
296,224,12623,1,0,1:2:0:0:
156,116,12801,1,10,0:2:0:0:
248,312,12978,6,0,B|316:316|316:316|356:300|356:300|440:308,1,170,6|2,1:2|1:2,0:2:0:0:
488,200,13511,2,0,L|380:204,1,85,10|0,0:2|0:2,0:2:0:0:
268,64,13866,1,0,1:2:0:0:
384,188,14043,1,0,1:2:0:0:
208,240,14221,1,10,0:2:0:0:
360,88,14398,1,2,0:2:0:0:
160,152,14576,6,0,B|116:160|116:160|64:148,1,85,6|0,1:2|0:2,0:2:0:0:
228,264,14931,2,0,B|272:272|272:272|324:260,1,85,8|0,0:2|0:2,0:2:0:0:
456,156,15286,1,0,1:2:0:0:
404,316,15463,1,0,1:2:0:0:
348,164,15641,1,10,0:2:0:0:
488,252,15818,1,2,1:2:0:0:
300,264,15996,5,8,1:2:0:0:
472,144,16173,1,0,1:2:0:0:
472,144,16262,1,0,1:2:0:0:
472,144,16351,1,8,1:2:0:0:
280,84,16528,2,0,P|257:81|235:82,2,42.5,0|0|0,1:2|1:2|1:2,0:2:0:0:
408,224,16883,1,0,1:2:0:0:
384,40,17061,1,8,0:2:0:0:
264,188,17238,1,0,1:2:0:0:
192,12,17416,6,0,L|196:112,1,85,6|0,1:2|0:2,0:2:0:0:
280,208,17771,1,8,0:2:0:0:
88,204,17948,2,0,P|144:196|196:220,1,85,0|0,0:2|1:2,0:2:0:0:
168,356,18303,2,0,P|133:311|127:254,1,85,0|10,1:2|0:2,0:2:0:0:
208,120,18659,6,0,B|324:96|324:96|388:128,1,170,2|0,1:2|1:2,0:2:0:0:
412,240,19191,1,8,0:2:0:0:
468,72,19369,2,0,L|460:172,1,85,0|0,0:2|1:2,0:2:0:0:
424,328,19724,1,0,1:2:0:0:
352,164,19901,1,10,0:2:0:0:
308,340,20079,1,2,0:2:0:0:
244,168,20256,6,0,P|196:160|152:184,1,85,4|0,1:2|0:2,0:2:0:0:
216,328,20611,1,8,0:2:0:0:
340,224,20789,2,0,L|336:120,1,85,0|0,0:2|1:2,0:2:0:0:
208,44,21144,2,0,L|204:128,1,85,0|10,1:2|0:2,0:2:0:0:
72,284,21499,6,0,B|80:220|80:220|64:180|64:180|76:104,1,170,2|0,0:2|1:2,0:2:0:0:
172,224,22031,1,8,0:2:0:0:
228,72,22209,2,0,P|276:64|332:88,1,85,0|2,0:2|1:2,0:2:0:0:
404,232,22564,1,2,0:2:0:0:
264,156,22741,1,10,0:2:0:0:
408,72,22919,1,2,0:2:0:0:
304,248,23096,6,0,L|188:240,1,85,6|0,1:2|0:2,0:2:0:0:
328,348,23451,1,8,0:2:0:0:
392,216,23629,2,0,P|364:172|320:156,1,85,0|0,0:2|1:2,0:2:0:0:
176,136,23984,2,0,P|228:133|263:103,1,85,0|10,1:2|0:2,0:2:0:0:
72,36,24339,6,0,L|84:220,1,170,2|0,1:2|1:2,0:2:0:0:
40,344,24872,1,8,0:2:0:0:
172,220,25049,2,0,P|224:204|264:216,1,85,0|0,0:2|1:2,0:2:0:0:
368,312,25404,1,0,1:2:0:0:
328,160,25582,1,10,0:2:0:0:
220,296,25759,1,2,0:2:0:0:
388,332,25937,6,0,L|492:324,1,85,4|0,1:2|0:2,0:2:0:0:
416,152,26292,1,8,0:2:0:0:
296,264,26469,2,0,P|248:272|196:248,1,85,0|0,0:2|1:2,0:2:0:0:
220,108,26824,2,0,P|250:145|256:202,1,85,0|10,1:2|0:2,0:2:0:0:
124,296,27179,1,2,0:2:0:0:
60,144,27357,6,0,L|64:248,1,85,0|0,1:2|3:2,0:2:0:0:
210,346,27712,2,0,L|214:242,1,85,8|0,3:2|1:2,0:2:0:0:
216,220,27978,1,0,1:2:0:0:
216,220,28067,1,2,1:2:0:0:
48,260,28244,1,2,1:2:0:0:
136,92,28422,1,10,3:2:0:0:
60,276,28599,1,2,3:2:0:0:
224,128,28777,6,0,L|296:132,1,55.2499974708558,6|2,1:2|0:2,0:2:0:0:
348,76,29132,2,0,P|368:124|348:192,1,110.499994941712,2|2,3:2|0:2,0:2:0:0:
336,268,29664,1,2,0:2:0:0:
336,268,29842,2,0,P|372:256|412:264,1,55.2499974708558,2|0,3:2|0:2,0:2:0:0:
468,308,30197,5,2,0:2:0:0:
468,308,30375,2,0,L|476:228,1,55.2499974708558,2|0,0:2|3:2,0:2:0:0:
424,180,30730,2,0,L|416:52,1,110.499994941712,2|0,0:2|0:2,0:2:0:0:
352,8,31262,1,0,3:2:0:0:
280,60,31440,1,2,1:2:0:0:
280,60,31617,6,0,B|256:100|256:100|284:180,1,110.499994941712,2|2,1:2|3:2,0:2:0:0:
336,232,32150,1,2,0:2:0:0:
336,232,32327,2,0,P|296:252|220:232,1,110.499994941712,2|2,0:2|3:2,0:2:0:0:
120,112,33037,5,2,0:2:0:0:
120,112,33215,2,0,L|124:180,1,55.2499974708558,2|0,0:2|3:2,0:2:0:0:
44,204,33570,2,0,L|36:328,1,110.499994941712,2|2,0:2|0:2,0:2:0:0:
104,372,34102,1,0,3:2:0:0:
164,308,34280,1,2,1:2:0:0:
164,308,34457,6,0,P|220:292|288:324,1,110.499994941712,2|8,1:2|0:2,0:2:0:0:
340,360,34990,1,0,0:2:0:0:
340,360,35167,2,0,L|420:368,1,55.2499974708558,0|0,0:2|0:2,0:2:0:0:
424,280,35522,2,0,L|369:274,1,55.2499974708558,8|0,0:2|0:2,0:2:0:0:
296,224,35877,6,0,P|292:188|296:160,1,55.2499974708558,0|0,1:2|0:2,0:2:0:0:
352,100,36232,2,0,B|408:116|408:116|472:100,2,110.499994941712,10|2|10,0:2|0:2|0:2,0:2:0:0:
280,48,37120,1,0,1:2:0:0:
280,48,37298,6,0,P|220:28|136:92,1,152.999995330811,6|10,1:2|0:2,0:2:0:0:
120,220,37830,1,2,0:2:0:0:
60,72,38008,1,0,1:2:0:0:
224,124,38185,1,0,1:2:0:0:
32,164,38363,2,0,L|24:256,1,76.4999976654053,8|0,0:2|0:2,0:2:0:0:
164,312,38718,6,0,P|120:324|76:312,1,76.4999976654053,0|8,1:2|0:2,0:2:0:0:
220,232,39073,2,0,P|264:244|308:232,1,76.4999976654053,8|0,0:2|0:2,0:2:0:0:
412,136,39428,1,8,0:2:0:0:
256,92,39605,1,8,0:2:0:0:
376,220,39783,1,8,0:2:0:0:
408,48,39960,1,8,0:2:0:0:
464,216,40138,6,0,L|464:340,1,110.499994941712,6|2,1:2|3:2,0:2:0:0:
384,356,40670,1,2,0:2:0:0:
384,356,40848,2,0,B|332:340|332:340|260:360,1,110.499994941712,2|2,0:2|3:2,0:2:0:0:
120,292,41558,5,2,0:2:0:0:
120,292,41735,2,0,L|124:224,1,55.2499974708558,2|0,0:2|3:2,0:2:0:0:
208,208,42090,2,0,L|200:88,1,110.499994941712,2|0,0:2|0:2,0:2:0:0:
260,32,42623,1,0,3:2:0:0:
332,84,42801,1,0,1:2:0:0:
332,84,42978,6,0,L|324:194,1,110.499994941712,2|2,1:2|3:2,0:2:0:0:
263,260,43511,1,2,1:2:0:0:
263,260,43688,2,0,P|311:284|384:264,1,110.499994941712,2|2,0:2|3:2,0:2:0:0:
404,102,44398,5,2,0:2:0:0:
404,102,44576,2,0,L|412:182,1,55.2499974708558,2|0,0:2|3:2,0:2:0:0:
324,194,44931,2,0,L|318:136,1,55.2499974708558,2|0,0:2|0:2,0:2:0:0:
168,44,45286,1,2,0:2:0:0:
224,192,45463,1,2,3:2:0:0:
288,52,45641,1,2,1:2:0:0:
132,144,45818,6,0,P|84:128|20:156,1,110.499994941712,0|0,1:2|3:2,0:2:0:0:
80,220,46351,1,0,0:2:0:0:
28,292,46528,1,0,0:2:0:0:
28,292,46706,1,0,0:2:0:0:
88,356,46883,2,0,L|160:360,1,55.2499974708558,0|0,3:2|0:2,0:2:0:0:
192,284,47238,6,0,L|264:280,1,55.2499974708558,0|0,0:2|0:2,0:2:0:0:
312,220,47593,2,0,P|332:264|324:328,2,110.499994941712,2|2|2,3:2|0:2|3:2,0:2:0:0:
180,32,48659,6,0,B|200:120|136:96|148:188,1,152.999995330811,6|8,1:2|0:2,0:2:0:0:
224,324,49191,1,2,0:2:0:0:
244,164,49369,1,2,1:2:0:0:
132,272,49546,1,0,1:2:0:0:
296,252,49724,2,0,L|396:256,1,76.4999976654053,8|0,0:2|0:2,0:2:0:0:
496,136,50079,5,4,1:2:0:0:
468,292,50256,1,0,0:2:0:0:
508,120,50434,2,0,P|512:80|508:32,1,76.4999976654053,8|2,0:2|0:2,0:2:0:0:
348,132,50789,1,8,1:2:0:0:
512,216,50966,1,10,1:2:0:0:
344,276,51144,1,10,1:2:0:0:
324,275,51232,1,8,1:2:0:0:
305,274,51321,1,10,1:2:0:0:
286,273,51410,1,0,1:2:0:0:
267,272,51499,6,0,L|183:268,1,76.4999976654053,6|0,1:2|0:2,0:2:0:0:
92,176,51854,2,0,L|176:172,1,76.4999976654053,8|0,0:2|0:2,0:2:0:0:
267,80,52209,2,0,L|183:76,1,76.4999976654053,0|0,1:2|1:2,0:2:0:0:
76,200,52564,1,10,0:2:0:0:
276,176,52741,6,0,P|328:180|376:276,1,152.999995330811,6|0,1:2|1:2,0:2:0:0:
288,344,53274,2,0,L|292:252,1,76.4999976654053,8|0,0:2|0:2,0:2:0:0:
204,116,53629,1,0,1:2:0:0:
180,276,53806,1,0,1:2:0:0:
296,152,53984,2,0,L|380:144,1,76.4999976654053,10|2,0:2|0:2,0:2:0:0:
208,32,54339,6,0,B|164:20|132:60|132:60|96:80|44:56,2,152.999995330811,6|10|2,1:2|0:2|1:2,0:2:0:0:
284,180,55227,1,0,1:2:0:0:
332,36,55404,1,10,0:2:0:0:
200,128,55582,6,0,L|208:296,1,152.999995330811,6|0,1:2|1:2,0:2:0:0:
320,368,56114,2,0,L|324:288,1,76.4999976654053,8|0,0:2|0:2,0:2:0:0:
448,172,56469,1,2,1:2:0:0:
412,316,56647,1,2,1:2:0:0:
308,204,56824,1,10,0:2:0:0:
396,96,57002,1,2,1:2:0:0:
396,96,57090,1,0,1:2:0:0:
396,96,57179,6,0,P|444:80|484:88,1,76.4999976654053,4|2,1:2|0:2,0:2:0:0:
504,240,57534,2,0,P|466:241|431:226,1,76.4999976654053,10|0,0:2|0:2,0:2:0:0:
308,108,57889,1,0,1:2:0:0:
324,296,58067,2,0,L|331:192,1,76.4999976654053,2|8,1:2|0:2,0:2:0:0:
224,64,58422,6,0,B|168:56|168:56|128:68|128:68|64:60,1,152.999995330811,2|0,0:2|0:2,0:2:0:0:
0,176,58954,2,0,P|56:160|84:168,1,76.4999976654053,10|0,0:2|1:2,0:2:0:0:
100,192,59221,1,0,1:2:0:0:
100,192,59309,1,2,1:2:0:0:
240,84,59487,1,0,1:2:0:0:
260,264,59664,2,0,P|204:280|176:272,1,76.4999976654053,10|0,0:2|0:2,0:2:0:0:
332,96,60019,6,0,L|328:192,1,76.4999976654053,2|0,1:2|0:2,0:2:0:0:
416,324,60375,1,8,0:2:0:0:
484,164,60552,1,0,0:2:0:0:
332,280,60730,1,0,1:2:0:0:
504,148,60907,1,0,1:2:0:0:
504,360,61085,1,10,0:2:0:0:
368,192,61262,6,0,P|312:188|240:272,1,152.999995330811,2|8,1:2|1:2,0:2:0:0:
160,352,61795,2,0,P|160:304|156:268,1,76.4999976654053,8|0,1:2|0:2,0:2:0:0:
12,220,62150,2,0,P|60:220|96:216,1,76.4999976654053,2|2,0:2|0:2,0:2:0:0:
233,122,62505,1,10,0:2:0:0:
236,154,62593,1,8,0:2:0:0:
239,186,62682,1,8,0:2:0:0:
241,217,62771,1,8,0:2:0:0:
244,250,62860,5,6,1:2:0:0:
80,128,63037,1,2,0:2:0:0:
160,284,63215,1,10,0:2:0:0:
233,122,63392,2,0,P|285:106|337:126,1,85,2|0,0:2|1:2,0:2:0:0:
416,264,63747,1,0,1:2:0:0:
284,200,63925,1,8,0:2:0:0:
400,72,64102,6,0,B|448:36|508:48|508:48|512:92|480:128,1,170,0|0,1:2|1:2,0:2:0:0:
432,248,64635,2,0,P|432:196|428:152,1,85,10|0,0:2|0:2,0:2:0:0:
312,308,64990,2,0,P|312:256|316:212,1,85,2|0,1:2|1:2,0:2:0:0:
208,128,65345,2,0,P|208:180|204:224,1,85,10|0,0:2|0:2,0:2:0:0:
48,312,65700,6,0,B|60:352|108:364|108:364|208:316,1,170,2|8,1:2|0:2,0:2:0:0:
304,184,66232,1,0,0:2:0:0:
280,348,66410,1,0,1:2:0:0:
192,200,66588,2,0,L|188:104,1,85,0|10,1:2|0:2,0:2:0:0:
368,32,66943,6,0,P|432:24|496:124,1,170,2|0,1:2|1:2,0:2:0:0:
396,232,67475,2,0,P|404:168|396:112,1,85,8|0,0:2|1:2,0:2:0:0:
224,80,67830,1,2,1:2:0:0:
268,244,68008,1,2,1:2:0:0:
384,120,68185,1,10,0:2:0:0:
184,176,68363,1,2,1:2:0:0:
380,256,68540,6,0,L|480:260,1,85,4|2,1:2|0:2,0:2:0:0:
312,368,68895,2,0,L|212:372,1,85,10|0,0:2|0:2,0:2:0:0:
112,224,69250,1,0,1:2:0:0:
208,352,69428,1,0,1:2:0:0:
276,200,69605,1,10,0:2:0:0:
96,324,69783,6,0,P|44:296|28:176,1,170,6|2,1:2|1:2,0:2:0:0:
196,220,70315,2,0,L|96:224,1,85,10|0,0:2|1:2,0:2:0:0:
8,100,70670,2,0,L|108:104,1,85,0|0,1:2|1:2,0:2:0:0:
276,168,71025,1,10,0:2:0:0:
216,0,71203,1,2,0:2:0:0:
132,192,71380,6,0,B|100:304|100:304|140:376,1,170,6|8,1:2|0:2,0:2:0:0:
324,280,71913,1,0,0:2:0:0:
212,148,72090,1,0,1:2:0:0:
216,348,72268,1,0,1:2:0:0:
296,176,72446,1,10,0:2:0:0:
384,364,72623,6,0,P|456:380|512:292,1,170,6|0,1:2|1:2,0:2:0:0:
448,148,73156,2,0,P|444:212|432:252,1,85,8|0,0:2|1:2,0:2:0:0:
256,308,73511,1,2,0:2:0:0:
448,256,73688,1,2,1:2:0:0:
264,176,73866,2,0,L|168:172,1,85,10|0,0:2|1:2,0:2:0:0:
72,372,74221,6,0,P|60:324|64:276,1,85,6|0,1:2|0:2,0:2:0:0:
104,132,74576,1,10,0:2:0:0:
240,316,74753,2,0,L|144:320,1,85,2|0,0:2|1:2,0:2:0:0:
204,140,75108,1,0,1:2:0:0:
64,232,75286,1,8,0:2:0:0:
180,52,75463,6,0,B|220:40|256:64|256:64|276:52|276:52|316:72|364:52,1,170,0|0,1:2|1:2,0:2:0:0:
227,218,75996,2,0,P|207:182|204:140,1,85,10|0,0:2|0:2,0:2:0:0:
372,184,76351,2,0,P|350:220|315:244,1,85,2|0,1:2|1:2,0:2:0:0:
140,252,76706,2,0,P|161:288|196:312,1,85,10|0,0:2|0:2,0:2:0:0:
296,112,77061,6,0,B|236:84|236:84|124:116,1,170,2|8,1:2|0:2,0:2:0:0:
92,312,77593,1,0,0:2:0:0:
228,184,77771,1,0,1:2:0:0:
260,360,77948,1,0,1:2:0:0:
136,216,78126,1,10,0:2:0:0:
332,288,78303,6,0,P|384:300|436:284,1,85,2|0,1:2|0:2,0:2:0:0:
376,128,78659,1,0,1:2:0:0:
248,240,78836,2,0,P|236:292|252:344,1,85,8|0,0:2|1:2,0:2:0:0:
412,216,79191,1,2,1:2:0:0:
240,128,79369,1,2,1:2:0:0:
332,288,79546,1,10,0:2:0:0:
376,100,79724,1,2,0:2:0:0:
224,252,79901,6,0,L|124:248,1,85,4|2,1:2|0:2,0:2:0:0:
40,112,80256,2,0,L|140:108,1,85,10|0,0:2|0:2,0:2:0:0:
312,200,80611,1,0,1:2:0:0:
220,32,80789,1,0,1:2:0:0:
376,104,80966,1,10,0:2:0:0:
188,192,81144,6,0,B|152:240|152:240|196:368,1,170,6|2,1:2|1:2,0:2:0:0:
336,276,81676,2,0,L|340:176,1,85,10|0,0:2|0:2,0:2:0:0:
260,44,82031,2,0,L|264:144,1,85,0|0,1:2|1:2,0:2:0:0:
216,300,82386,1,10,0:2:0:0:
339,191,82564,1,2,0:2:0:0:
396,352,82741,6,0,P|452:372|524:284,2,170,6|8|0,1:2|0:2|1:2,0:2:0:0:
320,172,83629,1,0,1:2:0:0:
256,324,83806,1,8,0:2:0:0:
176,172,83984,6,0,B|120:156|120:156|68:168|68:168|0:152,1,170,4|0,1:2|1:2,0:2:0:0:
112,252,84517,1,10,0:2:0:0:
204,84,84694,2,0,P|244:108|268:164,1,85,2|0,1:2|0:2,0:2:0:0:
232,268,85049,1,2,1:2:0:0:
352,120,85227,2,0,P|351:166|314:215,1,85,10|0,0:2|0:2,0:2:0:0:
164,312,85582,6,0,B|240:288|216:352|308:328,1,136,6|8,1:2|0:2,0:2:0:0:
372,292,86114,1,2,0:2:0:0:
332,212,86292,2,0,L|328:132,1,68,2|0,1:2|1:2,0:2:0:0:
244,124,86647,2,0,L|248:44,1,68,8|0,0:2|0:2,0:2:0:0:
384,8,87002,6,0,P|432:24|456:60,1,68,0|0,1:2|0:2,0:2:0:0:
448,200,87357,1,8,0:2:0:0:
344,92,87534,1,0,1:2:0:0:
344,92,87623,1,0,1:2:0:0:
344,92,87712,1,8,1:2:0:0:
272,248,87889,1,8,1:2:0:0:
156,56,88422,5,4,1:2:0:0:
256,192,88599,12,0,90552,0:2:0:0:
