osu file format v14

[General]
AudioFilename: audio.mp3
AudioLeadIn: 0
PreviewTime: 5256
Countdown: 0
SampleSet: Soft
StackLeniency: 0.7
Mode: 0
LetterboxInBreaks: 0
WidescreenStoryboard: 1

[Editor]
Bookmarks: 28688
DistanceSpacing: 1.4
BeatDivisor: 4
GridSize: 4
TimelineZoom: 2

[Metadata]
Title:Hishoku no Sora (TV Size)
TitleUnicode:緋色の空 (TV Size)
Artist:Kawada Mami
ArtistUnicode:川田まみ
Creator:browiec
Version:Hard
Source:灼眼のシャナ
Tags:shakugan no shana season 1 opening theme op japanese anime pop corinn -laura- kuki1537 akitoshi
BeatmapID:2399035
BeatmapSetID:1149042

[Difficulty]
HPDrainRate:4
CircleSize:3.6
OverallDifficulty:6.4
ApproachRate:7.5
SliderMultiplier:1.4
SliderTickRate:1

[Events]
//Background and Video events
0,0,"soshite kono sora.jpg",0,0
//Break Periods
//Storyboard Layer 0 (Background)
//Storyboard Layer 1 (Fail)
//Storyboard Layer 2 (Pass)
//Storyboard Layer 3 (Foreground)
//Storyboard Layer 4 (Overlay)
//Storyboard Sound Samples

[TimingPoints]
375,355.029585798817,4,2,2,60,1,0
375,-111.111111111111,4,2,2,60,0,0
641,-111.111111111111,4,2,1,60,0,0
818,-111.111111111111,4,2,2,60,0,0
1351,-111.111111111111,4,2,1,60,0,0
1528,-111.111111111111,4,2,2,60,0,0
2061,-111.111111111111,4,2,1,60,0,0
2238,-111.111111111111,4,2,2,60,0,0
2771,-111.111111111111,4,2,1,60,0,0
2948,-111.111111111111,4,2,2,60,0,0
3481,-111.111111111111,4,2,1,60,0,0
3658,-111.111111111111,4,2,2,60,0,0
4191,-111.111111111111,4,2,1,60,0,0
4368,-111.111111111111,4,2,2,60,0,0
4901,-111.111111111111,4,2,1,60,0,0
5078,-111.111111111111,4,2,2,60,0,0
6055,-100,4,2,2,80,0,0
17416,-100,4,2,2,75,0,0
28777,-125,4,2,1,60,0,0
37298,-111.111111111111,4,2,2,70,0,0
40138,-125,4,2,1,60,0,0
48659,-111.111111111111,4,2,2,70,0,0
62860,-100,4,2,2,85,0,0
85582,-111.111111111111,4,2,2,85,0,0
88511,-111.111111111111,4,2,2,60,0,0
88777,-111.111111111111,4,2,2,50,0,0
89132,-111.111111111111,4,2,2,40,0,0
89487,-111.111111111111,4,2,2,30,0,0
89842,-111.111111111111,4,2,2,20,0,0
90197,-111.111111111111,4,2,2,10,0,0
90552,-111.111111111111,4,2,2,5,0,0

[Colours]
Combo1 : 255,149,43
Combo2 : 255,0,0
Combo3 : 251,238,0

[HitObjects]
40,260,375,6,0,L|172:268,1,125.999996154785,6|8,1:2|0:2,0:2:0:0:
232,332,907,1,0,1:2:0:0:
232,332,1085,2,0,P|284:348|356:300,1,125.999996154785,10|8,0:2|0:2,0:2:0:0:
428,288,1617,6,0,B|400:244|400:244|428:152,1,125.999996154785,2|2,1:2|1:2,0:2:0:0:
412,84,2150,1,8,0:2:0:0:
412,84,2327,2,0,L|416:24,2,31.4999990386963,2|0|8,1:2|1:2|1:2,0:2:0:0:
348,136,2682,1,2,0:2:0:0:
348,136,2860,2,0,L|268:128,1,62.9999980773926,10|0,0:2|1:2,0:2:0:0:
220,68,3215,6,0,P|176:56|112:108,1,125.999996154785,6|8,1:2|0:2,0:2:0:0:
84,184,3747,1,0,0:2:0:0:
84,184,3925,2,0,L|92:276,1,62.9999980773926,10|0,0:2|0:2,0:2:0:0:
40,320,4280,1,10,0:2:0:0:
40,320,4457,6,0,P|96:336|168:280,1,125.999996154785,2|2,1:2|1:2,0:2:0:0:
204,232,4990,1,10,1:2:0:0:
204,232,6055,6,0,L|104:240,1,70,6|2,1:2|0:2,0:2:0:0:
52,184,6410,1,10,0:2:0:0:
108,104,6588,2,0,B|160:96|160:96|200:108|200:108|264:100,1,140,2|0,0:2|1:2,0:2:0:0:
320,36,7120,1,8,0:2:0:0:
320,36,7298,6,0,P|344:88|324:168,1,140,0|0,1:2|1:2,0:2:0:0:
236,208,7830,2,0,L|244:296,1,70,10|0,0:2|0:2,0:2:0:0:
308,352,8185,1,2,1:2:0:0:
308,352,8363,1,0,1:2:0:0:
380,284,8540,2,0,P|432:296|468:284,1,70,10|0,0:2|0:2,0:2:0:0:
503,195,8895,6,0,P|503:147|403:123,1,140,2|8,1:2|0:2,0:2:0:0:
339,155,9428,1,0,0:2:0:0:
339,155,9605,2,0,L|259:147,1,70,0|0,1:2|1:2,0:2:0:0:
207,71,9960,1,10,0:2:0:0:
119,115,10138,6,0,B|79:147|79:147|107:251,1,140,2|0,1:2|1:2,0:2:0:0:
51,315,10670,2,0,P|103:331|131:327,1,70,8|0,0:2|0:2,0:2:0:0:
195,267,11025,2,0,P|247:251|275:255,1,70,2|2,1:2|1:2,0:2:0:0:
343,311,11380,1,10,0:2:0:0:
415,247,11558,1,2,1:2:0:0:
415,247,11647,1,0,1:2:0:0:
415,247,11735,6,0,L|403:171,1,70,4|2,1:2|0:2,0:2:0:0:
323,123,12090,2,0,P|279:131|251:159,1,70,10|0,0:2|0:2,0:2:0:0:
175,195,12446,1,0,1:2:0:0:
175,195,12623,1,0,1:2:0:0:
119,115,12801,1,10,0:2:0:0:
195,34,12978,6,0,B|267:14|267:14|343:38,1,140,6|2,1:2|1:2,0:2:0:0:
423,11,13511,2,0,P|423:51|411:87,1,70,10|0,0:2|0:2,0:2:0:0:
343,146,13866,1,0,1:2:0:0:
343,146,14043,1,0,1:2:0:0:
279,222,14221,2,0,L|287:310,1,70,10|2,0:2|0:2,0:2:0:0:
194,357,14576,6,0,P|142:365|78:285,1,140,6|8,1:2|0:2,0:2:0:0:
34,225,15108,1,0,0:2:0:0:
34,225,15286,2,0,L|42:149,1,70,0|0,1:2|1:2,0:2:0:0:
98,73,15641,1,10,0:2:0:0:
98,73,15818,1,2,1:2:0:0:
184,144,15996,6,0,P|216:156|256:156,1,70,8|0,1:2|1:2,0:2:0:0:
288,124,16262,1,0,1:2:0:0:
288,124,16351,1,8,1:2:0:0:
356,56,16528,1,0,1:2:0:0:
440,108,16706,2,0,L|436:192,1,70,0|0,1:2|1:2,0:2:0:0:
512,244,17061,1,8,0:2:0:0:
480,336,17238,1,0,1:2:0:0:
368,327,17416,6,0,L|288:331,1,70,6|0,1:2|0:2,0:2:0:0:
216,275,17771,1,8,0:2:0:0:
284,203,17948,2,0,P|296:155|288:119,1,70,0|0,0:2|1:2,0:2:0:0:
236,55,18303,2,0,P|188:43|152:51,1,70,0|10,1:2|0:2,0:2:0:0:
84,95,18659,6,0,B|112:139|112:139|80:235,1,140,2|0,1:2|1:2,0:2:0:0:
40,307,19191,1,8,0:2:0:0:
140,303,19369,2,0,L|216:311,1,70,0|0,0:2|1:2,0:2:0:0:
284,247,19724,1,0,1:2:0:0:
352,315,19901,2,0,L|421:307,1,70,10|2,0:2|0:2,0:2:0:0:
489,217,20256,6,0,P|497:173|485:137,1,70,4|0,1:2|0:2,0:2:0:0:
429,73,20611,1,8,0:2:0:0:
345,125,20789,2,0,P|305:133|261:125,1,70,0|0,0:2|1:2,0:2:0:0:
185,165,21144,2,0,P|177:125|185:81,1,70,0|10,1:2|0:2,0:2:0:0:
205,5,21499,6,0,B|289:-11|269:41|345:29,1,140,2|0,0:2|1:2,0:2:0:0:
429,73,22031,2,0,L|437:153,1,70,8|0,0:2|0:2,0:2:0:0:
353,196,22386,1,2,1:2:0:0:
413,273,22564,1,2,0:2:0:0:
325,317,22741,2,0,L|241:313,1,70,10|2,0:2|0:2,0:2:0:0:
148,279,23096,6,0,P|140:235|152:203,1,70,6|0,1:2|0:2,0:2:0:0:
212,139,23451,1,8,0:2:0:0:
212,139,23629,2,0,P|220:95|208:63,1,70,0|0,0:2|1:2,0:2:0:0:
128,23,23984,2,0,P|85:38|64:64,1,70,0|10,1:2|0:2,0:2:0:0:
24,143,24339,6,0,L|40:315,1,140,2|0,1:2|1:2,0:2:0:0:
96,363,24872,1,8,0:2:0:0:
148,279,25049,2,0,P|184:267|228:271,1,70,0|0,0:2|1:2,0:2:0:0:
300,319,25404,1,0,1:2:0:0:
304,219,25582,2,0,P|308:179|324:155,1,70,10|2,0:2|0:2,0:2:0:0:
433,130,25937,6,0,L|441:210,1,70,4|0,1:2|0:2,0:2:0:0:
493,282,26292,1,8,0:2:0:0:
421,346,26469,2,0,L|349:338,1,70,0|0,0:2|1:2,0:2:0:0:
305,254,26824,2,0,L|233:262,1,70,0|10,1:2|0:2,0:2:0:0:
165,330,27179,1,2,0:2:0:0:
89,266,27357,6,0,P|73:222|77:182,1,70,0|0,1:2|3:2,0:2:0:0:
137,126,27712,2,0,P|183:134|215:157,1,70,8|0,3:2|1:2,0:2:0:0:
233,182,27978,1,0,1:2:0:0:
233,182,28067,2,0,L|225:266,1,70,2|2,1:2|1:2,0:2:0:0:
289,326,28422,2,0,L|373:334,1,70,10|2,3:2|3:2,0:2:0:0:
444,288,28777,6,0,P|456:252|452:212,1,56,6|2,1:2|0:2,0:2:0:0:
476,152,29132,2,0,B|412:136|424:176|364:164,1,112,2|2,3:2|0:2,0:2:0:0:
300,208,29664,1,2,0:2:0:0:
300,208,29842,2,0,P|264:208|236:200,1,56,2|0,3:2|0:2,0:2:0:0:
180,156,30197,5,2,0:2:0:0:
180,156,30375,2,0,L|188:76,1,56,2|0,0:2|3:2,0:2:0:0:
124,40,30730,2,0,P|76:32|16:80,1,112,2|0,0:2|0:2,0:2:0:0:
28,148,31262,2,0,P|32:196|28:220,1,56,0|2,3:2|1:2,0:2:0:0:
44,288,31617,6,0,B|100:304|100:304|176:284,1,112,2|2,1:2|3:2,0:2:0:0:
220,240,32150,1,2,0:2:0:0:
220,240,32327,2,0,B|276:224|276:224|352:244,1,112,2|2,0:2|3:2,0:2:0:0:
464,348,33037,5,2,0:2:0:0:
464,348,33215,2,0,L|468:280,1,56,2|0,0:2|3:2,0:2:0:0:
416,224,33570,2,0,L|408:100,1,112,2|2,0:2|0:2,0:2:0:0:
360,44,34102,2,0,P|324:36|292:40,1,56,0|2,3:2|1:2,0:2:0:0:
232,80,34457,6,0,B|212:116|212:116|236:188,1,112,2|8,1:2|0:2,0:2:0:0:
192,256,34990,1,0,0:2:0:0:
192,256,35167,2,0,P|236:268|296:240,1,112,0|8,0:2|0:2,0:2:0:0:
436,152,35877,6,0,L|428:216,1,56,0|0,1:2|0:2,0:2:0:0:
392,284,36232,2,0,L|512:296,2,112,10|2|10,0:2|0:2|0:2,0:2:0:0:
328,228,37120,1,0,1:2:0:0:
328,228,37298,6,0,P|268:208|200:256,1,125.999996154785,6|10,1:2|0:2,0:2:0:0:
160,304,37830,1,2,0:2:0:0:
160,304,38008,2,0,L|84:300,1,62.9999980773926,0|0,1:2|1:2,0:2:0:0:
36,236,38363,2,0,L|40:160,1,62.9999980773926,8|0,0:2|0:2,0:2:0:0:
80,96,38718,6,0,P|120:88|156:96,1,62.9999980773926,0|8,1:2|0:2,0:2:0:0:
204,152,39073,2,0,P|256:168|328:128,1,125.999996154785,8|8,0:2|0:2,0:2:0:0:
372,68,39605,1,8,0:2:0:0:
372,68,39783,2,0,P|420:60|444:64,1,62.9999980773926,8|8,0:2|0:2,0:2:0:0:
496,128,40138,6,0,L|484:252,1,112,6|2,1:2|3:2,0:2:0:0:
440,312,40670,1,2,0:2:0:0:
440,312,40848,2,0,B|388:328|388:328|320:312,1,112,2|2,0:2|3:2,0:2:0:0:
232,184,41558,5,2,0:2:0:0:
232,184,41735,2,0,L|236:116,1,56,2|0,0:2|3:2,0:2:0:0:
200,52,42090,2,0,P|144:32|76:60,1,112,2|0,0:2|0:2,0:2:0:0:
56,120,42623,2,0,L|59:175,1,56,0|0,3:2|1:2,0:2:0:0:
6,244,42978,6,0,B|58:260|58:260|134:240,1,112,2|2,1:2|3:2,0:2:0:0:
180,192,43511,1,2,1:2:0:0:
180,192,43688,2,0,L|308:200,1,112,2|2,0:2|3:2,0:2:0:0:
384,60,44398,5,2,0:2:0:0:
384,60,44576,2,0,L|392:140,1,56,2|0,0:2|3:2,0:2:0:0:
460,164,44931,2,0,L|468:228,1,56,2|0,0:2|0:2,0:2:0:0:
408,280,45286,2,0,L|416:360,2,56,2|2|2,0:2|3:2|1:2,0:2:0:0:
332,220,45818,6,0,P|284:204|220:232,1,112,0|0,1:2|3:2,0:2:0:0:
172,288,46351,1,0,0:2:0:0:
172,288,46528,2,0,L|104:284,1,56,0|0,0:2|0:2,0:2:0:0:
44,240,46883,1,0,3:2:0:0:
116,88,47238,6,0,L|180:92,1,56,0|0,0:2|0:2,0:2:0:0:
246,135,47593,2,0,P|256:81|232:32,2,112,2|2|2,3:2|0:2|3:2,0:2:0:0:
324,296,48659,6,0,P|368:304|436:244,1,125.999996154785,6|8,1:2|0:2,0:2:0:0:
464,176,49191,1,2,0:2:0:0:
464,176,49369,2,0,L|456:96,1,62.9999980773926,2|0,1:2|1:2,0:2:0:0:
396,48,49724,2,0,L|316:56,1,62.9999980773926,8|0,0:2|0:2,0:2:0:0:
268,116,50079,5,4,1:2:0:0:
268,116,50256,1,0,0:2:0:0:
192,68,50434,2,0,P|156:56|112:64,1,62.9999980773926,8|2,0:2|0:2,0:2:0:0:
60,112,50789,2,0,L|68:184,1,62.9999980773926,8|10,1:2|1:2,0:2:0:0:
20,248,51144,1,10,1:2:0:0:
20,248,51232,1,8,1:2:0:0:
20,248,51321,1,10,1:2:0:0:
60,328,51499,6,0,L|140:336,1,62.9999980773926,6|0,1:2|0:2,0:2:0:0:
180,264,51854,2,0,L|242:257,1,62.9999980773926,8|0,0:2|0:2,0:2:0:0:
288,180,52209,2,0,L|368:188,1,62.9999980773926,0|0,1:2|1:2,0:2:0:0:
416,124,52564,1,10,0:2:0:0:
416,124,52741,6,0,P|440:172|424:244,1,125.999996154785,6|0,1:2|1:2,0:2:0:0:
444,328,53274,2,0,P|404:328|372:312,1,62.9999980773926,8|0,0:2|0:2,0:2:0:0:
300,352,53629,1,0,1:2:0:0:
300,352,53806,1,0,1:2:0:0:
248,280,53984,2,0,L|256:212,1,62.9999980773926,10|2,0:2|0:2,0:2:0:0:
315,136,54339,6,0,B|367:128|367:128|399:136|399:136|447:128,2,125.999996154785,6|10|2,1:2|0:2|1:2,0:2:0:0:
247,80,55227,1,0,1:2:0:0:
247,80,55404,1,10,0:2:0:0:
171,128,55582,6,0,P|123:120|59:168,1,125.999996154785,6|0,1:2|1:2,0:2:0:0:
39,248,56114,2,0,L|47:324,1,62.9999980773926,8|0,0:2|0:2,0:2:0:0:
115,364,56469,2,0,P|163:360|183:348,1,62.9999980773926,2|2,1:2|1:2,0:2:0:0:
235,288,56824,1,10,0:2:0:0:
187,216,57002,1,2,1:2:0:0:
187,216,57090,1,0,1:2:0:0:
187,216,57179,6,0,L|191:144,1,62.9999980773926,4|2,1:2|0:2,0:2:0:0:
235,76,57534,2,0,B|311:52|295:104|379:84,1,125.999996154785,10|0,0:2|1:2,0:2:0:0:
431,44,58067,2,0,P|471:48|499:60,1,62.9999980773926,2|8,1:2|0:2,0:2:0:0:
507,144,58422,6,0,B|479:180|479:180|499:268,1,125.999996154785,2|0,0:2|0:2,0:2:0:0:
443,328,58954,2,0,P|403:336|371:328,1,62.9999980773926,10|0,0:2|1:2,0:2:0:0:
351,304,59221,1,0,1:2:0:0:
351,304,59309,2,0,P|343:264|351:232,1,62.9999980773926,2|0,1:2|1:2,0:2:0:0:
371,156,59664,2,0,P|379:116|371:84,1,62.9999980773926,10|0,0:2|0:2,0:2:0:0:
296,30,60019,6,0,B|236:14|236:14|164:34,1,125.999996154785,2|8,1:2|0:2,0:2:0:0:
112,94,60552,1,0,0:2:0:0:
112,94,60730,2,0,L|120:166,1,62.9999980773926,0|0,1:2|1:2,0:2:0:0:
176,226,61085,1,10,0:2:0:0:
265,180,61262,6,0,B|313:176|313:176|341:184|341:184|393:180,1,125.999996154785,2|8,1:2|1:2,0:2:0:0:
473,208,61795,2,0,L|469:272,1,62.9999980773926,8|0,1:2|0:2,0:2:0:0:
421,344,62150,2,0,L|357:340,1,62.9999980773926,2|2,0:2|0:2,0:2:0:0:
297,276,62505,1,10,0:2:0:0:
297,276,62593,1,8,0:2:0:0:
297,276,62682,1,8,0:2:0:0:
196,325,62860,6,0,P|152:333|108:321,1,70,6|2,1:2|0:2,0:2:0:0:
44,276,63215,1,10,0:2:0:0:
101,197,63392,2,0,L|97:121,1,70,2|0,0:2|1:2,0:2:0:0:
157,49,63747,1,0,1:2:0:0:
157,49,63925,1,8,0:2:0:0:
241,97,64102,6,0,L|233:261,1,140,0|0,1:2|1:2,0:2:0:0:
281,325,64635,2,0,P|333:333|357:329,1,70,10|0,0:2|0:2,0:2:0:0:
437,373,64990,2,0,P|445:321|441:297,1,70,2|0,1:2|1:2,0:2:0:0:
485,217,65345,2,0,P|433:209|409:213,1,70,10|0,0:2|0:2,0:2:0:0:
338,129,65700,6,0,B|294:109|294:109|202:133,1,140,2|8,1:2|0:2,0:2:0:0:
190,233,66232,1,0,0:2:0:0:
190,233,66410,2,0,L|194:309,1,70,0|0,1:2|1:2,0:2:0:0:
122,369,66765,1,10,0:2:0:0:
42,309,66943,6,0,P|-2:261|22:189,1,140,2|0,1:2|1:2,0:2:0:0:
26,97,67475,2,0,L|102:105,1,70,8|0,0:2|1:2,0:2:0:0:
158,181,67830,2,0,P|198:189|238:185,1,70,2|2,1:2|1:2,0:2:0:0:
278,101,68185,1,10,0:2:0:0:
374,113,68363,1,2,1:2:0:0:
413,217,68540,6,0,L|413:297,1,70,4|2,1:2|0:2,0:2:0:0:
357,369,68895,2,0,P|317:373|285:361,1,70,10|0,0:2|0:2,0:2:0:0:
217,297,69250,1,0,1:2:0:0:
217,297,69428,1,0,1:2:0:0:
277,221,69605,1,10,0:2:0:0:
207,132,69783,6,0,B|131:108|143:164|55:140,1,140,6|2,1:2|1:2,0:2:0:0:
11,220,70315,2,0,P|3:276|15:308,1,70,10|0,0:2|1:2,0:2:0:0:
79,352,70670,1,0,1:2:0:0:
79,352,70848,1,0,1:2:0:0:
159,296,71025,2,0,L|235:304,1,70,10|2,0:2|0:2,0:2:0:0:
328,354,71380,6,0,P|392:370|448:322,1,140,6|8,1:2|0:2,0:2:0:0:
432,234,71913,1,0,0:2:0:0:
432,234,72090,2,0,L|440:158,1,70,0|0,1:2|1:2,0:2:0:0:
496,82,72446,1,10,0:2:0:0:
389,48,72623,6,0,B|301:28|301:28|245:52,1,140,6|0,1:2|1:2,0:2:0:0:
169,92,73156,2,0,L|177:168,1,70,8|0,0:2|1:2,0:2:0:0:
225,248,73511,1,2,0:2:0:0:
225,248,73688,1,2,1:2:0:0:
293,180,73866,2,0,P|341:172|373:184,1,70,10|0,0:2|1:2,0:2:0:0:
451,244,74221,6,0,P|455:300|383:348,1,140,6|10,1:2|0:2,0:2:0:0:
311,296,74753,2,0,L|227:288,1,70,2|0,0:2|1:2,0:2:0:0:
167,352,75108,1,0,1:2:0:0:
167,352,75286,1,8,0:2:0:0:
83,300,75463,6,0,L|71:148,1,140,0|0,1:2|1:2,0:2:0:0:
51,64,75996,2,0,L|139:72,1,70,10|0,0:2|0:2,0:2:0:0:
215,40,76351,2,0,L|207:128,1,70,2|0,1:2|1:2,0:2:0:0:
295,156,76706,2,0,L|303:244,1,70,10|0,0:2|0:2,0:2:0:0:
367,316,77061,6,0,P|415:328|499:260,1,140,2|8,1:2|0:2,0:2:0:0:
483,188,77593,1,0,0:2:0:0:
483,188,77771,2,0,P|475:140|479:108,1,70,0|0,1:2|1:2,0:2:0:0:
415,44,78126,1,10,0:2:0:0:
339,104,78303,6,0,L|263:96,1,70,2|0,1:2|0:2,0:2:0:0:
183,148,78659,1,0,1:2:0:0:
255,216,78836,2,0,L|324:223,1,70,8|0,0:2|1:2,0:2:0:0:
407,276,79191,2,0,P|415:316|403:360,1,70,2|2,1:2|1:2,0:2:0:0:
319,380,79546,1,10,0:2:0:0:
223,321,79724,1,2,0:2:0:0:
223,321,79901,6,0,P|183:313|147:321,1,70,4|2,1:2|0:2,0:2:0:0:
59,341,80256,2,0,L|55:261,1,70,10|0,0:2|0:2,0:2:0:0:
8,193,80611,1,0,1:2:0:0:
8,193,80789,1,0,1:2:0:0:
63,113,80966,1,10,0:2:0:0:
164,161,81144,6,0,B|244:181|228:125|300:145,1,140,6|2,1:2|1:2,0:2:0:0:
368,213,81676,2,0,L|365:282,1,70,10|0,0:2|0:2,0:2:0:0:
428,357,82031,1,0,1:2:0:0:
428,357,82209,1,0,1:2:0:0:
492,285,82386,2,0,L|489:215,1,70,10|2,0:2|0:2,0:2:0:0:
425,122,82741,6,0,P|365:98|281:126,2,140,6|8|0,1:2|0:2|1:2,0:2:0:0:
478,204,83629,1,0,1:2:0:0:
478,204,83806,1,8,0:2:0:0:
419,282,83984,2,0,B|367:274|367:274|331:286|331:286|275:278,1,140,4|0,1:2|1:2,0:2:0:0:
204,218,84517,5,10,0:2:0:0:
276,150,84694,2,0,P|288:102|280:66,1,70,2|0,1:2|0:2,0:2:0:0:
208,22,85049,1,2,1:2:0:0:
128,78,85227,2,0,P|126:112|137:145,1,70,10|0,0:2|0:2,0:2:0:0:
204,218,85582,6,0,B|176:258|176:258|200:354,1,125.999996154785,6|8,1:2|0:2,0:2:0:0:
280,368,86114,1,2,0:2:0:0:
280,368,86292,2,0,L|344:364,1,62.9999980773926,2|0,1:2|1:2,0:2:0:0:
380,284,86647,2,0,L|444:280,1,62.9999980773926,8|0,0:2|0:2,0:2:0:0:
488,204,87002,6,0,P|496:160|488:128,1,62.9999980773926,0|0,1:2|0:2,0:2:0:0:
452,64,87357,1,8,0:2:0:0:
372,76,87534,1,0,1:2:0:0:
372,76,87623,1,0,1:2:0:0:
372,76,87712,1,8,1:2:0:0:
340,160,87889,1,8,1:2:0:0:
128,52,88422,5,4,1:2:0:0:
256,192,88599,12,0,90552,0:2:0:0:
