osu file format v14

[General]
AudioFilename: audio.mp3
AudioLeadIn: 0
PreviewTime: 5256
Countdown: 0
SampleSet: Soft
StackLeniency: 0.7
Mode: 0
LetterboxInBreaks: 0
WidescreenStoryboard: 0

[Editor]
Bookmarks: 90552
DistanceSpacing: 1.4
BeatDivisor: 4
GridSize: 32
TimelineZoom: 2

[Metadata]
Title:Hishoku no Sora (TV Size)
TitleUnicode:緋色の空 (TV Size)
Artist:Kawada Mami
ArtistUnicode:川田まみ
Creator:browiec
Version:Akitoshi's Crimson Sky
Source:灼眼のシャナ
Tags:shakugan no shana season 1 opening theme op japanese anime pop corinn -laura- kuki1537 akitoshi
BeatmapID:2399033
BeatmapSetID:1149042

[Difficulty]
HPDrainRate:6
CircleSize:4
OverallDifficulty:8.8
ApproachRate:9.2
SliderMultiplier:1.75
SliderTickRate:1

[Events]
//Background and Video events
0,0,"soshite kono sora.jpg",0,0
//Break Periods
//Storyboard Layer 0 (Background)
//Storyboard Layer 1 (Fail)
//Storyboard Layer 2 (Pass)
//Storyboard Layer 3 (Foreground)
//Storyboard Layer 4 (Overlay)
//Storyboard Sound Samples

[TimingPoints]
375,355.029585798817,4,2,2,60,1,0
375,-125,4,2,2,60,0,0
641,-125,4,2,1,60,0,0
818,-125,4,2,2,60,0,0
1351,-125,4,2,1,60,0,0
1528,-125,4,2,2,60,0,0
2061,-125,4,2,1,60,0,0
2238,-125,4,2,2,60,0,0
2771,-125,4,2,1,60,0,0
2948,-125,4,2,2,60,0,0
3481,-125,4,2,1,60,0,0
3658,-125,4,2,2,60,0,0
4191,-125,4,2,1,60,0,0
4457,-100,4,2,2,60,0,0
4901,-100,4,2,1,60,0,0
6055,-76.9230769230769,4,2,2,80,0,0
6410,-100,4,2,2,80,0,0
17416,-76.9230769230769,4,2,2,75,0,0
17771,-100,4,2,2,75,0,0
28777,-166.666666666667,4,2,1,60,0,0
37298,-125,4,2,2,70,0,0
40138,-166.666666666667,4,2,1,60,0,0
48659,-125,4,2,2,70,0,0
51499,-111.111111111111,4,2,2,70,0,0
62860,-71.4285714285714,4,2,2,85,0,0
63215,-90.9090909090909,4,2,2,85,0,0
73866,-142.857142857143,4,2,2,85,0,0
74132,-142.857142857143,4,2,2,5,0,0
74221,-71.4285714285714,4,2,2,85,0,0
74576,-90.9090909090909,4,2,2,85,0,0
85582,-125,4,2,2,85,0,0
88422,-166.666666666667,4,2,2,85,0,0
88511,-166.666666666667,4,2,2,60,0,0
88777,-166.666666666667,4,2,2,50,0,0
89132,-166.666666666667,4,2,2,40,0,0
89487,-166.666666666667,4,2,2,30,0,0
89842,-166.666666666667,4,2,2,20,0,0
90197,-166.666666666667,4,2,2,10,0,0
90552,-166.666666666667,4,2,2,5,0,0

[Colours]
Combo1 : 255,149,43
Combo2 : 255,0,0
Combo3 : 251,238,0

[HitObjects]
34,123,375,6,0,P|46:158|55:197,1,70,6|0,1:2|0:2,0:2:0:0:
129,273,730,1,8,0:2:0:0:
219,205,907,1,0,1:2:0:0:
219,205,996,1,0,1:2:0:0:
219,205,1085,2,0,P|261:202|287:187,1,70,10|0,0:2|0:2,0:2:0:0:
357,103,1440,1,8,0:2:0:0:
438,179,1617,6,0,P|423:210|417:248,1,70,2|0,1:2|0:2,0:2:0:0:
424,356,1972,1,2,1:2:0:0:
324,304,2150,1,8,0:2:0:0:
238,373,2327,1,2,1:2:0:0:
238,373,2416,1,0,1:2:0:0:
238,373,2505,2,0,P|198:363|168:359,1,70,8|2,1:2|0:2,0:2:0:0:
60,332,2860,1,10,0:2:0:0:
149,264,3037,1,0,1:2:0:0:
149,264,3126,1,0,1:2:0:0:
149,264,3215,6,0,P|136:225|140:195,1,70,6|0,1:2|0:2,0:2:0:0:
243,154,3570,2,0,P|245:188|233:221,1,70,8|0,0:2|0:2,0:2:0:0:
153,72,3925,2,0,P|210:60|305:40,1,140,10|10,0:2|0:2,0:2:0:0:
417,78,4457,6,0,B|389:151|389:151|411:167|430:204,1,131.25,2|0,1:2|0:2,0:2:0:0:
423,191,4812,1,2,1:2:0:0:
292,74,4990,1,10,1:2:0:0:
292,74,6055,6,0,B|237:97|237:97|177:70,1,113.749994792938,6|2,1:2|0:2,0:2:0:0:
10,188,6410,1,10,0:2:0:0:
117,224,6588,2,0,P|123:169|108:130,1,87.5,2|0,0:2|1:2,0:2:0:0:
3,13,6943,1,0,1:2:0:0:
17,219,7120,1,8,0:2:0:0:
166,50,7298,6,0,B|260:40|245:98|342:83,1,175,0|0,1:2|1:2,0:2:0:0:
490,235,7830,2,0,P|438:242|402:254,1,87.5,10|0,0:2|0:2,0:2:0:0:
257,331,8185,1,2,1:2:0:0:
416,378,8363,1,0,1:2:0:0:
288,211,8540,2,0,P|246:198|202:193,1,87.5,10|0,0:2|0:2,0:2:0:0:
17,349,8895,6,0,P|74:358|126:309,1,131.25,2|0,1:2|0:2,0:2:0:0:
125,311,9250,1,8,0:2:0:0:
27,154,9428,2,0,P|34:195|41:243,1,87.5,0|0,0:2|1:2,0:2:0:0:
193,95,9783,1,0,1:2:0:0:
12,50,9960,1,10,0:2:0:0:
164,219,10138,6,0,P|206:222|253:208,1,87.5,2|0,1:2|0:2,0:2:0:0:
367,118,10493,1,0,1:2:0:0:
468,259,10670,2,0,P|457:304|446:356,1,87.5,8|0,0:2|0:2,0:2:0:0:
274,196,11025,5,2,1:2:0:0:
492,130,11203,1,2,1:2:0:0:
332,314,11380,1,10,0:2:0:0:
253,81,11558,2,0,L|195:71,1,43.75,2|0,1:2|1:2,0:2:0:0:
99,180,11735,6,0,P|143:168|190:157,1,87.5,4|2,1:2|0:2,0:2:0:0:
373,228,12090,2,0,B|339:316|339:316|374:339|386:382,1,175,10|0,0:2|1:2,0:2:0:0:
243,249,12623,1,0,1:2:0:0:
477,218,12801,1,10,0:2:0:0:
278,74,12978,6,0,B|190:110|190:110|160:99|142:73|156:41,1,175,6|2,1:2|1:2,0:2:0:0:
398,26,13511,2,0,P|392:76|386:126,1,87.5,10|0,0:2|0:2,0:2:0:0:
244,281,13866,5,0,1:2:0:0:
278,74,14043,1,0,1:2:0:0:
133,272,14221,1,10,0:2:0:0:
373,228,14398,1,2,0:2:0:0:
137,110,14576,6,0,P|66:131|51:141,1,87.5,6|0,1:2|0:2,0:2:0:0:
244,320,14931,1,8,0:2:0:0:
303,65,15108,1,0,0:2:0:0:
471,267,15286,1,0,1:2:0:0:
209,198,15463,1,0,1:2:0:0:
462,98,15641,1,10,0:2:0:0:
366,351,15818,1,2,1:2:0:0:
219,91,15996,6,0,L|228:28,1,43.75,8|0,1:2|1:2,0:2:0:0:
56,138,16173,2,0,L|62:181,1,43.75,0|0,1:2|1:2,0:2:0:0:
288,258,16351,2,0,L|297:195,1,43.75,8|0,1:2|1:2,0:2:0:0:
458,81,16528,1,0,1:2:0:0:
458,81,16617,1,0,1:2:0:0:
458,81,16706,5,0,1:2:0:0:
385,332,16883,1,0,1:2:0:0:
245,98,17061,1,8,0:2:0:0:
172,349,17238,1,0,1:2:0:0:
172,349,17327,1,0,1:2:0:0:
172,349,17416,6,0,B|137:351|114:329|114:329|86:326|50:341,1,113.749994792938,6|0,1:2|0:2,0:2:0:0:
1,125,17771,1,8,0:2:0:0:
172,155,17948,2,0,P|163:209|156:248,1,87.5,0|0,0:2|1:2,0:2:0:0:
106,45,18303,1,0,1:2:0:0:
292,122,18481,1,10,0:2:0:0:
69,245,18659,6,0,P|118:241|197:331,1,175,2|0,1:2|1:2,0:2:0:0:
373,376,19191,2,0,P|377:330|383:281,1,87.5,8|0,0:2|0:2,0:2:0:0:
411,80,19546,1,0,1:2:0:0:
278,243,19724,1,0,1:2:0:0:
501,168,19901,1,10,0:2:0:0:
268,120,20079,1,2,0:2:0:0:
411,306,20256,6,0,B|456:313|456:313|495:299,1,87.5,4|0,1:2|0:2,0:2:0:0:
298,125,20611,1,8,0:2:0:0:
196,268,20789,2,0,P|207:331|211:360,1,87.5,0|0,0:2|1:2,0:2:0:0:
359,206,21144,1,0,1:2:0:0:
134,174,21321,1,10,0:2:0:0:
318,39,21499,6,0,B|430:25|386:88|502:64,1,175,2|0,0:2|1:2,0:2:0:0:
512,65,21943,1,0,1:2:0:0:
512,65,22031,2,0,P|486:106|487:153,1,87.5,8|0,0:2|0:2,0:2:0:0:
388,321,22386,1,2,1:2:0:0:
301,138,22564,1,2,0:2:0:0:
388,321,22741,1,10,0:2:0:0:
301,138,22919,1,2,0:2:0:0:
118,272,23096,6,0,B|72:283|72:283|25:269,1,87.5,6|0,1:2|0:2,0:2:0:0:
187,80,23451,1,8,0:2:0:0:
262,238,23629,2,0,P|250:303|246:327,1,87.5,0|0,0:2|1:2,0:2:0:0:
386,166,23984,1,0,1:2:0:0:
169,192,24161,1,10,0:2:0:0:
342,325,24339,6,0,B|441:302|418:366|511:337,1,175,2|0,1:2|1:2,0:2:0:0:
495,136,24872,2,0,P|446:137|404:155,1,87.5,8|0,0:2|0:2,0:2:0:0:
254,283,25227,1,0,1:2:0:0:
449,239,25404,1,0,1:2:0:0:
240,146,25582,1,10,0:2:0:0:
323,356,25759,1,2,0:2:0:0:
411,151,25937,6,0,B|423:106|423:106|407:64,1,87.5,4|0,1:2|0:2,0:2:0:0:
206,8,26292,1,8,0:2:0:0:
237,179,26469,2,0,P|278:170|323:162,1,87.5,0|0,0:2|1:2,0:2:0:0:
122,96,26824,1,0,1:2:0:0:
223,280,27002,1,10,0:2:0:0:
286,62,27179,1,2,0:2:0:0:
122,220,27357,6,0,L|131:275,1,43.75,0|0,1:2|3:2,0:2:0:0:
309,371,27534,2,0,L|316:327,1,43.75,0|0,1:2|3:2,0:2:0:0:
100,223,27712,2,0,L|109:278,1,43.75,8|0,1:2|3:2,0:2:0:0:
287,374,27889,2,0,L|294:330,1,43.75,0|0,1:2|3:2,0:2:0:0:
342,141,28067,6,0,P|370:131|393:130,1,43.75,2|0,1:2|3:2,0:2:0:0:
469,272,28244,2,0,P|447:268|427:260,1,43.75,2|0,1:2|3:2,0:2:0:0:
337,122,28422,2,0,P|365:112|388:111,1,43.75,10|0,1:2|3:2,0:2:0:0:
476,251,28599,2,0,P|454:247|434:239,1,43.75,2|0,1:2|3:2,0:2:0:0:
225,200,28777,6,0,P|164:211|104:224,2,104.999996795654,6|2|2,1:2|3:2|0:2,0:2:0:0:
245,121,29664,1,2,0:2:0:0:
245,121,29842,2,0,P|207:113|182:115,1,52.4999983978272,2|0,3:2|0:2,0:2:0:0:
307,55,30197,5,2,0:2:0:0:
307,55,30375,2,0,P|333:54|358:47,1,52.4999983978272,2|0,0:2|3:2,0:2:0:0:
440,28,30730,2,0,P|431:82|422:142,1,104.999996795654,2|0,0:2|0:2,0:2:0:0:
404,213,31262,1,0,3:2:0:0:
332,169,31440,5,2,1:2:0:0:
332,169,31617,2,0,P|274:171|230:206,1,104.999996795654,2|2,1:2|3:2,0:2:0:0:
204,277,32150,1,2,0:2:0:0:
204,277,32327,2,0,P|215:319|216:330,1,52.4999983978272,2|0,0:2|0:2,0:2:0:0:
116,249,32682,2,0,P|119:223|127:198,1,52.4999983978272,2|0,3:2|0:2,0:2:0:0:
160,120,33037,5,2,0:2:0:0:
160,120,33215,2,0,P|189:128|221:124,1,52.4999983978272,2|0,0:2|3:2,0:2:0:0:
258,196,33570,2,0,P|279:174|291:145,1,52.4999983978272,2|0,0:2|0:2,0:2:0:0:
373,148,33925,2,0,P|365:118|345:93,1,52.4999983978272,2|0,0:2|3:2,0:2:0:0:
306,36,34280,5,2,1:2:0:0:
306,36,34457,2,0,P|355:54|408:21,2,104.999996795654,2|8|0,1:2|0:2|0:2,0:2:0:0:
224,14,35345,1,0,0:2:0:0:
224,14,35522,2,0,P|218:49|205:133,1,104.999996795654,8|0,0:2|1:2,0:2:0:0:
207,117,36232,6,0,P|172:124|150:136,1,52.4999983978272,10|0,0:2|0:2,0:2:0:0:
157,216,36588,2,0,P|181:226|206:230,1,52.4999983978272,2|0,0:2|0:2,0:2:0:0:
290,217,36943,1,10,0:2:0:0:
265,297,37120,1,0,1:2:0:0:
374,274,37298,6,0,B|391:224|391:224|372:187|372:187|391:124,1,140,6|10,1:2|0:2,0:2:0:0:
289,85,37830,2,0,P|244:100|198:94,1,70,2|0,0:2|1:2,0:2:0:0:
113,71,38185,1,0,1:2:0:0:
189,188,38363,2,0,P|181:227|173:272,1,70,8|0,0:2|0:2,0:2:0:0:
148,365,38718,5,0,1:2:0:0:
44,242,38895,1,8,0:2:0:0:
201,276,39073,2,0,P|246:271|273:259,1,70,8|0,0:2|0:2,0:2:0:0:
361,198,39428,1,8,0:2:0:0:
357,309,39605,1,8,0:2:0:0:
471,205,39783,1,8,0:2:0:0:
467,316,39960,1,8,0:2:0:0:
343,212,40138,6,0,P|328:160|350:115,2,104.999996795654,6|2|2,1:2|3:2|0:2,0:2:0:0:
268,262,41025,1,2,0:2:0:0:
204,199,41203,2,0,P|181:206|145:217,1,52.4999983978272,2|0,3:2|0:2,0:2:0:0:
67,237,41558,5,2,0:2:0:0:
19,161,41735,2,0,P|20:131|25:107,1,52.4999983978272,2|0,0:2|3:2,0:2:0:0:
85,43,42090,2,0,P|123:82|115:145,1,104.999996795654,2|0,0:2|0:2,0:2:0:0:
153,214,42623,1,0,3:2:0:0:
233,172,42801,5,0,1:2:0:0:
233,172,42978,2,0,P|267:175|307:181,1,52.4999983978272,2|2,1:2|0:2,0:2:0:0:
353,119,43333,1,2,3:2:0:0:
423,174,43511,2,0,P|400:224|412:291,1,104.999996795654,2|2,1:2|0:2,0:2:0:0:
381,358,44043,2,0,P|350:356|325:347,1,52.4999983978272,2|0,3:2|0:2,0:2:0:0:
255,299,44398,5,2,0:2:0:0:
171,330,44576,2,0,P|159:353|153:381,1,52.4999983978272,2|0,0:2|3:2,0:2:0:0:
63,378,44931,2,0,P|57:352|45:329,1,52.4999983978272,2|0,0:2|0:2,0:2:0:0:
5,249,45286,1,2,0:2:0:0:
118,208,45463,1,2,3:2:0:0:
69,319,45641,1,2,1:2:0:0:
45,157,45818,6,0,P|53:97|64:41,2,104.999996795654,0|0|0,1:2|3:2|0:2,0:2:0:0:
118,208,46706,1,0,0:2:0:0:
187,153,46883,2,0,P|235:140|294:167,1,104.999996795654,0|0,3:2|0:2,0:2:0:0:
285,158,47593,6,0,P|276:202|274:213,1,52.4999983978272,2|0,3:2|0:2,0:2:0:0:
371,128,47948,2,0,P|380:172|382:183,1,52.4999983978272,2|0,0:2|0:2,0:2:0:0:
478,98,48303,2,0,P|469:142|467:153,1,52.4999983978272,2|0,3:2|0:2,0:2:0:0:
437,272,48659,6,0,B|384:284|384:284|361:308|361:308|299:322,1,140,6|8,1:2|0:2,0:2:0:0:
185,339,49191,1,2,0:2:0:0:
220,217,49369,2,0,P|260:196|287:189,1,70,2|0,1:2|1:2,0:2:0:0:
107,255,49724,2,0,P|73:244|43:227,1,70,8|0,0:2|0:2,0:2:0:0:
128,93,50079,6,0,P|135:130|141:164,1,70,4|0,1:2|0:2,0:2:0:0:
216,243,50434,1,8,0:2:0:0:
314,189,50611,2,0,P|322:148|317:120,1,70,2|8,0:2|1:2,0:2:0:0:
260,32,50966,1,10,1:2:0:0:
128,93,51144,1,10,1:2:0:0:
97,88,51232,1,8,1:2:0:0:
66,84,51321,1,10,1:2:0:0:
35,80,51410,1,0,1:2:0:0:
4,75,51499,6,0,B|35:170|35:170|13:195|10:231,2,157.499995193482,6|8|0,1:2|0:2|1:2,0:2:0:0:
156,12,52386,1,0,1:2:0:0:
130,175,52564,1,10,0:2:0:0:
300,93,52741,6,0,B|343:77|376:90|376:90|384:102|384:102|418:122|465:108,1,157.499995193482,6|0,1:2|1:2,0:2:0:0:
494,237,53274,2,0,P|451:227|417:222,1,78.7499975967408,8|0,0:2|0:2,0:2:0:0:
301,290,53629,1,0,1:2:0:0:
427,333,53806,1,0,1:2:0:0:
314,190,53984,2,0,P|271:200|237:205,1,78.7499975967408,10|2,0:2|0:2,0:2:0:0:
60,135,54339,6,0,B|77:155|99:166|99:166|62:237,1,118.124996395111,6|0,1:2|0:2,0:2:0:0:
33,297,54694,2,0,P|63:315|113:312,1,78.7499975967408,10|0,0:2|0:2,0:2:0:0:
240,232,55049,1,2,1:2:0:0:
196,383,55227,1,0,1:2:0:0:
102,219,55404,1,10,0:2:0:0:
271,321,55582,6,0,B|333:311|333:311|359:284|359:284|428:272,1,157.499995193482,6|0,1:2|1:2,0:2:0:0:
501,152,56114,2,0,P|462:144|424:134,1,78.7499975967408,8|0,0:2|0:2,0:2:0:0:
264,89,56469,1,2,1:2:0:0:
418,27,56647,1,2,1:2:0:0:
306,188,56824,1,10,0:2:0:0:
196,5,57002,1,2,0:2:0:0:
67,173,57179,6,0,B|52:211|52:211|65:256,1,78.7499975967408,4|2,1:2|0:2,0:2:0:0:
237,319,57534,2,0,P|181:297|112:364,1,157.499995193482,10|0,0:2|1:2,0:2:0:0:
326,369,58067,2,0,P|345:327|343:291,1,78.7499975967408,2|8,1:2|0:2,0:2:0:0:
252,156,58422,2,0,P|252:195|270:229,2,78.7499975967408,2|0|0,0:2|1:2|0:2,0:2:0:0:
420,152,58954,6,0,P|382:161|344:170,1,78.7499975967408,10|0,0:2|0:2,0:2:0:0:
165,203,59309,1,2,1:2:0:0:
315,51,59487,1,0,1:2:0:0:
261,256,59664,2,0,P|266:291|272:333,1,78.7499975967408,10|0,0:2|0:2,0:2:0:0:
476,273,60019,6,0,P|424:266|395:278,1,78.7499975967408,2|0,1:2|0:2,0:2:0:0:
185,254,60375,2,0,P|222:264|260:255,1,78.7499975967408,8|0,0:2|0:2,0:2:0:0:
366,70,60730,1,0,1:2:0:0:
167,143,60907,1,0,1:2:0:0:
392,182,61085,1,10,0:2:0:0:
234,17,61262,6,0,P|185:26|148:34,1,78.7499975967408,2|0,1:2|0:2,0:2:0:0:
45,258,61617,1,8,1:2:0:0:
271,146,61795,1,8,1:2:0:0:
271,146,62505,5,10,0:2:0:0:
263,184,62593,1,8,0:2:0:0:
256,223,62682,1,8,0:2:0:0:
249,262,62771,1,8,0:2:0:0:
242,300,62860,6,0,B|274:311|298:331|298:331|324:318|346:286,1,122.499996261597,6|2,1:2|0:2,0:2:0:0:
442,73,63215,1,10,0:2:0:0:
263,184,63392,2,0,P|214:185|169:165,1,96.250002937317,2|0,0:2|1:2,0:2:0:0:
329,25,63747,1,0,1:2:0:0:
353,265,63925,1,8,0:2:0:0:
218,66,64102,6,0,P|120:88|24:112,1,192.500005874634,0|0,1:2|1:2,0:2:0:0:
12,341,64635,2,0,P|76:350|139:360,1,96.250002937317,10|0,0:2|0:2,0:2:0:0:
331,294,64990,1,2,1:2:0:0:
125,190,65167,1,0,1:2:0:0:
321,110,65345,2,0,P|366:120|425:97,1,96.250002937317,10|0,0:2|0:2,0:2:0:0:
184,54,65700,6,0,P|207:156|213:198,1,144.375004405975,2|0,1:2|0:2,0:2:0:0:
223,277,66055,1,8,0:2:0:0:
413,105,66232,2,0,P|479:114|513:139,1,96.250002937317,0|0,0:2|1:2,0:2:0:0:
363,303,66588,1,0,1:2:0:0:
291,91,66765,1,10,0:2:0:0:
121,233,66943,6,0,P|78:255|31:257,1,96.250002937317,2|0,1:2|0:2,0:2:0:0:
184,54,67298,1,0,1:2:0:0:
202,302,67475,1,8,0:2:0:0:
48,141,67653,1,0,1:2:0:0:
307,69,67830,5,2,1:2:0:0:
121,233,68008,1,2,1:2:0:0:
397,201,68185,1,10,0:2:0:0:
161,41,68363,2,0,L|96:50,1,48.1250014686585,2|0,1:2|0:2,0:2:0:0:
30,238,68540,6,0,B|78:251|78:251|122:233,1,96.250002937317,4|2,1:2|0:2,0:2:0:0:
307,69,68895,2,0,P|294:156|277:269,1,192.500005874634,10|0,0:2|1:2,0:2:0:0:
211,37,69428,1,0,1:2:0:0:
397,202,69605,1,10,0:2:0:0:
169,308,69783,6,0,B|69:284|69:284|27:300|23:336|49:372,1,192.500005874634,6|2,1:2|1:2,0:2:0:0:
278,259,70315,1,10,0:2:0:0:
53,147,70493,1,0,1:2:0:0:
53,147,70582,1,0,1:2:0:0:
53,147,70670,1,0,1:2:0:0:
180,340,70848,1,0,1:2:0:0:
288,136,71025,1,10,0:2:0:0:
46,256,71203,1,2,0:2:0:0:
317,350,71380,6,0,P|366:344|424:336,1,96.250002937317,6|0,1:2|0:2,0:2:0:0:
260,114,71735,1,8,0:2:0:0:
171,369,71913,1,0,0:2:0:0:
388,195,72090,1,0,1:2:0:0:
125,97,72268,1,0,1:2:0:0:
290,334,72446,1,10,0:2:0:0:
465,105,72623,6,0,P|458:57|449:10,1,96.250002937317,6|0,1:2|0:2,0:2:0:0:
240,132,72978,1,0,1:2:0:0:
480,204,73156,1,8,0:2:0:0:
321,343,73333,1,0,1:2:0:0:
332,82,73511,5,2,0:2:0:0:
169,268,73688,1,2,1:2:0:0:
405,210,73866,2,0,P|454:221|500:228,1,91.8749971961976,10|0,0:2|0:2,0:2:0:0:
510,255,74221,6,0,B|459:269|459:269|445:288|445:288|391:300,1,122.499996261597,6|0,1:2|0:2,0:2:0:0:
141,358,74576,1,10,0:2:0:0:
205,177,74753,2,0,P|255:165|304:177,1,96.250002937317,2|0,0:2|1:2,0:2:0:0:
81,280,75108,1,0,1:2:0:0:
140,46,75286,1,8,0:2:0:0:
255,270,75463,6,0,P|337:256|445:240,1,192.500005874634,0|0,1:2|1:2,0:2:0:0:
327,51,75996,2,0,P|300:103|300:144,1,96.250002937317,10|0,0:2|0:2,0:2:0:0:
371,369,76351,1,2,1:2:0:0:
435,137,76528,1,0,1:2:0:0:
255,270,76706,2,0,P|207:266|166:242,1,96.250002937317,10|0,0:2|0:2,0:2:0:0:
132,18,77061,6,0,P|147:113|155:165,1,144.375004405975,2|0,1:2|0:2,0:2:0:0:
166,242,77416,1,8,0:2:0:0:
366,109,77593,2,0,P|414:105|468:127,1,96.250002937317,0|0,0:2|1:2,0:2:0:0:
286,264,77948,1,0,1:2:0:0:
237,27,78126,1,10,0:2:0:0:
54,183,78303,6,0,P|41:231|51:277,1,96.250002937317,2|0,1:2|0:2,0:2:0:0:
290,238,78659,1,0,1:2:0:0:
90,87,78836,1,8,0:2:0:0:
166,274,79014,1,0,1:2:0:0:
264,44,79191,5,2,1:2:0:0:
397,245,79369,1,2,1:2:0:0:
146,177,79546,1,10,0:2:0:0:
431,126,79724,2,0,L|487:135,1,48.1250014686585,2|0,0:2|0:2,0:2:0:0:
508,339,79901,6,0,B|463:356|463:356|401:342,1,96.250002937317,4|2,1:2|0:2,0:2:0:0:
284,178,80256,2,0,P|270:262|253:373,1,192.500005874634,10|0,0:2|1:2,0:2:0:0:
172,171,80789,1,0,1:2:0:0:
397,219,80966,1,10,0:2:0:0:
148,297,81144,6,0,B|97:301|39:274|39:274|12:288|2:327|32:359,1,192.500005874634,6|2,1:2|1:2,0:2:0:0:
278,215,81676,1,10,0:2:0:0:
63,154,81854,1,0,1:2:0:0:
63,154,81943,1,0,1:2:0:0:
63,154,82031,1,0,1:2:0:0:
151,328,82209,1,0,1:2:0:0:
233,92,82386,1,10,0:2:0:0:
339,340,82564,1,2,0:2:0:0:
469,105,82741,6,0,B|482:55|482:55|462:5,1,96.250002937317,6|0,1:2|0:2,0:2:0:0:
253,181,83096,2,0,P|260:229|269:293,1,96.250002937317,8|0,0:2|0:2,0:2:0:0:
493,129,83451,1,0,1:2:0:0:
207,81,83629,1,0,1:2:0:0:
426,266,83806,1,8,0:2:0:0:
143,328,83984,6,0,P|74:329|31:312,1,96.250002937317,4|0,1:2|0:2,0:2:0:0:
216,56,84339,1,0,1:2:0:0:
274,369,84517,1,10,0:2:0:0:
37,158,84694,2,0,P|41:111|48:56,1,96.250002937317,2|0,1:2|0:2,0:2:0:0:
317,231,85049,1,2,1:2:0:0:
33,291,85227,1,10,0:2:0:0:
250,74,85404,1,0,1:2:0:0:
250,74,85493,1,0,1:2:0:0:
250,74,85582,6,0,P|302:62|377:118,1,140,6|8,1:2|0:2,0:2:0:0:
395,236,86114,1,2,0:2:0:0:
294,151,86292,1,2,1:2:0:0:
270,281,86469,1,0,1:2:0:0:
167,196,86647,2,0,P|132:205|99:213,1,70,8|0,0:2|0:2,0:2:0:0:
12,111,87002,6,0,P|6:77|13:41,1,70,0|0,1:2|0:2,0:2:0:0:
141,7,87357,2,0,P|147:41|141:75,1,70,8|0,0:2|1:2,0:2:0:0:
16,244,87712,1,8,1:2:0:0:
268,161,87889,1,8,1:2:0:0:
268,161,88422,6,0,B|308:128|383:148|397:229|359:269|317:277|317:277|298:318|334:366|334:366|279:382|218:380|165:322|189:232|189:232|202:266|239:288,1,629.999980773926,4|0,1:2|0:2,0:2:0:0:
