osu file format v14

[General]
AudioFilename: audio.mp3
AudioLeadIn: 0
PreviewTime: 5926
Countdown: 0
SampleSet: Soft
StackLeniency: 0.7
Mode: 0
LetterboxInBreaks: 0
WidescreenStoryboard: 1

[Editor]
Bookmarks: 160187,171548,253205
DistanceSpacing: 2
BeatDivisor: 4
GridSize: 32
TimelineZoom: 0.9

[Metadata]
Title:Hishoku no Sora
TitleUnicode:緋色の空
Artist:Kawada Mami
ArtistUnicode:川田まみ
Creator:Akitoshi
Version:Insane
Source:灼眼のシャナ
Tags:Shakugan no Shana Opening -Laura- Corinn Gaia Makitoshi
BeatmapID:2120587
BeatmapSetID:994378

[Difficulty]
HPDrainRate:6
CircleSize:3.8
OverallDifficulty:7.5
ApproachRate:9
SliderMultiplier:1.5
SliderTickRate:1

[Events]
//Background and Video events
0,0,"shana.jpg",0,0
//Break Periods
2,160387,169418
//Storyboard Layer 0 (Background)
//Storyboard Layer 1 (Fail)
//Storyboard Layer 2 (Pass)
//Storyboard Layer 3 (Foreground)
//Storyboard Layer 4 (Overlay)
//Storyboard Sound Samples

[TimingPoints]
1134,355.029585798817,4,2,1,60,1,0
1134,-125,4,2,1,60,0,0
6814,-76.9230769230769,4,2,1,80,0,1
7169,-90.9090909090909,4,2,1,80,0,0
18175,-76.9230769230769,4,2,1,70,0,0
18530,-100,4,2,1,70,0,0
29536,-142.857142857143,4,2,1,60,0,0
38057,-125,4,2,1,60,0,0
40897,-142.857142857143,4,2,1,40,0,0
46577,-125,4,2,1,50,0,0
49418,-111.111111111111,4,2,1,60,0,0
52258,-100,4,2,1,60,0,0
60778,-90.9090909090909,4,2,1,70,0,0
62909,-200,4,2,1,60,0,0
63264,-100,4,2,1,60,0,0
63619,-76.9230769230769,4,2,1,80,0,1
63974,-90.9090909090909,4,2,1,80,0,0
74980,-76.9230769230769,4,2,1,80,0,1
75335,-90.9090909090909,4,2,1,80,0,0
86341,-125,4,2,1,80,0,0
88471,-90.9090909090909,4,2,1,80,0,0
89181,-76.9230769230769,4,2,1,70,0,0
89536,-100,4,2,1,70,0,0
100542,-125,4,2,1,60,0,0
120423,-111.111111111111,4,2,1,60,0,0
123264,-100,4,2,1,60,0,0
131784,-90.9090909090909,4,2,1,60,0,0
133915,-100,4,2,1,60,0,0
134625,-90.9090909090909,4,2,1,80,0,0
157347,-166.666666666667,4,2,1,60,0,0
160187,-333.333333333334,4,2,1,60,0,0
171548,-125,4,2,1,60,0,0
180068,-100,4,2,1,60,0,0
185039,-83.3333333333334,4,2,1,60,0,0
185749,-66.6666666666667,4,2,1,85,0,1
186104,-83.3333333333333,4,2,1,85,0,1
196755,-83.3333333333333,4,2,1,85,0,0
197110,-66.6666666666667,4,2,1,85,0,1
197465,-83.3333333333333,4,2,1,85,0,1
208116,-83.3333333333333,4,2,1,85,0,0
208471,-66.6666666666667,4,2,1,85,0,1
208826,-83.3333333333333,4,2,1,85,0,1
219477,-83.3333333333333,4,2,1,85,0,0
219832,-66.6666666666667,4,2,1,85,0,1
220187,-83.3333333333333,4,2,1,85,0,1
231193,-100,4,2,1,85,0,0
234033,-76.9230769230769,4,2,1,85,0,1
234388,-90.9090909090909,4,2,1,75,0,0
245394,-142.857142857143,4,2,1,50,0,0
247169,-333.333333333333,4,2,1,50,0,0
247524,-333.333333333333,4,2,1,30,0,0
248234,-333.333333333333,4,2,1,20,0,0
253205,-333.333333333333,4,2,1,5,0,0

[Colours]
Combo1 : 242,180,64
Combo2 : 255,70,70
Combo3 : 255,255,89
Combo4 : 255,100,255

[HitObjects]
135,171,1134,6,0,L|211:162,1,60,6|0,0:0|0:0,0:0:0:0:
284,152,1489,1,0,1:0:0:0:
367,209,1666,1,2,3:0:0:0:
367,209,1844,2,0,P|425:210|479:158,1,120,2|0,0:0|1:0,0:0:0:0:
481,83,2376,6,0,P|443:79|402:76,1,60,2|0,0:0|0:0,0:0:0:0:
331,76,2731,1,2,0:0:0:0:
284,152,2909,1,0,1:0:0:0:
367,209,3086,1,0,3:0:0:0:
367,209,3264,2,0,P|362:264|354:332,1,120,2|0,0:0|1:0,0:0:0:0:
270,360,3796,1,0,3:0:0:0:
270,360,3974,6,0,P|230:350|198:349,1,60,2|0,0:0|0:0,0:0:0:0:
167,269,4329,2,0,P|207:259|239:258,1,60,0|0,1:0|0:0,0:0:0:0:
281,187,4684,2,0,B|259:151|259:151|272:73,1,120,0|2,1:0|0:0,0:0:0:0:
151,110,5216,6,0,P|155:141|160:179,1,60,4|0,3:0|0:0,0:0:0:0:
79,268,5571,1,4,3:0:0:0:
34,149,5749,1,4,3:0:0:0:
34,149,6814,6,0,B|84:160|84:160|140:136,1,97.4999955368044,6|0,0:0|0:0,0:0:0:0:
267,73,7169,1,0,1:0:0:0:
232,192,7347,2,0,P|241:282|251:367,1,165.000005035401,2|2,0:0|0:0,0:0:0:0:
370,381,7879,1,0,1:0:0:0:
467,304,8057,6,0,P|434:260|322:255,1,165.000005035401,2|2,0:0|0:0,0:0:0:0:
209,278,8589,2,0,P|169:273|128:268,1,82.5000025177003,0|0,1:0|0:0,0:0:0:0:
5,249,8944,1,2,0:0:0:0:
79,348,9122,1,2,0:0:0:0:
77,191,9299,2,0,P|73:148|69:108,1,82.5000025177003,0|0,1:0|0:0,0:0:0:0:
171,38,9654,6,0,P|187:74|190:120,1,82.5000025177003,2|0,0:0|0:0,0:0:0:0:
238,266,10009,1,0,1:0:0:0:
325,178,10187,2,0,P|366:182|411:187,1,82.5000025177003,2|0,0:0|0:0,0:0:0:0:
488,280,10542,2,0,P|446:284|405:288,1,82.5000025177003,2|0,0:0|1:0,0:0:0:0:
252,297,10897,6,0,B|161:288|192:340|92:326,1,165.000005035401,2|2,0:0|0:0,0:0:0:0:
10,235,11429,2,0,P|14:191|17:145,1,82.5000025177003,0|0,1:0|0:0,0:0:0:0:
96,57,11784,1,2,0:0:0:0:
120,178,11962,1,2,0:0:0:0:
209,50,12139,1,0,1:0:0:0:
233,171,12317,1,2,0:0:0:0:
204,25,12494,6,0,P|253:11|299:18,1,82.5000025177003,6|0,0:0|0:0,0:0:0:0:
378,93,12849,2,0,P|384:173|392:268,1,165.000005035401,0|2,1:0|0:0,0:0:0:0:
400,381,13382,1,2,0:0:0:0:
490,262,13560,1,0,1:0:0:0:
308,315,13737,6,0,B|243:307|243:307|213:284|213:284|141:276,1,165.000005035401,6|2,0:0|0:0,0:0:0:0:
72,181,14270,2,0,P|112:174|155:168,1,82.5000025177003,0|0,1:0|0:0,0:0:0:0:
260,104,14625,1,2,0:0:0:0:
141,71,14802,1,2,0:0:0:0:
247,198,14980,1,0,1:0:0:0:
345,65,15157,1,2,0:0:0:0:
247,198,15335,6,0,P|253:263|261:337,1,123.75000377655,6|0,0:0|0:0,0:0:0:0:
259,321,15690,1,0,1:0:0:0:
387,377,15867,2,0,P|399:344|399:284,1,82.5000025177003,2|0,0:0|3:0,0:0:0:0:
353,164,16222,1,2,0:0:0:0:
482,218,16400,1,0,1:0:0:0:
496,62,16577,6,0,B|395:40|395:40|359:50|331:81,1,165.000005035401,6|0,0:0|3:0,0:0:0:0:
325,103,17021,1,0,3:0:0:0:
325,103,17110,2,0,P|332:144|338:191,1,82.5000025177003,2|0,0:0|3:0,0:0:0:0:
207,72,17465,1,4,3:0:0:0:
220,202,17642,1,4,3:0:0:0:
82,109,17820,1,0,1:0:0:0:
95,239,17997,1,4,3:0:0:0:
250,202,18175,6,0,B|295:222|295:222|354:210,1,97.4999955368044,6|0,0:0|0:0,0:0:0:0:
487,172,18530,1,0,1:0:0:0:
494,283,18707,2,0,P|438:335|340:318,1,150,2|2,0:0|0:0,0:0:0:0:
259,302,19240,1,0,1:0:0:0:
302,197,19418,6,0,P|295:144|284:36,1,150,2|2,0:0|0:0,0:0:0:0:
176,18,19950,2,0,P|166:65|160:99,1,75,0|0,1:0|0:0,0:0:0:0:
127,199,20305,1,2,0:0:0:0:
56,110,20483,1,2,0:0:0:0:
15,214,20660,1,0,1:0:0:0:
85,302,20838,1,2,0:0:0:0:
150,184,21015,6,0,P|192:176|227:181,1,75,6|0,0:0|0:0,0:0:0:0:
335,281,21370,1,0,1:0:0:0:
397,186,21548,2,0,P|416:109|377:32,1,150,2|2,0:0|0:0,0:0:0:0:
283,11,22080,1,0,1:0:0:0:
193,79,22258,6,0,P|121:56|40:91,1,150,2|0,0:0|0:0,0:0:0:0:
52,192,22790,2,0,P|89:195|126:198,1,75,0|0,1:0|0:0,0:0:0:0:
239,207,23145,1,2,0:0:0:0:
174,301,23323,1,2,0:0:0:0:
314,279,23500,1,0,1:0:0:0:
249,373,23678,1,0,3:0:0:0:
211,205,23855,6,0,P|216:166|223:115,1,75,6|0,0:0|0:0,0:0:0:0:
338,274,24210,1,0,1:0:0:0:
253,349,24388,2,0,P|172:337|104:327,1,150,2|2,0:0|0:0,0:0:0:0:
13,261,24920,1,0,1:0:0:0:
97,185,25098,6,0,B|121:104|70:117|88:29,1,150,2|2,0:0|0:0,0:0:0:0:
196,16,25631,2,0,P|199:53|204:104,1,75,0|0,1:0|0:0,0:0:0:0:
275,176,25986,1,2,0:0:0:0:
315,71,26163,1,2,0:0:0:0:
384,159,26341,1,0,1:0:0:0:
343,263,26518,1,2,0:0:0:0:
246,168,26696,6,0,P|210:180|168:180,1,75,6|0,0:0|0:0,0:0:0:0:
91,102,27051,1,0,1:0:0:0:
18,187,27228,2,0,P|6:262|37:336,1,150,2|2,0:0|0:0,0:0:0:0:
131,382,27761,1,0,1:0:0:0:
153,272,27938,1,2,0:0:0:0:
254,320,28116,6,0,P|294:316|340:311,1,75,2|0,3:0|3:0,0:0:0:0:
384,214,28471,2,0,P|343:210|298:205,1,75,2|0,3:0|3:0,0:0:0:0:
197,190,28826,1,2,0:0:0:0:
267,103,29003,1,2,0:0:0:0:
116,108,29181,1,0,1:0:0:0:
186,21,29358,1,2,3:0:0:0:
293,87,29536,6,0,P|342:69|400:77,2,104.999996795654,6|0|0,0:0|1:0|3:0,0:0:0:0:
320,171,30423,1,0,3:0:0:0:
320,171,30601,2,0,P|354:175|389:181,1,52.4999983978272,0|0,1:0|0:0,0:0:0:0:
431,244,30956,5,2,0:0:0:0:
431,244,31134,2,0,P|434:275|427:304,1,52.4999983978272,0|0,3:0|1:0,0:0:0:0:
351,338,31489,2,0,P|308:311|237:318,1,104.999996795654,2|2,0:0|0:0,0:0:0:0:
168,331,32021,1,0,1:0:0:0:
122,253,32199,1,2,0:0:0:0:
122,253,32376,6,0,P|129:200|135:144,1,104.999996795654,2|0,0:0|1:0,0:0:0:0:
194,82,32909,1,0,0:0:0:0:
257,144,33086,2,0,P|288:145|318:138,1,52.4999983978272,2|0,0:0|0:0,0:0:0:0:
388,99,33441,2,0,P|419:98|449:105,1,52.4999983978272,0|0,1:0|0:0,0:0:0:0:
511,165,33796,5,2,0:0:0:0:
511,165,33974,2,0,P|507:198|504:233,1,52.4999983978272,2|0,0:0|1:0,0:0:0:0:
421,249,34329,2,0,P|418:222|415:196,1,52.4999983978272,2|0,0:0|0:0,0:0:0:0:
332,161,34684,2,0,P|303:159|279:164,1,52.4999983978272,2|0,0:0|1:0,0:0:0:0:
194,187,35039,1,2,0:0:0:0:
194,187,35216,6,0,P|190:130|183:73,2,104.999996795654,2|0|2,0:0|1:0|0:0,0:0:0:0:
260,255,36104,1,0,3:0:0:0:
260,255,36281,2,0,P|256:281|255:307,1,52.4999983978272,0|0,1:0|0:0,0:0:0:0:
178,353,36636,6,0,P|148:344|121:344,1,52.4999983978272,2|0,0:0|3:0,0:0:0:0:
37,342,36991,2,0,P|34:311|32:280,1,52.4999983978272,0|0,1:0|0:0,0:0:0:0:
9,202,37347,2,0,P|12:171|14:140,1,52.4999983978272,2|0,0:0|0:0,0:0:0:0:
77,86,37702,1,0,1:0:0:0:
77,86,37879,1,2,0:0:0:0:
152,145,38057,6,0,B|221:159|221:159|244:149|266:120,1,120,6|0,0:0|1:0,0:0:0:0:
321,55,38589,2,0,P|354:58|400:62,1,60,0|2,0:0|0:0,0:0:0:0:
449,128,38944,1,2,0:0:0:0:
365,176,39122,2,0,P|359:208|362:234,1,60,0|0,1:0|0:0,0:0:0:0:
396,330,39477,5,2,0:0:0:0:
460,259,39654,1,0,1:0:0:0:
396,330,39832,2,0,P|367:336|335:334,1,60,0|0,1:0|0:0,0:0:0:0:
259,277,40187,1,2,0:0:0:0:
221,365,40364,1,2,0:0:0:0:
165,258,40542,1,0,1:0:0:0:
127,346,40719,1,0,0:0:0:0:
179,236,40897,6,0,P|175:182|171:125,1,104.999996795654,6|0,0:0|1:0,0:0:0:0:
220,57,41429,1,0,0:0:0:0:
220,57,41607,2,0,P|248:65|283:62,1,52.4999983978272,2|0,0:0|3:0,0:0:0:0:
356,36,41962,2,0,P|384:28|419:31,1,52.4999983978272,0|0,1:0|0:0,0:0:0:0:
468,102,42317,5,2,0:0:0:0:
468,102,42494,2,0,P|430:110|410:115,1,52.4999983978272,2|0,0:0|1:0,0:0:0:0:
389,198,42849,2,0,P|452:205|492:232,1,104.999996795654,2|2,0:0|0:0,0:0:0:0:
507,313,43382,1,0,1:0:0:0:
435,367,43560,1,2,0:0:0:0:
435,367,43737,6,0,P|395:362|364:359,1,52.4999983978272,2|0,0:0|0:0,0:0:0:0:
293,353,44092,1,0,1:0:0:0:
293,353,44270,1,2,0:0:0:0:
329,271,44447,2,0,P|329:234|320:212,1,52.4999983978272,2|0,0:0|0:0,0:0:0:0:
255,162,44802,2,0,P|255:125|264:103,1,52.4999983978272,0|0,1:0|0:0,0:0:0:0:
207,38,45157,5,2,0:0:0:0:
207,38,45335,2,0,P|163:44|138:40,1,52.4999983978272,2|0,0:0|1:0,0:0:0:0:
69,113,45690,2,0,P|95:112|120:118,1,52.4999983978272,2|0,0:0|0:0,0:0:0:0:
179,192,46045,1,2,0:0:0:0:
68,224,46222,1,0,1:0:0:0:
160,293,46400,1,4,3:0:0:0:
208,176,46577,6,0,P|264:170|325:218,2,120,6|0|2,0:0|1:0|0:0,0:0:0:0:
245,264,47465,1,0,3:0:0:0:
335,295,47642,2,0,L|409:286,1,60,0|0,1:0|0:0,0:0:0:0:
489,274,47997,5,2,0:0:0:0:
387,110,48352,2,0,P|385:77|382:44,1,60,0|0,1:0|0:0,0:0:0:0:
291,18,48707,2,0,P|288:47|286:77,1,60,2|0,0:0|0:0,0:0:0:0:
195,109,49062,2,0,P|193:76|190:43,1,60,0|0,1:0|0:0,0:0:0:0:
75,120,49418,6,0,P|132:141|204:93,1,134.999995880127,6|0,0:0|1:0,0:0:0:0:
288,161,49950,1,0,3:0:0:0:
208,234,50128,2,0,P|215:266|219:300,1,67.4999979400635,2|0,0:0|0:0,0:0:0:0:
314,351,50483,2,0,P|317:317|325:284,1,67.4999979400635,0|0,1:0|0:0,0:0:0:0:
383,193,50838,6,0,P|417:193|467:173,1,67.4999979400635,2|0,1:2|3:0,0:0:0:0:
511,94,51193,1,0,1:0:0:0:
422,32,51370,2,0,P|348:39|276:48,1,134.999995880127,2|2,0:0|0:0,0:0:0:0:
215,126,51903,1,0,1:0:0:0:
215,126,51991,1,0,1:0:0:0:
215,126,52080,1,0,1:0:0:0:
215,126,52169,1,0,1:0:0:0:
215,126,52258,6,0,B|241:164|241:164|211:268,2,150,6|0|2,0:0|1:0|0:0,0:0:0:0:
145,37,53145,1,2,0:0:0:0:
123,147,53323,1,0,1:0:0:0:
37,73,53500,6,0,B|11:111|11:111|41:215,1,150,6|2,0:0|0:0,0:0:0:0:
85,313,54033,2,0,P|120:322|164:314,1,75,0|0,1:0|0:0,0:0:0:0:
266,285,54388,1,2,0:0:0:0:
266,285,54565,1,2,0:0:0:0:
206,188,54743,2,0,P|213:132|221:76,1,112.5,0|0,1:0|0:0,0:0:0:0:
225,46,55098,6,0,P|261:42|310:35,1,75,6|0,0:0|0:0,0:0:0:0:
386,140,55453,2,0,P|348:134|311:130,1,75,0|0,1:0|0:0,0:0:0:0:
345,238,55808,1,2,0:0:0:0:
414,149,55986,1,2,0:0:0:0:
461,250,56163,1,0,1:0:0:0:
392,340,56341,6,0,B|294:317|294:317|234:357,1,150,6|2,0:0|0:0,0:0:0:0:
146,310,56873,2,0,P|137:275|148:227,1,75,0|0,1:0|0:0,0:0:0:0:
189,134,57228,1,2,0:0:0:0:
241,233,57406,1,2,0:0:0:0:
293,109,57583,1,0,1:0:0:0:
345,208,57761,1,2,0:0:0:0:
189,134,57938,6,0,P|150:139|102:146,1,75,6|0,0:0|0:0,0:0:0:0:
57,241,58293,2,0,P|115:244|187:305,1,150,0|2,1:0|0:0,0:0:0:0:
275,366,58826,2,0,P|289:325|297:284,1,75,2|0,0:0|1:0,0:0:0:0:
406,275,59181,2,0,P|414:311|426:346,2,75,2|0|2,0:0|3:0|0:0,0:0:0:0:
398,163,59713,6,0,P|448:154|490:147,1,75,0|0,1:0|0:0,0:0:0:0:
330,38,60068,1,2,0:0:0:0:
299,177,60246,1,2,0:0:0:0:
170,115,60423,2,0,P|163:75|181:32,1,75,0|0,1:0|0:0,0:0:0:0:
271,196,60778,6,0,P|265:257|259:328,1,123.75000377655,6|0,0:0|0:0,0:0:0:0:
255,352,61134,2,0,P|198:356|169:345,1,82.5000025177003,0|0,1:0|0:0,0:0:0:0:
56,271,61489,1,2,0:0:0:0:
178,254,61666,1,2,0:0:0:0:
75,361,61844,1,0,1:0:0:0:
108,191,62021,6,0,P|101:145|96:105,1,82.5000025177003,6|0,0:0|0:0,0:0:0:0:
234,17,62376,1,0,1:0:0:0:
219,181,62554,1,0,1:0:0:0:
427,51,63264,5,0,1:0:0:0:
427,51,63352,1,0,1:0:0:0:
427,51,63441,1,0,1:0:0:0:
427,51,63530,1,0,1:0:0:0:
427,51,63619,6,0,B|445:98|445:98|432:143,1,97.4999955368044,6|0,0:0|0:0,0:0:0:0:
319,253,63974,1,0,1:0:0:0:
219,181,64151,2,0,B|132:166|150:222|54:206,1,165.000005035401,2|2,0:0|0:0,0:0:0:0:
193,278,64684,1,0,1:0:0:0:
304,225,64861,6,0,P|311:142|320:60,1,165.000005035401,2|2,0:0|0:0,0:0:0:0:
439,26,65394,2,0,P|457:73|455:112,1,82.5000025177003,0|0,1:0|0:0,0:0:0:0:
411,220,65749,1,2,0:0:0:0:
312,144,65926,1,2,0:0:0:0:
411,220,66104,2,0,P|452:224|501:230,1,82.5000025177003,0|0,1:0|0:0,0:0:0:0:
368,326,66459,6,0,P|306:332|244:339,1,123.75000377655,2|0,0:0|0:0,0:0:0:0:
244,339,66814,1,0,1:0:0:0:
137,279,66991,2,0,P|128:237|135:193,1,82.5000025177003,2|0,0:0|0:0,0:0:0:0:
235,126,67347,2,0,P|243:166|238:206,1,82.5000025177003,2|0,0:0|1:0,0:0:0:0:
175,35,67702,6,0,P|216:29|272:20,1,82.5000025177003,2|0,0:0|0:0,0:0:0:0:
379,3,68057,1,2,0:0:0:0:
314,111,68234,2,0,P|276:126|235:126,1,82.5000025177003,0|0,1:0|0:0,0:0:0:0:
146,38,68589,1,2,0:0:0:0:
90,148,68767,1,2,0:0:0:0:
31,39,68944,1,0,1:0:0:0:
175,35,69122,1,2,0:0:0:0:
92,177,69299,6,0,B|79:215|79:215|94:258,1,82.5000025177003,6|0,0:0|0:0,0:0:0:0:
212,317,69654,2,0,P|253:268|363:272,1,165.000005035401,0|2,1:0|0:0,0:0:0:0:
427,359,70187,1,2,0:0:0:0:
305,354,70364,1,0,1:0:0:0:
451,259,70542,6,0,B|475:155|475:155|423:109,1,165.000005035401,6|2,0:0|0:0,0:0:0:0:
316,70,71074,2,0,P|272:75|234:79,1,82.5000025177003,0|0,1:0|3:0,0:0:0:0:
139,159,71429,1,2,0:0:0:0:
261,180,71607,1,2,0:0:0:0:
143,64,71784,1,0,1:0:0:0:
185,249,71962,1,2,0:0:0:0:
355,150,72139,6,0,P|406:145|475:186,1,123.75000377655,6|0,0:0|0:0,0:0:0:0:
485,206,72494,2,0,P|481:248|476:291,1,82.5000025177003,2|2,1:2|0:0,0:0:0:0:
370,381,72849,1,2,0:0:0:0:
350,241,73027,1,2,0:0:0:0:
473,319,73205,1,2,1:2:0:0:
283,315,73382,6,0,B|187:341|187:341|152:328|153:288,1,165.000005035401,6|2,0:0|0:0,0:0:0:0:
163,150,73915,2,0,P|121:146|70:141,1,82.5000025177003,4|0,1:2|0:0,0:0:0:0:
275,33,74270,5,4,1:2:0:0:
273,197,74447,1,2,0:0:0:0:
171,45,74625,1,4,1:2:0:0:
349,128,74802,1,0,3:0:0:0:
349,128,74891,1,0,3:0:0:0:
349,128,74980,6,0,B|397:140|397:140|445:122,1,97.4999955368044,6|0,0:0|0:0,0:0:0:0:
273,2,75335,1,0,1:0:0:0:
177,73,75512,2,0,P|183:155|191:237,1,165.000005035401,2|2,0:0|0:0,0:0:0:0:
239,351,76045,1,0,1:0:0:0:
338,276,76222,6,0,P|272:230|192:237,1,165.000005035401,2|2,0:0|0:0,0:0:0:0:
74,280,76755,2,0,P|61:243|66:188,1,82.5000025177003,0|0,1:0|0:0,0:0:0:0:
135,99,77110,1,2,0:0:0:0:
192,208,77287,1,2,0:0:0:0:
135,99,77465,2,0,P|91:95|39:91,1,82.5000025177003,0|0,1:0|0:0,0:0:0:0:
251,44,77820,6,0,P|312:39|374:33,1,123.75000377655,2|0,0:0|0:0,0:0:0:0:
374,33,78175,1,2,1:2:0:0:
464,118,78352,2,0,P|478:159|472:210,1,82.5000025177003,2|0,0:0|3:0,0:0:0:0:
365,254,78707,2,0,P|351:213|357:162,1,82.5000025177003,2|0,0:0|1:2,0:0:0:0:
237,128,79062,6,0,P|187:133|141:138,1,82.5000025177003,2|0,0:0|0:0,0:0:0:0:
53,209,79418,1,2,0:0:0:0:
131,304,79595,2,0,P|184:313|225:299,1,82.5000025177003,0|0,1:0|0:0,0:0:0:0:
335,260,79950,1,2,0:0:0:0:
324,383,80128,1,2,0:0:0:0:
236,296,80305,1,0,1:0:0:0:
406,328,80483,1,2,0:0:0:0:
329,172,80660,6,0,B|319:132|319:132|332:91,1,82.5000025177003,6|0,0:0|0:0,0:0:0:0:
447,49,81015,2,0,P|488:120|470:208,1,165.000005035401,0|2,1:0|0:0,0:0:0:0:
430,314,81548,1,2,0:0:0:0:
337,204,81725,1,0,1:0:0:0:
250,325,81903,6,0,B|185:316|185:316|157:295|157:295|85:286,1,165.000005035401,6|2,0:0|0:0,0:0:0:0:
25,184,82435,2,0,P|72:177|107:166,1,82.5000025177003,0|0,1:0|0:0,0:0:0:0:
221,122,82790,1,2,0:0:0:0:
107,70,82968,1,2,0:0:0:0:
195,208,83145,1,0,1:0:0:0:
251,34,83323,1,0,0:0:0:0:
373,166,83500,6,0,B|353:259|353:259|385:285|389:324,2,165.000005035401,6|0|2,0:0|1:0|0:0,0:0:0:0:
454,256,84388,1,2,0:0:0:0:
298,331,84565,1,0,1:0:0:0:
373,166,84743,6,0,B|275:151|275:151|236:160|214:191,1,165.000005035401,6|2,0:0|0:0,0:0:0:0:
140,300,85276,1,0,1:0:0:0:
40,201,85453,2,0,P|31:158|43:121,1,82.5000025177003,2|0,0:0|0:0,0:0:0:0:
193,189,85808,1,2,0:0:0:0:
110,302,85986,2,0,P|69:307|17:314,1,82.5000025177003,2|0,1:2|0:0,0:0:0:0:
203,376,86341,6,0,P|264:341|321:346,1,120,6|0,0:0|1:0,0:0:0:0:
400,378,86873,1,0,3:0:0:0:
387,282,87051,2,0,P|391:242|394:220,1,60,2|2,0:0|0:0,0:0:0:0:
480,180,87406,2,0,P|484:219|487:242,1,60,0|0,1:0|0:0,0:0:0:0:
505,96,87761,6,0,P|467:93|434:105,1,60,2|0,0:0|0:0,0:0:0:0:
336,192,88116,2,0,P|365:198|394:194,1,60,0|0,1:0|0:0,0:0:0:0:
273,94,88471,1,4,3:0:0:0:
247,264,88648,1,4,3:0:0:0:
247,264,89181,6,0,B|201:278|201:278|148:259,1,97.4999955368044,6|0,0:0|0:0,0:0:0:0:
31,189,89536,1,0,1:0:0:0:
107,106,89713,2,0,P|181:112|256:120,1,150,2|2,0:0|0:0,0:0:0:0:
368,132,90246,1,0,1:0:0:0:
381,244,90423,6,0,P|317:279|246:263,1,150,2|2,0:0|0:0,0:0:0:0:
136,237,90956,2,0,P|99:240|50:245,1,75,0|0,1:0|0:0,0:0:0:0:
0,148,91311,1,2,0:0:0:0:
56,50,91489,1,2,0:0:0:0:
117,143,91666,1,0,1:0:0:0:
61,243,91844,1,2,0:0:0:0:
144,145,92021,6,0,P|180:148|230:152,1,75,6|0,0:0|0:0,0:0:0:0:
368,169,92376,1,0,1:0:0:0:
431,75,92554,2,0,P|359:55|285:94,1,150,2|2,0:0|0:0,0:0:0:0:
232,179,93086,1,0,1:0:0:0:
320,249,93264,6,0,P|394:238|481:227,1,150,2|0,0:0|0:0,0:0:0:0:
509,108,93796,2,0,P|471:102|434:97,1,75,0|0,1:0|0:0,0:0:0:0:
320,38,94151,1,2,0:0:0:0:
341,148,94329,1,2,0:0:0:0:
211,72,94506,1,0,1:0:0:0:
232,182,94684,1,0,3:0:0:0:
99,113,94861,6,0,B|85:151|85:151|96:189,1,75,6|0,0:0|0:0,0:0:0:0:
171,313,95216,1,0,1:0:0:0:
238,213,95394,2,0,P|316:221|394:231,1,150,2|2,0:0|0:0,0:0:0:0:
460,145,95926,1,0,1:0:0:0:
393,54,96104,6,0,P|331:18|241:29,1,150,2|2,0:0|0:0,0:0:0:0:
160,107,96636,2,0,P|197:112|234:117,1,75,0|0,1:0|0:0,0:0:0:0:
316,194,96991,1,2,0:0:0:0:
255,288,97169,1,2,0:0:0:0:
171,211,97347,1,0,1:0:0:0:
234,117,97524,1,2,0:0:0:0:
346,192,97702,6,0,P|386:187|435:181,1,75,6|0,0:0|0:0,0:0:0:0:
508,286,98057,1,0,1:0:0:0:
432,370,98234,2,0,P|364:339|281:348,1,150,2|2,0:0|0:0,0:0:0:0:
182,378,98767,1,0,1:0:0:0:
213,270,98944,1,2,0:0:0:0:
103,300,99122,6,0,P|66:294|23:287,1,75,2|0,3:0|3:0,0:0:0:0:
12,176,99477,2,0,P|49:169|86:164,1,75,2|0,3:0|3:0,0:0:0:0:
198,150,99832,1,2,0:0:0:0:
117,71,100009,1,2,0:0:0:0:
267,79,100187,1,0,1:0:0:0:
186,0,100364,1,2,3:0:0:0:
88,70,100542,6,0,P|53:62|18:64,1,60,6|0,0:0|0:0,0:0:0:0:
1,154,100897,2,0,P|30:161|59:161,1,60,0|0,1:0|0:0,0:0:0:0:
153,141,101252,1,2,0:0:0:0:
153,141,101429,1,2,0:0:0:0:
206,220,101607,2,0,L|200:287,1,60,0|0,1:0|0:0,0:0:0:0:
277,337,101962,5,2,0:0:0:0:
277,337,102139,2,0,P|306:326|344:324,1,60,0|0,3:0|1:0,0:0:0:0:
388,243,102494,2,0,P|359:232|321:230,1,60,0|2,3:0|0:0,0:0:0:0:
270,153,102849,1,2,0:0:0:0:
270,153,103027,2,0,P|274:119|279:84,1,60,0|0,1:0|0:0,0:0:0:0:
347,26,103382,6,0,P|385:53|470:49,1,120,2|0,0:0|1:0,0:0:0:0:
499,140,103915,1,0,0:0:0:0:
499,140,104092,2,0,P|469:143|439:147,1,60,2|2,0:0|0:0,0:0:0:0:
397,233,104447,2,0,P|426:236|456:240,1,60,0|0,1:0|0:0,0:0:0:0:
354,315,104802,5,2,0:0:0:0:
354,315,104980,2,0,P|314:316|277:305,1,60,2|0,0:0|1:0,0:0:0:0:
243,230,105335,2,0,P|272:224|302:226,1,60,0|2,3:0|0:0,0:0:0:0:
206,309,105690,1,0,0:0:0:0:
150,230,105867,2,0,P|154:197|158:162,1,60,0|0,1:0|3:0,0:0:0:0:
171,75,106222,6,0,P|216:90|298:62,2,120,2|0|2,0:0|1:0|0:0,0:0:0:0:
98,12,107110,1,2,0:0:0:0:
25,74,107287,2,0,P|29:124|30:140,1,60,0|0,1:0|0:0,0:0:0:0:
96,202,107642,6,0,P|130:192|159:192,1,60,2|0,0:0|0:0,0:0:0:0:
201,289,107997,2,0,P|171:287|142:278,1,60,0|0,1:0|0:0,0:0:0:0:
253,205,108352,1,2,0:0:0:0:
253,205,108530,1,2,0:0:0:0:
321,272,108707,2,0,P|362:257|416:259,1,90,0|0,1:0|3:0,0:0:0:0:
437,260,109062,6,0,P|441:228|446:188,1,60,6|0,0:0|0:0,0:0:0:0:
460,105,109418,1,0,1:0:0:0:
369,136,109595,2,0,P|334:133|303:122,1,60,0|2,3:0|0:0,0:0:0:0:
228,75,109950,1,2,0:0:0:0:
157,140,110128,2,0,P|161:184|163:205,1,60,0|2,1:0|0:0,0:0:0:0:
165,295,110483,6,0,P|119:298|89:291,1,60,0|2,1:0|0:0,0:0:0:0:
17,257,110838,1,0,1:0:0:0:
17,257,111015,1,2,0:0:0:0:
71,177,111193,2,0,P|74:147|70:117,1,60,0|2,1:0|0:0,0:0:0:0:
24,32,111548,1,0,1:0:0:0:
24,32,111725,1,0,1:0:0:0:
119,41,111903,6,0,P|150:37|188:32,1,60,6|0,0:0|0:0,0:0:0:0:
248,99,112258,1,0,1:0:0:0:
248,99,112435,2,0,P|238:146|245:177,1,60,2|0,0:0|3:0,0:0:0:0:
289,239,112790,1,2,0:0:0:0:
375,195,112968,2,0,P|404:194|433:203,1,60,0|0,1:0|3:0,0:0:0:0:
496,285,113323,5,2,0:0:0:0:
496,285,113500,2,0,P|492:313|486:354,1,60,0|0,0:0|1:0,0:0:0:0:
395,371,113855,2,0,P|390:337|386:311,1,60,0|2,3:0|0:0,0:0:0:0:
308,254,114210,1,2,0:0:0:0:
232,314,114388,2,0,P|189:318|162:311,1,60,0|0,1:0|0:0,0:0:0:0:
90,264,114743,5,2,0:0:0:0:
90,264,114920,1,0,0:0:0:0:
157,195,115098,2,0,P|154:164|151:126,1,60,0|0,1:0|0:0,0:0:0:0:
88,62,115453,1,2,0:0:0:0:
88,62,115631,1,2,0:0:0:0:
26,135,115808,2,0,P|23:164|20:194,1,60,0|0,1:0|0:0,0:0:0:0:
11,290,116163,5,2,0:0:0:0:
11,290,116341,2,0,P|44:299|90:295,1,60,2|0,0:0|1:0,0:0:0:0:
157,371,116696,2,0,P|127:371|98:380,1,60,2|0,0:0|3:0,0:0:0:0:
205,282,117051,1,2,0:0:0:0:
258,375,117228,1,0,1:0:0:0:
312,281,117406,1,0,0:0:0:0:
257,188,117583,6,0,P|197:196|126:208,2,120,2|0|2,0:0|1:0|0:0,0:0:0:0:
353,182,118471,1,2,0:0:0:0:
300,102,118648,2,0,P|266:93|228:96,1,60,0|0,1:0|0:0,0:0:0:0:
146,108,119003,5,2,0:0:0:0:
238,276,119358,2,0,P|248:307|246:342,1,60,0|0,1:0|0:0,0:0:0:0:
333,376,119713,2,0,P|354:351|386:336,1,60,2|0,0:0|0:0,0:0:0:0:
374,242,120068,2,0,P|342:235|312:215,1,60,0|0,1:0|3:0,0:0:0:0:
306,207,120335,1,0,3:0:0:0:
306,207,120423,6,0,P|378:198|457:191,1,134.999995880127,6|0,0:0|1:0,0:0:0:0:
502,104,120956,1,0,3:0:0:0:
414,40,121134,2,0,P|395:78|394:107,1,67.4999979400635,2|2,0:0|0:0,0:0:0:0:
286,119,121489,2,0,P|282:85|265:56,1,67.4999979400635,0|0,1:0|0:0,0:0:0:0:
161,137,121844,6,0,B|247:147|247:147|270:138|290:113,1,134.999995880127,6|0,0:0|1:0,0:0:0:0:
171,34,122376,2,0,P|137:38|104:42,1,67.4999979400635,2|0,0:0|3:0,0:0:0:0:
20,111,122731,1,0,1:0:0:0:
99,213,122909,1,0,1:0:0:0:
99,213,122997,1,0,1:0:0:0:
99,213,123086,1,0,1:0:0:0:
99,213,123175,1,0,1:0:0:0:
99,213,123264,6,0,B|70:303|70:303|91:325|103:358,2,150,6|0|2,0:0|1:0|0:0,0:0:0:0:
184,140,124151,1,2,0:0:0:0:
224,245,124329,1,0,1:0:0:0:
319,186,124506,6,0,B|376:191|376:191|407:211|407:211|479:221,1,150,6|2,0:0|0:0,0:0:0:0:
508,321,125039,2,0,P|470:323|433:330,1,75,0|0,1:0|0:0,0:0:0:0:
326,365,125394,1,2,0:0:0:0:
326,365,125571,1,2,0:0:0:0:
232,301,125749,2,0,P|227:237|222:181,1,112.5,0|0,1:0|0:0,0:0:0:0:
221,158,126104,6,0,P|181:165|134:156,1,75,6|0,0:0|0:0,0:0:0:0:
303,86,126459,2,0,P|340:81|376:88,1,75,0|0,1:0|0:0,0:0:0:0:
468,154,126814,1,2,0:0:0:0:
361,187,126991,1,2,0:0:0:0:
453,253,127169,1,0,1:0:0:0:
334,173,127347,6,0,B|240:194|240:194|186:165,1,150,6|2,0:0|0:0,0:0:0:0:
94,115,127879,2,0,P|80:159|83:193,1,75,0|0,1:0|0:0,0:0:0:0:
152,275,128234,1,2,0:0:0:0:
192,168,128412,1,2,0:0:0:0:
294,280,128589,1,0,1:0:0:0:
334,173,128767,1,2,0:0:0:0:
270,308,128944,6,0,P|274:345|279:382,1,75,6|0,0:0|0:0,0:0:0:0:
407,297,129299,2,0,P|327:279|255:325,1,150,0|2,1:0|0:0,0:0:0:0:
181,237,129832,2,0,P|184:198|192:155,1,75,2|0,0:0|1:0,0:0:0:0:
289,109,130187,2,0,P|295:145|298:183,2,75,2|0|2,0:0|3:0|0:0,0:0:0:0:
204,35,130719,6,0,P|165:39|120:62,1,75,0|0,1:0|0:0,0:0:0:0:
10,131,131074,1,2,0:0:0:0:
36,6,131252,1,2,0:0:0:0:
104,155,131429,2,0,P|100:193|94:245,1,75,0|0,1:0|0:0,0:0:0:0:
195,351,131784,6,0,P|241:329|318:331,1,123.75000377655,6|0,0:0|0:0,0:0:0:0:
344,339,132139,2,0,P|339:294|335:253,1,82.5000025177003,0|0,1:0|0:0,0:0:0:0:
321,116,132494,1,2,0:0:0:0:
238,230,132672,1,2,0:0:0:0:
403,181,132849,1,0,1:0:0:0:
234,138,133027,6,0,B|145:122|158:180|70:164,1,165.000005035401,6|0,0:0|0:0,0:0:0:0:
180,36,133560,2,0,P|221:33|268:27,1,82.5000025177003,0|0,1:0|0:0,0:0:0:0:
393,98,133915,1,2,0:0:0:0:
251,153,134092,1,4,1:2:0:0:
354,14,134270,1,4,1:2:0:0:
436,190,134447,1,0,3:0:0:0:
436,190,134536,1,0,3:0:0:0:
436,190,134625,6,0,B|447:231|447:231|430:282,1,82.5000025177003,6|0,0:0|0:0,0:0:0:0:
329,349,134980,1,0,1:0:0:0:
248,244,135157,2,0,P|290:238|333:234,1,82.5000025177003,2|0,0:0|3:0,0:0:0:0:
157,177,135512,1,2,0:0:0:0:
129,306,135690,1,0,1:0:0:0:
28,221,135867,6,0,P|10:144|56:57,1,165.000005035401,2|0,0:0|0:0,0:0:0:0:
174,91,136400,2,0,P|180:142|184:177,1,82.5000025177003,0|0,1:0|0:0,0:0:0:0:
266,275,136755,1,2,0:0:0:0:
340,166,136932,2,0,B|400:159|400:159|433:132|433:132|494:125,1,165.000005035401,2|0,0:0|0:0,0:0:0:0:
343,59,137465,6,0,P|301:60|260:51,1,82.5000025177003,2|0,0:0|0:0,0:0:0:0:
135,11,137820,1,0,1:0:0:0:
72,126,137997,2,0,P|77:167|82:213,1,82.5000025177003,2|0,0:0|0:0,0:0:0:0:
158,315,138352,1,2,0:0:0:0:
210,193,138530,1,0,1:0:0:0:
158,315,138707,6,0,P|223:352|312:330,1,165.000005035401,2|0,0:0|0:0,0:0:0:0:
398,237,139240,2,0,P|437:241|490:247,1,82.5000025177003,0|0,1:0|0:0,0:0:0:0:
308,163,139595,2,0,P|267:167|225:171,1,82.5000025177003,2|2,0:0|0:0,0:0:0:0:
386,69,139950,1,0,1:0:0:0:
324,186,140128,1,2,0:0:0:0:
238,64,140305,6,0,P|185:71|150:94,1,82.5000025177003,6|0,0:0|0:0,0:0:0:0:
63,175,140660,1,0,1:0:0:0:
156,269,140838,2,0,P|152:313|147:361,1,82.5000025177003,2|0,0:0|0:0,0:0:0:0:
60,201,141193,1,2,0:0:0:0:
188,170,141370,1,0,1:0:0:0:
275,269,141548,6,0,P|341:284|429:238,1,165.000005035401,2|0,0:0|0:0,0:0:0:0:
359,128,142080,2,0,P|317:123|267:119,1,82.5000025177003,0|0,1:0|0:0,0:0:0:0:
144,109,142435,1,2,0:0:0:0:
78,224,142613,2,0,B|91:290|91:290|115:311|115:311|130:381,1,165.000005035401,2|0,0:0|0:0,0:0:0:0:
275,269,143145,6,0,P|234:256|181:264,1,82.5000025177003,2|0,0:0|0:0,0:0:0:0:
317,382,143500,1,0,1:0:0:0:
420,299,143678,2,0,P|417:257|413:210,1,82.5000025177003,2|0,0:0|3:0,0:0:0:0:
337,108,144033,1,2,0:0:0:0:
283,246,144210,1,0,1:0:0:0:
214,132,144388,1,0,3:0:0:0:
113,216,144565,6,0,P|101:255|107:295,1,82.5000025177003,2|0,0:0|0:0,0:0:0:0:
234,121,144920,2,0,P|240:80|228:41,1,82.5000025177003,0|0,1:0|0:0,0:0:0:0:
62,117,145276,1,2,0:0:0:0:
202,216,145453,1,0,3:0:0:0:
339,110,145631,1,0,1:2:0:0:
339,110,145719,1,0,3:0:0:0:
339,110,145808,2,0,L|345:55,1,41.2500012588501,0|0,3:0|0:0,0:0:0:0:
427,131,145986,6,0,P|432:174|436:218,1,82.5000025177003,6|0,0:0|0:0,0:0:0:0:
377,331,146341,1,0,1:0:0:0:
280,241,146518,2,0,P|239:236|188:251,1,82.5000025177003,2|0,0:0|3:0,0:0:0:0:
82,307,146873,1,2,0:0:0:0:
208,347,147051,1,0,1:0:0:0:
103,209,147228,6,0,P|108:128|113:41,1,165.000005035401,2|0,0:0|0:0,0:0:0:0:
238,1,147761,2,0,P|254:41|254:81,1,82.5000025177003,0|0,1:0|0:0,0:0:0:0:
214,206,148116,1,2,0:0:0:0:
334,258,148293,2,0,B|393:245|393:245|425:215|425:215|507:200,1,165.000005035401,2|0,0:0|0:0,0:0:0:0:
338,357,148826,6,0,P|297:352|241:348,1,82.5000025177003,2|0,0:0|0:0,0:0:0:0:
130,306,149181,1,0,1:0:0:0:
214,206,149358,2,0,P|219:165|205:122,1,82.5000025177003,2|0,0:0|0:0,0:0:0:0:
105,41,149713,1,2,0:0:0:0:
116,172,149891,1,0,1:0:0:0:
204,23,150068,6,0,P|287:31|375:38,1,165.000005035401,2|0,0:0|0:0,0:0:0:0:
453,138,150601,2,0,P|467:181|461:232,1,82.5000025177003,0|0,1:0|0:0,0:0:0:0:
345,273,150956,2,0,P|331:230|337:179,1,82.5000025177003,2|2,0:0|0:0,0:0:0:0:
365,64,151311,1,0,1:0:0:0:
246,121,151489,1,2,0:0:0:0:
176,9,151666,6,0,P|132:15|85:22,1,82.5000025177003,6|0,0:0|0:0,0:0:0:0:
10,122,152021,1,0,1:0:0:0:
120,194,152199,2,0,P|137:152|136:100,1,82.5000025177003,2|0,0:0|0:0,0:0:0:0:
11,221,152554,1,2,0:0:0:0:
110,307,152731,1,0,1:0:0:0:
222,237,152909,6,0,P|284:227|380:272,1,165.000005035401,2|0,0:0|0:0,0:0:0:0:
473,179,153441,2,0,P|468:139|462:88,1,82.5000025177003,0|0,1:0|0:0,0:0:0:0:
367,5,153796,1,2,0:0:0:0:
248,65,153974,2,0,B|185:54|185:54|153:28|153:28|75:17,1,165.000005035401,2|0,0:0|0:0,0:0:0:0:
7,160,154506,6,0,P|56:151|96:146,1,82.5000025177003,6|0,0:0|0:0,0:0:0:0:
213,188,154861,1,0,1:0:0:0:
126,288,155039,2,0,P|116:329|130:382,1,82.5000025177003,2|0,0:0|0:0,0:0:0:0:
249,329,155394,1,2,0:0:0:0:
193,209,155571,1,0,1:0:0:0:
324,221,155749,1,6,0:0:0:0:
288,94,155926,6,0,P|294:49|299:6,1,82.5000025177003,2|0,0:0|0:0,0:0:0:0:
433,107,156281,2,0,P|439:152|444:195,1,82.5000025177003,0|0,1:0|0:0,0:0:0:0:
389,327,156636,1,2,0:0:0:0:
320,194,156814,1,2,0:0:0:0:
266,358,156991,1,0,1:0:0:0:
189,192,157169,1,2,0:0:0:0:
189,192,157258,1,2,0:0:0:0:
189,192,157347,1,6,0:0:0:0:
189,192,158767,5,2,3:0:0:0:
202,276,158944,1,2,3:0:0:0:
269,222,159122,1,2,3:0:0:0:
189,192,159300,5,2,3:0:0:0:
122,246,159477,1,2,3:0:0:0:
109,162,159655,1,2,3:0:0:0:
42,216,159832,5,2,3:0:0:0:
39,231,159920,1,2,3:0:0:0:
37,247,160009,1,0,3:0:0:0:
35,262,160098,1,2,3:0:0:0:
33,278,160187,5,2,0:0:0:0:
127,179,171548,6,0,P|189:171|248:164,1,120,6|0,0:0|3:0,0:0:0:0:
323,219,172080,1,0,3:0:0:0:
323,219,172258,2,0,P|318:253|325:282,1,60,0|0,1:0|0:0,0:0:0:0:
382,346,172613,1,0,3:0:0:0:
445,281,172790,6,0,P|439:218|433:159,1,120,2|2,0:0|0:0,0:0:0:0:
366,100,173323,2,0,P|330:103|294:93,1,60,2|0,0:0|0:0,0:0:0:0:
219,74,173678,2,0,P|221:42|226:7,1,60,0|0,1:0|0:0,0:0:0:0:
128,96,174033,2,0,P|131:125|133:155,1,60,2|0,0:0|0:0,0:0:0:0:
155,243,174388,6,0,P|194:248|228:239,1,60,2|0,0:0|3:0,0:0:0:0:
296,208,174743,1,0,3:0:0:0:
296,208,174920,1,0,0:0:0:0:
373,254,175098,2,0,P|366:315|359:375,1,120,0|0,1:0|0:0,0:0:0:0:
268,372,175631,6,0,P|219:364|192:366,1,60,2|0,0:0|0:0,0:0:0:0:
164,285,175986,1,0,1:0:0:0:
164,285,176163,2,0,P|213:277|240:279,1,60,0|2,1:0|0:0,0:0:0:0:
290,216,176518,1,0,1:0:0:0:
290,216,176696,1,0,0:0:0:0:
220,159,176873,2,0,P|224:125|229:87,1,60,2|0,0:0|3:0,0:0:0:0:
233,70,177139,1,0,3:0:0:0:
233,70,177228,6,0,P|282:89|348:76,1,120,6|2,0:0|0:0,0:0:0:0:
419,23,177761,1,0,3:0:0:0:
489,78,177938,2,0,P|472:142|466:205,1,120,0|2,1:0|0:0,0:0:0:0:
389,242,178471,6,0,P|354:238|322:245,1,60,2|0,0:0|0:0,0:0:0:0:
301,328,178826,1,2,0:0:0:0:
301,328,179003,2,0,P|330:332|360:328,1,60,2|0,0:0|0:0,0:0:0:0:
235,268,179358,2,0,P|217:301|213:335,1,60,0|0,1:0|3:0,0:0:0:0:
141,378,179713,1,2,0:0:0:0:
77,313,179891,1,0,3:0:0:0:
130,233,180068,6,0,P|123:159|116:76,2,150,6|0|2,0:0|1:0|0:0,0:0:0:0:
213,322,180956,1,2,0:0:0:0:
261,211,181134,1,0,1:0:0:0:
339,301,181311,6,0,P|383:314|490:258,1,150,2|2,0:0|0:0,0:0:0:0:
509,161,181844,1,0,1:0:0:0:
398,114,182021,2,0,P|393:152|389:196,1,75,2|0,0:0|0:0,0:0:0:0:
319,286,182376,1,2,0:0:0:0:
248,188,182554,1,0,1:0:0:0:
182,287,182731,1,0,3:0:0:0:
182,287,182820,1,0,3:0:0:0:
182,287,182909,6,0,B|94:304|94:304|70:292|56:256,2,150,6|0|2,0:0|1:0|0:0,0:0:0:0:
248,188,183796,1,0,3:0:0:0:
147,122,183974,2,0,P|129:167|129:198,1,75,0|2,1:0|0:0,0:0:0:0:
194,311,184329,5,0,1:0:0:0:
248,188,184506,1,2,0:0:0:0:
308,349,184684,1,0,1:0:0:0:
362,226,184861,1,2,0:0:0:0:
191,284,185039,5,4,1:2:0:0:
327,328,185216,1,2,0:0:0:0:
254,162,185394,1,4,1:2:0:0:
92,240,185571,1,0,1:0:0:0:
92,240,185660,1,0,1:0:0:0:
92,240,185749,6,0,B|72:185|72:185|90:128,1,112.500004291535,6|0,0:0|0:0,0:0:0:0:
248,188,186104,1,0,1:0:0:0:
181,284,186281,2,0,P|90:274|2:264,1,179.999994506836,2|2,0:0|0:0,0:0:0:0:
98,111,186814,1,0,1:0:0:0:
219,188,186991,6,0,P|304:195|377:115,1,179.999994506836,2|2,0:0|0:0,0:0:0:0:
486,219,187524,2,0,P|481:262|474:319,1,89.9999972534181,0|0,1:0|0:0,0:0:0:0:
343,366,187879,1,2,0:0:0:0:
314,222,188057,1,2,0:0:0:0:
191,296,188234,2,0,P|137:308|93:299,1,89.9999972534181,0|0,1:0|0:0,0:0:0:0:
1,199,188589,6,0,P|63:188|136:177,1,134.999995880127,2|0,0:0|0:0,0:0:0:0:
134,177,188944,1,0,1:0:0:0:
185,42,189122,2,0,P|139:33|89:45,1,89.9999972534181,2|0,0:0|0:0,0:0:0:0:
246,142,189477,2,0,P|289:150|333:141,1,89.9999972534181,2|0,0:0|1:0,0:0:0:0:
474,107,189832,6,0,P|478:154|485:208,1,89.9999972534181,2|0,0:0|0:0,0:0:0:0:
387,304,190187,1,2,0:0:0:0:
353,163,190364,1,0,1:0:0:0:
478,228,190542,1,0,3:0:0:0:
291,254,190719,5,6,1:2:0:0:
358,134,190897,1,0,3:0:0:0:
192,202,191074,1,6,1:2:0:0:
259,82,191252,1,2,0:0:0:0:
316,251,191429,6,0,B|328:296|328:296|310:356,1,89.9999972534181,6|0,0:0|0:0,0:0:0:0:
174,367,191784,2,0,P|143:296|166:199,1,179.999994506836,0|2,1:0|0:0,0:0:0:0:
259,82,192317,1,2,0:0:0:0:
326,228,192494,1,0,1:0:0:0:
166,109,192672,6,0,B|58:87|58:87|17:102|5:158,1,179.999994506836,6|2,0:0|0:0,0:0:0:0:
33,280,193205,1,0,1:0:0:0:
173,207,193382,1,0,3:0:0:0:
173,207,193471,1,0,3:0:0:0:
173,207,193560,2,0,P|214:202|276:194,1,89.9999972534181,2|2,0:0|0:0,0:0:0:0:
405,178,193915,1,0,1:0:0:0:
292,88,194092,1,2,0:0:0:0:
341,261,194270,6,0,P|405:283|483:249,1,134.999995880127,6|0,0:0|0:0,0:0:0:0:
492,237,194625,2,0,P|495:190|501:144,1,89.9999972534181,2|2,1:2|0:0,0:0:0:0:
400,19,194980,1,2,0:0:0:0:
376,178,195157,1,2,0:0:0:0:
511,45,195335,1,0,1:0:0:0:
329,96,195512,6,0,B|224:122|224:122|187:108|189:61,1,179.999994506836,6|2,0:0|0:0,0:0:0:0:
35,10,196045,2,0,P|40:53|48:122,1,89.9999972534181,4|2,1:2|0:0,0:0:0:0:
122,242,196400,5,4,1:2:0:0:
162,85,196577,1,2,0:0:0:0:
270,228,196755,1,4,1:2:0:0:
310,71,196932,1,2,0:0:0:0:
261,256,197110,6,0,B|283:308|283:308|255:368,1,112.500004291535,6|0,0:0|0:0,0:0:0:0:
128,221,197465,1,0,1:0:0:0:
245,138,197642,2,0,B|350:126|318:191|431:171,1,179.999994506836,2|2,0:0|0:0,0:0:0:0:
286,30,198175,1,0,1:0:0:0:
142,41,198352,6,0,P|133:133|127:239,1,179.999994506836,2|2,0:0|0:0,0:0:0:0:
191,350,198885,2,0,P|232:360|287:343,1,89.9999972534181,0|0,1:0|0:0,0:0:0:0:
378,244,199240,1,2,0:0:0:0:
233,246,199418,1,2,0:0:0:0:
377,336,199595,2,0,P|419:331|487:323,1,89.9999972534181,0|0,1:0|0:0,0:0:0:0:
512,186,199950,6,0,P|453:150|374:155,1,134.999995880127,2|0,0:0|0:0,0:0:0:0:
388,150,200305,1,2,1:2:0:0:
249,107,200483,2,0,P|253:64|261:4,1,89.9999972534181,2|0,0:0|3:0,0:0:0:0:
114,121,200838,2,0,P|119:165|123:210,1,89.9999972534181,2|0,0:0|1:0,0:0:0:0:
143,353,201193,6,0,P|189:366|249:350,1,89.9999972534181,2|0,0:0|0:0,0:0:0:0:
358,292,201548,1,2,0:0:0:0:
194,251,201725,1,0,1:0:0:0:
306,172,201903,1,2,0:0:0:0:
255,344,202080,5,4,1:2:0:0:
179,231,202258,1,2,0:0:0:0:
122,372,202435,1,4,1:2:0:0:
46,259,202613,1,2,0:0:0:0:
188,204,202790,6,0,B|230:220|230:220|295:200,1,89.9999972534181,6|0,0:0|0:0,0:0:0:0:
371,101,203145,2,0,P|298:56|192:82,1,179.999994506836,0|2,1:0|0:0,0:0:0:0:
87,149,203678,1,2,0:0:0:0:
111,7,203855,1,0,1:0:0:0:
202,183,204033,6,0,B|269:193|269:193|306:224|306:224|382:236,1,179.999994506836,6|2,0:0|0:0,0:0:0:0:
483,321,204565,2,0,P|434:337|386:339,1,89.9999972534181,0|0,1:0|0:0,0:0:0:0:
252,319,204920,1,2,0:0:0:0:
369,233,205098,1,2,0:0:0:0:
314,384,205276,1,0,1:0:0:0:
261,193,205453,1,2,0:0:0:0:
134,346,205631,6,0,B|94:377|41:377|4:342|4:342|35:338|64:316,2,179.999994506836,6|0|2,0:0|1:0|0:0,0:0:0:0:
245,217,206518,1,2,0:0:0:0:
78,175,206696,2,0,P|86:132|95:73,1,89.9999972534181,0|2,1:0|0:0,0:0:0:0:
252,22,207051,5,2,1:2:0:0:
257,192,207228,1,2,0:0:0:0:
377,23,207406,1,0,1:0:0:0:
382,193,207583,1,2,0:0:0:0:
193,106,207761,5,6,1:2:0:0:
322,266,207938,1,2,0:2:0:0:
444,101,208116,1,6,1:2:0:0:
257,192,208293,1,2,0:2:0:0:
473,255,208471,6,0,B|493:308|493:308|466:373,1,112.500004291535,6|0,1:2|0:0,0:0:0:0:
297,284,208826,1,0,1:0:0:0:
381,168,209003,1,2,0:0:0:0:
297,284,209181,2,0,B|193:269|229:342|106:322,1,179.999994506836,2|0,0:0|1:0,0:0:0:0:
15,235,209713,1,2,0:0:0:0:
122,139,209891,6,0,P|134:182|141:226,1,89.9999972534181,2|0,0:0|0:0,0:0:0:0:
246,102,210246,2,0,P|252:57|265:14,1,89.9999972534181,0|0,1:0|0:0,0:0:0:0:
384,96,210601,1,2,0:0:0:0:
245,134,210778,1,2,0:0:0:0:
366,211,210956,2,0,P|412:199|471:193,1,89.9999972534181,0|0,1:0|0:0,0:0:0:0:
504,329,211311,6,0,P|437:319|358:310,1,134.999995880127,2|0,0:0|0:0,0:0:0:0:
370,311,211666,1,2,1:2:0:0:
238,251,211844,2,0,P|232:207|244:163,1,89.9999972534181,2|0,0:0|0:0,0:0:0:0:
116,231,212199,2,0,P|127:274|121:318,1,89.9999972534181,2|0,0:0|1:0,0:0:0:0:
2,159,212554,6,0,P|45:152|96:147,1,89.9999972534181,2|0,0:0|0:0,0:0:0:0:
235,144,212909,1,2,0:0:0:0:
138,37,213086,2,0,P|91:26|42:38,1,89.9999972534181,0|2,1:0|0:0,0:0:0:0:
211,164,213441,5,6,1:2:0:0:
255,26,213619,1,2,0:0:0:0:
342,182,213796,1,4,1:2:0:0:
386,44,213974,1,2,0:0:0:0:
236,185,214151,6,0,B|219:228|219:228|238:291,1,89.9999972534181,6|0,0:0|0:0,0:0:0:0:
383,313,214506,2,0,P|317:256|227:272,1,179.999994506836,0|2,1:0|0:0,0:0:0:0:
107,345,215039,1,2,0:0:0:0:
289,356,215216,1,0,1:0:0:0:
139,256,215394,6,0,B|127:192|127:192|151:146|151:146|137:73,1,179.999994506836,6|2,0:0|0:0,0:0:0:0:
268,22,215926,2,0,P|263:71|260:123,1,89.9999972534181,0|0,1:0|3:0,0:0:0:0:
337,233,216281,1,2,0:0:0:0:
395,101,216459,1,2,0:0:0:0:
453,270,216636,1,0,1:0:0:0:
511,138,216814,1,2,0:0:0:0:
336,209,216991,6,0,P|270:228|195:199,1,134.999995880127,6|0,0:0|0:0,0:0:0:0:
179,186,217347,2,0,P|133:192|75:199,1,89.9999972534181,2|2,1:2|0:2,0:0:0:0:
247,91,217702,1,2,0:0:0:0:
270,259,217879,1,2,0:0:0:0:
396,129,218057,1,2,1:2:0:0:
224,70,218234,6,0,B|111:51|111:51|74:60|56:100,1,179.999994506836,6|2,0:0|0:0,0:0:0:0:
3,259,218767,2,0,P|9:304|15:349,1,89.9999972534181,4|2,1:2|0:0,0:0:0:0:
186,217,219122,5,6,1:2:0:0:
21,171,219299,1,2,0:0:0:0:
129,347,219477,1,6,1:2:0:0:
197,190,219654,1,2,0:2:0:0:
372,268,219832,6,0,B|391:328|391:328|369:375,1,112.500004291535,6|0,1:2|0:0,0:0:0:0:
221,179,220187,1,0,1:0:0:0:
359,139,220364,1,2,0:0:0:0:
264,271,220542,2,0,P|197:313|81:275,1,179.999994506836,2|0,0:0|1:0,0:0:0:0:
6,187,221074,1,2,0:0:0:0:
115,93,221252,6,0,P|122:136|129:195,1,89.9999972534181,2|0,0:0|0:0,0:0:0:0:
273,91,221607,2,0,P|278:46|285:1,1,89.9999972534181,0|0,1:0|0:0,0:0:0:0:
388,139,221962,1,2,0:0:0:0:
244,190,222139,1,2,0:0:0:0:
370,260,222317,2,0,P|414:260|463:247,1,89.9999972534181,0|0,1:0|0:0,0:0:0:0:
293,359,222672,6,0,P|223:334|154:330,1,134.999995880127,2|0,0:0|0:0,0:0:0:0:
162,329,223027,1,2,1:2:0:0:
33,265,223205,2,0,P|25:220|37:166,1,89.9999972534181,2|0,0:0|0:0,0:0:0:0:
153,98,223560,2,0,P|160:142|152:186,1,89.9999972534181,2|0,0:0|1:0,0:0:0:0:
11,34,223915,6,0,P|50:30|108:25,1,89.9999972534181,2|0,0:0|0:0,0:0:0:0:
240,59,224270,1,2,0:0:0:0:
152,186,224447,2,0,P|147:235|165:293,1,89.9999972534181,0|2,1:0|0:0,0:0:0:0:
304,376,224802,5,4,1:2:0:0:
283,224,224980,1,2,0:0:0:0:
429,356,225157,1,4,1:2:0:0:
408,204,225335,1,2,0:0:0:0:
284,357,225512,6,0,B|241:371|241:371|189:360,1,89.9999972534181,6|0,0:0|0:0,0:0:0:0:
112,244,225867,2,0,P|169:200|278:206,1,179.999994506836,0|2,1:0|0:0,0:0:0:0:
383,110,226400,1,2,0:0:0:0:
250,54,226577,1,0,1:0:0:0:
379,204,226755,6,0,B|370:251|358:298|358:298|384:326|399:380,1,179.999994506836,6|2,0:0|0:0,0:0:0:0:
241,281,227287,2,0,P|236:237|231:185,1,89.9999972534181,0|0,1:0|3:0,0:0:0:0:
155,69,227642,1,2,0:0:0:0:
115,208,227820,1,2,0:0:0:0:
40,54,227997,1,0,1:0:0:0:
0,193,228175,1,2,0:0:0:0:
169,46,228352,6,0,B|279:29|279:29|317:42|341:80,2,179.999994506836,6|0|2,0:0|1:0|0:0,0:0:0:0:
91,198,229240,1,2,0:0:0:0:
251,139,229418,1,0,1:0:0:0:
191,298,229595,6,0,P|101:308|12:319,1,179.999994506836,6|0,0:0|0:0,0:0:0:0:
163,139,230128,1,0,1:0:0:0:
301,252,230305,2,0,P|311:304|301:347,1,89.9999972534181,2|0,0:0|0:0,0:0:0:0:
171,168,230660,1,2,0:0:0:0:
327,98,230838,2,0,P|374:104|435:112,1,89.9999972534181,0|0,1:0|0:0,0:0:0:0:
508,237,231193,6,0,P|449:255|405:342,1,150,6|0,0:0|1:0,0:0:0:0:
281,355,231725,1,0,3:0:0:0:
293,227,231903,1,2,0:0:0:0:
183,292,232080,1,2,0:0:0:0:
293,227,232258,2,0,P|288:186|282:135,1,75,0|0,1:0|0:0,0:0:0:0:
183,74,232613,6,0,P|145:67|104:77,1,75,2|0,0:0|0:0,0:0:0:0:
169,187,232968,1,0,1:0:0:0:
281,127,233145,1,2,0:0:0:0:
183,292,233323,5,4,1:2:0:0:
51,158,233500,1,0,1:0:0:0:
183,292,233678,1,4,1:2:0:0:
51,158,233855,1,0,1:0:0:0:
284,152,234033,6,0,B|329:168|329:168|387:147,1,97.4999955368044,6|0,1:2|0:0,0:0:0:0:
482,245,234388,1,0,1:0:0:0:
371,300,234565,2,0,P|290:287|194:276,1,165.000005035401,2|2,0:0|0:0,0:0:0:0:
84,266,235098,1,0,1:0:0:0:
109,146,235276,6,0,P|162:120|265:147,1,165.000005035401,2|2,0:0|0:0,0:0:0:0:
380,174,235808,2,0,P|419:168|464:161,1,82.5000025177003,0|0,1:0|0:0,0:0:0:0:
500,279,236163,1,2,0:0:0:0:
406,360,236341,1,2,0:0:0:0:
313,277,236518,1,0,1:0:0:0:
380,174,236696,1,2,0:0:0:0:
293,300,236873,6,0,P|246:295|195:289,1,82.5000025177003,6|0,0:0|0:0,0:0:0:0:
54,272,237228,1,0,1:0:0:0:
89,153,237406,2,0,B|175:137|161:197|251:178,1,165.000005035401,2|2,0:0|0:0,0:0:0:0:
367,148,237938,1,0,1:0:0:0:
321,32,238116,6,0,P|401:16|487:44,1,165.000005035401,2|0,0:0|0:0,0:0:0:0:
460,162,238648,2,0,P|420:174|379:179,1,82.5000025177003,0|0,1:0|0:0,0:0:0:0:
247,178,239003,1,2,0:0:0:0:
292,293,239181,1,2,0:0:0:0:
143,223,239358,1,0,1:0:0:0:
188,338,239536,1,0,3:0:0:0:
271,168,239713,6,0,P|267:126|261:73,1,82.5000025177003,6|0,0:0|0:0,0:0:0:0:
160,246,240068,1,0,1:0:0:0:
285,268,240246,2,0,P|364:255|454:240,1,165.000005035401,2|2,0:0|0:0,0:0:0:0:
512,136,240778,1,0,1:0:0:0:
413,59,240956,6,0,P|343:99|263:87,1,165.000005035401,2|2,0:0|0:0,0:0:0:0:
149,38,241489,2,0,P|105:44|58:50,1,82.5000025177003,0|0,1:0|0:0,0:0:0:0:
12,160,241844,1,2,0:0:0:0:
101,244,242021,1,2,0:0:0:0:
158,133,242199,1,0,1:0:0:0:
67,48,242376,1,2,0:0:0:0:
177,160,242554,6,0,P|217:154|261:149,1,82.5000025177003,6|0,0:0|0:0,0:0:0:0:
414,128,242909,1,0,1:0:0:0:
364,240,243086,2,0,P|307:280|203:269,1,165.000005035401,2|2,0:0|0:0,0:0:0:0:
105,217,243619,1,0,1:0:0:0:
132,337,243796,1,2,0:0:0:0:
207,180,243974,6,0,P|203:138|198:91,1,82.5000025177003,2|2,3:0|3:0,0:0:0:0:
337,24,244329,2,0,P|332:65|328:106,1,82.5000025177003,2|2,1:3|3:0,0:0:0:0:
388,251,244684,1,2,3:0:0:0:
441,121,244861,1,2,3:0:0:0:
292,184,245039,1,2,1:3:0:0:
412,270,245216,1,2,3:0:0:0:
283,330,245394,6,0,P|234:310|167:314,1,104.999996795654,6|2,0:0|0:0,0:0:0:0:
97,337,245926,2,0,P|93:308|90:280,1,52.4999983978272,2|0,0:0|0:0,0:0:0:0:
28,220,246281,2,0,P|30:189|35:163,1,52.4999983978272,2|0,0:0|0:0,0:0:0:0:
111,122,246636,2,0,P|157:146|227:129,1,104.999996795654,2|0,0:0|0:0,0:0:0:0:
174,53,247169,5,2,0:0:0:0:
256,192,247258,12,0,253205,0:0:0:0:
