osu file format v14

[General]
AudioFilename: 12. Going back to square one.mp3
AudioLeadIn: 0
PreviewTime: 42755
Countdown: 1
SampleSet: Normal
StackLeniency: 0.7
Mode: 0
LetterboxInBreaks: 1
WidescreenStoryboard: 1

[Editor]
DistanceSpacing: 1.4
BeatDivisor: 4
GridSize: 4
TimelineZoom: 2.999999

[Metadata]
Title:Going back to square one
TitleUnicode:Going back to square one
Artist:Kawada Mami
ArtistUnicode:Kawada Mami
Creator:cRyo[iceeicee]
Version:Insane
Source:
Tags:
BeatmapID:841064
BeatmapSetID:384975

[Difficulty]
HPDrainRate:7
CircleSize:4.2
OverallDifficulty:8
ApproachRate:9.5
SliderMultiplier:1.8
SliderTickRate:1

[Events]
//Background and Video events
0,0,"bg.jpg",0,0
//Break Periods
//Storyboard Layer 0 (Background)
//Storyboard Layer 1 (Fail)
//Storyboard Layer 2 (Pass)
//Storyboard Layer 3 (Foreground)
//Storyboard Sound Samples

[TimingPoints]
180,303.030303030303,4,2,1,50,1,0
180,-200,4,1,1,50,0,0
1051,-200,4,2,1,5,0,0
1089,606.060606060606,4,2,1,50,1,0
1089,-200,4,1,1,70,0,0
4043,-200,4,2,1,5,0,0
4119,303.030303030303,4,2,1,50,1,0
4119,-83.3333333333333,4,1,1,70,0,0
12603,-83.3333333333333,4,1,2,70,0,0
14119,-83.3333333333333,4,3,1,70,0,0
15785,-66.6666666666667,4,1,3,70,0,0
16694,-83.3333333333333,4,3,1,70,0,0
18209,-71.4285714285714,4,1,3,70,0,0
19119,-83.3333333333333,4,3,1,70,0,0
20634,-66.6666666666667,4,1,1,70,0,0
21391,-66.6666666666667,4,1,2,70,0,0
21997,-66.6666666666667,4,1,2,70,0,0
22225,-66.6666666666667,4,1,3,70,0,0
22376,-66.6666666666667,4,1,1,70,0,0
23512,-100,4,1,3,70,0,0
23588,-100,4,3,1,70,0,0
25482,-66.6666666666667,4,1,1,70,0,0
26467,-83.3333333333333,4,3,1,70,0,0
27906,-83.3333333333333,4,3,3,70,0,0
28361,-66.6666666666667,4,1,1,70,0,0
29118,-83.3333333333333,4,3,1,70,0,0
30331,-66.6666666666667,4,1,1,70,0,0
30937,-66.6666666666667,4,1,1,70,0,0
32452,-83.3333333333333,4,3,1,70,0,0
33285,-83.3333333333333,4,1,1,70,0,0
42452,-83.3333333333333,4,1,1,90,0,0
42528,-83.3333333333333,4,1,1,100,0,0
42907,-200,4,1,2,70,0,1
47149,-200,4,1,1,70,0,1
47528,-200,4,1,2,70,0,1
49270,-200,4,1,1,70,0,1
50179,-200,4,1,2,70,0,1
51846,-200,4,1,2,70,0,0
52603,-200,4,1,2,70,0,1
56846,-200,4,1,1,70,0,1
57149,-200,4,1,2,70,0,1
62300,-200,4,1,2,70,0,0
63512,-83.3333333333333,4,1,1,70,0,0
63967,-100,4,3,1,70,0,0
65482,-66.6666666666667,4,1,1,70,0,0
66391,-66.6666666666667,4,3,1,70,0,0
67906,-66.6666666666667,4,1,1,70,0,0
68815,-66.6666666666667,4,3,1,70,0,0
70331,-66.6666666666667,4,1,1,70,0,0
73209,-66.6666666666667,4,1,3,70,0,0
73361,-100,4,3,1,70,0,0
75179,-66.6666666666667,4,1,1,70,0,0
76012,-66.6666666666667,4,3,1,70,0,0
77149,-83.3333333333333,4,3,1,70,0,0
78058,-66.6666666666667,4,1,1,70,0,0
78967,-90.9090909090909,4,3,1,70,0,0
79725,-76.9230769230769,4,3,1,70,0,0
80028,-66.6666666666667,4,1,1,70,0,0
82906,-83.3333333333333,4,1,1,60,0,0
82982,-83.3333333333333,4,1,1,70,0,0
92149,-83.3333333333333,4,1,1,90,0,0
92300,-83.3333333333333,4,1,1,90,0,0
92603,-200,4,1,1,70,0,1
101543,-200,4,1,1,70,0,0
102300,-200,4,1,1,70,0,1
111997,-133.333333333333,4,1,1,70,0,0
130331,-83.3333333333333,4,1,1,70,0,0
130785,-83.3333333333333,4,1,1,70,0,0
133815,-66.6666666666667,4,1,1,70,0,0
135482,-100,4,3,1,70,0,0
137452,-200,4,3,3,70,0,0
137528,-100,4,3,1,70,0,0
139876,-200,4,3,3,70,0,0
139976,-100,4,3,1,70,0,0
141846,-76.9230769230769,4,3,1,70,0,0
142300,-66.6666666666667,4,1,1,70,0,0
143967,-100,4,1,1,70,0,0
144725,-83.3333333333333,4,1,1,70,0,0
153967,-83.3333333333333,4,1,1,90,0,0
154119,-83.3333333333333,4,1,1,100,0,0
154422,-83.3333333333333,4,1,1,70,0,1
155028,-166.666666666667,4,1,1,70,0,1
156846,-83.3333333333333,4,1,1,70,0,1
157452,-166.666666666667,4,1,1,70,0,1
159270,-83.3333333333333,4,1,1,70,0,1
159876,-166.666666666667,4,1,1,70,0,1
163361,-166.666666666667,4,1,1,70,0,0
163664,-166.666666666667,4,1,1,100,0,0
164119,-83.3333333333333,4,1,1,70,0,1
164725,-166.666666666667,4,1,1,70,0,1
166543,-83.3333333333333,4,1,1,70,0,1
167149,-166.666666666667,4,1,1,70,0,1
167452,-83.3333333333333,4,1,1,70,0,1
167552,-166.666666666667,4,1,1,70,0,1
168967,-83.3333333333333,4,1,1,70,0,1
169573,-166.666666666667,4,1,1,70,0,1
172452,-100,4,1,1,70,0,1
173209,-100,4,1,1,70,0,0
173815,-62.5,4,1,1,70,0,1
174422,-200,4,1,1,70,0,1
174725,-62.5,4,1,1,70,0,1
174876,-200,4,1,1,70,0,1
175179,-62.5,4,1,1,70,0,1
175279,-200,4,1,1,70,0,1
175558,-200,4,1,1,70,0,1
175634,-100,4,1,1,70,0,1
176240,-62.5,4,1,1,70,0,1
176846,-200,4,1,1,70,0,1
176946,-200,4,1,1,70,0,1
177149,-62.5,4,1,1,70,0,1
177249,-200,4,1,1,70,0,1
177300,-200,4,1,1,70,0,1
177603,-62.5,4,1,1,70,0,1
177703,-200,4,1,1,70,0,1
178361,-83.3333333333333,4,1,1,70,0,1
178461,-200,4,1,1,70,0,1
179270,-133.333333333333,4,1,1,70,0,1
181088,-62.5,4,1,1,70,0,1
181694,-133.333333333333,4,1,1,70,0,1
182755,-133.333333333333,4,1,1,70,0,0
183512,-62.5,4,1,1,70,0,1
184118,-200,4,1,1,70,0,1
184218,-62.5,4,1,1,70,0,1
184573,-200,4,1,1,70,0,1
184673,-62.5,4,1,1,70,0,1
185028,-200,4,1,1,70,0,1
185128,-62.5,4,1,1,70,0,1
185482,-133.333333333333,4,1,1,70,0,1
185937,-62.5,4,1,1,70,0,1
186543,-200,4,1,1,70,0,1
186643,-62.5,4,1,1,70,0,1
187755,-200,4,1,1,70,0,1
187855,-62.5,4,1,1,70,0,1
188361,-62.5,4,1,1,70,0,1
188967,-133.333333333333,4,1,1,70,0,1
191997,-90.9090909090909,4,1,2,70,0,1
192603,-100,4,1,2,70,0,1
193209,-200,4,2,2,30,0,0
197452,-200,4,2,2,60,0,0
197755,-200,4,1,1,100,0,0
198058,-62.5,4,1,1,70,0,1
198664,-133.333333333333,4,1,1,70,0,1
200482,-62.5,4,1,1,70,0,1
201088,-100,4,1,1,70,0,1
202906,-100,4,1,2,70,0,0
202906,-100,4,1,1,70,0,0
221240,-100,4,1,2,70,0,0

[Colours]
Combo1 : 255,0,0
Combo2 : 255,255,255
Combo3 : 255,255,157
Combo4 : 60,255,255

[HitObjects]
183,27,483,6,0,B|199:156|199:156|220:118,1,168.75,0|0,0:0|2:0,0:0:0:0:
218,123,1089,6,2,P|299:275|154:209,1,438.75,0|0,2:0|0:0,0:0:0:0:
154,209,4119,21,0,0:0:0:0:
166,205,4271,1,0,0:0:0:0:
170,217,4422,1,0,0:0:0:0:
162,221,4574,1,0,0:0:0:0:
154,217,4725,1,8,0:0:0:0:
320,192,4876,21,4,0:0:0:0:
64,236,5028,1,0,0:0:0:0:
288,92,5179,1,0,0:0:0:0:
212,312,5331,1,0,0:0:0:0:
92,144,5482,5,4,0:0:0:0:
288,196,5634,1,0,0:0:0:0:
176,32,5785,1,0,0:0:0:0:
52,272,5937,1,8,0:0:0:0:
260,200,6089,21,4,0:0:0:0:
20,96,6240,1,0,0:0:0:0:
132,296,6392,1,0,0:0:0:0:
380,184,6543,37,0,1:1:0:0:
392,180,6695,1,0,1:1:0:0:
396,192,6846,1,0,1:1:0:0:
388,196,6998,1,0,1:1:0:0:
380,192,7149,1,8,1:1:0:0:
232,156,7301,5,4,0:0:0:0:
436,284,7452,1,0,0:0:0:0:
344,100,7604,1,0,0:0:0:0:
284,240,7755,1,0,0:0:0:0:
484,144,7907,1,4,0:0:0:0:
264,84,8058,2,0,P|210:81|167:111,1,107.999996704102,8|8,0:0|0:0,0:0:0:0:
160,120,8286,1,8,0:0:0:0:
156,128,8361,1,8,0:0:0:0:
380,192,8513,5,8,0:0:0:0:
124,284,8664,1,8,0:0:0:0:
184,32,8816,1,8,0:0:0:0:
284,296,8967,5,4,0:2:0:0:
144,204,9119,1,0,0:0:0:0:
96,364,9270,1,8,0:0:0:0:
364,272,9422,1,0,0:0:0:0:
212,256,9573,1,0,0:0:0:0:
432,96,9725,1,0,0:0:0:0:
292,48,9876,22,0,P|298:103|304:176,1,107.999996704102,8|0,0:0|0:0,0:0:0:0:
312,160,10104,1,0,0:0:0:0:
320,164,10180,1,0,0:0:0:0:
80,288,10331,1,0,0:0:0:0:
220,336,10482,6,0,P|214:281|208:208,1,107.999996704102,8|0,0:0|0:0,0:0:0:0:
200,224,10710,1,0,0:0:0:0:
192,220,10786,1,0,0:0:0:0:
408,228,10937,1,0,0:0:0:0:
212,136,11089,2,0,P|158:141|117:174,1,107.999996704102,8|0,0:0|0:0,0:0:0:0:
384,36,11392,5,0,0:0:0:0:
232,128,11543,1,0,0:0:0:0:
444,232,11695,1,8,0:0:0:0:
252,120,11846,1,0,0:0:0:0:
420,40,11998,1,0,0:0:0:0:
260,200,12149,1,0,0:0:0:0:
240,208,12225,1,0,0:0:0:0:
223,214,12300,2,0,P|188:212|168:204,1,53.9999983520508,8|0,0:0|2:0,0:0:0:0:
88,328,12452,2,0,L|141:319,1,53.9999983520508,8|0,0:0|2:0,0:0:0:0:
324,244,12603,22,0,P|378:238|431:232,1,107.999996704102,4|0,0:2|0:0,0:0:0:0:
428,244,12831,1,0,0:0:0:0:
424,256,12907,1,0,0:0:0:0:
148,160,13058,2,0,P|94:153|40:147,1,107.999996704102,4|0,0:2|0:0,0:0:0:0:
44,159,13286,1,0,0:0:0:0:
48,171,13362,1,0,0:0:0:0:
324,80,13512,2,0,P|377:73|431:67,1,107.999996704102,4|0,0:2|0:0,0:0:0:0:
427,79,13740,1,0,0:0:0:0:
424,88,13815,2,0,P|456:132|444:208,1,107.999996704102
280,328,14119,21,0,0:0:0:0:
424,256,14270,1,0,0:0:0:0:
216,184,14422,1,0,0:0:0:0:
292,296,14573,1,0,0:0:0:0:
424,168,14725,1,8,0:0:0:0:
496,316,14876,1,0,0:0:0:0:
332,224,15028,21,0,0:0:0:0:
508,116,15179,1,0,0:0:0:0:
336,40,15331,1,8,0:0:0:0:
244,176,15482,1,0,0:0:0:0:
428,205,15634,1,0,0:0:0:0:
260,100,15786,38,0,P|232:100|192:120,1,67.5000025749208,2|2,0:0|2:1,0:0:0:0:
12,164,15937,2,0,P|31:183|45:226,1,67.5000025749208,2|2,0:0|2:1,0:0:0:0:
144,332,16088,2,0,P|169:310|187:281,1,67.5000025749208,2|2,0:0|2:1,0:0:0:0:
317,150,16240,2,2,B|373:159|504:178|504:178|428:206,1,270.000010299683
356,336,16694,5,0,0:0:0:0:
244,176,16846,1,0,0:0:0:0:
160,308,16997,1,0,0:0:0:0:
340,308,17149,1,8,0:0:0:0:
168,204,17300,1,0,0:0:0:0:
317,150,17452,5,0,0:0:0:0:
428,280,17603,1,0,0:0:0:0:
480,72,17755,1,8,0:0:0:0:
352,136,17906,1,0,0:0:0:0:
512,248,18058,1,0,0:0:0:0:
340,308,18210,22,0,P|304:296|256:300,1,62.9999980773926,2|0,0:0|2:0,0:0:0:0:
47,280,18361,2,0,P|76:266|99:245,1,62.9999980773926,2|0,0:0|2:0,0:0:0:0:
212,108,18512,2,0,P|197:79|192:49,1,62.9999980773926,2|0,0:0|2:0,0:0:0:0:
20,36,18664,2,2,B|28:60|24:92|24:92|44:116|44:116|36:160|36:160|76:212|60:276,1,251.999992309571
192,340,19119,5,0,0:0:0:0:
47,280,19270,5,0,0:0:0:0:
204,144,19422,5,0,0:0:0:0:
312,280,19573,1,8,0:0:0:0:
132,276,19725,1,0,0:0:0:0:
312,160,19876,1,0,0:0:0:0:
132,56,20028,1,0,0:0:0:0:
12,188,20179,1,8,0:0:0:0:
176,212,20331,1,0,0:0:0:0:
24,88,20482,1,0,0:0:0:0:
228,68,20634,6,0,P|264:68|304:48,1,62.9999980773926,2|0,0:0|2:0,0:0:0:0:
411,120,20785,2,0,L|391:196,1,62.9999980773926,2|0,0:0|2:0,0:0:0:0:
476,344,20937,2,0,P|440:332|404:300,1,62.9999980773926,2|0,0:0|2:0,0:0:0:0:
268,272,21088,2,0,P|232:208|264:144,1,125.999996154785,4|0,0:1|0:0,0:0:0:0:
400,32,21391,2,0,L|416:168,1,125.999996154785,4|0,0:2|0:0,0:0:0:0:
112,352,21694,2,0,L|96:216,1,125.999996154785,4|0,0:2|0:0,0:0:0:0:
414,157,21997,37,4,0:2:0:0:
98,227,22149,1,4,0:2:0:0:
336,336,22300,6,0,P|374:287|371:226,1,125.999996154785,4|0,0:1|0:0,0:0:0:0:
276,208,22528,1,0,0:0:0:0:
256,192,22603,2,0,L|248:116,1,62.9999980773926,0|0,0:0|2:0,0:0:0:0:
356,108,22755,1,0,0:0:0:0:
380,100,22831,1,0,0:0:0:0:
404,92,22906,2,0,L|396:16,1,62.9999980773926,0|0,0:0|2:0,0:0:0:0:
164,48,23058,1,0,0:0:0:0:
140,56,23134,1,0,0:0:0:0:
116,64,23209,2,0,L|124:140,1,62.9999980773926,0|0,0:0|2:0,0:0:0:0:
16,164,23361,2,0,L|24:240,1,62.9999980773926,0|0,0:0|2:0,0:0:0:0:
36,348,23512,5,4,1:0:0:0:
16,148,23664,1,0,1:0:0:0:
36,328,23815,1,0,1:0:0:0:
152,232,23967,2,0,P|200:227|245:247,1,90,0|0,1:0|2:0,0:0:0:0:
428,324,24270,5,0,0:0:0:0:
404,180,24422,2,0,P|397:128|392:80,1,90,8|0,0:0|2:0,0:0:0:0:
256,56,24725,1,0,0:0:0:0:
256,56,24876,1,0,0:0:0:0:
452,92,25028,1,8,0:0:0:0:
308,200,25179,2,0,P|250:206|198:211,1,90,0|0,0:0|2:0,0:0:0:0:
28,300,25482,22,0,P|52:288|116:284,1,62.9999980773926,2|0,0:0|2:0,0:0:0:0:
272,336,25634,2,0,P|292:308|296:264,1,62.9999980773926,2|0,0:0|2:0,0:0:0:0:
156,120,25785,2,0,P|132:124|68:100,1,62.9999980773926,2|0,0:0|2:0,0:0:0:0:
368,56,25937,2,2,P|376:124|384:188,1,125.999996154785
140,200,26240,2,2,P|132:268|124:332,1,125.999996154785,0|2,0:0|0:0,0:0:0:0:
256,316,26543,5,0,0:0:0:0:
384,200,26694,1,0,0:0:0:0:
440,360,26846,1,0,1:0:0:0:
268,200,26997,5,0,0:0:0:0:
272,188,27073,1,0,0:0:0:0:
276,176,27149,1,0,0:0:0:0:
228,56,27300,1,0,0:0:0:0:
120,152,27452,2,0,L|66:159|12:166,1,107.999996704102,0|0,1:0|0:0,0:0:0:0:
392,232,27755,2,0,P|445:224|499:217,1,107.999996704102,0|8,1:0|0:3,0:0:0:0:
496,144,27982,1,8,0:3:0:0:
504,134,28058,2,0,P|464:124|428:100,1,53.9999983520508,4|4,0:3|0:3,0:0:0:0:
308,52,28209,2,0,P|296:80|292:108,1,53.9999983520508,4|4,0:3|0:3,0:0:0:0:
256,316,28361,21,2,0:0:0:0:
251,312,28512,1,2,0:0:0:0:
259,311,28664,1,2,0:0:0:0:
113,221,28815,2,0,P|119:153|123:95,1,125.999996154785,2|0,0:0|2:0,0:0:0:0:
288,72,29118,5,0,0:0:0:0:
24,160,29270,1,8,0:0:0:0:
296,232,29422,1,0,0:0:0:0:
128,48,29573,1,0,0:0:0:0:
96,252,29725,1,0,0:0:0:0:
304,152,29876,1,8,0:0:0:0:
8,316,30028,1,0,0:0:0:0:
20,304,30331,38,0,P|18:265|16:240,1,62.9999980773926,2|0,0:0|2:0,0:0:0:0:
108,164,30482,2,0,P|138:171|168:180,1,62.9999980773926,2|0,0:0|2:0,0:0:0:0:
256,96,30634,2,0,P|254:57|252:32,1,62.9999980773926,2|0,0:0|2:0,0:0:0:0:
372,200,30785,2,0,P|440:200|476:128,1,125.999996154785
444,80,31012,1,0,0:0:0:0:
436,72,31088,2,0,P|368:72|332:144,1,125.999996154785
264,184,31315,1,0,0:0:0:0:
248,196,31391,2,0,P|251:258|256:324,1,125.999996154785
124,268,31618,1,0,0:0:0:0:
106,257,31694,2,0,P|102:195|100:128,1,125.999996154785
312,64,31997,5,2,0:0:0:0:
20,184,32149,1,2,0:0:0:0:
408,328,32300,1,2,0:0:0:0:
240,292,32452,5,2,1:0:0:0:
231,281,32528,1,0,1:0:0:0:
221,271,32603,1,2,1:0:0:0:
212,260,32679,1,0,1:0:0:0:
202,249,32755,1,0,1:0:0:0:
193,238,32831,1,0,1:0:0:0:
183,227,32906,1,0,1:0:0:0:
174,216,32982,1,0,1:0:0:0:
164,206,33058,1,0,1:0:0:0:
155,195,33134,1,0,1:0:0:0:
148,184,33209,6,0,P|150:119|152:72,1,107.999996704102,4|0,0:2|0:0,0:0:0:0:
410,195,33512,1,8,0:1:0:0:
296,300,33664,1,0,0:0:0:0:
296,300,33740,1,0,0:0:0:0:
296,300,33815,1,0,0:0:0:0:
312,112,33967,1,0,0:0:0:0:
507,159,34119,2,0,P|463:188|410:195,1,107.999996704102,8|0,0:1|0:0,0:0:0:0:
204,132,34422,21,4,0:2:0:0:
384,284,34573,1,0,0:0:0:0:
440,48,34725,1,8,0:1:0:0:
312,112,34876,2,0,L|96:152,1,215.999993408203,4|0,0:2|0:0,0:0:0:0:
316,100,35331,5,8,0:0:0:0:
84,140,35483,1,8,0:0:0:0:
242,254,35634,2,0,P|240:194|222:134,1,107.999996704102,4|0,0:2|0:0,0:0:0:0:
216,140,35861,1,0,0:0:0:0:
204,132,35937,1,0,0:0:0:0:
16,248,36088,2,0,B|80:249|120:285|120:285|169:292|256:248,1,215.999993408203
452,348,36543,1,8,0:0:0:0:
360,256,36695,5,0,0:2:0:0:
348,248,36770,1,0,0:0:0:0:
336,236,36846,2,0,P|396:236|456:196,1,107.999996704102,4|0,0:2|0:0,0:0:0:0:
456,72,37149,1,8,0:0:0:0:
276,40,37300,2,0,B|236:84|236:84|252:268,1,215.999993408203,4|0,0:2|0:0,0:0:0:0:
96,320,37755,21,8,0:0:0:0:
252,252,37907,1,8,0:0:0:0:
88,200,38058,2,0,P|92:255|96:320,1,107.999996704102,4|0,0:2|0:0,0:0:0:0:
216,360,38361,1,8,0:0:0:0:
360,308,38512,1,0,0:0:0:0:
376,312,38588,1,0,0:0:0:0:
392,316,38664,1,0,0:0:0:0:
496,164,38815,2,0,B|432:164|392:208|392:208|328:208|328:208|288:236,1,215.999993408203,4|0,0:2|0:0,0:0:0:0:
200,160,39270,6,0,P|196:96|232:64,1,107.999996704102,4|0,0:2|0:0,0:0:0:0:
240,64,39497,1,0,0:0:0:0:
256,68,39573,1,0,0:0:0:0:
420,180,39725,2,0,B|280:248|280:248|304:176,1,215.999993408203,4|0,0:2|0:0,0:0:0:0:
404,64,40179,6,0,P|428:116|420:176,1,107.999996704102,4|0,0:2|0:0,0:0:0:0:
208,336,40482,2,0,B|172:304|172:304|164:244|204:176,1,161.999995056153,4|0,0:2|0:0,0:0:0:0:
208,180,40785,1,4,0:2:0:0:
312,236,40937,1,0,0:1:0:0:
312,236,41012,1,0,0:1:0:0:
312,236,41088,1,0,0:1:0:0:
400,84,41240,1,4,0:3:0:0:
224,168,41391,1,4,0:3:0:0:
404,188,41543,1,4,0:3:0:0:
248,80,41694,22,0,P|196:84|144:148,1,107.999996704102,4|0,0:2|0:3,0:0:0:0:
32,280,41997,2,0,L|148:256,1,107.999996704102,4|0,0:2|0:3,0:3:0:0:
192,304,42225,1,8,0:2:0:0:
208,300,42300,1,8,0:2:0:0:
308,340,42452,5,12,2:3:0:0:
408,304,42603,1,4,2:3:0:0:
452,204,42755,1,4,2:3:0:0:
168,36,42907,21,4,0:0:0:0:
376,76,43058,1,0,0:0:0:0:
128,196,43209,1,4,0:0:0:0:
336,236,43361,1,0,0:0:0:0:
88,354,43512,6,0,P|52:322|54:269,1,90,12|0,0:0|0:0,0:0:0:0:
168,36,43967,2,0,P|204:68|202:121,1,90,8|0,0:0|0:0,0:0:0:0:
256,192,44422,2,0,L|344:176,2,90,8|8|0,0:0|1:0|0:0,0:0:0:0:
256,192,45103,1,0,0:3:0:0:
256,192,45179,1,0,0:3:0:0:
244,44,45331,37,4,0:0:0:0:
264,332,45483,1,0,0:0:0:0:
432,176,45634,1,4,0:0:0:0:
80,208,45786,1,0,0:0:0:0:
408,252,45937,6,0,P|456:252|492:228,1,90,12|0,0:0|0:0,0:0:0:0:
104,132,46391,2,0,P|56:132|20:156,1,90,12|0,0:0|0:0,0:0:0:0:
212,256,46846,2,0,L|308:248,1,90,12|8,0:0|0:2,0:0:0:0:
344,184,47301,1,8,0:2:0:0:
344,184,47452,2,0,P|316:172|288:172,1,45,0|0,0:2|2:0,0:0:0:0:
128,216,47755,37,4,0:1:0:0:
380,104,47906,1,0,0:1:0:0:
92,296,48058,1,4,0:1:0:0:
412,240,48210,1,0,0:1:0:0:
76,148,48361,6,0,P|48:188|44:236,1,90,12|0,0:1|0:0,0:0:0:0:
460,312,48815,2,0,P|488:272|492:224,1,90,8|0,0:1|0:0,0:0:0:0:
384,72,49270,2,0,L|328:92,1,45,8|0,0:0|2:0,0:0:0:0:
168,148,49573,2,0,L|224:168,1,45,8|0,0:0|2:0,0:0:0:0:
305,291,49876,2,0,L|321:227,1,45,8|0,0:0|2:0,0:0:0:0:
468,172,50179,37,4,0:0:0:0:
128,116,50331,1,0,0:0:0:0:
420,40,50482,1,4,0:0:0:0:
316,248,50634,1,0,0:0:0:0:
140,104,50785,6,2,L|236:112,1,90,4|2,0:1|0:0,0:0:0:0:
152,88,51240,2,2,L|286:99,1,135,6|6,0:1|0:1,0:0:0:0:
464,212,51846,5,8,1:3:0:0:
464,212,51922,1,8,1:3:0:0:
464,212,51997,1,8,1:3:0:0:
404,304,52149,1,4,0:3:0:0:
316,248,52300,2,0,L|312:184,1,45,4|0,0:3|2:0,0:0:0:0:
296,40,52603,21,4,0:1:0:0:
216,344,52755,1,0,0:0:0:0:
24,184,52907,1,4,0:1:0:0:
272,68,53058,1,0,0:0:0:0:
112,272,53209,6,0,L|96:168,1,90,12|0,0:0|0:0,0:0:0:0:
400,112,53664,2,0,L|416:216,1,90,12|0,0:0|0:0,0:0:0:0:
364,308,54118,2,0,P|340:308|304:292,1,45,8|0,0:0|2:0,0:0:0:0:
216,252,54422,2,0,L|127:268,1,90,8|0,0:0|0:0,0:0:0:0:
112,272,54800,1,0,0:0:0:0:
112,272,54876,1,0,0:0:0:0:
456,196,55028,37,4,0:0:0:0:
248,244,55179,1,0,0:0:0:0:
504,256,55331,1,4,0:0:0:0:
188,112,55482,1,0,0:0:0:0:
424,44,55634,6,0,P|452:80|448:136,1,90,12|0,0:0|0:0,0:0:0:0:
277,322,56088,2,0,P|249:288|248:244,1,90,12|0,0:0|0:0,0:0:0:0:
340,144,56543,2,0,L|352:188,1,45,12|0,0:0|2:0,0:0:0:0:
400,348,56846,5,8,0:2:0:0:
380,268,56997,1,8,0:2:0:0:
364,192,57149,2,0,L|352:148,1,45,8|0,0:0|2:0,0:0:0:0:
124,84,57452,21,4,0:0:0:0:
416,120,57603,1,0,0:0:0:0:
204,248,57755,1,4,0:0:0:0:
488,100,57906,1,0,0:0:0:0:
256,60,58058,6,0,L|160:76,1,90,12|8,0:0|0:0,0:0:0:0:
74,226,58512,2,0,L|162:241,1,90,8|0,0:0|0:0,0:0:0:0:
256,192,58967,2,0,P|276:231|275:275,2,90,8|8|8,0:0|0:0|0:0,0:0:0:0:
204,244,59876,5,0,0:0:0:0:
188,240,59952,1,0,0:0:0:0:
172,236,60028,1,0,0:0:0:0:
156,232,60103,1,0,0:0:0:0:
140,228,60179,1,0,0:0:0:0:
124,224,60255,1,0,0:0:0:0:
108,220,60331,1,0,0:0:0:0:
92,216,60406,1,0,0:0:0:0:
76,212,60482,6,0,L|176:188,1,90,8|0,0:0|0:0,0:0:0:0:
320,104,60937,2,0,P|340:144|332:204,1,90,8|0,0:0|0:0,0:0:0:0:
208,324,61391,2,0,L|112:300,2,90,8|8|8,0:0|0:0|0:0,0:0:0:0:
108,296,62300,21,0,0:0:0:0:
384,272,62452,1,0,0:0:0:0:
392,264,62755,5,0,0:0:0:0:
116,208,62907,1,0,0:0:0:0:
400,176,63057,1,0,0:0:0:0:
124,120,63209,1,0,0:0:0:0:
408,88,63361,1,0,0:0:0:0:
256,48,63512,22,2,B|276:28|276:28|252:240,1,215.999993408203
108,296,63967,5,0,0:0:0:0:
256,348,64118,1,0,0:0:0:0:
196,216,64270,1,0,0:0:0:0:
32,328,64422,1,8,0:0:0:0:
60,188,64573,1,0,0:0:0:0:
56,172,64649,1,0,0:0:0:0:
52,156,64725,5,0,0:0:0:0:
196,216,64876,1,0,0:0:0:0:
264,68,65028,1,0,1:0:0:0:
288,256,65179,1,0,0:0:0:0:
184,128,65331,1,0,0:0:0:0:
60,188,65482,22,0,L|128:180,1,62.9999980773926,2|0,0:0|2:0,0:0:0:0:
252,164,65634,2,0,L|320:156,1,62.9999980773926,2|0,0:0|2:0,0:0:0:0:
468,176,65785,1,2,0:0:0:0:
468,176,65861,1,0,0:0:0:0:
468,176,65937,2,2,B|452:108|480:44|480:44|440:32|400:60|400:60|460:116,1,251.999992309571
316,120,66391,5,0,0:0:0:0:
440,168,66543,1,0,0:0:0:0:
496,52,66694,1,0,0:0:0:0:
432,248,66846,1,8,0:0:0:0:
380,68,66997,5,0,0:0:0:0:
252,164,67149,1,0,0:0:0:0:
236,160,67225,1,0,0:0:0:0:
216,156,67300,1,0,0:0:0:0:
40,208,67452,1,8,0:0:0:0:
196,296,67603,1,0,0:0:0:0:
112,100,67755,1,0,0:0:0:0:
32,216,67906,22,0,P|24:252|44:284,1,62.9999980773926,2|0,0:0|2:0,0:0:0:0:
208,296,68058,2,0,L|296:272,1,62.9999980773926,2|0,0:0|2:0,0:0:0:0:
429,345,68209,1,2,0:0:0:0:
445,333,68285,1,0,0:0:0:0:
461,321,68361,2,2,B|269:279|269:279|341:257,1,270.000010299683
344,96,68815,2,0,B|361:75|361:75|391:185,1,135.000005149842,2|0,1:0|2:0,2:0:0:0:
292,360,69119,5,0,0:0:0:0:
208,296,69270,1,8,0:0:0:0:
168,196,69422,1,0,0:0:0:0:
180,88,69573,1,0,0:0:0:0:
332,172,69725,5,0,0:0:0:0:
208,296,69876,1,8,0:0:0:0:
44,236,70028,2,0,B|22:139|22:139|83:148,1,135.000005149842
212,48,70331,22,0,P|224:80|212:136,1,67.5000025749208,2|0,0:0|2:0,0:0:0:0:
384,168,70482,2,0,P|369:199|321:230,1,67.5000025749208,2|0,0:0|2:0,0:0:0:0:
248,324,70634,2,0,P|216:335|160:324,1,67.5000025749208,2|0,0:0|2:0,0:0:0:0:
44,236,70785,2,0,B|92:212|140:220|140:220|112:284,1,135.000005149842,4|0,0:0|0:0,0:0:0:0:
328,312,71088,2,0,L|496:284,1,135.000005149842,4|0,0:2|0:0,0:0:0:0:
220,148,71391,2,0,L|52:176,1,135.000005149842,4|0,0:2|0:0,0:0:0:0:
44,236,71619,5,0,0:0:0:0:
44,236,71694,1,0,0:0:0:0:
116,96,71846,1,0,0:2:0:0:
248,324,71997,37,2,0:0:0:0:
264,60,72149,1,2,0:0:0:0:
240,316,72300,1,0,0:0:0:0:
484,220,72452,2,0,B|436:196|380:192|380:192|348:228,1,135.000005149842,2|2,0:0|0:0,0:0:0:0:
381,296,72679,1,0,0:0:0:0:
429,290,72755,1,0,0:0:0:0:
467,262,72831,1,0,0:0:0:0:
484,220,72906,2,0,P|474:185|442:148,1,67.5000025749208,0|0,0:0|2:0,0:0:0:0:
368,64,73058,2,0,L|292:72,1,67.5000025749208,0|0,0:0|2:0,0:0:0:0:
116,96,73209,5,4,1:0:0:0:
116,96,73361,1,0,1:0:0:0:
28,252,73512,1,0,1:0:0:0:
32,132,73664,2,0,B|116:96|116:96|224:120,1,180,0|0,1:0|0:0,0:0:0:0:
272,200,74119,2,0,L|376:184,1,90,0|0,1:0|2:0,0:0:0:0:
508,256,74422,5,0,0:0:0:0:
508,256,74573,1,0,0:0:0:0:
452,100,74725,1,0,1:0:0:0:
360,186,74876,2,0,L|272:200,1,90,0|0,0:0|2:0,0:0:0:0:
108,224,75179,22,0,L|100:148,1,67.5000025749208,2|0,0:0|2:0,0:0:0:0:
260,52,75331,2,2,B|272:200|272:200|216:180,1,202.500007724762,2|0,0:0|2:0,0:0:0:0:
28,312,75634,2,2,B|44:248|108:224|108:224|248:276,1,270.000010299683
336,220,76088,5,0,0:0:0:0:
156,328,76240,1,0,0:0:0:0:
192,184,76391,1,0,0:0:0:0:
308,356,76543,1,0,1:0:0:0:
324,180,76694,5,0,0:0:0:0:
400,148,76846,1,0,0:0:0:0:
476,124,76997,1,0,0:0:0:0:
460,268,77149,2,0,P|400:276|348:244,1,107.999996704102,0|0,1:0|2:0,1:0:0:0:
52,116,77452,2,0,P|112:108|164:140,1,107.999996704102,0|0,1:0|2:0,1:0:0:0:
152,128,77679,1,4,0:3:0:0:
152,128,77755,1,4,0:3:0:0:
152,128,77831,1,4,0:3:0:0:
152,128,77906,1,4,0:3:0:0:
152,128,77982,1,4,0:3:0:0:
152,128,78058,22,0,L|160:208,1,67.5000025749208,2|0,1:0|2:0,0:0:0:0:
368,112,78209,2,0,L|360:32,1,67.5000025749208,2|0,1:0|2:0,0:0:0:0:
144,32,78361,2,0,L|150:99,1,67.5000025749208,2|0,1:0|2:0,0:0:0:0:
243,244,78512,2,2,B|301:213|373:231|373:231|389:177|381:121|313:145|347:175,1,270.000010299683
280,56,78967,6,0,P|260:92|260:168,1,99.0000030212403,0|0,1:0|2:0,0:0:0:0:
256,332,79270,1,0,1:0:0:0:
348,176,79422,1,0,0:0:0:0:
116,216,79573,1,0,1:0:0:0:
284,328,79725,6,0,L|400:304,1,116.999994644165,0|0,1:0|2:0,0:0:0:0:
492,196,80028,22,0,L|425:184,1,67.5000025749208,2|0,0:0|2:0,0:0:0:0:
284,124,80179,2,0,P|268:156|272:200,1,67.5000025749208,2|0,0:0|2:0,0:0:0:0:
136,288,80331,2,0,P|100:288|62:265,1,67.5000025749208,2|0,0:0|2:0,0:0:0:0:
40,64,80482,2,0,B|112:84|112:84|116:148,1,135.000005149842
116,216,80709,1,0,0:0:0:0:
116,216,80785,2,0,B|44:196|44:196|40:132,1,135.000005149842
112,40,81012,1,0,0:0:0:0:
112,40,81088,2,0,P|180:24|240:96,1,135.000005149842
284,124,81315,1,0,0:0:0:0:
284,124,81391,2,0,L|292:212,1,67.5000025749208,0|0,0:0|2:0,0:0:0:0:
392,280,81543,2,0,L|388:208,1,67.5000025749208,0|0,0:0|2:0,0:0:0:0:
200,64,81694,5,2,0:0:0:0:
492,184,81846,1,2,0:0:0:0:
104,328,81997,1,2,0:0:0:0:
272,292,82149,5,2,1:0:0:0:
281,281,82225,1,0,1:0:0:0:
291,271,82300,1,2,1:0:0:0:
300,260,82376,1,0,1:0:0:0:
310,249,82452,1,0,1:0:0:0:
319,238,82528,1,0,1:0:0:0:
329,227,82603,1,0,1:0:0:0:
338,216,82679,1,0,1:0:0:0:
348,206,82755,1,0,1:0:0:0:
357,195,82831,1,0,1:0:0:0:
364,184,82906,6,0,B|400:104|352:40|352:40|324:64|328:104,1,215.999993408203,4|8,1:2|1:0,1:0:0:0:
196,172,83361,1,0,1:1:0:0:
196,172,83437,1,0,0:1:0:0:
196,172,83512,2,0,P|144:184|76:148,1,107.999996704102,0|4,0:0|1:3,0:0:0:0:
88,156,83740,1,4,3:3:0:0:
88,144,83815,1,4,1:3:0:0:
92,136,83891,1,4,3:3:0:0:
100,128,83967,1,4,1:3:0:0:
292,32,84119,22,0,L|304:148,1,107.999996704102,4|0,0:2|0:0,0:0:0:0:
324,336,84422,1,8,0:0:0:0:
176,280,84573,1,4,0:2:0:0:
176,280,84649,1,0,0:0:0:0:
176,280,84725,2,0,P|109:284|72:328,1,107.999996704102
148,368,85028,5,8,0:0:0:0:
256,200,85179,1,8,0:0:0:0:
72,120,85331,2,0,B|32:176|32:244|32:244|128:200,1,215.999993408203,4|8,0:2|0:0,0:0:0:0:
236,128,85785,1,0,0:0:0:0:
236,128,85861,1,0,0:0:0:0:
236,128,85937,2,0,P|232:68|192:24,1,107.999996704102,0|4,0:0|1:3,0:0:0:0:
196,40,86164,1,4,3:3:0:0:
192,48,86240,1,8,1:0:0:0:
192,60,86315,1,4,3:3:0:0:
196,72,86391,1,4,1:3:0:0:
315,247,86543,6,0,L|421:226,1,107.999996704102,4|0,0:2|0:0,0:0:0:0:
421,226,86770,1,0,0:0:0:0:
421,226,86846,1,8,0:0:0:0:
275,132,86997,2,0,B|278:187|239:264|239:264|315:247,1,215.999993408203,4|0,0:2|0:0,0:0:0:0:
421,226,87452,21,8,0:0:0:0:
275,132,87603,1,8,0:0:0:0:
420,308,87755,2,0,B|456:320|476:352|476:352|512:276|488:172,1,215.999993408203,4|8,0:2|0:0,0:0:0:0:
379,108,88209,1,0,0:3:0:0:
379,108,88285,1,0,0:3:0:0:
379,108,88361,2,0,L|259:136,1,107.999996704102,0|4,0:0|1:3,0:0:0:0:
264,128,88588,1,4,3:3:0:0:
256,124,88664,1,8,1:0:0:0:
248,120,88740,1,4,3:3:0:0:
240,116,88815,1,4,1:3:0:0:
32,256,88967,6,0,P|76:250|120:200,1,107.999996704102,4|0,0:2|0:0,0:0:0:0:
48,180,89194,1,0,0:0:0:0:
48,180,89270,1,8,0:0:0:0:
208,300,89422,1,4,0:2:0:0:
208,300,89497,1,0,0:0:0:0:
292,292,89573,2,0,L|424:276,1,107.999996704102
483,149,89876,5,8,0:0:0:0:
403,356,90028,1,8,0:0:0:0:
244,201,90179,2,0,B|376:185|376:185|424:217,1,161.999995056153,4|0,0:2|2:0,0:0:0:0:
455,59,90482,2,0,B|328:99|328:99|275:77,1,161.999995056153,4|0,0:2|2:0,0:0:0:0:
232,52,90785,21,4,1:3:0:0:
232,52,90937,1,4,1:3:0:0:
280,284,91088,1,4,1:3:0:0:
280,284,91240,1,4,1:3:0:0:
428,172,91391,2,0,L|432:52,1,107.999996704102,4|0,0:2|0:0,0:0:0:0:
420,336,91694,1,4,0:2:0:0:
312,276,91846,5,0,0:0:0:0:
296,280,91922,1,0,0:0:0:0:
280,284,91997,1,0,0:0:0:0:
176,344,92149,1,12,2:3:0:0:
64,304,92300,1,4,2:3:0:0:
24,192,92452,1,4,2:3:0:0:
368,60,92603,21,4,0:1:0:0:
96,228,92755,1,0,0:0:0:0:
384,316,92906,1,4,0:0:0:0:
172,208,93058,1,0,0:0:0:0:
344,160,93209,6,0,P|368:163|400:180,1,45,12|0,0:0|2:0,0:0:0:0:
464,340,93512,1,8,0:0:0:0:
308,292,93664,2,0,P|285:294|264:303,1,45,8|0,0:0|2:0,0:0:0:0:
16,248,93967,1,8,0:0:0:0:
172,208,94119,2,0,P|194:206|215:197,1,45,8|0,0:0|2:0,0:0:0:0:
328,128,94422,2,0,L|324:76,1,45,8|0,0:0|2:0,0:0:0:0:
388,236,94725,2,0,L|384:184,1,45,8|0,0:0|2:0,0:0:0:0:
128,104,95028,37,4,0:0:0:0:
468,208,95179,1,0,0:0:0:0:
136,196,95331,1,4,0:0:0:0:
448,28,95482,1,0,0:0:0:0:
248,136,95634,22,0,L|203:142,1,45,12|0,0:0|2:0,0:0:0:0:
40,280,95937,1,8,0:0:0:0:
168,324,96088,2,0,L|224:312,1,45,12|0,0:0|2:0,0:0:0:0:
472,224,96391,1,8,0:0:0:0:
344,268,96542,2,0,L|288:256,1,45,12|0,0:0|2:0,0:0:0:0:
70,202,96846,5,8,0:2:0:0:
420,280,96997,1,8,0:2:0:0:
168,324,97149,1,8,0:0:0:0:
448,152,97452,5,4,0:0:0:0:
64,152,97603,1,0,0:0:0:0:
440,132,97755,1,4,0:0:0:0:
72,132,97906,1,0,0:0:0:0:
252,36,98058,6,0,P|264:64|264:88,1,45,12|0,0:0|2:0,0:0:0:0:
284,332,98361,1,8,0:0:0:0:
444,280,98512,2,0,P|424:272|384:276,1,45,8|0,0:0|2:0,0:0:0:0:
168,344,98815,1,8,0:0:0:0:
176,160,98967,2,0,P|176:137|184:116,1,45,8|0,0:0|2:0,0:0:0:0:
368,52,99270,2,0,L|378:113,1,45,8|0,0:0|2:0,0:0:0:0:
348,292,99573,2,0,L|299:272,1,45,8|0,0:0|2:0,0:0:0:0:
76,224,99876,5,0,0:0:0:0:
76,224,99952,1,0,0:0:0:0:
76,224,100028,1,0,0:0:0:0:
76,224,100103,1,0,0:0:0:0:
76,224,100179,2,2,L|88:176,1,45,0|0,0:0|0:0,0:0:0:0:
124,108,100406,1,0,0:0:0:0:
124,108,100482,2,0,P|156:148|156:204,1,90,2|2,0:0|0:0,0:0:0:0:
296,336,100937,2,2,L|316:140,1,180,4|4,0:0|1:3,0:0:0:0:
320,144,101618,1,4,0:3:0:0:
392,168,101694,5,4,0:3:0:0:
316,244,101846,1,4,0:3:0:0:
212,272,101997,1,4,0:3:0:0:
104,248,102149,1,4,0:3:0:0:
408,64,102300,5,4,0:0:0:0:
108,328,102452,1,0,0:0:0:0:
428,288,102603,1,4,0:0:0:0:
80,124,102755,1,0,0:0:0:0:
260,192,102906,6,0,L|312:176,1,45,8|0,0:0|2:0,0:0:0:0:
472,244,103209,1,8,0:0:0:0:
303,178,103361,2,0,L|259:164,1,45,8|0,0:0|2:0,0:0:0:0:
112,80,103664,2,0,P|160:56|208:72,1,90,8|8,0:0|0:0,0:0:0:0:
384,204,104118,1,0,0:0:0:0:
384,204,104194,1,0,0:0:0:0:
384,204,104270,1,0,0:0:0:0:
480,140,104422,2,0,L|428:132,1,45,8|0,0:0|2:0,0:0:0:0:
80,216,104725,37,4,0:0:0:0:
384,312,104876,1,0,0:0:0:0:
136,60,105028,1,4,0:0:0:0:
192,344,105179,1,0,0:0:0:0:
368,192,105331,6,0,L|360:140,1,45,12|0,0:0|2:0,0:0:0:0:
108,140,105634,1,12,0:0:0:0:
280,72,105785,5,0,1:2:0:0:
280,72,105861,1,0,1:2:0:0:
280,72,105937,1,4,1:0:0:0:
248,296,106088,1,8,0:0:0:0:
28,184,106240,1,8,0:0:0:0:
244,88,106391,1,0,0:0:0:0:
208,284,106543,1,12,0:0:0:0:
168,276,106846,6,2,L|124:262,1,45,0|0,0:0|2:0,0:0:0:0:
436,172,107149,5,4,0:1:0:0:
120,340,107300,1,0,0:0:0:0:
68,72,107452,1,4,0:1:0:0:
228,224,107603,1,0,0:0:0:0:
376,104,107755,6,0,L|320:108,1,45,8|0,0:0|2:0,0:0:0:0:
80,192,108058,1,2,0:0:0:0:
80,192,108209,2,2,P|144:192|192:152,1,112.5,2|0,0:0|2:0,0:0:0:0:
256,116,108664,2,0,L|268:168,1,45,8|0,0:0|2:0,0:0:0:0:
316,324,108967,2,0,L|355:287,1,45,8|0,0:0|2:0,0:0:0:0:
488,164,109270,2,0,L|436:148,1,45,8|0,0:0|2:0,0:0:0:0:
92,252,109573,37,4,1:2:0:0:
304,132,109725,5,0,0:0:0:0:
304,132,109800,1,0,0:0:0:0:
304,132,109876,1,2,0:1:0:0:
148,40,110028,1,0,0:0:0:0:
176,236,110179,1,10,0:0:0:0:
280,112,110331,1,0,0:0:0:0:
44,152,110482,1,2,0:0:0:0:
260,220,110634,2,2,L|404:196,1,135
492,228,111240,5,8,0:0:0:0:
492,228,111315,1,8,0:0:0:0:
492,228,111391,1,8,0:0:0:0:
416,312,111543,1,4,0:3:0:0:
308,340,111694,1,4,0:3:0:0:
196,316,111846,1,4,0:3:0:0:
164,56,111997,5,2,0:0:0:0:
260,136,112149,1,2,0:0:0:0:
148,44,112300,1,2,0:0:0:0:
72,232,112452,1,0,0:0:0:0:
312,192,112603,21,10,0:0:0:0:
56,108,112755,1,0,0:0:0:0:
292,68,112906,1,10,0:0:0:0:
140,164,113058,6,2,L|156:276,1,101.250003862381,0|0,0:0|2:0,0:0:0:0:
160,352,113361,2,2,B|252:340|252:340|204:316,1,135.000005149842,2|0,0:0|2:0,0:0:0:0:
72,292,113815,5,10,0:0:0:0:
72,292,113967,1,8,0:0:0:0:
72,292,114118,2,0,L|60:202,1,67.5000025749208,2|0,0:0|2:0,0:0:0:0:
356,100,114422,21,2,0:0:0:0:
164,192,114573,1,2,0:0:0:0:
416,232,114725,1,2,0:0:0:0:
400,32,114876,1,0,0:0:0:0:
240,168,115028,21,10,0:0:0:0:
96,68,115179,1,0,0:0:0:0:
320,96,115331,1,10,0:0:0:0:
164,192,115482,22,2,B|240:168|240:168|276:184|280:216,1,135.000005149842,0|2,0:0|0:0,0:0:0:0:
352,192,115861,1,0,0:0:0:0:
352,200,115937,2,0,L|365:287,1,67.5000025749208,2|0,0:0|2:0,0:0:0:0:
500,368,116240,5,10,0:0:0:0:
424,352,116391,1,10,0:0:0:0:
500,368,116543,2,0,L|405:348,1,67.5000025749208,2|0,0:0|2:0,0:0:0:0:
156,312,116846,5,2,0:0:0:0:
280,228,116997,1,2,0:0:0:0:
280,228,117073,1,0,0:0:0:0:
280,228,117149,1,2,0:0:0:0:
88,160,117300,1,0,0:0:0:0:
304,36,117452,1,10,0:0:0:0:
236,168,117603,1,0,0:0:0:0:
156,36,117755,1,10,0:0:0:0:
21,186,117906,22,2,B|101:175|101:175|88:160,1,101.250003862381,2|0,0:0|2:0,0:0:0:0:
70,33,118209,2,2,B|56:102|56:102|87:159,1,135.000005149842,2|0,0:0|2:0,0:0:0:0:
184,299,118664,5,10,0:0:0:0:
269,286,118815,1,10,0:0:0:0:
104,312,118967,2,0,L|170:300,1,67.5000025749208,2|0,0:0|2:0,0:0:0:0:
412,260,119270,5,0,0:3:0:0:
484,312,119422,1,0,0:3:0:0:
496,224,119573,1,0,0:3:0:0:
340,228,119725,21,4,0:3:0:0:
464,275,119877,1,4,0:3:0:0:
447,143,120028,1,4,0:3:0:0:
268,268,120179,5,4,0:3:0:0:
352,120,120331,1,4,0:3:0:0:
20,96,120482,21,4,1:2:0:0:
216,152,120634,21,4,0:3:0:0:
216,152,120709,1,4,0:3:0:0:
216,152,120786,1,4,0:3:0:0:
48,296,120937,1,4,0:3:0:0:
60,128,121090,1,4,0:2:0:0:
196,228,121241,5,8,0:0:0:0:
88,284,121391,1,8,0:0:0:0:
88,168,121543,1,8,0:0:0:0:
320,184,121694,6,2,P|340:148|332:108,1,67.5000025749208
296,51,121997,2,2,L|325:214,1,135.000005149842,0|10,0:0|0:0,0:0:0:0:
344,336,122452,1,2,0:0:0:0:
344,336,122603,1,2,0:0:0:0:
400,208,122755,2,2,P|453:159|532:180,2,135.000005149842
324,256,123437,5,0,0:0:0:0:
308,248,123512,1,10,0:0:0:0:
220,212,123664,1,10,0:0:0:0:
132,176,123815,2,0,L|140:92,1,67.5000025749208,2|0,0:0|2:0,0:0:0:0:
476,68,124118,5,2,0:0:0:0:
364,152,124270,1,0,0:0:0:0:
348,148,124346,1,0,0:0:0:0:
332,144,124422,1,2,0:0:0:0:
212,124,124573,1,0,0:0:0:0:
388,48,124725,1,10,0:0:0:0:
452,288,124876,1,0,0:0:0:0:
408,128,125028,1,10,0:0:0:0:
244,272,125179,6,2,L|384:288,1,135.000005149842
472,212,125558,1,0,0:0:0:0:
472,212,125634,2,0,P|432:212|388:245,1,67.5000025749208,0|0,0:0|2:0,0:0:0:0:
244,272,125937,21,10,0:0:0:0:
452,288,126088,1,10,0:0:0:0:
408,148,126240,2,0,L|324:168,1,67.5000025749208,2|0,0:0|2:0,0:0:0:0:
64,208,126543,5,2,0:0:0:0:
244,272,126694,1,2,0:0:0:0:
88,92,126846,1,2,0:0:0:0:
48,328,126997,1,0,0:0:0:0:
260,248,127149,1,10,0:0:0:0:
80,184,127300,1,0,0:0:0:0:
304,56,127452,1,10,0:0:0:0:
164,44,127603,6,2,L|177:144,1,101.250003862381,2|0,0:0|2:0,0:0:0:0:
216,236,127906,2,2,B|256:200|292:192|292:192|244:172,1,135.000005149842,2|0,0:0|2:0,0:0:0:0:
40,348,128361,21,10,0:0:0:0:
40,348,128512,1,10,0:0:0:0:
172,324,128664,2,0,L|256:304,1,67.5000025749208,2|0,0:0|2:0,0:0:0:0:
460,184,128967,5,0,0:0:0:0:
324,136,129118,1,0,0:0:0:0:
368,228,129270,1,0,0:0:0:0:
416,92,129422,1,0,0:0:0:0:
52,184,129573,5,8,0:0:0:0:
188,136,129724,1,8,0:0:0:0:
144,228,129876,1,8,0:0:0:0:
96,92,130028,1,8,0:0:0:0:
256,292,130179,21,4,0:2:0:0:
408,196,130331,1,0,0:0:0:0:
408,196,130406,1,0,0:0:0:0:
408,196,130482,2,0,P|403:169|389:146,1,53.9999983520508,0|0,0:0|2:0,0:0:0:0:
324,36,130634,2,0,L|264:48,1,53.9999983520508,0|0,0:0|2:0,0:0:0:0:
40,104,130785,6,0,L|155:121,1,107.999996704102,0|4,0:0|3:0,0:0:0:0:
146,119,131012,1,4,3:0:0:0:
146,119,131088,1,4,3:0:0:0:
146,119,131164,1,4,3:0:0:0:
146,119,131240,1,4,3:0:0:0:
146,119,131315,1,4,3:0:0:0:
146,119,131391,38,0,L|162:181,1,53.9999983520508,2|0,0:0|2:0,0:0:0:0:
192,312,131543,2,2,B|201:354|201:354|64:320,1,161.999995056153,0|0,0:0|2:0,0:0:0:0:
24,280,131846,6,0,P|44:262|69:253,1,53.9999983520508,2|0,0:0|2:0,0:0:0:0:
320,236,131997,2,2,B|311:278|311:278|448:244,1,161.999995056153,0|0,0:0|2:0,0:0:0:0:
488,204,132300,6,0,P|467:186|442:177,1,53.9999983520508,2|0,0:0|2:0,0:0:0:0:
192,164,132452,2,2,B|201:206|201:206|64:172,1,161.999995056153,0|0,0:0|2:0,0:0:0:0:
24,132,132755,22,0,P|44:114|69:105,1,53.9999983520508,2|0,0:0|2:0,0:0:0:0:
320,88,132906,2,2,B|311:130|311:130|448:96,1,161.999995056153,0|0,0:0|2:0,0:0:0:0:
488,56,133209,6,0,P|467:38|442:29,1,53.9999983520508,2|0,0:0|2:0,0:0:0:0:
240,56,133361,2,0,P|222:76|213:101,1,53.9999983520508,2|0,0:0|2:0,0:0:0:0:
232,300,133512,2,0,P|252:317|277:326,1,53.9999983520508,2|0,0:0|2:0,0:0:0:0:
480,300,133664,2,0,P|497:279|506:254,1,53.9999983520508,2|0,0:0|2:0,0:0:0:0:
364,180,133815,5,0,0:0:0:0:
212,101,134043,1,0,0:0:0:0:
196,105,134119,1,0,0:0:0:0:
380,176,134346,1,0,0:0:0:0:
396,172,134422,1,0,0:0:0:0:
232,300,134649,1,0,0:0:0:0:
216,304,134725,1,0,0:0:0:0:
40,208,134952,1,0,0:0:0:0:
56,200,135028,6,2,B|64:172|96:156|96:156|152:184|232:156|232:156|212:128|160:100,1,270.000010299683
88,60,135482,21,0,0:0:0:0:
280,84,135634,1,0,0:0:0:0:
108,232,135785,1,0,0:0:0:0:
179,111,135937,1,0,1:0:0:0:
232,288,136088,1,0,0:0:0:0:
112,156,136240,5,0,0:0:0:0:
96,152,136315,1,0,0:0:0:0:
80,148,136391,1,0,0:0:0:0:
4,260,136543,1,0,1:0:0:0:
192,176,136694,1,0,0:0:0:0:
4,120,136846,1,0,0:0:0:0:
132,40,136997,1,0,0:0:0:0:
148,44,137072,1,0,0:0:0:0:
164,48,137148,1,0,1:0:0:0:
312,72,137300,1,0,0:0:0:0:
205,256,137452,22,0,P|185:228|197:168,1,90,4|0,2:1|1:0,0:0:0:0:
356,184,137906,5,0,0:0:0:0:
224,336,138058,1,0,0:0:0:0:
191,175,138209,1,0,0:0:0:0:
288,260,138361,1,0,1:0:0:0:
416,112,138512,5,0,0:0:0:0:
433,106,138588,1,0,0:0:0:0:
449,100,138664,1,0,0:0:0:0:
476,212,138815,1,0,0:0:0:0:
316,152,138967,1,0,1:0:0:0:
392,40,139119,1,0,0:0:0:0:
409,34,139195,1,0,0:0:0:0:
425,28,139271,1,0,0:0:0:0:
512,144,139422,37,0,0:0:0:0:
404,180,139574,1,0,1:0:0:0:
296,212,139725,1,0,0:0:0:0:
124,124,139876,38,0,L|36:96,1,90,4|0,0:1|1:2,0:2:0:0:
38,96,140331,5,0,0:0:0:0:
108,36,140482,1,0,0:0:0:0:
208,232,140634,5,0,0:0:0:0:
304,152,140785,1,0,1:0:0:0:
212,248,140937,1,0,0:0:0:0:
124,124,141088,1,0,0:0:0:0:
136,108,141164,1,0,0:0:0:0:
148,92,141240,1,0,0:0:0:0:
276,36,141391,1,0,1:0:0:0:
396,120,141543,2,0,L|492:100,1,90
452,268,141846,21,0,0:0:0:0:
440,276,141922,1,0,0:0:0:0:
428,284,141997,2,0,L|414:226,1,58.4999973220826,0|0,1:0|0:0,0:0:0:0:
308,104,142149,2,0,L|294:162,1,58.4999973220826,0|0,1:0|0:0,0:0:0:0:
168,224,142300,38,0,B|56:212|56:212|104:180,1,135.000005149842,4|0,0:2|0:0,0:0:0:0:
320,52,142603,2,0,L|468:68,1,135.000005149842,4|0,0:2|0:0,0:0:0:0:
192,332,142906,2,0,L|44:316,1,135.000005149842,4|0,0:2|0:0,0:2:0:0:
24,252,143134,1,0,0:0:0:0:
24,252,143209,1,0,0:0:0:0:
120,164,143361,1,0,0:0:0:0:
360,296,143512,2,2,B|395:311|407:351|407:351|447:283|407:207|407:207|431:135|402:101,1,337.500012874604,2|0,0:0|0:0,0:0:0:0:
348,47,143967,5,0,0:0:0:0:
325,85,144042,1,0,0:0:0:0:
328,129,144118,1,0,0:0:0:0:
354,165,144194,1,0,0:0:0:0:
396,180,144270,1,0,0:0:0:0:
439,170,144345,1,0,0:0:0:0:
469,138,144421,1,0,0:0:0:0:
477,94,144497,1,0,0:0:0:0:
459,53,144573,1,0,0:0:0:0:
422,29,144648,1,0,0:0:0:0:
402,101,144725,6,0,L|242:131,1,161.999995056153,4|0,0:2|2:0,0:0:0:0:
176,100,145028,1,8,0:0:0:0:
40,224,145179,1,0,0:0:0:0:
76,48,145331,1,0,0:0:0:0:
140,276,145482,1,0,0:0:0:0:
104,160,145634,1,8,0:0:0:0:
104,160,145709,1,0,0:0:0:0:
104,160,145785,1,0,0:0:0:0:
232,260,145937,6,0,L|360:240,1,107.999996704102,4|0,0:2|0:0,0:0:0:0:
476,348,146240,1,8,0:0:0:0:
338,243,146391,2,0,B|316:164|352:88|352:88|384:156,1,215.999993408203,4|0,0:2|0:0,0:0:0:0:
466,295,146846,21,8,0:0:0:0:
338,243,146997,1,8,0:0:0:0:
484,80,147149,2,0,L|472:224,1,107.999996704102,4|0,0:2|0:0,0:0:0:0:
456,340,147452,1,8,0:0:0:0:
312,292,147603,1,0,0:0:0:0:
300,288,147679,1,0,0:0:0:0:
288,284,147755,2,0,B|224:316|224:316|176:308,1,107.999996704102
28,196,148058,1,4,0:2:0:0:
28,196,148134,1,0,0:0:0:0:
28,196,148209,1,0,0:0:0:0:
216,172,148361,6,0,P|217:118|193:70,1,107.999996704102,4|0,0:2|0:0,0:0:0:0:
28,120,148664,1,8,0:0:0:0:
193,70,148815,2,0,B|273:34|356:45|356:45|297:94,1,215.999993408203,4|0,0:2|0:0,0:0:0:0:
216,172,149270,5,8,0:0:0:0:
193,70,149422,1,8,0:0:0:0:
396,48,149573,2,0,B|404:100|372:136|372:136|408:220,1,161.999995056153,4|0,0:2|2:0,0:0:0:0:
424,272,149876,21,8,0:0:0:0:
248,220,150028,1,0,0:3:0:0:
398,198,150179,1,0,0:3:0:0:
240,300,150331,1,0,0:3:0:0:
448,344,150482,1,8,0:0:0:0:
448,344,150558,1,8,0:0:0:0:
448,344,150634,1,8,0:0:0:0:
248,220,150785,6,0,L|141:236,1,107.999996704102,4|0,0:2|0:0,0:0:0:0:
16,256,151088,1,8,0:0:0:0:
248,220,151240,2,0,B|392:196|392:196|324:156,1,215.999993408203,4|0,0:2|0:0,0:0:0:0:
128,36,151694,2,0,P|72:92|96:188,1,161.999995056153,4|0,0:2|0:0,0:2:0:0:
80,169,151997,6,0,L|188:148,1,107.999996704102,4|0,0:2|0:0,0:0:0:0:
432,215,152300,2,0,L|324:236,1,107.999996704102,4|0,0:2|0:0,0:0:0:0:
256,192,152528,1,0,0:0:0:0:
256,192,152603,1,0,0:0:0:0:
400,316,152755,21,8,0:0:0:0:
364,140,152906,1,8,0:0:0:0:
272,296,153058,1,8,0:0:0:0:
112,136,153209,6,0,P|52:144|8:188,1,107.999996704102,4|0,0:2|0:0,0:0:0:0:
188,340,153512,2,0,L|196:216,1,107.999996704102,4|0,0:2|0:0,0:0:0:0:
256,192,153740,1,0,0:0:0:0:
256,192,153815,1,0,0:0:0:0:
364,240,153967,5,12,2:3:0:0:
476,200,154119,1,4,2:3:0:0:
492,84,154270,1,4,2:3:0:0:
256,48,154422,6,0,L|176:68,1,53.9999983520508,4|0,0:0|2:0,0:0:0:0:
12,188,154573,2,0,L|92:208,1,53.9999983520508,0|0,0:0|2:0,0:0:0:0:
264,304,154725,2,0,L|256:250,1,53.9999983520508,4|0,0:0|2:0,0:0:0:0:
232,76,154876,2,0,L|152:96,1,53.9999983520508,0|0,0:0|2:0,0:0:0:0:
32,224,155028,6,0,L|112:244,1,53.9999983520508,12|0,0:0|2:0,0:0:0:0:
268,332,155331,1,8,0:0:0:0:
400,228,155482,2,0,P|425:230|460:252,1,53.9999983520508,8|0,0:0|2:0,0:0:0:0:
372,48,155785,2,0,P|340:96|356:160,1,107.999996704102,8|0,0:0|0:0,0:0:0:0:
408,312,156240,5,0,0:0:0:0:
408,312,156315,1,0,0:0:0:0:
408,312,156391,1,0,0:0:0:0:
292,216,156543,2,0,P|266:218|232:240,1,53.9999983520508,8|0,0:0|2:0,0:0:0:0:
32,296,156846,22,0,L|48:228,1,53.9999983520508,4|0,0:0|2:0,0:0:0:0:
156,44,156997,2,0,P|176:56|196:80,1,53.9999983520508,0|0,0:0|2:0,0:0:0:0:
268,296,157149,2,0,L|332:280,1,53.9999983520508,4|0,0:0|2:0,0:0:0:0:
496,156,157300,2,0,P|496:120|476:84,1,53.9999983520508,0|0,0:0|2:0,0:0:0:0:
320,88,157452,6,0,L|267:101,1,53.9999983520508,12|0,0:0|2:0,0:0:0:0:
52,152,157755,1,8,0:0:0:0:
88,344,157906,2,0,L|79:290,1,53.9999983520508,12|0,0:0|2:0,0:0:0:0:
52,152,158209,5,8,0:0:0:0:
244,193,158361,2,0,L|192:180,1,53.9999983520508,12|0,0:0|2:0,0:0:0:0:
276,44,158664,2,0,P|292:72|296:104,1,53.9999983520508,8|0,0:0|0:0,0:0:0:0:
316,160,158891,1,0,0:0:0:0:
316,160,158967,2,0,L|368:173,1,53.9999983520508,2|0,0:0|2:0,0:0:0:0:
492,312,159270,22,0,P|465:328|420:332,1,53.9999983520508,4|0,0:0|2:0,0:0:0:0:
240,316,159422,2,0,L|251:263,1,53.9999983520508,0|0,0:0|2:0,0:0:0:0:
256,64,159573,2,0,P|282:47|328:44,1,53.9999983520508,4|0,0:0|2:0,0:0:0:0:
508,60,159725,2,0,L|496:112,1,53.9999983520508,0|0,0:0|2:0,0:0:0:0:
368,173,159876,6,0,L|316:160,1,53.9999983520508,12|0,0:0|2:0,0:0:0:0:
128,116,160179,1,2,0:0:0:0:
36,149,160331,2,2,P|89:151|128:116,1,107.999996704102
264,36,160785,6,0,P|272:62|276:100,1,53.9999983520508,8|0,0:0|2:0,0:0:0:0:
364,196,161088,2,0,P|390:192|416:184,1,53.9999983520508,8|0,0:0|2:0,0:0:0:0:
276,104,161391,2,0,P|249:107|223:115,1,53.9999983520508,8|0,0:0|2:0,0:0:0:0:
36,312,161694,5,4,0:0:0:0:
188,232,161846,1,0,0:0:0:0:
188,232,161922,1,0,0:0:0:0:
188,232,161997,1,6,0:0:0:0:
56,64,162149,1,0,0:0:0:0:
44,220,162300,1,6,0:0:0:0:
268,208,162452,1,0,0:0:0:0:
52,140,162603,1,2,0:0:0:0:
244,288,162755,2,2,L|412:252,1,161.999995056153
492,104,163361,21,8,0:0:0:0:
492,104,163437,1,8,0:0:0:0:
492,104,163512,1,8,0:0:0:0:
416,164,163664,1,4,2:3:0:0:
320,188,163815,1,4,2:3:0:0:
228,156,163967,1,4,2:3:0:0:
36,324,164119,38,0,L|108:308,1,53.9999983520508,4|0,0:0|2:0,0:0:0:0:
264,280,164270,2,0,L|256:226,1,53.9999983520508,0|0,0:0|2:0,0:0:0:0:
388,48,164422,2,0,P|412:68|428:108,1,53.9999983520508,4|0,0:0|2:0,0:0:0:0:
480,272,164573,1,0,0:0:0:0:
480,272,164649,1,0,0:0:0:0:
480,272,164725,6,0,L|372:284,1,107.999996704102,12|0,0:0|0:0,0:0:0:0:
160,332,165179,1,0,0:0:0:0:
160,332,165255,1,0,0:0:0:0:
160,332,165331,1,0,0:0:0:0:
256,226,165482,1,8,0:0:0:0:
436,320,165634,1,8,0:0:0:0:
340,108,165785,1,8,0:0:0:0:
203,230,165937,6,2,P|230:233|256:226,1,53.9999983520508,0|0,0:0|2:0,0:0:0:0:
392,104,166240,2,2,P|365:100|340:108,1,53.9999983520508,0|0,0:0|2:0,0:0:0:0:
68,60,166543,22,0,P|58:84|60:128,1,53.9999983520508,4|0,0:0|2:0,0:0:0:0:
80,316,166694,2,0,L|136:300,1,53.9999983520508,0|0,0:0|2:0,0:0:0:0:
348,276,166846,2,0,P|346:249|336:224,1,53.9999983520508,4|0,0:0|2:0,0:0:0:0:
136,128,166997,1,0,0:0:0:0:
136,128,167073,1,0,0:0:0:0:
136,128,167149,6,0,L|124:184,1,53.9999983520508,12|0,0:0|2:0,0:0:0:0:
244,336,167452,38,0,L|300:328,1,53.9999983520508,4|0,0:0|2:0,0:0:0:0:
472,296,167603,5,0,0:3:0:0:
472,296,167679,1,0,0:3:0:0:
472,296,167755,1,4,0:0:0:0:
192,252,167906,1,8,0:0:0:0:
320,100,168058,1,8,0:0:0:0:
384,312,168209,1,8,0:0:0:0:
156,248,168361,6,0,L|80:232,1,53.9999983520508,8|0,0:0|2:0,0:0:0:0:
216,48,168664,2,0,P|229:75|236:112,1,53.9999983520508,2|0,0:0|2:0,0:0:0:0:
428,216,168967,22,0,L|480:202,1,53.9999983520508,4|0,0:0|2:0,0:0:0:0:
304,162,169118,2,0,L|252:176,1,53.9999983520508,0|0,0:0|2:0,0:0:0:0:
40,292,169270,2,0,P|28:267|23:241,1,53.9999983520508,4|0,0:0|2:0,0:0:0:0:
120,40,169422,2,0,P|131:64|136:90,1,53.9999983520508,0|0,0:0|2:0,0:0:0:0:
208,260,169573,6,0,L|260:246,1,53.9999983520508,12|0,0:0|2:0,0:0:0:0:
472,160,169876,1,2,0:0:0:0:
432,60,170028,2,2,P|476:100|472:168,1,107.999996704102
408,248,170482,6,0,P|384:224|376:196,1,53.9999983520508,8|0,0:0|2:0,0:0:0:0:
256,88,170785,2,0,P|232:108|220:132,1,53.9999983520508,8|0,0:0|2:0,0:0:0:0:
56,240,171088,2,0,P|84:240|112:224,1,53.9999983520508,8|0,0:0|2:0,0:0:0:0:
432,336,171391,5,4,0:2:0:0:
256,284,171543,1,0,0:0:0:0:
256,284,171618,1,0,0:0:0:0:
256,284,171694,1,2,0:0:0:0:
476,176,171846,1,0,0:0:0:0:
340,312,171997,1,6,0:0:0:0:
272,108,172149,1,0,0:0:0:0:
456,252,172300,1,2,0:0:0:0:
172,260,172452,22,2,B|44:224|44:224|112:192,1,180,6|0,0:0|2:1,0:0:0:0:
108,92,172906,2,0,P|156:92|208:136,1,90,0|0,0:0|2:0,0:0:0:0:
456,252,173209,37,0,0:0:0:0:
456,252,173285,1,0,0:0:0:0:
456,252,173361,1,0,0:0:0:0:
456,252,173437,1,0,0:0:0:0:
456,252,173512,1,0,0:0:0:0:
456,252,173588,1,0,0:0:0:0:
456,252,173664,1,0,0:0:0:0:
456,252,173740,5,0,0:0:0:0:
456,252,173815,38,0,L|384:260,1,72,4|0,0:0|2:0,0:0:0:0:
116,320,173967,2,0,L|144:236,1,72,0|0,0:0|2:0,0:0:0:0:
336,196,174118,2,0,L|407:187,1,72,4|0,0:0|2:0,0:0:0:0:
260,32,174270,2,0,P|236:56|232:112,1,72,0|0,0:0|2:0,0:0:0:0:
116,320,174422,6,0,P|154:320|184:305,1,67.5,8|0,0:1|2:0,0:0:0:0:
224,332,174725,38,0,P|211:301|212:268,1,67.5,4|0,0:1|2:0,0:0:0:0:
368,64,174876,6,0,P|401:68|430:86,1,67.5,8|0,0:0|2:0,0:0:0:0:
486,103,175179,38,0,P|450:111|418:143,1,67.5000025749208,4|0,0:0|2:0,0:0:0:0:
212,268,175331,6,0,L|145:258,1,67.5,8|0,0:0|2:0,0:0:0:0:
76,128,175634,6,0,L|92:28,1,90,6|0,1:0|2:0,2:0:0:0:
436,256,175937,2,0,L|420:356,1,90,6|0,1:0|2:0,2:0:0:0:
212,340,176240,22,0,L|139:330,1,72,4|0,0:0|2:0,0:0:0:0:
20,192,176391,1,0,0:0:0:0:
20,192,176467,1,0,0:0:0:0:
20,192,176543,2,0,P|56:192|96:172,1,72,4|0,0:0|2:0,0:0:0:0:
248,52,176694,2,0,L|260:124,1,72,0|0,0:0|2:0,0:0:0:0:
332,296,176846,6,0,P|362:293|404:264,1,67.5,8|0,0:0|2:0,0:0:0:0:
448,256,177149,38,0,P|417:253|376:224,1,67.5,4|0,0:0|2:0,0:0:0:0:
200,168,177300,6,0,P|186:137|186:104,1,67.5,8|0,0:0|2:0,0:0:0:0:
173,40,177603,38,0,P|186:70|186:103,1,67.5,4|0,0:0|2:0,0:0:0:0:
116,304,177755,6,0,L|40:320,1,67.5,8|0,0:0|2:0,0:0:0:0:
200,168,178058,2,0,L|216:244,1,67.5,8|0,0:0|2:0,0:0:0:0:
452,332,178361,6,0,P|476:280|448:208,1,107.999996704102,6|0,0:0|2:0,0:0:0:0:
44,92,178664,21,4,0:0:0:0:
44,92,178815,1,4,0:0:0:0:
44,92,178967,1,4,0:0:0:0:
44,92,179118,1,4,0:0:0:0:
213,234,179270,6,0,L|293:222,1,67.5000025749208,8|0,0:0|2:0,0:0:0:0:
448,208,179573,1,8,0:0:0:0:
312,40,179725,2,0,P|296:80|304:124,1,67.5000025749208,8|0,0:0|2:0,0:0:0:0:
300,320,180027,5,8,0:0:0:0:
492,232,180179,2,0,P|491:198|477:168,1,67.5000025749208,8|0,0:0|2:0,0:0:0:0:
297,103,180482,2,0,L|222:116,1,67.5000025749208,8|0,0:0|2:0,0:0:0:0:
116,240,180785,2,0,P|76:234|32:204,1,67.5000025749208,8|0,0:0|2:0,0:0:0:0:
104,64,181088,22,0,B|125:54|125:54|176:72,1,72,4|0,0:0|2:0,0:0:0:0:
352,152,181240,2,0,L|418:140,1,67.5000025749208,0|0,0:0|2:0,0:0:0:0:
440,332,181391,2,0,B|418:341|418:341|368:324,1,72,4|0,0:0|2:0,0:0:0:0:
144,276,181543,2,0,P|142:234|160:208,1,72,0|0,0:0|2:0,0:0:0:0:
316,41,181694,6,2,P|362:87|352:152,1,135.000005149842
176,140,182149,2,2,B|104:100|35:101|35:101|52:132|44:164,1,202.500007724762,6|2,0:0|0:0,0:0:0:0:
80,324,182755,1,0,0:0:0:0:
80,324,182831,1,0,0:0:0:0:
80,324,182906,1,0,0:0:0:0:
80,324,182982,1,0,0:0:0:0:
80,324,183058,1,0,0:0:0:0:
80,324,183134,1,0,0:0:0:0:
80,324,183209,1,0,0:0:0:0:
80,324,183285,1,0,0:0:0:0:
80,324,183361,1,0,0:0:0:0:
80,324,183437,1,0,0:0:0:0:
80,324,183512,38,0,L|168:312,1,72,4|0,0:0|2:0,0:0:0:0:
356,316,183664,1,0,0:0:0:0:
356,316,183740,1,0,0:0:0:0:
356,316,183815,2,0,P|352:268|336:236,1,72,4|0,0:0|2:0,0:0:0:0:
156,68,183967,2,0,P|160:116|176:148,1,72,0|0,0:0|2:0,0:0:0:0:
360,69,184118,6,0,L|432:60,1,67.5,8|0,0:0|2:0,0:0:0:0:
340,88,184422,38,0,L|411:78,1,72,4|0,0:0|2:0,0:0:0:0:
184,216,184573,6,0,P|144:212|120:200,1,67.5,8|0,0:0|2:0,0:0:0:0:
128,176,184876,38,0,P|168:180|192:192,1,67.5,4|0,0:0|2:0,0:0:0:0:
356,312,185028,6,0,L|427:302,1,67.5,4|0,0:0|2:0,0:0:0:0:
496,176,185331,5,0,0:0:0:0:
496,176,185406,1,0,0:0:0:0:
496,176,185482,1,0,0:0:0:0:
496,176,185558,1,0,0:0:0:0:
496,176,185634,1,0,0:0:0:0:
496,176,185709,1,0,0:0:0:0:
496,176,185785,1,0,0:0:0:0:
496,176,185861,1,0,0:0:0:0:
496,176,185937,22,0,P|475:139|448:120,1,72,4|0,0:0|2:0,0:0:0:0:
296,56,186088,1,0,0:0:0:0:
296,56,186164,1,0,0:0:0:0:
296,56,186240,2,0,L|225:68,1,72,4|0,0:0|2:0,0:0:0:0:
40,196,186391,2,0,P|68:216|120:220,1,72,0|0,0:0|2:0,0:0:0:0:
308,328,186543,6,0,L|314:260,1,67.5,8|0,0:0|2:0,0:0:0:0:
372,212,186846,38,0,P|342:192|288:193,1,72,4|0,0:0|2:0,0:0:0:0:
156,84,186997,1,0,0:0:0:0:
156,84,187073,1,0,0:0:0:0:
156,84,187149,2,0,L|85:96,1,72,0|0,0:0|2:0,0:0:0:0:
96,336,187300,2,0,P|120:308|128:268,1,72,4|0,0:0|2:0,0:0:0:0:
224,116,187452,2,0,L|294:103,1,72,4|0,0:0|2:0,0:0:0:0:
464,36,187603,2,0,P|484:69|477:128,1,72,4|0,0:0|2:0,0:0:0:0:
416,336,187755,6,0,P|360:336|326:308,1,90,8|2,0:0|0:0,0:0:0:0:
333,317,188134,1,0,0:0:0:0:
333,317,188209,1,0,0:0:0:0:
360,136,188361,38,0,L|372:208,1,72,4|0,0:0|2:0,0:0:0:0:
228,340,188512,2,0,P|188:332|160:312,1,72,0|0,0:0|2:0,0:0:0:0:
12,204,188664,2,0,P|38:173|70:159,1,72,4|0,0:0|2:0,0:0:0:0:
272,48,188815,2,0,L|284:120,1,72,0|0,0:0|2:0,0:0:0:0:
416,280,188967,6,0,P|456:272|484:252,1,67.5000025749208,8|0,0:0|2:0,0:0:0:0:
296,188,189270,1,2,0:0:0:0:
388,32,189422,2,2,P|436:72|432:152,1,135.000005149842
360,169,189876,6,0,L|296:188,1,67.5000025749208,8|0,0:0|2:0,0:0:0:0:
180,128,190179,2,0,P|140:132|100:156,1,67.5000025749208,8|0,0:0|2:0,0:0:0:0:
96,324,190482,2,0,P|112:284|108:244,1,67.5000025749208,8|0,0:0|2:0,0:0:0:0:
444,300,190785,5,4,0:2:0:0:
296,188,190937,1,0,0:0:0:0:
296,188,191012,1,0,0:0:0:0:
296,188,191088,1,4,0:0:0:0:
400,76,191240,1,0,0:0:0:0:
408,276,191391,1,0,0:0:0:0:
224,176,191543,1,0,0:0:0:0:
468,124,191694,1,4,0:0:0:0:
328,28,191846,1,0,0:0:0:0:
133,198,191997,37,0,0:0:0:0:
157,240,192072,1,0,0:0:0:0:
200,263,192148,1,0,0:0:0:0:
249,261,192224,1,0,0:0:0:0:
290,234,192300,1,0,0:0:0:0:
311,190,192375,1,0,0:0:0:0:
306,142,192451,1,0,0:0:0:0:
278,102,192527,1,0,0:0:0:0:
236,92,192603,5,0,0:0:0:0:
196,100,192678,1,0,0:0:0:0:
172,128,192754,1,0,0:0:0:0:
168,160,192830,1,0,0:0:0:0:
180,184,192906,1,0,0:0:0:0:
200,196,192981,1,0,0:0:0:0:
220,196,193057,1,0,0:0:0:0:
236,192,193133,1,0,0:0:0:0:
250,180,193209,22,0,L|236:92,1,90,2|2,0:0|0:0,0:0:0:0:
240,80,193664,1,0,0:0:0:0:
352,104,193815,1,2,0:0:0:0:
356,92,193967,1,0,0:0:0:0:
472,120,194118,1,2,0:0:0:0:
476,108,194270,2,0,L|472:208,1,90,0|2,0:3|0:0,0:0:0:0:
464,312,194725,1,2,0:0:0:0:
180,296,195028,6,0,L|280:308,1,90,2|2,0:0|0:0,0:0:0:0:
324,352,195406,1,2,0:0:0:0:
324,352,195482,1,2,0:0:0:0:
272,208,195634,6,0,P|274:142|295:112,1,90,4|2,0:2|0:2,0:0:0:0:
300,116,196088,1,0,2:2:0:0:
176,160,196240,1,2,0:0:0:0:
191,154,196391,1,0,0:0:0:0:
56,204,196543,1,2,0:2:0:0:
71,198,196694,2,0,L|60:96,1,90,2|2,0:0|0:0,0:0:0:0:
191,154,197149,2,0,P|212:204|200:243,1,90,2|2,0:0|0:0,0:0:0:0:
140,288,197528,1,2,2:2:0:0:
140,288,197603,1,2,2:2:0:0:
284,344,197755,22,2,L|275:277,1,67.5,0|0,2:1|2:0,0:0:0:0:
404,60,198058,38,0,L|416:144,1,72,4|0,0:0|2:0,0:0:0:0:
108,60,198209,2,0,L|96:144,1,72,0|0,0:0|2:0,0:0:0:0:
428,212,198361,2,0,L|440:296,1,72,4|0,0:0|2:0,0:0:0:0:
84,212,198512,2,0,L|72:296,1,72,0|0,0:0|2:0,0:0:0:0:
256,360,198664,6,0,L|256:292,1,67.5000025749208,8|0,0:0|2:0,0:0:0:0:
256,120,198967,5,8,0:0:0:0:
363,225,199118,2,0,P|397:225|428:212,1,67.5000025749208,8|0,0:0|2:0,0:0:0:0:
132,60,199422,5,8,0:0:0:0:
240,196,199573,2,0,P|273:196|304:182,1,67.5000025749208,8|0,0:0|2:0,0:0:0:0:
112,44,199876,22,0,L|108:120,1,67.5000025749208,8|0,0:0|2:0,0:0:0:0:
68,296,200179,2,0,P|109:294|140:273,1,67.5000025749208,8|0,0:0|2:0,0:0:0:0:
320,304,200482,38,0,L|400:288,1,72,4|0,0:0|2:0,0:0:0:0:
504,156,200634,2,0,P|468:140|424:140,1,72,0|0,0:0|2:0,0:0:0:0:
252,40,200785,2,0,L|244:132,1,72,4|0,0:0|2:0,0:0:0:0:
249,318,200937,2,0,L|329:302,1,72,0|0,0:0|2:0,0:0:0:0:
435,138,201088,22,2,B|316:96|316:96|310:176,1,180
176,332,201543,2,2,B|136:328|104:352|104:352|36:344|36:344|12:296|28:248,1,225,2|0,0:0|2:0,0:0:0:0:
45,139,201997,2,0,P|95:145|126:169,1,90,8|0,0:0|2:0,0:0:0:0:
404,280,202300,5,0,0:0:0:0:
404,280,202376,5,0,0:0:0:0:
404,280,202452,5,0,0:0:0:0:
404,280,202528,5,0,0:0:0:0:
404,280,202603,5,0,0:0:0:0:
404,280,202679,5,0,0:0:0:0:
404,280,202755,5,0,0:0:0:0:
404,280,202831,37,0,0:0:0:0:
404,280,202906,22,0,L|392:84,1,180,4|8,0:0|0:0,0:0:0:0:
308,40,203361,1,0,0:0:0:0:
152,177,203512,2,0,P|105:166|56:157,1,90,8|0,0:0|1:0,0:0:0:0:
279,59,203815,1,8,0:0:0:0:
312,224,203967,2,0,P|401:206|492:192,1,180,4|0,0:0|0:0,0:0:0:0:
476,76,204422,2,0,P|434:72|379:63,1,90,4|0,0:0|2:0,0:0:0:0:
168,188,204725,6,0,P|119:142|140:52,1,135,8|0,0:0|2:0,0:0:0:0:
196,20,205028,2,0,L|192:128,1,90,8|0,0:0|2:0,0:0:0:0:
172,328,205331,21,4,0:0:0:0:
64,164,205482,1,0,0:0:0:0:
348,292,205634,2,0,P|259:308|172:328,1,180,4|8,0:0|0:0,0:0:0:0:
56,280,206088,1,8,0:0:0:0:
208,168,206240,1,8,0:0:0:0:
22,103,206391,2,0,P|40:181|58:303,1,180,4|0,0:0|0:0,0:0:0:0:
188,256,206846,2,0,P|235:264|304:280,1,90,4|0,0:0|2:0,0:0:0:0:
458,336,207149,6,0,P|497:284|482:220,1,135,8|0,0:0|2:0,0:0:0:0:
492,126,207452,2,0,P|447:142|382:171,1,90,8|0,0:0|2:0,0:0:0:0:
188,256,207755,5,4,0:0:0:0:
248,40,207906,1,0,0:0:0:0:
82,135,208058,2,0,L|96:224,1,90,4|0,0:0|2:0,0:0:0:0:
112,356,208361,1,8,0:0:0:0:
355,317,208512,2,0,P|273:280|187:255,1,180,8|4,0:0|0:0,0:0:0:0:
96,224,208891,21,0,0:0:0:0:
96,224,208967,1,0,0:0:0:0:
228,348,209118,1,0,0:0:0:0:
333,229,209270,2,0,P|289:211|241:199,1,90,4|0,0:0|2:0,0:0:0:0:
104,144,209573,2,0,L|112:44,1,90,8|0,0:0|2:0,0:0:0:0:
408,196,209876,2,0,L|504:176,1,90,8|0,0:0|2:0,0:0:0:0:
260,68,210179,5,4,0:0:0:0:
228,192,210331,1,0,0:0:0:0:
192,312,210482,1,4,0:0:0:0:
200,320,210785,5,8,0:0:0:0:
400,216,210937,1,0,0:0:0:0:
400,216,211012,1,0,0:0:0:0:
400,216,211088,1,0,0:0:0:0:
288,116,211240,1,12,0:0:0:0:
344,316,211391,1,0,0:0:0:0:
496,200,211543,1,8,0:0:0:0:
406,93,211694,2,0,P|364:102|286:117,1,90,4|0,0:0|2:0,0:0:0:0:
80,252,211997,5,8,0:3:0:0:
80,252,212073,5,0,0:3:0:0:
80,252,212149,5,0,0:3:0:0:
80,252,212225,5,0,0:3:0:0:
80,252,212300,5,4,0:3:0:0:
80,252,212376,5,4,0:3:0:0:
80,252,212452,5,4,0:3:0:0:
80,252,212528,5,4,0:3:0:0:
80,252,212603,22,0,L|66:144,1,90,4|0,0:0|0:0,0:0:0:0:
248,168,212906,2,0,L|356:154,1,90,4|0,0:0|0:0,0:0:0:0:
52,72,213209,1,8,0:0:0:0:
52,72,213512,5,8,0:0:0:0:
200,200,213664,2,0,P|292:183|394:169,1,180,4|8,0:0|0:0,0:0:0:0:
480,56,214118,2,0,P|432:64|392:112,1,90,4|0,0:0|2:0,0:0:0:0:
224,280,214422,6,0,P|160:276|124:192,1,135,8|0,0:0|2:0,0:0:0:0:
45,191,214725,2,0,L|52:90,1,90,8|0,1:0|2:0,0:0:0:0:
336,40,215028,21,4,0:0:0:0:
172,156,215179,1,0,0:0:0:0:
408,256,215331,1,4,0:0:0:0:
404,240,215634,5,8,0:0:0:0:
248,144,215785,1,0,0:0:0:0:
248,144,215861,1,0,0:0:0:0:
248,144,215937,1,0,0:0:0:0:
432,48,216088,1,12,0:0:0:0:
480,284,216240,1,0,0:0:0:0:
328,156,216391,1,8,0:0:0:0:
220,316,216543,2,0,L|332:300,1,90,4|0,0:0|2:0,0:0:0:0:
168,224,216846,6,0,L|16:244,1,135,8|0,0:0|2:0,0:0:0:0:
56,76,217149,2,0,P|93:120|97:164,1,90,8|0,0:0|2:0,0:0:0:0:
68,344,217452,21,4,0:0:0:0:
68,344,217603,1,0,0:0:0:0:
220,316,217755,2,0,P|308:302|398:298,1,180,4|8,0:0|0:0,0:0:0:0:
480,226,218209,2,4,P|474:125|464:14,1,180,12|4,0:0|0:0,0:0:0:0:
392,27,218588,1,0,0:0:0:0:
392,27,218664,1,0,0:0:0:0:
300,157,218815,1,0,0:0:0:0:
114,111,218967,2,0,P|163:83|219:81,1,90,4|0,0:0|2:0,0:0:0:0:
316,137,219270,6,0,L|304:312,1,135,8|0,0:0|2:0,0:0:0:0:
387,320,219573,2,0,L|392:208,1,90,8|0,0:0|2:0,0:0:0:0:
236,44,219876,5,4,0:0:0:0:
208,160,220028,1,0,0:0:0:0:
180,272,220179,1,4,0:0:0:0:
2,298,220482,22,0,P|85:281|214:270,1,180,12|8,0:0|0:0,0:0:0:0:
292,156,220937,1,0,0:0:0:0:
432,40,221088,6,0,L|444:136,1,53.9999983520508,4|0,2:0|2:0,2:0:0:0:
464,264,221240,21,0,0:0:0:0:
432,244,221315,1,0,0:0:0:0:
392,236,221391,1,0,0:0:0:0:
352,240,221467,1,0,0:0:0:0:
316,260,221543,1,8,0:3:0:0:
280,276,221618,1,8,0:3:0:0:
240,280,221694,1,8,0:3:0:0:
200,268,221770,1,4,0:3:0:0:
172,240,221846,1,4,0:3:0:0:
168,200,221922,1,4,0:3:0:0:
188,164,221997,1,4,0:3:0:0:
224,148,222073,1,0,0:3:0:0:
264,156,222149,1,0,0:3:0:0:
288,188,222225,1,0,0:3:0:0:
