osu file format v14

[General]
AudioFilename: Break a spell.mp3
AudioLeadIn: 0
PreviewTime: 46845
Countdown: 0
SampleSet: Soft
StackLeniency: 0.7
Mode: 3
LetterboxInBreaks: 0
SpecialStyle: 0
WidescreenStoryboard: 0

[Editor]
Bookmarks: 560,6045,17017,27988,38960,47188,58160,69131,71874,81474,89360
DistanceSpacing: 0.8
BeatDivisor: 4
GridSize: 32
TimelineZoom: 1.3

[Metadata]
Title:Break a spell (TV-size)
TitleUnicode:Break a spell (TV-size)
Artist:Kawada Mami
ArtistUnicode:川田まみ
Creator:No_sync
Version:Break an HD
Source:東京レイヴンズ
Tags:Tokyo Ravens second ending
BeatmapID:908722
BeatmapSetID:419679

[Difficulty]
HPDrainRate:8
CircleSize:4
OverallDifficulty:7.5
ApproachRate:5
SliderMultiplier:1.4
SliderTickRate:2

[Events]
//Background and Video events
Video,0,"Video.avi"
0,0,"BG2.jpg",0,0
//Break Periods
//Storyboard Layer 0 (Background)
//Storyboard Layer 1 (Fail)
//Storyboard Layer 2 (Pass)
//Storyboard Layer 3 (Foreground)
//Storyboard Sound Samples

[TimingPoints]
560,342.857142857143,4,2,1,30,1,0
17017,-100,4,2,1,20,0,0
27988,-100,4,2,1,30,0,0
47188,-100,4,2,1,30,0,1
69131,-100,4,2,1,30,0,0

[HitObjects]
64,192,560,128,2,902:0:0:0:0:
448,192,560,1,0,0:0:0:0:
320,192,902,128,2,1245:0:0:0:0:
64,192,1245,1,2,0:0:0:0:
192,192,1245,128,0,1588:0:0:0:0:
448,192,1588,128,2,1931:0:0:0:0:
64,192,1931,1,2,0:0:0:0:
192,192,1931,128,0,2274:0:0:0:0:
320,192,2274,128,2,2617:0:0:0:0:
64,192,2617,128,2,2960:0:0:0:0:
192,192,2617,1,0,0:0:0:0:
448,192,2960,128,2,3302:0:0:0:0:
64,192,3302,1,2,0:0:0:0:
320,192,3302,128,0,3645:0:0:0:0:
192,192,3474,1,2,0:0:0:0:
64,192,3645,128,2,3988:0:0:0:0:
448,192,3817,1,2,0:0:0:0:
192,192,3988,1,2,0:0:0:0:
320,192,3988,128,0,4331:0:0:0:0:
448,192,4160,1,2,0:0:0:0:
64,192,4331,128,2,4674:0:0:0:0:
320,192,4502,1,2,0:0:0:0:
192,192,4674,1,2,0:0:0:0:
448,192,4674,1,0,0:0:0:0:
320,192,4760,1,2,0:0:0:0:
64,192,4845,1,2,0:0:0:0:
192,192,4931,1,2,0:0:0:0:
448,192,5017,1,2,0:0:0:0:
320,192,5102,1,2,0:0:0:0:
64,192,5188,1,2,0:0:0:0:
192,192,5274,1,2,0:0:0:0:
320,192,5360,1,2,0:0:0:0:
448,192,5445,1,2,0:0:0:0:
192,192,5531,1,2,0:0:0:0:
64,192,5617,1,2,0:0:0:0:
320,192,5702,1,2,0:0:0:0:
448,192,5788,1,2,0:0:0:0:
192,192,5874,1,2,0:0:0:0:
64,192,5960,1,2,0:0:0:0:
320,192,6045,1,6,0:0:0:0:
448,192,6045,128,0,6217:0:0:0:0:
192,192,6217,128,0,6388:0:0:0:0:
320,192,6388,1,8,0:0:0:0:
448,192,6388,1,0,0:0:0:0:
64,192,6560,1,0,0:0:0:0:
192,192,6731,128,0,7074:0:0:0:0:
320,192,6902,1,2,0:0:0:0:
320,192,7074,1,8,0:0:0:0:
448,192,7074,1,0,0:0:0:0:
64,192,7245,1,0,0:0:0:0:
192,192,7417,1,2,0:0:0:0:
320,192,7588,128,0,7760:0:0:0:0:
64,192,7760,1,8,0:0:0:0:
192,192,7760,1,0,0:0:0:0:
64,192,7931,1,2,0:0:0:0:
320,192,8102,1,0,0:0:0:0:
448,192,8274,128,2,8445:0:0:0:0:
192,192,8445,128,8,8788:0:0:0:0:
320,192,8445,1,0,0:0:0:0:
64,192,8617,1,0,0:0:0:0:
320,192,8788,128,2,8960:0:0:0:0:
64,192,8960,128,0,9131:0:0:0:0:
320,192,9131,1,8,0:0:0:0:
448,192,9131,1,0,0:0:0:0:
192,192,9302,1,0,0:0:0:0:
64,192,9474,128,0,9817:0:0:0:0:
448,192,9645,1,2,0:0:0:0:
192,192,9817,1,8,0:0:0:0:
448,192,9817,1,0,0:0:0:0:
320,192,9988,1,0,0:0:0:0:
448,192,10160,128,2,10331:0:0:0:0:
64,192,10331,128,0,10502:0:0:0:0:
192,192,10502,1,8,0:0:0:0:
448,192,10502,1,0,0:0:0:0:
320,192,10674,128,2,11017:0:0:0:0:
64,192,10845,1,0,0:0:0:0:
192,192,11017,128,2,11188:0:0:0:0:
320,192,11188,1,8,0:0:0:0:
448,192,11188,128,0,11531:0:0:0:0:
64,192,11360,1,0,0:0:0:0:
192,192,11531,128,2,11702:0:0:0:0:
320,192,11702,128,0,11874:0:0:0:0:
64,192,11874,1,8,0:0:0:0:
448,192,11874,1,0,0:0:0:0:
192,192,12045,1,0,0:0:0:0:
320,192,12217,128,0,12560:0:0:0:0:
192,192,12388,1,2,0:0:0:0:
64,192,12560,1,8,0:0:0:0:
192,192,12560,1,0,0:0:0:0:
448,192,12731,1,0,0:0:0:0:
64,192,12902,1,2,0:0:0:0:
192,192,13074,128,0,13245:0:0:0:0:
320,192,13245,1,8,0:0:0:0:
448,192,13245,1,0,0:0:0:0:
320,192,13417,1,2,0:0:0:0:
192,192,13588,1,0,0:0:0:0:
320,192,13760,128,2,13931:0:0:0:0:
64,192,13931,128,8,14274:0:0:0:0:
192,192,13931,1,0,0:0:0:0:
320,192,14102,1,0,0:0:0:0:
448,192,14274,128,2,14445:0:0:0:0:
192,192,14445,128,0,14617:0:0:0:0:
320,192,14617,1,8,0:0:0:0:
448,192,14617,1,0,0:0:0:0:
64,192,14788,1,0,0:0:0:0:
192,192,14960,128,0,15302:0:0:0:0:
448,192,15131,1,2,0:0:0:0:
320,192,15302,1,8,0:0:0:0:
448,192,15302,1,0,0:0:0:0:
192,192,15474,128,0,15645:0:0:0:0:
64,192,15645,128,2,15817:0:0:0:0:
448,192,15817,128,0,15988:0:0:0:0:
192,192,15988,128,8,16160:0:0:0:0:
320,192,15988,1,0,0:0:0:0:
448,192,16160,128,2,16502:0:0:0:0:
192,192,16331,1,0,0:0:0:0:
64,192,16502,128,2,16674:0:0:0:0:
192,192,16674,128,8,17017:0:0:0:0:
320,192,16674,1,0,0:0:0:0:
64,192,17017,1,6,0:0:0:0:
320,192,17017,1,0,0:0:0:0:
448,192,17017,1,0,0:0:0:0:
192,192,17188,1,0,0:0:0:0:
64,192,17360,1,2,0:0:0:0:
320,192,17531,1,0,0:0:0:0:
192,192,17702,1,2,0:0:0:0:
448,192,17702,1,0,0:0:0:0:
64,192,17874,1,0,0:0:0:0:
320,192,18045,1,2,0:0:0:0:
192,192,18217,1,0,0:0:0:0:
64,192,18388,1,2,0:0:0:0:
448,192,18388,1,0,0:0:0:0:
320,192,18560,1,0,0:0:0:0:
192,192,18645,1,0,0:0:0:0:
320,192,18731,1,2,0:0:0:0:
64,192,18902,1,0,0:0:0:0:
320,192,19074,1,2,0:0:0:0:
448,192,19074,1,0,0:0:0:0:
192,192,19245,1,0,0:0:0:0:
448,192,19331,1,0,0:0:0:0:
192,192,19417,1,2,0:0:0:0:
320,192,19588,1,0,0:0:0:0:
64,192,19760,1,2,0:0:0:0:
192,192,19760,1,0,0:0:0:0:
320,192,19931,1,0,0:0:0:0:
64,192,20017,1,0,0:0:0:0:
320,192,20102,1,2,0:0:0:0:
192,192,20274,1,0,0:0:0:0:
320,192,20445,1,2,0:0:0:0:
448,192,20445,1,0,0:0:0:0:
192,192,20617,1,0,0:0:0:0:
320,192,20702,1,0,0:0:0:0:
192,192,20788,1,2,0:0:0:0:
320,192,20960,1,0,0:0:0:0:
64,192,21131,1,2,0:0:0:0:
192,192,21131,1,0,0:0:0:0:
448,192,21217,1,0,0:0:0:0:
192,192,21302,1,0,0:0:0:0:
320,192,21388,1,0,0:0:0:0:
64,192,21474,1,2,0:0:0:0:
448,192,21560,1,0,0:0:0:0:
192,192,21645,1,0,0:0:0:0:
320,192,21731,1,0,0:0:0:0:
64,192,21817,1,2,0:0:0:0:
320,192,21902,1,0,0:0:0:0:
192,192,21988,1,0,0:0:0:0:
448,192,22074,1,0,0:0:0:0:
64,192,22160,1,2,0:0:0:0:
320,192,22245,1,0,0:0:0:0:
192,192,22331,1,0,0:0:0:0:
448,192,22417,1,0,0:0:0:0:
64,192,22502,1,2,0:0:0:0:
320,192,22502,1,0,0:0:0:0:
192,192,22674,1,0,0:0:0:0:
448,192,22845,1,2,0:0:0:0:
320,192,23017,1,0,0:0:0:0:
64,192,23188,1,2,0:0:0:0:
192,192,23188,1,0,0:0:0:0:
448,192,23360,1,0,0:0:0:0:
320,192,23531,1,2,0:0:0:0:
192,192,23702,1,0,0:0:0:0:
64,192,23874,1,2,0:0:0:0:
320,192,23874,1,0,0:0:0:0:
448,192,24045,1,0,0:0:0:0:
192,192,24131,1,0,0:0:0:0:
448,192,24217,1,2,0:0:0:0:
320,192,24388,1,0,0:0:0:0:
192,192,24560,1,2,0:0:0:0:
448,192,24560,1,0,0:0:0:0:
64,192,24731,1,0,0:0:0:0:
320,192,24817,1,0,0:0:0:0:
64,192,24902,1,2,0:0:0:0:
448,192,25074,1,0,0:0:0:0:
192,192,25245,1,2,0:0:0:0:
320,192,25245,1,0,0:0:0:0:
448,192,25417,1,0,0:0:0:0:
64,192,25502,1,0,0:0:0:0:
448,192,25588,1,2,0:0:0:0:
64,192,25760,1,0,0:0:0:0:
192,192,25931,1,2,0:0:0:0:
320,192,25931,1,0,0:0:0:0:
64,192,26102,1,0,0:0:0:0:
448,192,26188,1,0,0:0:0:0:
64,192,26274,1,2,0:0:0:0:
320,192,26445,1,2,0:0:0:0:
64,192,26617,1,2,0:0:0:0:
320,192,26617,1,0,0:0:0:0:
192,192,26702,1,0,0:0:0:0:
448,192,26788,1,0,0:0:0:0:
320,192,26874,1,0,0:0:0:0:
64,192,26960,1,2,0:0:0:0:
192,192,27045,1,0,0:0:0:0:
448,192,27131,1,0,0:0:0:0:
320,192,27217,1,0,0:0:0:0:
64,192,27302,1,2,0:0:0:0:
192,192,27388,1,0,0:0:0:0:
320,192,27474,1,0,0:0:0:0:
448,192,27560,1,0,0:0:0:0:
192,192,27645,1,2,0:0:0:0:
64,192,27731,1,0,0:0:0:0:
320,192,27817,1,0,0:0:0:0:
448,192,27902,1,0,0:0:0:0:
64,192,27988,1,6,0:0:0:0:
192,192,27988,1,0,0:0:0:0:
320,192,28160,1,2,0:0:0:0:
64,192,28331,1,8,0:0:0:0:
448,192,28331,1,0,0:0:0:0:
192,192,28674,1,8,0:0:0:0:
320,192,28674,1,0,0:0:0:0:
192,192,28845,128,2,29017:0:0:0:0:
448,192,29017,1,0,0:0:0:0:
320,192,29188,128,2,29360:0:0:0:0:
64,192,29360,1,0,0:0:0:0:
448,192,29531,1,2,0:0:0:0:
320,192,29617,1,0,0:0:0:0:
64,192,29702,1,8,0:0:0:0:
192,192,29702,1,0,0:0:0:0:
320,192,29788,1,8,0:0:0:0:
448,192,29788,1,0,0:0:0:0:
64,192,29874,1,2,0:0:0:0:
320,192,30045,1,0,0:0:0:0:
64,192,30217,1,2,0:0:0:0:
192,192,30302,1,0,0:0:0:0:
320,192,30388,1,8,0:0:0:0:
448,192,30388,1,0,0:0:0:0:
64,192,30474,1,8,0:0:0:0:
192,192,30474,1,0,0:0:0:0:
448,192,30560,1,2,0:0:0:0:
64,192,30731,128,2,31074:0:0:0:0:
320,192,30902,1,2,0:0:0:0:
192,192,31074,1,8,0:0:0:0:
320,192,31074,1,0,0:0:0:0:
192,192,31245,128,0,31588:0:0:0:0:
320,192,31417,1,8,0:0:0:0:
448,192,31417,1,0,0:0:0:0:
448,192,31588,1,2,0:0:0:0:
320,192,31760,128,0,32102:0:0:0:0:
64,192,31931,1,2,0:0:0:0:
448,192,32102,1,0,0:0:0:0:
192,192,32274,1,2,0:0:0:0:
320,192,32360,1,0,0:0:0:0:
64,192,32445,1,8,0:0:0:0:
448,192,32445,1,0,0:0:0:0:
192,192,32531,1,8,0:0:0:0:
320,192,32531,1,0,0:0:0:0:
448,192,32617,1,2,0:0:0:0:
64,192,32788,1,0,0:0:0:0:
320,192,32960,1,2,0:0:0:0:
192,192,33045,1,0,0:0:0:0:
64,192,33131,1,8,0:0:0:0:
448,192,33131,1,0,0:0:0:0:
192,192,33217,1,8,0:0:0:0:
320,192,33217,1,0,0:0:0:0:
64,192,33302,1,2,0:0:0:0:
320,192,33474,1,6,0:0:0:0:
448,192,33474,1,0,0:0:0:0:
448,192,33645,1,2,0:0:0:0:
64,192,33817,1,8,0:0:0:0:
192,192,33817,1,0,0:0:0:0:
320,192,34160,1,8,0:0:0:0:
448,192,34160,1,0,0:0:0:0:
320,192,34331,128,2,34502:0:0:0:0:
448,192,34502,1,0,0:0:0:0:
192,192,34674,128,2,34845:0:0:0:0:
64,192,34845,1,0,0:0:0:0:
320,192,35017,1,2,0:0:0:0:
192,192,35102,1,0,0:0:0:0:
64,192,35188,1,8,0:0:0:0:
320,192,35188,1,0,0:0:0:0:
192,192,35274,1,8,0:0:0:0:
448,192,35274,1,0,0:0:0:0:
64,192,35360,1,2,0:0:0:0:
320,192,35531,1,0,0:0:0:0:
192,192,35702,1,2,0:0:0:0:
320,192,35788,1,0,0:0:0:0:
192,192,35874,1,8,0:0:0:0:
448,192,35874,1,0,0:0:0:0:
64,192,35960,1,8,0:0:0:0:
320,192,35960,1,0,0:0:0:0:
448,192,36045,1,2,0:0:0:0:
64,192,36217,1,2,0:0:0:0:
192,192,36388,1,2,0:0:0:0:
192,192,36560,1,8,0:0:0:0:
320,192,36560,1,0,0:0:0:0:
448,192,36731,1,0,0:0:0:0:
192,192,36902,1,8,0:0:0:0:
320,192,36902,1,0,0:0:0:0:
64,192,37074,128,2,37245:0:0:0:0:
448,192,37245,1,0,0:0:0:0:
192,192,37417,1,8,0:0:0:0:
320,192,37417,128,0,37588:0:0:0:0:
64,192,37588,1,2,0:0:0:0:
448,192,37588,1,0,0:0:0:0:
192,192,37674,1,2,0:0:0:0:
448,192,37760,1,2,0:0:0:0:
320,192,37845,1,2,0:0:0:0:
64,192,37931,1,2,0:0:0:0:
192,192,38017,1,2,0:0:0:0:
448,192,38102,1,2,0:0:0:0:
320,192,38188,1,2,0:0:0:0:
192,192,38274,1,2,0:0:0:0:
64,192,38360,1,2,0:0:0:0:
320,192,38445,1,2,0:0:0:0:
448,192,38531,1,2,0:0:0:0:
192,192,38617,1,2,0:0:0:0:
64,192,38702,1,2,0:0:0:0:
320,192,38788,1,2,0:0:0:0:
448,192,38874,1,2,0:0:0:0:
64,192,38960,1,2,0:0:0:0:
192,192,38960,1,0,0:0:0:0:
320,192,39131,1,0,0:0:0:0:
64,192,39302,1,8,0:0:0:0:
448,192,39302,1,0,0:0:0:0:
192,192,39474,1,0,0:0:0:0:
320,192,39645,1,0,0:0:0:0:
64,192,39817,1,2,0:0:0:0:
64,192,39988,1,8,0:0:0:0:
448,192,39988,1,0,0:0:0:0:
320,192,40160,1,0,0:0:0:0:
448,192,40331,1,2,0:0:0:0:
192,192,40502,1,0,0:0:0:0:
64,192,40674,1,8,0:0:0:0:
448,192,40674,1,0,0:0:0:0:
448,192,40845,1,2,0:0:0:0:
320,192,41017,1,0,0:0:0:0:
64,192,41188,1,2,0:0:0:0:
64,192,41360,1,8,0:0:0:0:
448,192,41360,1,0,0:0:0:0:
192,192,41531,1,0,0:0:0:0:
320,192,41702,1,2,0:0:0:0:
448,192,41874,1,0,0:0:0:0:
64,192,42045,1,8,0:0:0:0:
192,192,42045,1,0,0:0:0:0:
448,192,42217,1,0,0:0:0:0:
192,192,42388,1,0,0:0:0:0:
320,192,42560,1,2,0:0:0:0:
320,192,42731,1,8,0:0:0:0:
448,192,42731,1,0,0:0:0:0:
64,192,42902,1,0,0:0:0:0:
320,192,43074,1,2,0:0:0:0:
192,192,43245,1,0,0:0:0:0:
64,192,43417,1,8,0:0:0:0:
448,192,43417,1,0,0:0:0:0:
320,192,43588,1,2,0:0:0:0:
64,192,43760,1,8,0:0:0:0:
192,192,43760,1,0,0:0:0:0:
320,192,43845,1,8,0:0:0:0:
448,192,43845,1,0,0:0:0:0:
192,192,43931,1,2,0:0:0:0:
64,192,44102,1,8,0:0:0:0:
448,192,44102,1,0,0:0:0:0:
320,192,44188,1,8,0:0:0:0:
192,192,44274,1,8,0:0:0:0:
64,192,44360,1,8,0:0:0:0:
320,192,44445,1,2,0:0:0:0:
448,192,44445,1,0,0:0:0:0:
192,192,44617,1,0,0:0:0:0:
64,192,44788,1,8,0:0:0:0:
448,192,44788,1,0,0:0:0:0:
320,192,44960,1,0,0:0:0:0:
64,192,45131,1,0,0:0:0:0:
320,192,45302,1,2,0:0:0:0:
64,192,45474,1,8,0:0:0:0:
320,192,45474,1,0,0:0:0:0:
448,192,45645,1,0,0:0:0:0:
192,192,45817,1,2,0:0:0:0:
192,192,45988,1,2,0:0:0:0:
64,192,46502,1,8,0:0:0:0:
448,192,46502,1,0,0:0:0:0:
64,192,46674,1,8,0:0:0:0:
448,192,46674,1,0,0:0:0:0:
320,192,46845,1,0,0:0:0:0:
192,192,46931,1,0,0:0:0:0:
320,192,47017,1,0,0:0:0:0:
192,192,47102,1,0,0:0:0:0:
64,192,47188,1,6,0:0:0:0:
448,192,47188,1,0,0:0:0:0:
320,192,47360,1,0,0:0:0:0:
64,192,47531,1,8,0:0:0:0:
192,192,47531,1,0,0:0:0:0:
448,192,47702,1,0,0:0:0:0:
320,192,47874,1,0,0:0:0:0:
448,192,48045,1,2,0:0:0:0:
64,192,48217,1,8,0:0:0:0:
192,192,48217,1,0,0:0:0:0:
320,192,48388,1,0,0:0:0:0:
448,192,48474,1,0,0:0:0:0:
64,192,48560,1,2,0:0:0:0:
192,192,48731,1,2,0:0:0:0:
320,192,48902,1,8,0:0:0:0:
448,192,48902,1,0,0:0:0:0:
64,192,49074,1,0,0:0:0:0:
448,192,49245,1,0,0:0:0:0:
192,192,49417,1,2,0:0:0:0:
64,192,49588,1,8,0:0:0:0:
320,192,49588,1,0,0:0:0:0:
192,192,49760,1,0,0:0:0:0:
64,192,49845,1,0,0:0:0:0:
448,192,49931,1,2,0:0:0:0:
320,192,50102,1,0,0:0:0:0:
64,192,50274,1,8,0:0:0:0:
448,192,50274,1,0,0:0:0:0:
192,192,50445,1,0,0:0:0:0:
320,192,50617,1,0,0:0:0:0:
192,192,50788,1,2,0:0:0:0:
320,192,50960,1,8,0:0:0:0:
448,192,50960,1,0,0:0:0:0:
64,192,51131,128,2,51474:0:0:0:0:
448,192,51302,1,0,0:0:0:0:
192,192,51474,128,2,51645:0:0:0:0:
320,192,51645,1,8,0:0:0:0:
448,192,51645,128,0,51817:0:0:0:0:
64,192,51817,128,2,51988:0:0:0:0:
192,192,51988,1,8,0:0:0:0:
320,192,51988,128,0,52160:0:0:0:0:
448,192,52160,128,2,52331:0:0:0:0:
64,192,52331,1,8,0:0:0:0:
192,192,52331,1,0,0:0:0:0:
320,192,52417,1,8,0:0:0:0:
448,192,52502,1,8,0:0:0:0:
64,192,52588,1,8,0:0:0:0:
192,192,52674,1,6,0:0:0:0:
320,192,52674,1,0,0:0:0:0:
448,192,52845,1,0,0:0:0:0:
64,192,53017,1,8,0:0:0:0:
192,192,53017,1,0,0:0:0:0:
320,192,53188,1,0,0:0:0:0:
64,192,53360,1,0,0:0:0:0:
448,192,53531,1,2,0:0:0:0:
192,192,53702,1,8,0:0:0:0:
320,192,53702,1,0,0:0:0:0:
64,192,53874,1,0,0:0:0:0:
192,192,53960,1,0,0:0:0:0:
448,192,54045,1,2,0:0:0:0:
64,192,54217,1,2,0:0:0:0:
192,192,54388,1,8,0:0:0:0:
320,192,54388,1,0,0:0:0:0:
448,192,54560,1,0,0:0:0:0:
320,192,54731,1,0,0:0:0:0:
192,192,54902,1,2,0:0:0:0:
64,192,55074,1,8,0:0:0:0:
448,192,55074,1,0,0:0:0:0:
320,192,55245,1,0,0:0:0:0:
192,192,55331,1,0,0:0:0:0:
448,192,55417,1,2,0:0:0:0:
320,192,55502,1,0,0:0:0:0:
192,192,55588,1,0,0:0:0:0:
64,192,55674,1,0,0:0:0:0:
320,192,55760,1,8,0:0:0:0:
448,192,55760,1,0,0:0:0:0:
192,192,55845,1,0,0:0:0:0:
64,192,55931,1,0,0:0:0:0:
448,192,56017,1,0,0:0:0:0:
320,192,56102,1,0,0:0:0:0:
192,192,56188,1,0,0:0:0:0:
64,192,56274,1,2,0:0:0:0:
448,192,56360,1,0,0:0:0:0:
192,192,56445,1,8,0:0:0:0:
320,192,56445,1,0,0:0:0:0:
64,192,56531,1,0,0:0:0:0:
448,192,56617,1,2,0:0:0:0:
320,192,56702,1,0,0:0:0:0:
64,192,56788,1,6,0:0:0:0:
192,192,56788,1,0,0:0:0:0:
448,192,56960,1,2,0:0:0:0:
192,192,57131,1,8,0:0:0:0:
320,192,57131,1,0,0:0:0:0:
64,192,57302,1,6,0:0:0:0:
448,192,57302,1,0,0:0:0:0:
192,192,57474,1,8,0:0:0:0:
320,192,57474,1,0,0:0:0:0:
448,192,57645,1,2,0:0:0:0:
64,192,57731,1,2,0:0:0:0:
192,192,57817,1,8,0:0:0:0:
320,192,57817,1,0,0:0:0:0:
448,192,57902,1,8,0:0:0:0:
64,192,57988,1,8,0:0:0:0:
192,192,58074,1,8,0:0:0:0:
320,192,58160,1,6,0:0:0:0:
448,192,58160,1,0,0:0:0:0:
64,192,58331,1,0,0:0:0:0:
192,192,58502,1,8,0:0:0:0:
448,192,58502,1,0,0:0:0:0:
320,192,58674,1,0,0:0:0:0:
448,192,58845,1,0,0:0:0:0:
64,192,59017,1,2,0:0:0:0:
192,192,59188,1,8,0:0:0:0:
448,192,59188,1,0,0:0:0:0:
320,192,59360,1,0,0:0:0:0:
448,192,59445,1,0,0:0:0:0:
64,192,59531,1,2,0:0:0:0:
320,192,59702,1,2,0:0:0:0:
192,192,59874,1,8,0:0:0:0:
448,192,59874,1,0,0:0:0:0:
64,192,60045,1,0,0:0:0:0:
320,192,60217,1,0,0:0:0:0:
192,192,60388,1,2,0:0:0:0:
320,192,60560,1,8,0:0:0:0:
448,192,60560,1,0,0:0:0:0:
192,192,60731,1,0,0:0:0:0:
64,192,60817,1,0,0:0:0:0:
448,192,60902,1,2,0:0:0:0:
192,192,61074,1,0,0:0:0:0:
320,192,61245,1,8,0:0:0:0:
448,192,61245,1,0,0:0:0:0:
64,192,61417,1,0,0:0:0:0:
192,192,61588,1,0,0:0:0:0:
448,192,61760,1,2,0:0:0:0:
64,192,61931,1,8,0:0:0:0:
320,192,61931,1,0,0:0:0:0:
448,192,62102,128,0,62445:0:0:0:0:
192,192,62274,1,0,0:0:0:0:
320,192,62445,128,2,62617:0:0:0:0:
64,192,62617,128,8,62788:0:0:0:0:
192,192,62617,1,0,0:0:0:0:
448,192,62788,128,2,62960:0:0:0:0:
192,192,62960,128,8,63131:0:0:0:0:
320,192,62960,1,0,0:0:0:0:
320,192,63131,128,2,63302:0:0:0:0:
64,192,63302,128,8,63474:0:0:0:0:
192,192,63302,1,0,0:0:0:0:
448,192,63474,1,2,0:0:0:0:
64,192,63645,1,6,0:0:0:0:
192,192,63645,1,0,0:0:0:0:
320,192,63645,1,0,0:0:0:0:
448,192,63817,1,0,0:0:0:0:
192,192,63988,1,8,0:0:0:0:
320,192,63988,1,0,0:0:0:0:
64,192,64160,1,0,0:0:0:0:
448,192,64331,1,0,0:0:0:0:
192,192,64502,1,2,0:0:0:0:
64,192,64674,1,8,0:0:0:0:
448,192,64674,1,0,0:0:0:0:
320,192,64845,1,0,0:0:0:0:
448,192,64931,1,0,0:0:0:0:
192,192,65017,1,2,0:0:0:0:
320,192,65188,1,2,0:0:0:0:
64,192,65360,1,8,0:0:0:0:
192,192,65360,1,0,0:0:0:0:
448,192,65531,1,2,0:0:0:0:
192,192,65702,1,0,0:0:0:0:
320,192,65874,1,2,0:0:0:0:
64,192,66045,1,8,0:0:0:0:
448,192,66045,1,0,0:0:0:0:
192,192,66217,1,0,0:0:0:0:
64,192,66302,1,0,0:0:0:0:
320,192,66388,1,6,0:0:0:0:
448,192,66388,1,0,0:0:0:0:
320,192,66560,1,2,0:0:0:0:
320,192,66731,1,2,0:0:0:0:
64,192,66902,1,6,0:0:0:0:
192,192,66902,1,0,0:0:0:0:
448,192,66902,1,0,0:0:0:0:
192,192,67074,1,2,0:0:0:0:
192,192,67245,1,2,0:0:0:0:
64,192,67417,1,6,0:0:0:0:
320,192,67417,1,0,0:0:0:0:
448,192,67417,1,0,0:0:0:0:
448,192,67588,128,2,67931:0:0:0:0:
192,192,67760,1,2,0:0:0:0:
192,192,67931,1,6,0:0:0:0:
320,192,67931,1,0,0:0:0:0:
64,192,67931,128,0,68102:0:0:0:0:
320,192,68102,128,2,68274:0:0:0:0:
192,192,68274,128,2,68445:0:0:0:0:
64,192,68445,1,6,0:0:0:0:
448,192,68445,1,0,0:0:0:0:
320,192,68531,1,8,0:0:0:0:
192,192,68617,1,8,0:0:0:0:
64,192,68702,1,8,0:0:0:0:
448,192,68788,1,8,0:0:0:0:
320,192,68874,1,8,0:0:0:0:
64,192,68960,1,8,0:0:0:0:
192,192,69045,1,8,0:0:0:0:
448,192,69131,1,6,0:0:0:0:
320,192,69131,1,0,0:0:0:0:
192,192,69645,1,0,0:0:0:0:
448,192,69988,1,0,0:0:0:0:
64,192,70160,1,0,0:0:0:0:
320,192,70374,1,0,0:0:0:0:
320,192,71274,1,0,0:0:0:0:
192,192,71360,1,0,0:0:0:0:
320,192,71445,1,0,0:0:0:0:
192,192,71531,1,0,0:0:0:0:
320,192,71617,1,0,0:0:0:0:
192,192,71702,1,0,0:0:0:0:
320,192,71788,1,0,0:0:0:0:
64,192,71874,128,6,72045:0:0:0:0:
448,192,71874,1,0,0:0:0:0:
320,192,72045,128,0,72217:0:0:0:0:
64,192,72217,1,8,0:0:0:0:
192,192,72217,1,0,0:0:0:0:
448,192,72388,1,0,0:0:0:0:
320,192,72560,128,0,72902:0:0:0:0:
192,192,72731,1,2,0:0:0:0:
64,192,72902,1,8,0:0:0:0:
192,192,72902,1,0,0:0:0:0:
448,192,73074,1,0,0:0:0:0:
64,192,73245,1,2,0:0:0:0:
192,192,73417,128,0,73588:0:0:0:0:
320,192,73588,1,8,0:0:0:0:
448,192,73588,1,0,0:0:0:0:
320,192,73760,1,2,0:0:0:0:
192,192,73931,1,0,0:0:0:0:
64,192,74102,128,2,74274:0:0:0:0:
192,192,74274,1,8,0:0:0:0:
320,192,74274,128,0,74617:0:0:0:0:
448,192,74445,1,0,0:0:0:0:
64,192,74617,128,2,74788:0:0:0:0:
448,192,74788,128,0,74960:0:0:0:0:
192,192,74960,1,8,0:0:0:0:
320,192,74960,1,0,0:0:0:0:
64,192,75131,1,0,0:0:0:0:
448,192,75302,128,0,75645:0:0:0:0:
192,192,75474,1,2,0:0:0:0:
192,192,75645,1,8,0:0:0:0:
320,192,75645,1,0,0:0:0:0:
64,192,75817,1,0,0:0:0:0:
192,192,75988,128,2,76160:0:0:0:0:
320,192,76160,128,0,76331:0:0:0:0:
64,192,76331,1,8,0:0:0:0:
448,192,76331,1,0,0:0:0:0:
192,192,76502,128,2,76845:0:0:0:0:
320,192,76674,1,0,0:0:0:0:
448,192,76845,128,2,77017:0:0:0:0:
64,192,77017,128,8,77360:0:0:0:0:
320,192,77017,1,0,0:0:0:0:
192,192,77188,1,0,0:0:0:0:
448,192,77360,128,2,77531:0:0:0:0:
192,192,77531,128,0,77702:0:0:0:0:
64,192,77702,1,8,0:0:0:0:
320,192,77702,1,0,0:0:0:0:
448,192,77874,1,0,0:0:0:0:
192,192,78045,128,0,78388:0:0:0:0:
320,192,78217,1,2,0:0:0:0:
320,192,78388,1,8,0:0:0:0:
448,192,78388,1,0,0:0:0:0:
64,192,78560,1,0,0:0:0:0:
448,192,78731,1,2,0:0:0:0:
320,192,78902,128,0,79074:0:0:0:0:
64,192,79074,1,8,0:0:0:0:
192,192,79074,1,0,0:0:0:0:
192,192,79245,1,2,0:0:0:0:
448,192,79417,1,0,0:0:0:0:
64,192,79588,128,2,79760:0:0:0:0:
320,192,79760,1,8,0:0:0:0:
448,192,79760,128,0,80102:0:0:0:0:
192,192,79931,1,0,0:0:0:0:
64,192,80102,128,2,80274:0:0:0:0:
320,192,80274,128,0,80445:0:0:0:0:
192,192,80445,1,8,0:0:0:0:
448,192,80445,1,0,0:0:0:0:
64,192,80617,1,0,0:0:0:0:
320,192,80788,128,0,81131:0:0:0:0:
192,192,80960,1,2,0:0:0:0:
64,192,81131,1,8,0:0:0:0:
192,192,81131,1,0,0:0:0:0:
448,192,81302,1,0,0:0:0:0:
64,192,81474,1,8,0:0:0:0:
192,192,81474,1,0,0:0:0:0:
320,192,81560,1,8,0:0:0:0:
64,192,81645,1,8,0:0:0:0:
448,192,81645,1,0,0:0:0:0:
192,192,81817,1,8,0:0:0:0:
320,192,81817,1,0,0:0:0:0:
64,192,81988,1,8,0:0:0:0:
448,192,81988,1,0,0:0:0:0:
192,192,82160,1,8,0:0:0:0:
320,192,82160,1,0,0:0:0:0:
64,192,82331,1,2,0:0:0:0:
192,192,82502,1,8,0:0:0:0:
448,192,82502,1,0,0:0:0:0:
320,192,82674,1,2,0:0:0:0:
320,192,83017,128,8,83188:0:0:0:0:
448,192,83017,128,0,83188:0:0:0:0:
64,192,83360,128,6,89360:0:0:0:0:
192,192,83360,128,0,89360:0:0:0:0:
320,192,83360,128,0,89360:0:0:0:0:
