osu file format v14

[General]
AudioFilename: Break a spell.mp3
AudioLeadIn: 0
PreviewTime: 46845
Countdown: 0
SampleSet: Soft
StackLeniency: 0.7
Mode: 3
LetterboxInBreaks: 0
SpecialStyle: 0
WidescreenStoryboard: 0

[Editor]
Bookmarks: 560,6045,17017,27988,38960,47188,58160,69131,71874,81474,89360
DistanceSpacing: 0.8
BeatDivisor: 4
GridSize: 32
TimelineZoom: 0.8999999

[Metadata]
Title:Break a spell (TV-size)
TitleUnicode:Break a spell (TV-size)
Artist:Kawada Mami
ArtistUnicode:川田まみ
Creator:No_sync
Version:Break an EZ
Source:東京レイヴンズ
Tags:Tokyo Ravens second ending
BeatmapID:908199
BeatmapSetID:419679

[Difficulty]
HPDrainRate:7
CircleSize:4
OverallDifficulty:7
ApproachRate:5
SliderMultiplier:1.4
SliderTickRate:2

[Events]
//Background and Video events
Video,0,"Video.avi"
0,0,"BG2.jpg",0,0
//Break Periods
//Storyboard Layer 0 (Background)
//Storyboard Layer 1 (Fail)
//Storyboard Layer 2 (Pass)
//Storyboard Layer 3 (Foreground)
//Storyboard Sound Samples

[TimingPoints]
560,342.857142857143,4,2,1,30,1,0
17017,-100,4,2,1,20,0,0
27988,-100,4,2,1,30,0,0
47188,-100,4,2,1,30,0,1
69131,-100,4,2,1,30,0,0

[HitObjects]
320,192,560,5,2,0:0:0:0:
192,192,902,1,2,0:0:0:0:
448,192,1245,1,2,0:0:0:0:
64,192,1588,1,2,0:0:0:0:
320,192,1931,1,2,0:0:0:0:
192,192,2274,1,2,0:0:0:0:
448,192,2617,1,2,0:0:0:0:
320,192,2960,1,2,0:0:0:0:
192,192,3302,1,2,0:0:0:0:
64,192,3474,1,2,0:0:0:0:
320,192,3645,1,2,0:0:0:0:
448,192,3817,1,2,0:0:0:0:
192,192,3988,1,2,0:0:0:0:
64,192,4160,1,2,0:0:0:0:
320,192,4331,1,2,0:0:0:0:
448,192,4502,1,2,0:0:0:0:
64,192,4674,128,2,6045:0:0:0:0:
320,192,6045,1,6,0:0:0:0:
448,192,6045,1,0,0:0:0:0:
192,192,6388,1,8,0:0:0:0:
448,192,6902,1,2,0:0:0:0:
64,192,7074,1,8,0:0:0:0:
320,192,7417,1,2,0:0:0:0:
192,192,7760,1,8,0:0:0:0:
448,192,7931,1,2,0:0:0:0:
320,192,8274,1,2,0:0:0:0:
64,192,8445,1,8,0:0:0:0:
192,192,8788,1,2,0:0:0:0:
320,192,9131,1,8,0:0:0:0:
64,192,9645,1,2,0:0:0:0:
448,192,9817,1,8,0:0:0:0:
192,192,10160,1,2,0:0:0:0:
320,192,10502,1,8,0:0:0:0:
64,192,10674,1,2,0:0:0:0:
192,192,11017,1,2,0:0:0:0:
448,192,11188,1,8,0:0:0:0:
320,192,11531,1,2,0:0:0:0:
192,192,11874,1,8,0:0:0:0:
448,192,12388,1,2,0:0:0:0:
64,192,12560,1,8,0:0:0:0:
320,192,12902,1,2,0:0:0:0:
192,192,13245,1,8,0:0:0:0:
448,192,13417,1,2,0:0:0:0:
320,192,13760,1,2,0:0:0:0:
64,192,13931,1,8,0:0:0:0:
192,192,14274,1,2,0:0:0:0:
320,192,14617,1,8,0:0:0:0:
64,192,15131,1,2,0:0:0:0:
448,192,15302,1,8,0:0:0:0:
192,192,15645,128,2,15988:0:0:0:0:
320,192,15988,1,8,0:0:0:0:
64,192,16160,128,2,17017:0:0:0:0:
448,192,16502,1,2,0:0:0:0:
320,192,16674,1,8,0:0:0:0:
192,192,17017,1,6,0:0:0:0:
448,192,17017,1,0,0:0:0:0:
64,192,17360,1,2,0:0:0:0:
448,192,17702,1,2,0:0:0:0:
192,192,18045,1,2,0:0:0:0:
448,192,18388,1,2,0:0:0:0:
320,192,18731,1,2,0:0:0:0:
192,192,19074,1,2,0:0:0:0:
64,192,19417,1,2,0:0:0:0:
448,192,19760,1,2,0:0:0:0:
192,192,20102,1,2,0:0:0:0:
320,192,20445,1,2,0:0:0:0:
64,192,20788,1,2,0:0:0:0:
448,192,21131,128,2,22502:0:0:0:0:
192,192,21474,1,2,0:0:0:0:
64,192,21817,1,2,0:0:0:0:
192,192,22160,1,2,0:0:0:0:
320,192,22502,1,2,0:0:0:0:
64,192,22845,1,2,0:0:0:0:
448,192,23188,1,2,0:0:0:0:
192,192,23531,1,2,0:0:0:0:
320,192,23874,1,2,0:0:0:0:
64,192,24217,1,2,0:0:0:0:
192,192,24560,1,2,0:0:0:0:
448,192,24902,1,2,0:0:0:0:
64,192,25245,1,2,0:0:0:0:
320,192,25588,1,2,0:0:0:0:
448,192,25931,1,2,0:0:0:0:
192,192,26274,1,2,0:0:0:0:
64,192,26617,128,2,27988:0:0:0:0:
320,192,26960,1,2,0:0:0:0:
448,192,27302,1,2,0:0:0:0:
320,192,27645,1,2,0:0:0:0:
192,192,27988,1,6,0:0:0:0:
448,192,27988,1,0,0:0:0:0:
320,192,28160,1,2,0:0:0:0:
64,192,28331,1,8,0:0:0:0:
192,192,28674,1,8,0:0:0:0:
448,192,28845,1,2,0:0:0:0:
192,192,29188,1,2,0:0:0:0:
320,192,29531,1,2,0:0:0:0:
64,192,29702,1,8,0:0:0:0:
320,192,29874,1,2,0:0:0:0:
192,192,30217,1,2,0:0:0:0:
448,192,30388,1,8,0:0:0:0:
192,192,30560,1,2,0:0:0:0:
320,192,30731,1,2,0:0:0:0:
448,192,30902,1,2,0:0:0:0:
64,192,31074,1,8,0:0:0:0:
192,192,31417,1,8,0:0:0:0:
448,192,31588,1,2,0:0:0:0:
448,192,31931,1,2,0:0:0:0:
192,192,32274,1,2,0:0:0:0:
320,192,32445,1,8,0:0:0:0:
192,192,32617,1,2,0:0:0:0:
320,192,32960,1,2,0:0:0:0:
192,192,33131,1,8,0:0:0:0:
320,192,33302,1,2,0:0:0:0:
64,192,33474,1,6,0:0:0:0:
448,192,33474,1,0,0:0:0:0:
192,192,33817,1,8,0:0:0:0:
448,192,34160,1,8,0:0:0:0:
64,192,34331,1,2,0:0:0:0:
320,192,34674,1,2,0:0:0:0:
192,192,35017,1,2,0:0:0:0:
448,192,35188,1,8,0:0:0:0:
64,192,35360,1,2,0:0:0:0:
320,192,35702,1,2,0:0:0:0:
192,192,35874,1,8,0:0:0:0:
448,192,36045,1,2,0:0:0:0:
320,192,36217,1,2,0:0:0:0:
64,192,36388,1,2,0:0:0:0:
448,192,36560,1,8,0:0:0:0:
192,192,36902,1,8,0:0:0:0:
320,192,37074,1,2,0:0:0:0:
64,192,37417,1,8,0:0:0:0:
448,192,37588,128,2,38960:0:0:0:0:
64,192,38960,1,2,0:0:0:0:
320,192,39302,1,8,0:0:0:0:
448,192,39817,1,2,0:0:0:0:
192,192,39988,1,8,0:0:0:0:
320,192,40331,1,2,0:0:0:0:
64,192,40674,1,8,0:0:0:0:
320,192,40845,1,2,0:0:0:0:
448,192,41188,1,2,0:0:0:0:
192,192,41360,1,8,0:0:0:0:
64,192,41702,1,2,0:0:0:0:
320,192,42045,1,8,0:0:0:0:
448,192,42560,1,2,0:0:0:0:
192,192,42731,1,8,0:0:0:0:
448,192,43074,1,2,0:0:0:0:
64,192,43417,1,8,0:0:0:0:
320,192,43588,1,2,0:0:0:0:
192,192,43760,1,8,0:0:0:0:
448,192,43931,1,2,0:0:0:0:
64,192,44102,128,8,44445:0:0:0:0:
192,192,44445,1,2,0:0:0:0:
320,192,44788,1,8,0:0:0:0:
64,192,45302,1,2,0:0:0:0:
448,192,45474,1,8,0:0:0:0:
320,192,45817,1,2,0:0:0:0:
192,192,45988,1,2,0:0:0:0:
64,192,46502,1,8,0:0:0:0:
448,192,46674,1,8,0:0:0:0:
192,192,46845,128,0,47188:0:0:0:0:
320,192,47188,1,6,0:0:0:0:
448,192,47188,1,0,0:0:0:0:
64,192,47531,1,8,0:0:0:0:
192,192,48045,1,2,0:0:0:0:
448,192,48217,1,8,0:0:0:0:
320,192,48560,1,2,0:0:0:0:
192,192,48731,1,2,0:0:0:0:
448,192,48902,1,8,0:0:0:0:
64,192,49417,1,2,0:0:0:0:
320,192,49588,1,8,0:0:0:0:
192,192,49931,1,2,0:0:0:0:
448,192,50274,1,8,0:0:0:0:
64,192,50788,1,2,0:0:0:0:
320,192,50960,1,8,0:0:0:0:
192,192,51131,1,2,0:0:0:0:
448,192,51474,1,2,0:0:0:0:
64,192,51645,1,8,0:0:0:0:
192,192,51817,1,2,0:0:0:0:
448,192,51988,1,8,0:0:0:0:
64,192,52160,1,2,0:0:0:0:
320,192,52331,128,8,52674:0:0:0:0:
64,192,52674,1,6,0:0:0:0:
192,192,52674,1,0,0:0:0:0:
448,192,53017,1,8,0:0:0:0:
192,192,53531,1,2,0:0:0:0:
448,192,53702,1,8,0:0:0:0:
192,192,54045,1,2,0:0:0:0:
64,192,54217,1,2,0:0:0:0:
320,192,54388,1,8,0:0:0:0:
64,192,54902,1,2,0:0:0:0:
448,192,55074,1,8,0:0:0:0:
192,192,55417,1,2,0:0:0:0:
448,192,55760,1,8,0:0:0:0:
320,192,56274,1,2,0:0:0:0:
64,192,56445,1,8,0:0:0:0:
192,192,56617,1,2,0:0:0:0:
448,192,56788,1,6,0:0:0:0:
64,192,56960,1,2,0:0:0:0:
192,192,57131,1,8,0:0:0:0:
320,192,57302,1,6,0:0:0:0:
64,192,57474,1,8,0:0:0:0:
192,192,57645,1,2,0:0:0:0:
448,192,57817,128,8,58160:0:0:0:0:
64,192,58160,1,6,0:0:0:0:
192,192,58160,1,0,0:0:0:0:
320,192,58502,1,8,0:0:0:0:
64,192,59017,1,2,0:0:0:0:
448,192,59188,1,8,0:0:0:0:
192,192,59531,1,2,0:0:0:0:
64,192,59702,1,2,0:0:0:0:
320,192,59874,1,8,0:0:0:0:
64,192,60388,1,2,0:0:0:0:
448,192,60560,1,8,0:0:0:0:
192,192,60902,1,2,0:0:0:0:
320,192,61245,1,8,0:0:0:0:
448,192,61760,1,2,0:0:0:0:
64,192,61931,1,8,0:0:0:0:
320,192,62445,1,2,0:0:0:0:
64,192,62617,1,8,0:0:0:0:
448,192,62788,1,2,0:0:0:0:
192,192,62960,1,8,0:0:0:0:
320,192,63131,1,2,0:0:0:0:
64,192,63302,1,8,0:0:0:0:
448,192,63474,1,2,0:0:0:0:
64,192,63645,1,6,0:0:0:0:
192,192,63645,1,0,0:0:0:0:
320,192,63988,1,8,0:0:0:0:
64,192,64502,1,2,0:0:0:0:
448,192,64674,1,8,0:0:0:0:
320,192,65017,1,2,0:0:0:0:
192,192,65188,1,2,0:0:0:0:
448,192,65360,1,8,0:0:0:0:
64,192,65531,1,2,0:0:0:0:
192,192,65874,1,2,0:0:0:0:
448,192,66045,1,8,0:0:0:0:
64,192,66388,1,6,0:0:0:0:
448,192,66560,1,2,0:0:0:0:
320,192,66731,1,2,0:0:0:0:
192,192,66902,1,6,0:0:0:0:
448,192,67074,1,2,0:0:0:0:
320,192,67245,1,2,0:0:0:0:
64,192,67417,1,6,0:0:0:0:
448,192,67588,1,2,0:0:0:0:
320,192,67760,1,2,0:0:0:0:
192,192,67931,1,6,0:0:0:0:
448,192,68102,1,2,0:0:0:0:
320,192,68274,1,2,0:0:0:0:
64,192,68445,128,6,69131:0:0:0:0:
320,192,69131,1,6,0:0:0:0:
448,192,69131,1,0,0:0:0:0:
64,192,71874,1,6,0:0:0:0:
448,192,71874,1,0,0:0:0:0:
192,192,72217,1,8,0:0:0:0:
448,192,72731,1,2,0:0:0:0:
64,192,72902,1,8,0:0:0:0:
320,192,73245,1,2,0:0:0:0:
192,192,73588,1,8,0:0:0:0:
448,192,73760,1,2,0:0:0:0:
320,192,74102,1,2,0:0:0:0:
64,192,74274,1,8,0:0:0:0:
192,192,74617,1,2,0:0:0:0:
320,192,74960,1,8,0:0:0:0:
64,192,75474,1,2,0:0:0:0:
448,192,75645,1,8,0:0:0:0:
192,192,75988,1,2,0:0:0:0:
320,192,76331,1,8,0:0:0:0:
64,192,76502,1,2,0:0:0:0:
192,192,76845,1,2,0:0:0:0:
448,192,77017,1,8,0:0:0:0:
320,192,77360,1,2,0:0:0:0:
192,192,77702,1,8,0:0:0:0:
448,192,78217,1,2,0:0:0:0:
64,192,78388,1,8,0:0:0:0:
320,192,78731,1,2,0:0:0:0:
192,192,79074,1,8,0:0:0:0:
448,192,79245,1,2,0:0:0:0:
320,192,79588,1,2,0:0:0:0:
64,192,79760,1,8,0:0:0:0:
192,192,80102,1,2,0:0:0:0:
320,192,80445,1,8,0:0:0:0:
64,192,80960,1,2,0:0:0:0:
448,192,81131,1,8,0:0:0:0:
192,192,81474,1,8,0:0:0:0:
320,192,81645,1,8,0:0:0:0:
192,192,81817,1,8,0:0:0:0:
448,192,81988,1,8,0:0:0:0:
64,192,82160,1,8,0:0:0:0:
448,192,82331,1,2,0:0:0:0:
192,192,82502,1,8,0:0:0:0:
320,192,82674,1,2,0:0:0:0:
192,192,83017,1,8,0:0:0:0:
192,192,83360,1,6,0:0:0:0:
320,192,83360,128,0,89360:0:0:0:0:
