osu file format v14

[General]
AudioFilename: Kawada Mami - Believe in the sky.mp3
AudioLeadIn: 0
PreviewTime: 60480
Countdown: 0
SampleSet: Normal
StackLeniency: 0.7
Mode: 1
LetterboxInBreaks: 0
WidescreenStoryboard: 0

[Editor]
DistanceSpacing: 1
BeatDivisor: 4
GridSize: 4
TimelineZoom: 2.3

[Metadata]
Title:Believe in the sky
TitleUnicode:Believe in the sky
Artist:Kawada Mami
ArtistUnicode:川田まみ
Creator:cdhsausageboy
Version:Ura Oni
Source:蒼の彼方のフォーリズム -ETERNAL SKY-
Tags:Taiko mobile game Aokana: Four Rhythm Across the Blue Ao no Kanata no Four Rhythm Beyond the sky, into the firmament sprite 2016 alienflybot autofanboy afb chaoslitz nardoxyribonucleic OP Opening Video jpop j-pop Japanese TCBC #2 Chinese Beatmap Contest Two
BeatmapID:1749338
BeatmapSetID:835223

[Difficulty]
HPDrainRate:6.5
CircleSize:5
OverallDifficulty:5.5
ApproachRate:7
SliderMultiplier:1.4
SliderTickRate:1

[Events]
//Background and Video events
0,0,"sky.jpg",0,0
//Break Periods
//Storyboard Layer 0 (Background)
//Storyboard Layer 1 (Fail)
//Storyboard Layer 2 (Pass)
//Storyboard Layer 3 (Foreground)
//Storyboard Layer 4 (Overlay)
//Storyboard Sound Samples

[TimingPoints]
900,419.58041958042,4,1,0,70,1,0
900,-133.333333333333,4,1,0,70,0,0
4046,-111.111111111111,4,1,0,75,0,0
4116,-107.143239797285,4,1,0,80,0,0
4186,-103.447919145106,4,1,0,85,0,0
4256,-100,4,1,0,100,0,1
17683,-100,4,1,0,80,0,0
46634,-133.333333333333,4,1,0,80,0,0
53767,-100,4,1,0,80,0,0
54396,-125,4,1,0,80,0,0
55445,-90.9090909090909,4,1,0,80,0,0
56074,-111.111111111111,4,1,0,80,0,0
57123,-83.3333333333333,4,1,0,80,0,0
57753,-100,4,1,0,80,0,0
58802,-66.6666666666667,4,1,0,80,0,0
60690,-100,4,1,0,80,0,0
61319,-100,4,1,0,100,0,1
73906,-98.0392156862745,4,1,0,100,0,1
74011,-97.0873786407767,4,1,0,100,0,1
74116,-96.1538461538461,4,1,0,100,0,1
74221,-95.2380952380952,4,1,0,100,0,1
74326,-94.3396226415094,4,1,0,100,0,1
74431,-93.4579439252336,4,1,0,100,0,1
74536,-92.5925925925926,4,1,0,100,0,1
74641,-91.743119266055,4,1,0,100,0,1
74746,-90.9090909090909,4,1,0,100,0,1
86494,-83.3333333333333,4,1,0,100,0,1
87543,-90.9090909090909,4,1,0,100,0,1
87962,-93.7497070321655,4,1,0,100,0,1
88067,-96.7773153972709,4,1,0,100,0,1
88172,-100,4,1,0,100,0,0
88382,-100,4,1,0,90,0,0

[HitObjects]
240,221,900,5,8,0:0:0:0:
316,228,1004,1,8,0:0:0:0:
316,228,1109,1,8,0:0:0:0:
240,221,1319,1,8,0:0:0:0:
240,221,1529,1,8,0:0:0:0:
204,181,1634,1,8,0:0:0:0:
240,221,1739,1,8,0:0:0:0:
347,196,1844,1,8,0:0:0:0:
316,228,1948,1,8,0:0:0:0:
204,181,2158,1,8,0:0:0:0:
390,169,2368,1,8,0:0:0:0:
390,169,2473,1,8,0:0:0:0:
390,169,2578,1,8,0:0:0:0:
356,198,2683,1,8,0:0:0:0:
290,182,2788,1,8,0:0:0:0:
290,182,2997,1,8,0:0:0:0:
290,182,3207,1,8,0:0:0:0:
290,182,3312,1,8,0:0:0:0:
290,182,3417,1,8,0:0:0:0:
272,161,3627,1,8,0:0:0:0:
338,213,3837,1,8,0:0:0:0:
451,191,4046,1,8,0:0:0:0:
334,245,4116,1,8,0:0:0:0:
451,191,4186,1,8,0:0:0:0:
451,191,4256,1,0,0:0:0:0:
410,188,4466,1,8,0:0:0:0:
408,206,4676,1,0,0:0:0:0:
408,206,4781,1,0,0:0:0:0:
361,189,4886,1,8,0:0:0:0:
376,189,5095,1,0,0:0:0:0:
443,203,5305,1,8,0:0:0:0:
332,242,5410,1,0,0:0:0:0:
304,234,5620,1,0,0:0:0:0:
330,223,5725,1,8,0:0:0:0:
443,203,5934,1,0,0:0:0:0:
318,213,6144,1,8,0:0:0:0:
294,144,6249,1,8,0:0:0:0:
252,221,6354,1,0,0:0:0:0:
422,185,6564,1,8,0:0:0:0:
360,208,6774,1,0,0:0:0:0:
396,173,6983,1,0,0:0:0:0:
372,175,7088,1,8,0:0:0:0:
376,177,7298,1,8,0:0:0:0:
376,177,7403,1,0,0:0:0:0:
387,167,7613,1,0,0:0:0:0:
376,206,7823,1,8,0:0:0:0:
444,186,7927,1,0,0:0:0:0:
340,204,8032,1,8,0:0:0:0:
340,204,8242,1,8,0:0:0:0:
369,204,8452,1,0,0:0:0:0:
417,210,8662,1,8,0:0:0:0:
432,209,8767,1,0,0:0:0:0:
432,209,8976,1,0,0:0:0:0:
440,188,9081,1,8,0:0:0:0:
402,169,9291,1,0,0:0:0:0:
369,179,9501,1,8,0:0:0:0:
364,202,9606,1,0,0:0:0:0:
279,163,9816,1,0,0:0:0:0:
379,169,9920,1,8,0:0:0:0:
279,188,10130,1,0,0:0:0:0:
311,189,10340,1,0,0:0:0:0:
311,189,10445,1,8,0:0:0:0:
328,223,10550,1,0,0:0:0:0:
290,264,10760,1,8,0:0:0:0:
451,191,10969,1,4,0:0:0:0:
410,188,11179,1,8,0:0:0:0:
408,206,11389,1,0,0:0:0:0:
408,206,11494,1,0,0:0:0:0:
361,189,11599,1,8,0:0:0:0:
376,189,11808,1,0,0:0:0:0:
443,203,12018,1,8,0:0:0:0:
332,242,12123,1,0,0:0:0:0:
304,234,12333,1,0,0:0:0:0:
330,223,12438,1,8,0:0:0:0:
443,203,12647,1,0,0:0:0:0:
318,213,12857,1,8,0:0:0:0:
294,144,12962,1,8,0:0:0:0:
252,221,13067,1,0,0:0:0:0:
422,185,13277,1,8,0:0:0:0:
360,208,13487,1,0,0:0:0:0:
396,173,13696,1,0,0:0:0:0:
372,175,13801,1,8,0:0:0:0:
376,177,14011,1,8,0:0:0:0:
376,177,14116,1,0,0:0:0:0:
387,167,14326,1,0,0:0:0:0:
169,165,14431,1,0,0:0:0:0:
224,184,14536,1,0,0:0:0:0:
223,138,14746,1,8,0:0:0:0:
223,138,14955,1,8,0:0:0:0:
387,167,15165,1,0,0:0:0:0:
169,165,15270,1,0,0:0:0:0:
224,184,15375,1,0,0:0:0:0:
223,138,15585,1,8,0:0:0:0:
223,138,15794,1,0,0:0:0:0:
242,207,16004,1,0,0:0:0:0:
309,205,16214,1,0,0:0:0:0:
311,198,16319,1,8,0:0:0:0:
311,198,16529,1,8,0:0:0:0:
328,220,16634,1,0,0:0:0:0:
257,215,16844,1,0,0:0:0:0:
330,188,17053,1,8,0:0:0:0:
294,171,17263,1,0,0:0:0:0:
134,190,17683,1,4,0:0:0:0:
153,215,18102,1,8,0:0:0:0:
362,214,18312,1,0,0:0:0:0:
362,214,18417,1,0,0:0:0:0:
362,214,18627,1,0,0:0:0:0:
362,214,18732,1,0,0:0:0:0:
199,202,18941,1,8,0:0:0:0:
166,195,19151,1,0,0:0:0:0:
166,195,19256,1,0,0:0:0:0:
171,196,19466,1,0,0:0:0:0:
228,202,19571,1,8,0:0:0:0:
228,202,19781,1,8,0:0:0:0:
263,221,19990,1,0,0:0:0:0:
263,178,20095,1,8,0:0:0:0:
276,172,20305,1,0,0:0:0:0:
331,187,20410,1,8,0:0:0:0:
334,165,20620,1,0,0:0:0:0:
334,175,20830,1,0,0:0:0:0:
291,204,20934,1,8,0:0:0:0:
291,204,21144,1,8,0:0:0:0:
309,243,21249,1,0,0:0:0:0:
328,231,21459,1,8,0:0:0:0:
327,230,21669,1,8,0:0:0:0:
327,230,21774,1,8,0:0:0:0:
427,209,21983,1,0,0:0:0:0:
109,187,22088,1,8,0:0:0:0:
353,193,22298,1,8,0:0:0:0:
364,173,22508,1,8,0:0:0:0:
127,239,22613,1,0,0:0:0:0:
275,202,22823,1,8,0:0:0:0:
275,202,22927,1,8,0:0:0:0:
309,203,23137,1,8,0:0:0:0:
387,190,23347,1,0,0:0:0:0:
441,217,23452,1,8,0:0:0:0:
397,196,23557,1,0,0:0:0:0:
320,162,23767,1,8,0:0:0:0:
368,221,23976,1,12,0:0:0:0:
134,190,24396,1,4,0:0:0:0:
153,215,24815,1,8,0:0:0:0:
362,214,25025,1,0,0:0:0:0:
362,214,25130,1,0,0:0:0:0:
362,214,25340,1,0,0:0:0:0:
362,214,25445,1,0,0:0:0:0:
238,169,25550,1,0,0:0:0:0:
199,202,25655,1,8,0:0:0:0:
166,195,25864,1,0,0:0:0:0:
166,195,25969,1,0,0:0:0:0:
171,196,26179,1,0,0:0:0:0:
336,141,26284,1,0,0:0:0:0:
228,202,26389,1,8,0:0:0:0:
228,202,26494,1,0,0:0:0:0:
263,221,26703,1,0,0:0:0:0:
263,178,26808,1,8,0:0:0:0:
276,172,27018,1,0,0:0:0:0:
331,187,27123,1,8,0:0:0:0:
236,207,27228,1,8,0:0:0:0:
334,165,27333,1,0,0:0:0:0:
334,175,27543,1,0,0:0:0:0:
291,204,27647,1,8,0:0:0:0:
291,204,27857,1,8,0:0:0:0:
309,243,27962,1,0,0:0:0:0:
328,231,28172,1,8,0:0:0:0:
251,166,28277,1,0,0:0:0:0:
327,230,28382,1,8,0:0:0:0:
327,230,28487,1,8,0:0:0:0:
427,209,28696,1,0,0:0:0:0:
109,187,28801,1,8,0:0:0:0:
353,193,29011,1,8,0:0:0:0:
304,131,29116,1,8,0:0:0:0:
364,173,29221,1,8,0:0:0:0:
127,239,29326,1,0,0:0:0:0:
275,202,29536,1,8,0:0:0:0:
230,157,29641,1,0,0:0:0:0:
343,174,29746,1,8,0:0:0:0:
343,174,29851,1,8,0:0:0:0:
338,108,29955,1,0,0:0:0:0:
387,190,30060,1,8,0:0:0:0:
397,196,30270,1,0,0:0:0:0:
329,213,30375,1,0,0:0:0:0:
320,162,30480,1,8,0:0:0:0:
368,221,30689,1,12,0:0:0:0:
363,241,31109,1,8,0:0:0:0:
322,154,31844,1,8,0:0:0:0:
322,154,31948,1,8,0:0:0:0:
321,162,32158,1,8,0:0:0:0:
347,183,32368,1,8,0:0:0:0:
402,172,32578,1,8,0:0:0:0:
355,225,32648,1,8,0:0:0:0:
355,225,32718,1,8,0:0:0:0:
440,211,32788,1,0,0:0:0:0:
296,152,33207,1,8,0:0:0:0:
290,186,33417,1,0,0:0:0:0:
371,190,33522,1,0,0:0:0:0:
290,186,33732,1,0,0:0:0:0:
290,186,33837,1,0,0:0:0:0:
503,170,34046,1,8,0:0:0:0:
420,202,34256,1,0,0:0:0:0:
420,202,34466,1,0,0:0:0:0:
385,185,34676,1,8,0:0:0:0:
326,204,34886,1,0,0:0:0:0:
362,201,35095,1,8,0:0:0:0:
261,182,35200,1,0,0:0:0:0:
290,175,35515,1,0,0:0:0:0:
284,179,35725,1,8,0:0:0:0:
248,205,36144,1,0,0:0:0:0:
296,152,36564,1,8,0:0:0:0:
290,186,36774,1,0,0:0:0:0:
371,190,36879,1,0,0:0:0:0:
290,186,37089,1,0,0:0:0:0:
290,186,37194,1,0,0:0:0:0:
503,170,37403,1,8,0:0:0:0:
420,202,37613,1,0,0:0:0:0:
420,202,37823,1,0,0:0:0:0:
385,185,38242,1,8,0:0:0:0:
362,201,38452,1,0,0:0:0:0:
261,182,38557,1,0,0:0:0:0:
311,164,38767,1,8,0:0:0:0:
290,175,38872,1,0,0:0:0:0:
284,179,39082,1,8,0:0:0:0:
311,164,39291,1,0,0:0:0:0:
337,179,39501,1,0,0:0:0:0:
296,152,39920,1,8,0:0:0:0:
290,186,40130,1,0,0:0:0:0:
371,190,40235,1,0,0:0:0:0:
290,186,40445,1,0,0:0:0:0:
290,186,40550,1,0,0:0:0:0:
503,170,40759,1,8,0:0:0:0:
420,202,40969,1,0,0:0:0:0:
420,202,41179,1,0,0:0:0:0:
385,185,41389,1,8,0:0:0:0:
326,204,41599,1,0,0:0:0:0:
362,201,41808,1,8,0:0:0:0:
261,182,41913,1,0,0:0:0:0:
290,175,42228,1,0,0:0:0:0:
284,179,42438,1,8,0:0:0:0:
248,205,42857,1,0,0:0:0:0:
296,152,43277,1,8,0:0:0:0:
290,186,43487,1,0,0:0:0:0:
371,190,43592,1,0,0:0:0:0:
290,186,43802,1,0,0:0:0:0:
290,186,43907,1,0,0:0:0:0:
503,170,44116,1,8,0:0:0:0:
420,202,44326,1,0,0:0:0:0:
420,202,44536,1,0,0:0:0:0:
274,140,44746,1,0,0:0:0:0:
278,165,44851,1,8,0:0:0:0:
362,201,45060,1,0,0:0:0:0:
261,182,45165,1,8,0:0:0:0:
294,166,45270,1,0,0:0:0:0:
337,175,45375,1,8,0:0:0:0:
311,164,45480,1,8,0:0:0:0:
290,175,45585,1,0,0:0:0:0:
281,168,45690,1,0,0:0:0:0:
284,179,45795,1,8,0:0:0:0:
331,194,46004,1,0,0:0:0:0:
295,204,46074,1,0,0:0:0:0:
295,204,46144,1,0,0:0:0:0:
354,179,46214,1,0,0:0:0:0:
352,160,46634,1,8,0:0:0:0:
206,200,46844,1,0,0:0:0:0:
206,200,47053,1,8,0:0:0:0:
415,197,47263,1,8,0:0:0:0:
415,197,47473,1,0,0:0:0:0:
391,210,47683,1,0,0:0:0:0:
391,210,47893,1,0,0:0:0:0:
284,183,48312,1,8,0:0:0:0:
382,182,48522,1,0,0:0:0:0:
332,178,48732,1,8,0:0:0:0:
321,198,48941,1,0,0:0:0:0:
313,193,49151,1,8,0:0:0:0:
313,194,49361,1,8,0:0:0:0:
184,204,49571,1,0,0:0:0:0:
395,173,49990,1,8,0:0:0:0:
303,201,50200,1,0,0:0:0:0:
318,211,50410,1,8,0:0:0:0:
318,211,50620,1,8,0:0:0:0:
318,211,50830,1,0,0:0:0:0:
351,217,51039,1,0,0:0:0:0:
175,239,51249,1,8,0:0:0:0:
254,225,51669,1,8,0:0:0:0:
377,175,51879,1,0,0:0:0:0:
355,173,52088,1,8,0:0:0:0:
431,179,52298,1,0,0:0:0:0:
447,192,52508,1,0,0:0:0:0:
388,234,52718,1,8,0:0:0:0:
301,238,52927,1,0,0:0:0:0:
289,217,53137,1,0,0:0:0:0:
289,217,53242,1,0,0:0:0:0:
289,217,53452,1,0,0:0:0:0:
289,217,53557,1,0,0:0:0:0:
309,168,53767,1,12,0:0:0:0:
299,173,54081,1,12,0:0:0:0:
412,164,54396,1,8,0:0:0:0:
488,181,54606,1,0,0:0:0:0:
440,176,54816,1,8,0:0:0:0:
415,208,54920,1,8,0:0:0:0:
415,208,55130,1,8,0:0:0:0:
415,208,55235,1,8,0:0:0:0:
303,208,55445,1,4,0:0:0:0:
303,208,55760,1,4,0:0:0:0:
304,223,56074,1,0,0:0:0:0:
457,183,56284,1,8,0:0:0:0:
416,184,56389,1,8,0:0:0:0:
454,188,56494,1,0,0:0:0:0:
398,224,56704,1,8,0:0:0:0:
110,270,56913,1,0,0:0:0:0:
187,223,57123,1,12,0:0:0:0:
187,223,57438,1,12,0:0:0:0:
304,234,57753,1,8,0:0:0:0:
50,258,57962,1,0,0:0:0:0:
397,201,58172,1,8,0:0:0:0:
364,179,58277,1,0,0:0:0:0:
322,185,58487,1,0,0:0:0:0:
361,200,58592,1,8,0:0:0:0:
326,211,58802,1,12,0:0:0:0:
326,211,59116,1,12,0:0:0:0:
326,211,59431,1,12,0:0:0:0:
293,119,60690,1,0,0:0:0:0:
280,179,60900,1,8,0:0:0:0:
438,184,61109,1,8,0:0:0:0:
451,191,61319,1,4,0:0:0:0:
410,188,61529,1,8,0:0:0:0:
414,158,61634,1,0,0:0:0:0:
408,206,61739,1,0,0:0:0:0:
408,206,61844,1,0,0:0:0:0:
361,189,61949,1,8,0:0:0:0:
376,189,62158,1,0,0:0:0:0:
443,203,62368,1,8,0:0:0:0:
332,242,62473,1,0,0:0:0:0:
304,234,62683,1,0,0:0:0:0:
330,223,62788,1,8,0:0:0:0:
443,203,62997,1,0,0:0:0:0:
318,213,63207,1,8,0:0:0:0:
294,144,63312,1,8,0:0:0:0:
252,221,63417,1,0,0:0:0:0:
313,142,63522,1,0,0:0:0:0:
422,185,63627,1,8,0:0:0:0:
360,208,63837,1,0,0:0:0:0:
396,173,64046,1,0,0:0:0:0:
372,175,64151,1,8,0:0:0:0:
376,177,64361,1,8,0:0:0:0:
376,177,64466,1,0,0:0:0:0:
387,167,64676,1,0,0:0:0:0:
376,206,64886,1,8,0:0:0:0:
294,148,64990,1,0,0:0:0:0:
340,204,65095,1,8,0:0:0:0:
340,204,65200,1,8,0:0:0:0:
444,186,65305,1,0,0:0:0:0:
369,204,65515,1,0,0:0:0:0:
417,210,65725,1,8,0:0:0:0:
432,209,65830,1,0,0:0:0:0:
432,209,66039,1,0,0:0:0:0:
440,188,66144,1,8,0:0:0:0:
402,169,66354,1,0,0:0:0:0:
369,179,66564,1,8,0:0:0:0:
364,202,66669,1,0,0:0:0:0:
279,163,66879,1,0,0:0:0:0:
379,169,66983,1,8,0:0:0:0:
279,188,67193,1,0,0:0:0:0:
311,189,67403,1,0,0:0:0:0:
311,189,67508,1,8,0:0:0:0:
328,223,67613,1,0,0:0:0:0:
303,186,67718,1,0,0:0:0:0:
290,264,67823,1,8,0:0:0:0:
451,191,68032,1,4,0:0:0:0:
410,188,68242,1,8,0:0:0:0:
383,188,68347,1,0,0:0:0:0:
408,206,68452,1,0,0:0:0:0:
408,206,68557,1,0,0:0:0:0:
361,189,68662,1,8,0:0:0:0:
376,189,68871,1,0,0:0:0:0:
443,203,69081,1,8,0:0:0:0:
332,242,69186,1,0,0:0:0:0:
304,234,69396,1,0,0:0:0:0:
330,223,69501,1,8,0:0:0:0:
443,203,69710,1,0,0:0:0:0:
318,213,69920,1,8,0:0:0:0:
294,144,70025,1,8,0:0:0:0:
252,221,70130,1,0,0:0:0:0:
383,188,70235,1,0,0:0:0:0:
422,185,70340,1,8,0:0:0:0:
360,208,70550,1,0,0:0:0:0:
396,173,70759,1,0,0:0:0:0:
372,175,70864,1,8,0:0:0:0:
376,177,71074,1,8,0:0:0:0:
376,177,71179,1,0,0:0:0:0:
387,167,71389,1,0,0:0:0:0:
224,184,71599,1,0,0:0:0:0:
221,116,71704,1,0,0:0:0:0:
223,138,71809,1,8,0:0:0:0:
223,138,72018,1,8,0:0:0:0:
169,165,72123,1,8,0:0:0:0:
387,167,72228,1,0,0:0:0:0:
224,184,72438,1,0,0:0:0:0:
351,200,72543,1,0,0:0:0:0:
223,138,72648,1,8,0:0:0:0:
284,156,72753,1,8,0:0:0:0:
223,138,72857,1,0,0:0:0:0:
242,207,73067,1,0,0:0:0:0:
309,205,73277,1,0,0:0:0:0:
311,198,73382,1,8,0:0:0:0:
311,198,73592,1,8,0:0:0:0:
328,220,73697,1,0,0:0:0:0:
257,215,73907,1,0,0:0:0:0:
316,215,74011,1,0,0:0:0:0:
330,188,74116,1,8,0:0:0:0:
389,204,74221,1,0,0:0:0:0:
246,223,74326,1,8,0:0:0:0:
400,206,74431,1,0,0:0:0:0:
386,210,74536,1,0,0:0:0:0:
297,183,74641,1,8,0:0:0:0:
288,243,74746,1,0,0:0:0:0:
404,194,74955,1,8,0:0:0:0:
404,194,75060,1,8,0:0:0:0:
284,213,75165,1,0,0:0:0:0:
215,241,75375,1,8,0:0:0:0:
410,180,75585,1,0,0:0:0:0:
410,180,75690,1,0,0:0:0:0:
390,188,75795,1,8,0:0:0:0:
353,215,75900,1,0,0:0:0:0:
353,215,76109,1,0,0:0:0:0:
294,203,76214,1,8,0:0:0:0:
294,203,76424,1,8,0:0:0:0:
400,193,76634,1,0,0:0:0:0:
307,227,76739,1,8,0:0:0:0:
292,168,76948,1,8,0:0:0:0:
444,204,77053,1,0,0:0:0:0:
389,189,77263,1,0,0:0:0:0:
304,211,77473,1,8,0:0:0:0:
304,211,77578,1,8,0:0:0:0:
370,221,77683,1,0,0:0:0:0:
246,237,77893,1,8,0:0:0:0:
288,243,78102,1,0,0:0:0:0:
404,194,78311,1,8,0:0:0:0:
284,213,78521,1,0,0:0:0:0:
404,194,78627,1,0,0:0:0:0:
215,241,78731,1,8,0:0:0:0:
410,180,78941,1,0,0:0:0:0:
390,188,79151,1,8,0:0:0:0:
353,215,79256,1,0,0:0:0:0:
353,215,79465,1,0,0:0:0:0:
294,203,79570,1,8,0:0:0:0:
294,203,79676,1,0,0:0:0:0:
410,180,79780,1,0,0:0:0:0:
379,214,79990,1,0,0:0:0:0:
379,214,80095,1,0,0:0:0:0:
407,198,80200,1,8,0:0:0:0:
406,198,80410,1,8,0:0:0:0:
273,179,80620,1,0,0:0:0:0:
420,192,80725,1,0,0:0:0:0:
304,211,80829,1,8,0:0:0:0:
370,221,80934,1,0,0:0:0:0:
304,211,81039,1,8,0:0:0:0:
246,237,81249,1,8,0:0:0:0:
288,243,81459,1,4,0:0:0:0:
404,194,81668,1,8,0:0:0:0:
404,194,81773,1,8,0:0:0:0:
284,213,81878,1,0,0:0:0:0:
215,241,82088,1,8,0:0:0:0:
410,180,82298,1,0,0:0:0:0:
410,180,82403,1,0,0:0:0:0:
390,188,82508,1,8,0:0:0:0:
353,215,82613,1,0,0:0:0:0:
353,215,82822,1,0,0:0:0:0:
294,203,82927,1,8,0:0:0:0:
294,203,83137,1,8,0:0:0:0:
400,193,83347,1,0,0:0:0:0:
307,227,83452,1,8,0:0:0:0:
292,168,83661,1,8,0:0:0:0:
444,204,83766,1,0,0:0:0:0:
389,189,83976,1,0,0:0:0:0:
304,211,84186,1,8,0:0:0:0:
370,221,84396,1,0,0:0:0:0:
304,211,84501,1,8,0:0:0:0:
246,237,84606,1,8,0:0:0:0:
214,194,84711,1,8,0:0:0:0:
288,243,84815,1,0,0:0:0:0:
404,194,85024,1,8,0:0:0:0:
284,213,85130,1,0,0:0:0:0:
404,194,85340,1,0,0:0:0:0:
215,241,85444,1,8,0:0:0:0:
410,180,85654,5,0,0:0:0:0:
390,188,85864,1,8,0:0:0:0:
353,215,85969,1,0,0:0:0:0:
353,215,86178,1,0,0:0:0:0:
294,203,86283,1,8,0:0:0:0:
195,188,86494,1,12,0:0:0:0:
419,200,86809,1,4,0:0:0:0:
311,205,87123,1,12,0:0:0:0:
306,225,87543,1,0,0:0:0:0:
252,192,87753,1,8,0:0:0:0:
252,192,87962,1,8,0:0:0:0:
252,192,88067,1,8,0:0:0:0:
227,230,88172,1,0,0:0:0:0:
248,196,88382,1,0,0:0:0:0:
248,196,88487,1,0,0:0:0:0:
211,157,88592,1,8,0:0:0:0:
242,179,88802,1,0,0:0:0:0:
242,179,89011,1,0,0:0:0:0:
327,194,89221,1,0,0:0:0:0:
327,194,89326,1,0,0:0:0:0:
286,175,89431,1,8,0:0:0:0:
286,175,89641,1,8,0:0:0:0:
311,177,89851,1,0,0:0:0:0:
360,223,90060,1,0,0:0:0:0:
343,190,90165,1,0,0:0:0:0:
401,176,90375,1,0,0:0:0:0:
401,176,90480,1,0,0:0:0:0:
216,164,90690,1,8,0:0:0:0:
410,175,90900,1,0,0:0:0:0:
307,153,91109,1,8,0:0:0:0:
227,230,91529,1,0,0:0:0:0:
248,196,91739,1,0,0:0:0:0:
211,157,91844,1,8,0:0:0:0:
248,196,91949,1,0,0:0:0:0:
242,179,92159,1,8,0:0:0:0:
242,179,92368,1,8,0:0:0:0:
327,194,92578,1,8,0:0:0:0:
327,194,92683,1,0,0:0:0:0:
286,175,92788,1,8,0:0:0:0:
311,177,92998,1,0,0:0:0:0:
286,175,93208,1,8,0:0:0:0:
294,210,93417,1,0,0:0:0:0:
309,187,93522,1,0,0:0:0:0:
366,192,93627,1,8,0:0:0:0:
330,208,93837,1,0,0:0:0:0:
294,158,94046,1,8,0:0:0:0:
294,158,94256,1,8,0:0:0:0:
228,231,94466,1,0,0:0:0:0:
227,230,94886,1,0,0:0:0:0:
248,196,95096,1,0,0:0:0:0:
248,196,95201,1,0,0:0:0:0:
211,157,95306,1,8,0:0:0:0:
242,179,95516,1,0,0:0:0:0:
242,179,95725,1,0,0:0:0:0:
327,194,95935,1,0,0:0:0:0:
327,194,96040,1,0,0:0:0:0:
286,175,96145,1,8,0:0:0:0:
286,175,96355,1,8,0:0:0:0:
311,177,96565,1,0,0:0:0:0:
360,223,96774,1,0,0:0:0:0:
343,190,96879,1,0,0:0:0:0:
401,176,97089,1,0,0:0:0:0:
401,176,97194,1,0,0:0:0:0:
216,164,97404,1,8,0:0:0:0:
410,175,97614,1,0,0:0:0:0:
307,153,97823,1,8,0:0:0:0:
227,230,98243,1,0,0:0:0:0:
248,196,98453,1,0,0:0:0:0:
248,196,98557,1,0,0:0:0:0:
211,157,98662,1,8,0:0:0:0:
242,179,98873,1,8,0:0:0:0:
327,194,98976,1,8,0:0:0:0:
257,133,99081,1,0,0:0:0:0:
257,133,99291,1,0,0:0:0:0:
327,194,99397,1,0,0:0:0:0:
286,175,99501,1,8,0:0:0:0:
311,177,99711,1,0,0:0:0:0:
272,192,99920,1,12,0:0:0:0:
347,208,100235,1,4,0:0:0:0:
364,207,100550,1,12,0:0:0:0:
313,164,100760,1,8,0:0:0:0:
313,164,101074,1,8,0:0:0:0:
343,196,101389,1,0,0:0:0:0:
221,175,101599,5,8,0:0:0:0:
256,182,102333,1,8,0:0:0:0:
256,182,102438,1,8,0:0:0:0:
307,206,102648,1,8,0:0:0:0:
307,206,102858,1,8,0:0:0:0:
