osu file format v14

[General]
AudioFilename: Kawada Mami - Believe in the sky.mp3
AudioLeadIn: 0
PreviewTime: 60480
Countdown: 0
SampleSet: Normal
StackLeniency: 0.7
Mode: 1
LetterboxInBreaks: 0
WidescreenStoryboard: 1

[Editor]
Bookmarks: 5035,11748,16993,23286,30000,30419,38391,45524,45944,48881,49300,55594,60629,71958,79091,86433
DistanceSpacing: 0.5
BeatDivisor: 4
GridSize: 4
TimelineZoom: 2.3

[Metadata]
Title:Believe in the sky
TitleUnicode:Believe in the sky
Artist:Kawada Mami
ArtistUnicode:川田まみ
Creator:cdhsausageboy
Version:Chaoz's Oni
Source:蒼の彼方のフォーリズム -ETERNAL SKY-
Tags:Taiko mobile game Aokana: Four Rhythm Across the Blue Ao no Kanata no Four Rhythm Beyond the sky, into the firmament sprite 2016 alienflybot autofanboy afb chaoslitz nardoxyribonucleic OP Opening Video jpop j-pop Japanese TCBC #2 Chinese Beatmap Contest Two
BeatmapID:1749337
BeatmapSetID:835223

[Difficulty]
HPDrainRate:6.5
CircleSize:5
OverallDifficulty:5
ApproachRate:7
SliderMultiplier:1.4
SliderTickRate:1

[Events]
//Background and Video events
0,0,"sky.jpg",0,0
//Break Periods
//Storyboard Layer 0 (Background)
//Storyboard Layer 1 (Fail)
//Storyboard Layer 2 (Pass)
//Storyboard Layer 3 (Foreground)
//Storyboard Layer 4 (Overlay)
//Storyboard Sound Samples

[TimingPoints]
900,419.58041958042,4,1,0,60,1,0
900,-105.263157894737,4,1,0,60,0,0
4256,-100,4,1,0,90,0,0
17683,-100,4,1,0,80,0,0
31109,-100,4,1,0,60,0,0
32788,-100,4,1,0,75,0,0
46214,-100,4,1,0,70,0,0
59536,-101.010101010101,4,1,0,70,0,0
59641,-102.040816326531,4,1,0,50,0,0
60690,-100,4,1,0,60,0,0
60900,-98.0392156862745,4,1,0,70,0,0
61109,-96.1538461538461,4,1,0,80,0,0
61319,-94.3396226415094,4,1,0,100,0,1
88172,-94.3396226415094,4,1,0,100,0,0

[HitObjects]
256,192,900,5,0,0:0:0:0:
256,192,1109,1,8,0:0:0:0:
256,192,1214,1,0,0:0:0:0:
256,192,1424,1,0,0:0:0:0:
256,192,1529,1,8,0:0:0:0:
256,192,1739,1,0,0:0:0:0:
256,192,1948,1,0,0:0:0:0:
256,192,2053,1,8,0:0:0:0:
256,192,2263,1,8,0:0:0:0:
256,192,2368,1,0,0:0:0:0:
256,192,2578,1,0,0:0:0:0:
256,192,2788,1,8,0:0:0:0:
256,192,2893,1,0,0:0:0:0:
256,192,3103,1,0,0:0:0:0:
256,192,3208,1,8,0:0:0:0:
256,192,3417,1,8,0:0:0:0:
256,192,3522,1,0,0:0:0:0:
256,192,3627,1,0,0:0:0:0:
256,192,3732,1,8,0:0:0:0:
256,192,3942,1,8,0:0:0:0:
256,192,4047,1,0,0:0:0:0:
256,192,4256,1,4,0:0:0:0:
256,192,4466,1,8,0:0:0:0:
256,192,4676,1,8,0:0:0:0:
256,192,4886,1,8,0:0:0:0:
256,192,5095,1,0,0:0:0:0:
256,192,5305,1,0,0:0:0:0:
256,192,5410,1,8,0:0:0:0:
256,192,5620,1,0,0:0:0:0:
256,192,5725,1,8,0:0:0:0:
256,192,6144,1,8,0:0:0:0:
256,192,6354,1,8,0:0:0:0:
256,192,6564,1,8,0:0:0:0:
256,192,6774,1,0,0:0:0:0:
256,192,6983,1,0,0:0:0:0:
256,192,7088,1,8,0:0:0:0:
256,192,7298,1,0,0:0:0:0:
256,192,7403,1,8,0:0:0:0:
256,192,7508,1,8,0:0:0:0:
256,192,7612,1,0,0:0:0:0:
256,192,7823,1,8,0:0:0:0:
256,192,8032,1,8,0:0:0:0:
256,192,8242,1,8,0:0:0:0:
256,192,8452,1,8,0:0:0:0:
256,192,8662,1,8,0:0:0:0:
256,192,8767,1,0,0:0:0:0:
256,192,8976,1,0,0:0:0:0:
256,192,9081,1,8,0:0:0:0:
256,192,9291,1,0,0:0:0:0:
256,192,9501,1,8,0:0:0:0:
256,192,9606,1,0,0:0:0:0:
256,192,9711,1,8,0:0:0:0:
256,192,9920,1,8,0:0:0:0:
256,192,10130,1,0,0:0:0:0:
256,192,10235,1,8,0:0:0:0:
256,192,10445,1,8,0:0:0:0:
256,192,10550,1,0,0:0:0:0:
256,192,10760,1,8,0:0:0:0:
256,192,10969,1,4,0:0:0:0:
256,192,11179,1,8,0:0:0:0:
256,192,11389,1,8,0:0:0:0:
256,192,11599,1,8,0:0:0:0:
256,192,11808,1,0,0:0:0:0:
256,192,12018,1,0,0:0:0:0:
256,192,12123,1,8,0:0:0:0:
256,192,12333,1,0,0:0:0:0:
256,192,12438,1,8,0:0:0:0:
256,192,12858,1,8,0:0:0:0:
256,192,13068,1,8,0:0:0:0:
256,192,13278,1,8,0:0:0:0:
256,192,13488,1,0,0:0:0:0:
256,192,13697,1,0,0:0:0:0:
256,192,13802,1,8,0:0:0:0:
256,192,14012,1,0,0:0:0:0:
256,192,14117,1,8,0:0:0:0:
256,192,14221,1,8,0:0:0:0:
256,192,14326,1,8,0:0:0:0:
256,192,14746,1,8,0:0:0:0:
256,192,14955,1,0,0:0:0:0:
256,192,15165,1,8,0:0:0:0:
256,192,15375,1,8,0:0:0:0:
256,192,15480,1,0,0:0:0:0:
256,192,15585,1,0,0:0:0:0:
256,192,15795,1,0,0:0:0:0:
256,192,16004,1,8,0:0:0:0:
256,192,16214,1,0,0:0:0:0:
256,192,16319,1,8,0:0:0:0:
256,192,16529,1,8,0:0:0:0:
256,192,16634,1,0,0:0:0:0:
256,192,16844,1,8,0:0:0:0:
256,192,16949,1,0,0:0:0:0:
256,192,17054,1,0,0:0:0:0:
256,192,17263,1,8,0:0:0:0:
256,192,17683,1,12,0:0:0:0:
256,192,17893,1,0,0:0:0:0:
256,192,18102,1,8,0:0:0:0:
256,192,18312,1,0,0:0:0:0:
256,192,18417,1,8,0:0:0:0:
256,192,18522,1,0,0:0:0:0:
256,192,18732,1,8,0:0:0:0:
256,192,18941,1,0,0:0:0:0:
256,192,19151,1,8,0:0:0:0:
256,192,19256,1,8,0:0:0:0:
256,192,19361,1,0,0:0:0:0:
256,192,19571,1,8,0:0:0:0:
256,192,19781,1,8,0:0:0:0:
256,192,19990,1,8,0:0:0:0:
256,192,20095,1,8,0:0:0:0:
256,192,20200,1,0,0:0:0:0:
256,192,20410,1,8,0:0:0:0:
256,192,20620,1,0,0:0:0:0:
256,192,20830,1,0,0:0:0:0:
256,192,20934,1,0,0:0:0:0:
256,192,21039,1,0,0:0:0:0:
256,192,21249,1,8,0:0:0:0:
256,192,21458,1,8,0:0:0:0:
256,192,21668,1,8,0:0:0:0:
256,192,21773,1,8,0:0:0:0:
256,192,21879,1,0,0:0:0:0:
256,192,22088,1,8,0:0:0:0:
256,192,22297,1,0,0:0:0:0:
256,192,22507,1,0,0:0:0:0:
256,192,22612,1,8,0:0:0:0:
256,192,22718,1,0,0:0:0:0:
256,192,22927,1,8,0:0:0:0:
256,192,23136,1,8,0:0:0:0:
256,192,23346,1,8,0:0:0:0:
256,192,23451,1,8,0:0:0:0:
256,192,23557,1,8,0:0:0:0:
256,192,23767,1,0,0:0:0:0:
256,192,23976,1,8,0:0:0:0:
256,192,24396,1,12,0:0:0:0:
256,192,24606,1,0,0:0:0:0:
256,192,24815,1,8,0:0:0:0:
256,192,25025,1,0,0:0:0:0:
256,192,25130,1,8,0:0:0:0:
256,192,25235,1,0,0:0:0:0:
256,192,25445,1,8,0:0:0:0:
256,192,25654,1,0,0:0:0:0:
256,192,25864,1,8,0:0:0:0:
256,192,25969,1,8,0:0:0:0:
256,192,26074,1,0,0:0:0:0:
256,192,26284,1,8,0:0:0:0:
256,192,26494,1,8,0:0:0:0:
256,192,26703,1,8,0:0:0:0:
256,192,26808,1,8,0:0:0:0:
256,192,26913,1,0,0:0:0:0:
256,192,27123,1,8,0:0:0:0:
256,192,27333,1,0,0:0:0:0:
256,192,27543,1,0,0:0:0:0:
256,192,27647,1,0,0:0:0:0:
256,192,27752,1,0,0:0:0:0:
256,192,27962,1,8,0:0:0:0:
256,192,28171,1,8,0:0:0:0:
256,192,28381,1,8,0:0:0:0:
256,192,28486,1,8,0:0:0:0:
256,192,28592,1,0,0:0:0:0:
256,192,28801,1,8,0:0:0:0:
256,192,29010,1,0,0:0:0:0:
256,192,29220,1,0,0:0:0:0:
256,192,29325,1,8,0:0:0:0:
256,192,29431,1,0,0:0:0:0:
256,192,29640,1,8,0:0:0:0:
256,192,29851,1,8,0:0:0:0:
256,192,30059,1,8,0:0:0:0:
256,192,30164,1,8,0:0:0:0:
256,192,30270,1,8,0:0:0:0:
256,192,30480,1,0,0:0:0:0:
256,192,30689,1,8,0:0:0:0:
256,192,31109,1,0,0:0:0:0:
256,192,31739,1,0,0:0:0:0:
256,192,31844,1,8,0:0:0:0:
256,192,31948,1,8,0:0:0:0:
256,192,32158,1,8,0:0:0:0:
256,192,32368,1,8,0:0:0:0:
256,192,32473,1,0,0:0:0:0:
256,192,32578,1,0,0:0:0:0:
256,192,32788,1,12,0:0:0:0:
256,192,32997,1,0,0:0:0:0:
256,192,33207,1,8,0:0:0:0:
256,192,33417,1,0,0:0:0:0:
256,192,33522,1,8,0:0:0:0:
256,192,33837,1,0,0:0:0:0:
256,192,33941,1,0,0:0:0:0:
256,192,34046,1,8,0:0:0:0:
256,192,34256,1,0,0:0:0:0:
256,192,34466,1,8,0:0:0:0:
256,192,34675,1,0,0:0:0:0:
256,192,34885,1,8,0:0:0:0:
256,192,35095,1,0,0:0:0:0:
256,192,35200,1,8,0:0:0:0:
256,192,35515,1,0,0:0:0:0:
256,192,35725,1,8,0:0:0:0:
256,192,35830,1,0,0:0:0:0:
256,192,35934,1,0,0:0:0:0:
256,192,36144,1,8,0:0:0:0:
256,192,36353,1,0,0:0:0:0:
256,192,36563,1,8,0:0:0:0:
256,192,36773,1,0,0:0:0:0:
256,192,36878,1,8,0:0:0:0:
256,192,37193,1,0,0:0:0:0:
256,192,37297,1,0,0:0:0:0:
256,192,37402,1,8,0:0:0:0:
256,192,37612,1,0,0:0:0:0:
256,192,37822,1,8,0:0:0:0:
256,192,38137,1,8,0:0:0:0:
256,192,38242,1,0,0:0:0:0:
256,192,38451,1,0,0:0:0:0:
256,192,38662,1,8,0:0:0:0:
256,192,38767,1,8,0:0:0:0:
256,192,38871,1,0,0:0:0:0:
256,192,39081,1,8,0:0:0:0:
256,192,39501,1,12,0:0:0:0:
256,192,39711,1,0,0:0:0:0:
256,192,39921,1,8,0:0:0:0:
256,192,40131,1,0,0:0:0:0:
256,192,40236,1,8,0:0:0:0:
256,192,40551,1,0,0:0:0:0:
256,192,40655,1,0,0:0:0:0:
256,192,40760,1,8,0:0:0:0:
256,192,40970,1,0,0:0:0:0:
256,192,41180,1,8,0:0:0:0:
256,192,41389,1,0,0:0:0:0:
256,192,41599,1,8,0:0:0:0:
256,192,41809,1,0,0:0:0:0:
256,192,41914,1,8,0:0:0:0:
256,192,42228,1,0,0:0:0:0:
256,192,42438,1,8,0:0:0:0:
256,192,42543,1,0,0:0:0:0:
256,192,42647,1,0,0:0:0:0:
256,192,42858,1,8,0:0:0:0:
256,192,43067,1,0,0:0:0:0:
256,192,43277,1,8,0:0:0:0:
256,192,43487,1,0,0:0:0:0:
256,192,43592,1,8,0:0:0:0:
256,192,43907,1,0,0:0:0:0:
256,192,44011,1,0,0:0:0:0:
256,192,44116,1,8,0:0:0:0:
256,192,44326,1,8,0:0:0:0:
256,192,44536,1,0,0:0:0:0:
256,192,44851,1,8,0:0:0:0:
256,192,44956,1,0,0:0:0:0:
256,192,45165,1,8,0:0:0:0:
256,192,45270,1,8,0:0:0:0:
256,192,45375,1,0,0:0:0:0:
256,192,45480,1,8,0:0:0:0:
256,192,45585,1,0,0:0:0:0:
256,192,45795,1,8,0:0:0:0:
256,192,46004,1,0,0:0:0:0:
256,192,46214,1,12,0:0:0:0:
256,192,46634,1,8,0:0:0:0:
256,192,47053,1,8,0:0:0:0:
256,192,47263,1,0,0:0:0:0:
256,192,47473,1,8,0:0:0:0:
256,192,47683,1,0,0:0:0:0:
256,192,47893,1,8,0:0:0:0:
256,192,48207,1,0,0:0:0:0:
256,192,48312,1,8,0:0:0:0:
256,192,48522,1,0,0:0:0:0:
256,192,48732,1,8,0:0:0:0:
256,192,48942,1,0,0:0:0:0:
256,192,49152,1,8,0:0:0:0:
256,192,49362,1,0,0:0:0:0:
256,192,49571,1,0,0:0:0:0:
256,192,49990,1,8,0:0:0:0:
256,192,50410,1,8,0:0:0:0:
256,192,50620,1,0,0:0:0:0:
256,192,50830,1,8,0:0:0:0:
256,192,51039,1,0,0:0:0:0:
256,192,51249,1,8,0:0:0:0:
256,192,51564,1,8,0:0:0:0:
256,192,51669,1,0,0:0:0:0:
256,192,51879,1,8,0:0:0:0:
256,192,52088,1,8,0:0:0:0:
256,192,52298,1,8,0:0:0:0:
256,192,52508,1,0,0:0:0:0:
256,192,52718,1,8,0:0:0:0:
256,192,52927,1,12,0:0:0:0:
256,192,53137,1,8,0:0:0:0:
256,192,53242,1,0,0:0:0:0:
256,192,53452,1,0,0:0:0:0:
256,192,53557,1,8,0:0:0:0:
256,192,53767,1,8,0:0:0:0:
256,192,53976,1,0,0:0:0:0:
256,192,54081,1,8,0:0:0:0:
256,192,54186,1,8,0:0:0:0:
256,192,54396,1,0,0:0:0:0:
256,192,54606,1,8,0:0:0:0:
256,192,54816,1,0,0:0:0:0:
256,192,54921,1,8,0:0:0:0:
256,192,55131,1,0,0:0:0:0:
256,192,55236,1,8,0:0:0:0:
256,192,55445,1,8,0:0:0:0:
256,192,55655,1,0,0:0:0:0:
256,192,55760,1,8,0:0:0:0:
256,192,55865,1,0,0:0:0:0:
256,192,56074,1,8,0:0:0:0:
256,192,56284,1,12,0:0:0:0:
256,192,56704,1,8,0:0:0:0:
256,192,56913,1,0,0:0:0:0:
256,192,57018,1,0,0:0:0:0:
256,192,57123,1,8,0:0:0:0:
256,192,57333,1,0,0:0:0:0:
256,192,57438,1,8,0:0:0:0:
256,192,57543,1,0,0:0:0:0:
256,192,57753,1,8,0:0:0:0:
256,192,57962,1,8,0:0:0:0:
256,192,58172,1,8,0:0:0:0:
256,192,58277,1,0,0:0:0:0:
256,192,58487,1,0,0:0:0:0:
256,192,58592,1,8,0:0:0:0:
256,192,58802,1,8,0:0:0:0:
256,192,59011,1,0,0:0:0:0:
256,192,59116,1,8,0:0:0:0:
256,192,59221,1,0,0:0:0:0:
256,192,59431,1,8,0:0:0:0:
256,192,59536,1,8,0:0:0:0:
256,192,59641,1,0,0:0:0:0:
256,192,59851,1,0,0:0:0:0:
256,192,60060,1,8,0:0:0:0:
256,192,60165,1,0,0:0:0:0:
256,192,60270,1,0,0:0:0:0:
256,192,60375,1,8,0:0:0:0:
256,192,60480,1,8,0:0:0:0:
256,192,60690,1,0,0:0:0:0:
256,192,60900,1,8,0:0:0:0:
256,192,61109,1,8,0:0:0:0:
256,192,61319,1,4,0:0:0:0:
256,192,61529,1,8,0:0:0:0:
256,192,61739,1,8,0:0:0:0:
256,192,61844,1,0,0:0:0:0:
256,192,61949,1,8,0:0:0:0:
256,192,62158,1,0,0:0:0:0:
256,192,62368,1,0,0:0:0:0:
256,192,62473,1,8,0:0:0:0:
256,192,62683,1,0,0:0:0:0:
256,192,62788,1,8,0:0:0:0:
256,192,62893,1,0,0:0:0:0:
256,192,62997,1,0,0:0:0:0:
256,192,63207,1,8,0:0:0:0:
256,192,63417,1,8,0:0:0:0:
256,192,63522,1,0,0:0:0:0:
256,192,63627,1,8,0:0:0:0:
256,192,63837,1,0,0:0:0:0:
256,192,64046,1,0,0:0:0:0:
256,192,64151,1,8,0:0:0:0:
256,192,64361,1,0,0:0:0:0:
256,192,64466,1,8,0:0:0:0:
256,192,64571,1,8,0:0:0:0:
256,192,64675,1,0,0:0:0:0:
256,192,64886,1,8,0:0:0:0:
256,192,65095,1,8,0:0:0:0:
256,192,65200,1,0,0:0:0:0:
256,192,65305,1,8,0:0:0:0:
256,192,65515,1,8,0:0:0:0:
256,192,65725,1,8,0:0:0:0:
256,192,65830,1,0,0:0:0:0:
256,192,66039,1,0,0:0:0:0:
256,192,66144,1,8,0:0:0:0:
256,192,66354,1,0,0:0:0:0:
256,192,66564,1,8,0:0:0:0:
256,192,66669,1,0,0:0:0:0:
256,192,66774,1,8,0:0:0:0:
256,192,66983,1,8,0:0:0:0:
256,192,67403,1,8,0:0:0:0:
256,192,67508,1,8,0:0:0:0:
256,192,67613,1,0,0:0:0:0:
256,192,67718,1,0,0:0:0:0:
256,192,67823,1,8,0:0:0:0:
256,192,68032,1,4,0:0:0:0:
256,192,68242,1,8,0:0:0:0:
256,192,68452,1,8,0:0:0:0:
256,192,68557,1,0,0:0:0:0:
256,192,68662,1,8,0:0:0:0:
256,192,68871,1,0,0:0:0:0:
256,192,69081,1,0,0:0:0:0:
256,192,69186,1,8,0:0:0:0:
256,192,69396,1,0,0:0:0:0:
256,192,69501,1,8,0:0:0:0:
256,192,69606,1,0,0:0:0:0:
256,192,69710,1,0,0:0:0:0:
256,192,69921,1,8,0:0:0:0:
256,192,70131,1,8,0:0:0:0:
256,192,70235,1,0,0:0:0:0:
256,192,70340,1,8,0:0:0:0:
256,192,70551,1,0,0:0:0:0:
256,192,70760,1,0,0:0:0:0:
256,192,70865,1,8,0:0:0:0:
256,192,71075,1,0,0:0:0:0:
256,192,71180,1,8,0:0:0:0:
256,192,71284,1,8,0:0:0:0:
256,192,71389,1,8,0:0:0:0:
256,192,71599,1,8,0:0:0:0:
256,192,71704,1,0,0:0:0:0:
256,192,71809,1,8,0:0:0:0:
256,192,72018,1,0,0:0:0:0:
256,192,72228,1,8,0:0:0:0:
256,192,72438,1,8,0:0:0:0:
256,192,72543,1,0,0:0:0:0:
256,192,72648,1,0,0:0:0:0:
256,192,73067,1,8,0:0:0:0:
256,192,73277,1,0,0:0:0:0:
256,192,73382,1,8,0:0:0:0:
256,192,73592,1,8,0:0:0:0:
256,192,73697,1,0,0:0:0:0:
256,192,73907,1,8,0:0:0:0:
256,192,74011,1,8,0:0:0:0:
256,192,74116,1,0,0:0:0:0:
256,192,74221,1,8,0:0:0:0:
256,192,74326,1,0,0:0:0:0:
256,192,74536,1,8,0:0:0:0:
256,192,74746,1,4,0:0:0:0:
256,192,74955,1,8,0:0:0:0:
256,192,75165,1,0,0:0:0:0:
256,192,75270,1,0,0:0:0:0:
256,192,75375,1,8,0:0:0:0:
256,192,75585,1,8,0:0:0:0:
256,192,75795,1,8,0:0:0:0:
256,192,75900,1,0,0:0:0:0:
256,192,76109,1,0,0:0:0:0:
256,192,76214,1,8,0:0:0:0:
256,192,76424,1,8,0:0:0:0:
256,192,76634,1,0,0:0:0:0:
256,192,76739,1,8,0:0:0:0:
256,192,76844,1,0,0:0:0:0:
256,192,77053,1,8,0:0:0:0:
256,192,77263,1,0,0:0:0:0:
256,192,77368,1,0,0:0:0:0:
256,192,77473,1,8,0:0:0:0:
256,192,77578,1,8,0:0:0:0:
256,192,77683,1,0,0:0:0:0:
256,192,77893,1,8,0:0:0:0:
256,192,78102,1,0,0:0:0:0:
256,192,78311,1,8,0:0:0:0:
256,192,78521,1,0,0:0:0:0:
256,192,78626,1,0,0:0:0:0:
256,192,78731,1,8,0:0:0:0:
256,192,78941,1,8,0:0:0:0:
256,192,79151,1,8,0:0:0:0:
256,192,79256,1,0,0:0:0:0:
256,192,79465,1,0,0:0:0:0:
256,192,79570,1,8,0:0:0:0:
256,192,79780,1,0,0:0:0:0:
256,192,80200,1,8,0:0:0:0:
256,192,80409,1,0,0:0:0:0:
256,192,80619,1,8,0:0:0:0:
256,192,80724,1,0,0:0:0:0:
256,192,80829,1,8,0:0:0:0:
256,192,80934,1,8,0:0:0:0:
256,192,81039,1,0,0:0:0:0:
256,192,81249,1,8,0:0:0:0:
256,192,81459,1,4,0:0:0:0:
256,192,81668,1,8,0:0:0:0:
256,192,81878,1,0,0:0:0:0:
256,192,81983,1,0,0:0:0:0:
256,192,82088,1,8,0:0:0:0:
256,192,82298,1,8,0:0:0:0:
256,192,82508,1,8,0:0:0:0:
256,192,82613,1,0,0:0:0:0:
256,192,82822,1,0,0:0:0:0:
256,192,82927,1,8,0:0:0:0:
256,192,83137,1,8,0:0:0:0:
256,192,83347,1,0,0:0:0:0:
256,192,83452,1,8,0:0:0:0:
256,192,83557,1,0,0:0:0:0:
256,192,83766,1,8,0:0:0:0:
256,192,83976,1,0,0:0:0:0:
256,192,84081,1,0,0:0:0:0:
256,192,84186,1,8,0:0:0:0:
256,192,84291,1,0,0:0:0:0:
256,192,84396,1,8,0:0:0:0:
256,192,84606,1,8,0:0:0:0:
256,192,84816,1,8,0:0:0:0:
256,192,85025,1,8,0:0:0:0:
256,192,85130,1,0,0:0:0:0:
256,192,85340,1,0,0:0:0:0:
256,192,85445,1,8,0:0:0:0:
256,192,85655,1,8,0:0:0:0:
256,192,85865,1,8,0:0:0:0:
256,192,85970,1,0,0:0:0:0:
256,192,86180,1,0,0:0:0:0:
256,192,86285,1,8,0:0:0:0:
256,192,86494,1,12,0:0:0:0:
256,192,86809,1,4,0:0:0:0:
256,192,87123,1,12,0:0:0:0:
256,192,87543,1,0,0:0:0:0:
256,192,87648,1,0,0:0:0:0:
256,192,87753,1,8,0:0:0:0:
256,192,87962,1,0,0:0:0:0:
256,192,88172,1,12,0:0:0:0:
