osu file format v14

[General]
AudioFilename: Untitled.mp3
AudioLeadIn: 0
PreviewTime: 35007
Countdown: 0
SampleSet: Normal
StackLeniency: 0.3
Mode: 0
LetterboxInBreaks: 0
WidescreenStoryboard: 0

[Editor]
DistanceSpacing: 1
BeatDivisor: 4
GridSize: 16
TimelineZoom: 3.299999

[Metadata]
Title:Ashita o Orase
TitleUnicode:明日を鳴らせ
Artist:Kavka Shishido
ArtistUnicode:Kavka Shishido
Creator:xDololow
Version:Insane
Source:FAIRY TAIL ZERØ
Tags:Kavka Shishido FAIRY TAIL opening anime ChronoNig Azzy Dreemurr
BeatmapID:881689
BeatmapSetID:405663

[Difficulty]
HPDrainRate:6.5
CircleSize:4.3
OverallDifficulty:8
ApproachRate:9
SliderMultiplier:2
SliderTickRate:1

[Events]
//Background and Video events
0,0,"bg.png",0,0
Video,0,"vd.avi"
//Break Periods
//Storyboard Layer 0 (Background)
//Storyboard Layer 1 (Fail)
//Storyboard Layer 2 (Pass)
//Storyboard Layer 3 (Foreground)
//Storyboard Sound Samples

[TimingPoints]
561,359.281437125748,4,1,1,73,1,0
11159,-142.857142857143,4,1,1,73,0,0
11339,-200,4,1,1,73,0,0
11968,-100,4,1,1,5,0,0
12058,-100,4,3,1,73,0,0
14393,-66.6666666666667,4,3,1,73,0,0
14572,-200,4,3,1,73,0,0
14932,-100,4,3,1,73,0,0
17267,-66.6666666666667,4,3,1,73,0,0
17447,-100,4,3,1,73,0,0
20141,-66.6666666666667,4,3,1,73,0,0
20321,-200,4,3,1,73,0,0
20680,-100,4,3,1,73,0,0
23016,-66.6666666666667,4,3,1,73,0,0
23195,-100,4,3,1,73,0,0
25890,-66.6666666666667,4,3,1,73,0,0
26069,-200,4,3,1,73,0,0
26429,-100,4,3,1,73,0,0
28764,-66.6666666666667,4,3,1,73,0,0
28944,-100,4,3,1,73,0,0
31638,-66.6666666666667,4,3,1,73,0,0
31818,-100,4,3,1,73,0,0
35007,359.281437125748,4,1,1,73,1,0
35007,-80,4,1,1,73,0,0
79378,-200,4,3,1,73,0,0
81046,359.281437125748,4,1,1,73,1,0
81046,-100,4,1,1,73,0,0
88770,-100,4,1,1,5,0,0

[HitObjects]
244,301,561,5,0,0:0:0:0:
112,144,740,1,8,3:0:0:0:
125,101,830,1,8,3:0:0:0:
158,131,920,1,8,3:0:0:0:
383,131,1279,5,0,0:0:0:0:
129,307,1549,1,0,0:0:0:0:
360,294,1818,1,0,0:0:0:0:
188,204,1998,1,0,0:0:0:0:
404,124,2177,1,8,3:0:0:0:
401,79,2267,1,8,3:0:0:0:
363,104,2357,1,8,3:0:0:0:
320,256,2716,5,0,0:0:0:0:
128,352,2986,1,0,0:0:0:0:
144,80,3255,1,0,0:0:0:0:
80,224,3435,1,0,0:0:0:0:
272,192,3614,1,8,3:0:0:0:
297,154,3704,1,8,3:0:0:0:
320,192,3794,1,8,3:0:0:0:
169,65,4153,5,0,0:0:0:0:
127,235,4423,1,0,0:0:0:0:
169,65,4692,1,0,0:0:0:0:
269,207,4872,1,0,0:0:0:0:
138,336,5052,1,8,3:0:0:0:
112,299,5141,1,8,3:0:0:0:
89,337,5231,1,8,3:0:0:0:
256,192,5950,5,0,2:0:0:0:
112,144,6309,5,0,0:0:0:0:
196,318,6489,1,8,3:0:0:0:
225,285,6578,1,8,3:0:0:0:
248,323,6668,1,8,3:0:0:0:
233,85,7028,5,0,0:0:0:0:
396,83,7297,1,0,0:0:0:0:
116,256,7566,2,0,B|192:239|192:239|187:308,1,100
393,227,7926,1,8,3:0:0:0:
360,195,8016,1,8,3:0:0:0:
345,237,8105,1,8,3:0:0:0:
186,101,8465,6,0,B|138:74|138:74|113:134|136:190,1,150
345,166,9004,1,0,0:0:0:0:
291,286,9183,2,0,P|214:294|200:309,1,100,0|8,0:0|3:0,0:0:0:0:
185,320,9453,1,8,3:0:0:0:
185,320,9543,1,8,3:0:0:0:
120,96,9902,5,0,0:0:0:0:
237,234,10171,1,0,0:0:0:0:
343,50,10441,1,0,0:0:0:0:
227,136,10620,1,0,0:0:0:0:
420,229,10800,1,8,3:0:0:0:
381,204,10890,1,8,3:0:0:0:
377,248,10980,1,8,3:0:0:0:
174,319,11159,6,0,L|217:288,1,46.6666652425131
221,268,11339,2,0,B|151:230|149:194|187:138|187:138|176:124,1,175
202,127,12058,5,0,0:0:0:0:
366,170,12237,1,0,2:0:0:0:
286,307,12417,1,0,0:0:0:0:
98,261,12596,1,0,2:0:0:0:
105,102,12776,5,0,0:0:0:0:
244,178,12956,1,0,2:0:0:0:
157,324,13135,1,0,0:0:0:0:
348,259,13315,1,0,2:0:0:0:
400,64,13495,6,0,L|362:175,1,100,0|0,0:0|2:0,0:0:0:0:
256,64,13854,2,0,L|218:175,1,100,0|0,0:0|2:0,0:0:0:0:
183,295,14213,1,0,0:0:0:0:
372,131,14393,6,0,P|420:201|398:217,1,100.000003814697,0|0,2:0|2:0,2:0:0:0:
406,222,14572,2,0,L|396:250,3,25,0|0|0|0,0:0|2:0|2:0|2:0,2:0:0:0:
389,278,14932,5,0,0:0:0:0:
228,257,15111,2,0,L|285:378,1,100,0|0,2:0|0:0,2:0:0:0:
106,150,15471,2,0,L|45:241,1,100,0|0,2:0|0:0,0:0:0:0:
321,59,15830,1,0,2:0:0:0:
310,188,16010,1,0,0:0:0:0:
187,52,16189,1,0,2:0:0:0:
110,245,16369,5,0,0:0:0:0:
280,225,16549,1,0,2:0:0:0:
110,245,16728,1,0,0:0:0:0:
251,346,16908,1,0,2:0:0:0:
110,245,17087,1,0,0:0:0:0:
110,79,17267,6,0,B|99:159|99:159|124:156,1,100.000003814697,0|0,2:0|2:0,2:0:0:0:
161,156,17447,2,0,P|178:93|194:72,1,50,0|0,0:0|2:0,2:0:0:0:
214,159,17626,2,0,P|234:77|238:66,1,50,0|0,2:0|2:0,2:0:0:0:
237,77,17806,5,0,0:0:0:0:
358,171,17986,1,0,2:0:0:0:
250,317,18165,1,0,0:0:0:0:
129,230,18345,1,0,2:0:0:0:
310,80,18525,5,0,0:0:0:0:
426,183,18704,1,0,2:0:0:0:
302,314,18884,1,0,0:0:0:0:
186,203,19063,1,0,2:0:0:0:
356,62,19243,6,0,P|231:55|223:51,1,100,0|0,0:0|2:0,0:0:0:0:
104,76,19602,1,0,0:0:0:0:
126,261,19782,2,0,B|148:195|148:195|199:182,1,100,0|0,2:0|0:0,0:0:0:0:
408,183,20141,6,0,B|403:141|403:141|344:117,1,100.000003814697,0|0,0:0|2:0,2:0:0:0:
314,130,20321,2,0,L|312:105,3,25,0|0|0|0,0:0|2:0|2:0|2:0,2:0:0:0:
285,86,20680,5,0,0:0:0:0:
193,181,20860,1,0,2:0:0:0:
111,74,21040,1,0,0:0:0:0:
61,196,21219,1,0,2:0:0:0:
161,268,21399,5,0,0:0:0:0:
300,177,21578,1,0,2:0:0:0:
302,306,21758,1,0,0:0:0:0:
184,161,21938,1,0,2:0:0:0:
273,55,22117,6,0,L|403:48,1,100,0|0,0:0|2:0,0:0:0:0:
414,167,22477,2,0,L|280:178,1,100,0|0,0:0|2:0,0:0:0:0:
116,132,22836,1,0,0:0:0:0:
222,203,23016,6,0,L|229:319,1,100.000003814697,0|0,2:0|2:0,2:0:0:0:
196,316,23195,2,0,L|152:267,1,50,0|0,0:0|2:0,0:0:0:0:
158,238,23375,2,0,L|111:173,1,50,0|0,2:0|2:0,2:0:0:0:
120,166,23555,5,0,0:0:0:0:
253,52,23734,1,0,2:0:0:0:
287,190,23914,1,0,0:0:0:0:
160,74,24093,1,0,2:0:0:0:
99,260,24273,5,0,0:0:0:0:
267,320,24453,1,0,2:0:0:0:
234,130,24632,1,0,0:0:0:0:
361,225,24812,1,8,3:0:0:0:
393,250,24902,1,8,3:0:0:0:
400,210,24992,1,8,3:0:0:0:
325,105,25171,5,0,2:0:0:0:
117,186,25351,1,0,0:0:0:0:
247,151,25531,1,0,2:0:0:0:
71,98,25710,1,0,0:0:0:0:
216,301,25890,6,0,B|179:245|179:245|218:234,1,100.000003814697,0|0,2:0|2:0,2:0:0:0:
254,231,26069,2,0,L|232:193,3,25,0|0|0|0,0:0|2:0|2:0|2:0,2:0:0:0:
275,192,26429,5,0,0:0:0:0:
419,126,26608,1,0,2:0:0:0:
296,226,26788,1,0,0:0:0:0:
388,106,26968,1,0,2:0:0:0:
267,113,27147,5,0,0:0:0:0:
129,150,27327,1,0,2:0:0:0:
198,274,27507,1,0,0:0:0:0:
197,74,27686,1,8,0:0:0:0:
179,110,27776,1,8,0:0:0:0:
149,83,27866,1,8,0:0:0:0:
340,144,28046,5,0,2:0:0:0:
288,291,28225,1,0,0:0:0:0:
340,144,28405,1,0,2:0:0:0:
288,291,28584,1,0,0:0:0:0:
234,111,28764,6,0,B|189:171|189:171|191:213,1,100.000003814697,0|0,2:0|2:0,2:0:0:0:
236,223,28944,2,0,L|302:204,1,50,0|0,0:0|2:0,2:0:0:0:
306,261,29123,2,0,L|242:286,1,50,0|0,2:0|2:0,2:0:0:0:
236,281,29303,5,0,0:0:0:0:
107,246,29483,1,0,2:0:0:0:
123,85,29662,1,0,0:0:0:0:
107,246,29842,1,0,2:0:0:0:
297,153,30022,2,0,P|350:108|355:47,2,100,0|0|0,0:0|2:0|0:0,0:0:0:0:
216,269,30560,5,8,3:0:0:0:
227,307,30650,1,8,3:0:0:0:
256,279,30740,1,8,3:0:0:0:
139,199,30920,5,0,2:0:0:0:
229,116,31099,1,0,0:0:0:0:
102,116,31279,1,0,2:0:0:0:
268,196,31459,1,0,0:0:0:0:
122,271,31638,6,0,B|107:298|107:298|179:319,1,100.000003814697,0|0,2:0|2:0,2:0:0:0:
209,303,31818,2,0,L|242:254,1,50,0|0,0:0|2:0,2:0:0:0:
208,217,31998,2,0,L|247:167,1,50,0|0,2:0|2:0,2:0:0:0:
240,143,32177,5,0,0:0:0:0:
371,83,32357,1,0,2:0:0:0:
396,218,32537,1,0,0:0:0:0:
349,340,32716,5,0,2:0:0:0:
396,218,32896,1,0,0:0:0:0:
271,211,33075,1,0,2:0:0:0:
160,144,33255,5,0,2:0:0:0:
256,288,33435,1,0,2:0:0:0:
352,144,33614,1,0,2:0:0:0:
128,304,33794,5,0,1:0:0:0:
256,48,33974,1,0,1:0:0:0:
384,304,34153,1,0,1:0:0:0:
378,166,35007,5,0,0:0:0:0:
229,56,35186,2,0,P|175:106|190:150,1,125
333,71,35545,1,0,3:0:0:0:
87,280,35725,5,0,0:0:0:0:
321,320,35905,2,0,B|211:256,1,125
131,165,36264,1,0,3:0:0:0:
269,156,36444,5,0,0:0:0:0:
373,87,36623,2,0,L|256:163,1,125
287,49,36983,1,0,3:0:0:0:
333,182,37162,5,0,0:0:0:0:
150,302,37342,1,0,0:0:0:0:
311,341,37521,1,0,0:0:0:0:
170,177,37701,1,0,3:0:0:0:
337,254,37881,5,0,0:0:0:0:
195,165,38060,2,0,B|265:135|265:135|230:101,1,125
73,181,38420,1,0,3:0:0:0:
379,291,38599,6,0,P|352:219|382:171,2,125
305,86,39138,1,0,3:0:0:0:
247,225,39318,5,0,0:0:0:0:
153,67,39498,2,0,P|100:122|92:174,1,125
358,116,39857,1,0,3:0:0:0:
386,305,40036,5,0,0:0:0:0:
262,241,40216,2,0,P|224:174|253:130,1,125
44,245,40575,1,0,3:0:0:0:
404,62,40755,5,0,0:0:0:0:
320,171,40935,2,0,L|309:44,1,125
299,256,41294,1,0,3:0:0:0:
76,236,41474,5,0,0:0:0:0:
124,335,41653,2,0,L|148:184,1,125
254,347,42013,1,0,3:0:0:0:
250,195,42192,5,0,0:0:0:0:
130,49,42372,2,0,L|153:181,1,125
64,101,42731,1,0,3:0:0:0:
355,96,42911,5,0,0:0:0:0:
418,236,43090,1,0,0:0:0:0:
418,236,43270,1,0,0:0:0:0:
256,165,43450,1,0,3:0:0:0:
130,312,43629,6,0,B|87:260|87:260|126:188,2,125
256,320,44168,1,0,3:0:0:0:
382,312,44348,6,0,B|425:260|425:260|386:188,2,125
256,320,44887,1,0,3:0:0:0:
251,160,45066,5,0,0:0:0:0:
150,154,45246,2,0,P|189:74|256:59,1,125
344,60,45605,1,0,3:0:0:0:
407,158,45785,5,0,0:0:0:0:
331,285,45965,1,0,0:0:0:0:
292,100,46144,1,0,0:0:0:0:
213,332,46324,1,0,0:0:0:0:
218,70,46504,1,0,0:0:0:0:
78,141,46683,6,0,B|147:147|147:147|109:198,1,125
69,273,47042,1,0,3:0:0:0:
218,225,47222,5,0,0:0:0:0:
355,188,47402,1,0,0:0:0:0:
355,188,47581,1,0,0:0:0:0:
130,148,47761,1,0,3:0:0:0:
115,326,47941,5,0,0:0:0:0:
247,263,48120,2,0,B|178:278|178:278|167:348,1,125
300,328,48480,1,0,3:0:0:0:
435,192,48659,5,0,0:0:0:0:
303,129,48838,2,0,B|372:144|372:144|383:214,1,125
250,194,49198,1,0,3:0:0:0:
173,63,49378,5,0,0:0:0:0:
63,261,49557,2,0,L|136:146,1,125
153,286,49917,1,0,3:0:0:0:
353,73,50096,5,0,0:0:0:0:
240,268,50276,2,0,L|314:151,1,125
333,296,50635,1,0,3:0:0:0:
320,96,50815,5,0,0:0:0:0:
212,201,50995,2,0,B|167:155|167:155|115:187,1,125
204,310,51354,1,0,3:0:0:0:
325,294,51533,6,0,P|399:282|450:235,2,125
132,310,52072,1,0,3:0:0:0:
180,222,52252,6,0,P|106:210|55:163,2,125
373,238,52791,1,0,3:0:0:0:
306,108,52971,6,0,P|380:96|431:49,2,125
113,124,53510,1,0,3:0:0:0:
230,275,53689,5,0,0:0:0:0:
366,265,53869,1,0,0:0:0:0:
366,265,54048,1,0,0:0:0:0:
264,121,54228,1,0,3:0:0:0:
416,101,54408,5,0,0:0:0:0:
51,293,54587,1,0,0:0:0:0:
424,283,54947,6,0,B|378:268|378:268|359:234|359:234|338:293|338:293|378:268|378:268|245:227|245:227|236:193|236:193|210:215|210:215|224:245|224:245|230:221|230:221|164:199,1,500
321,96,55845,2,0,P|252:102|232:50,1,125
159,141,56204,1,0,3:0:0:0:
299,275,56384,5,0,0:0:0:0:
106,314,56564,2,0,P|91:242|103:184,1,125
366,239,56923,1,0,3:0:0:0:
287,94,57102,5,0,0:0:0:0:
75,139,57282,2,0,L|171:240,1,125
171,52,57641,1,0,3:0:0:0:
207,201,57821,5,0,0:0:0:0:
387,256,58001,2,0,L|289:352,1,125
100,319,58360,1,0,3:0:0:0:
96,121,58539,5,0,0:0:0:0:
178,228,58719,1,0,0:0:0:0:
178,228,58899,1,0,0:0:0:0:
249,34,59078,1,0,3:0:0:0:
410,162,59258,5,0,0:0:0:0:
311,283,59438,1,0,0:0:0:0:
311,283,59617,1,0,0:0:0:0:
227,128,59797,1,0,3:0:0:0:
79,325,59977,5,0,0:0:0:0:
150,185,60156,1,0,0:0:0:0:
150,185,60336,1,0,0:0:0:0:
289,322,60515,1,0,3:0:0:0:
392,207,60695,5,0,0:0:0:0:
323,69,60875,2,0,B|284:127|262:128|262:128|236:83|198:92,1,125
329,254,61234,1,0,3:0:0:0:
197,103,61414,5,0,0:0:0:0:
43,222,61593,2,0,B|78:150|78:150|96:192|154:211,1,125
217,301,61953,1,0,3:0:0:0:
394,153,62132,6,0,L|353:287,2,125
357,272,62671,1,0,3:0:0:0:
221,248,62851,6,0,L|262:113,2,125
258,129,63390,1,0,3:0:0:0:
95,78,63569,5,0,0:0:0:0:
106,257,63749,2,0,P|193:156|253:141,1,125
252,315,64108,1,0,3:0:0:0:
411,230,64288,5,0,0:0:0:0:
319,139,64468,2,0,B|263:134|263:134|228:92|228:92|190:107|190:107,1,125
74,54,64827,1,0,3:0:0:0:
129,172,65007,5,0,0:0:0:0:
163,333,65186,1,0,0:0:0:0:
163,333,65366,1,0,0:0:0:0:
349,311,65545,1,0,3:0:0:0:
257,202,65725,5,0,0:0:0:0:
80,142,65905,1,0,0:0:0:0:
163,315,66084,1,0,0:0:0:0:
80,142,66264,1,0,0:0:0:0:
257,202,66444,1,0,0:0:0:0:
249,44,66623,1,0,0:0:0:0:
390,211,66803,2,0,L|390:74,1,125,0|0,0:0|3:0,0:0:0:0:
275,128,67162,5,0,0:0:0:0:
82,215,67342,2,0,B|166:216|166:216|138:169,1,125
264,299,67701,1,0,3:0:0:0:
391,244,67881,5,0,0:0:0:0:
311,165,68060,2,0,P|231:166|233:208,1,125
154,61,68420,1,0,3:0:0:0:
100,232,68599,5,0,0:0:0:0:
318,236,68779,2,0,P|258:190|260:238,1,125
380,92,69138,1,0,3:0:0:0:
222,310,69318,5,0,0:0:0:0:
239,155,69498,2,0,B|177:133|177:133|176:61,1,125
84,207,69857,1,0,3:0:0:0:
274,201,70036,5,0,0:0:0:0:
343,55,70216,2,0,B|409:55|409:55|336:134,1,125
219,55,70575,1,0,3:0:0:0:
267,250,70755,6,0,P|329:203|316:119,2,125
102,232,71294,1,0,3:0:0:0:
284,151,71474,6,0,P|356:122|367:38,2,125
122,99,72013,1,0,3:0:0:0:
226,221,72192,5,0,0:0:0:0:
96,294,72372,1,0,0:0:0:0:
96,294,72551,1,0,0:0:0:0:
139,70,72731,1,0,3:0:0:0:
296,216,72911,5,0,0:0:0:0:
334,55,73090,1,0,0:0:0:0:
334,55,73270,1,0,0:0:0:0:
416,257,73450,1,0,3:0:0:0:
244,203,73629,5,0,0:0:0:0:
100,214,73809,2,0,B|102:292|138:321|138:321,1,125
159,168,74168,1,0,3:0:0:0:
396,156,74348,5,0,0:0:0:0:
330,301,74527,1,0,0:0:0:0:
231,143,74707,1,8,3:0:0:0:
150,319,74887,1,8,3:0:0:0:
120,132,75066,5,0,0:0:0:0:
120,132,75426,5,0,0:0:0:0:
169,316,75605,1,0,0:0:0:0:
246,103,75785,1,0,0:0:0:0:
348,265,75965,1,0,0:0:0:0:
76,225,76144,1,0,0:0:0:0:
231,63,76324,1,0,0:0:0:0:
367,133,76504,5,0,0:0:0:0:
367,133,76863,5,0,0:0:0:0:
288,291,77042,1,0,0:0:0:0:
123,98,77222,1,0,0:0:0:0:
178,301,77402,1,0,0:0:0:0:
266,102,77581,1,0,0:0:0:0:
92,216,77761,1,0,0:0:0:0:
296,203,77941,5,0,0:0:0:0:
203,79,78300,5,0,0:0:0:0:
202,313,78480,1,0,0:0:0:0:
319,174,78659,1,0,0:0:0:0:
85,177,78839,1,0,0:0:0:0:
200,36,79018,1,0,0:0:0:0:
199,193,79198,1,0,0:0:0:0:
392,294,79378,2,0,B|414:212|414:212|364:219|344:171|361:132|361:132|275:135|275:135|255:193,1,350
256,192,81046,5,0,0:0:0:0:
335,107,81225,1,8,3:0:0:0:
349,69,81315,1,8,3:0:0:0:
370,103,81405,1,8,3:0:0:0:
131,101,81764,5,0,0:0:0:0:
92,290,82034,1,0,0:0:0:0:
249,205,82303,1,0,0:0:0:0:
202,62,82483,1,0,0:0:0:0:
84,209,82662,1,8,3:0:0:0:
97,246,82752,1,8,3:0:0:0:
127,220,82842,1,8,3:0:0:0:
353,207,83201,5,0,0:0:0:0:
233,339,83471,1,0,0:0:0:0:
369,150,83740,1,0,0:0:0:0:
238,143,83920,1,0,0:0:0:0:
407,296,84099,1,8,3:0:0:0:
373,274,84189,1,8,3:0:0:0:
365,313,84279,1,8,3:0:0:0:
85,290,84638,5,0,0:0:0:0:
128,126,84908,1,0,0:0:0:0:
253,296,85177,1,0,0:0:0:0:
362,140,85357,1,8,3:0:0:0:
314,148,85447,1,8,3:0:0:0:
311,198,85537,1,8,3:0:0:0:
354,222,85626,1,8,3:0:0:0:
393,191,85716,1,8,3:0:0:0:
119,260,85896,5,0,0:0:0:0:
256,192,85986,12,0,88770,2:0:0:0:
