osu file format v14

[General]
AudioFilename: audio.mp3
AudioLeadIn: 0
PreviewTime: 74091
Countdown: 0
SampleSet: Normal
StackLeniency: 0.7
Mode: 0
LetterboxInBreaks: 0
WidescreenStoryboard: 0

[Editor]
Bookmarks: 10794,31893,52992,74091,95189,116288,137387,158486,179585,200684,211233,221783,242882
DistanceSpacing: 1
BeatDivisor: 4
GridSize: 4
TimelineZoom: 1

[Metadata]
Title:Nightcall
TitleUnicode:Nightcall
Artist:Kavinsky
ArtistUnicode:Kavinsky
Creator:Darcsol
Version:Hard
Source:Drive
Tags:OutRun electronic electro-disco electro house synthwave synth-pop single SebastiAn Lovefoxxx Guy-Manuel de Homem-Christo Pacific Coast Highway The Lincoln Lawyer Sony Xperia 1980s 80s
BeatmapID:1844036
BeatmapSetID:882007

[Difficulty]
HPDrainRate:6
CircleSize:4
OverallDifficulty:7
ApproachRate:7
SliderMultiplier:2
SliderTickRate:2

[Events]
//Background and Video events
0,0,"bg.jpg",0,0
//Break Periods
2,201343,209915
//Storyboard Layer 0 (Background)
//Storyboard Layer 1 (Fail)
//Storyboard Layer 2 (Pass)
//Storyboard Layer 3 (Foreground)
//Storyboard Layer 4 (Overlay)
//Storyboard Sound Samples

[TimingPoints]
10794.3548387097,659.340659340659,4,1,0,50,1,0
74091,-95.2380952380952,4,1,0,55,0,1
94860,-95.2380952380952,4,1,0,55,0,0
95189,-95.2380952380952,4,1,0,55,0,1
116288,-100,4,1,0,50,0,0
158486,-95.2380952380952,4,1,0,55,0,1
179255,-95.2380952380952,4,1,0,55,0,0
179585,-95.2380952380952,4,1,0,55,0,1
195409,-100,4,1,0,40,0,0
196069,-100,4,1,0,35,0,0
196728,-100,4,1,0,30,0,0
197387,-100,4,1,0,25,0,0
198047,-100,4,1,0,20,0,0
198706,-100,4,1,0,15,0,0
211233,-133.333333333333,4,1,0,35,0,0
213541,-125,4,1,0,35,0,0
216178,-117.647058823529,4,1,0,40,0,0
218816,-111.111111111111,4,1,0,45,0,0
221783,-95.2380952380952,4,1,0,50,0,0

[Colours]
Combo1 : 202,202,221
Combo2 : 224,15,47
Combo3 : 108,90,182

[HitObjects]
272,84,10794,5,0,0:0:0:0:
72,68,11453,2,0,P|36:160|48:260,1,200,8|0,0:0|0:0,0:0:0:0:
128,316,12442,1,0,0:0:0:0:
220,352,12772,2,0,L|320:348,1,100,8|2,0:0|0:0,0:0:0:0:
380,268,13431,1,0,0:0:0:0:
376,168,13761,1,0,0:0:0:0:
372,68,14091,2,0,P|280:36|180:44,1,200,8|0,0:0|0:0,0:0:0:0:
140,136,15080,1,0,0:0:0:0:
224,188,15409,2,0,L|324:184,1,100,8|2,0:0|0:0,0:0:0:0:
420,216,16069,5,0,0:0:0:0:
416,316,16398,1,0,0:0:0:0:
324,352,16728,2,0,P|224:356|132:320,1,200,8|0,0:0|0:0,0:0:0:0:
72,240,17717,1,0,0:0:0:0:
60,140,18047,2,0,L|72:36,1,100,8|2,0:0|0:0,0:0:0:0:
172,32,18706,2,0,P|260:72|300:164,2,200,0|8|0,0:0|0:0|0:0,0:0:0:0:
96,96,20354,1,2,0:0:0:0:
156,176,20684,2,0,L|148:276,1,100,8|2,0:0|0:0,0:0:0:0:
224,340,21343,6,0,P|320:364|420:344,1,200,0|8,0:0|0:0,0:0:0:0:
444,148,22662,2,0,L|344:144,1,100
268,76,23321,2,0,L|168:72,1,100,8|2,0:0|0:0,0:0:0:0:
76,28,23981,1,0,0:0:0:0:
60,128,24310,1,0,0:0:0:0:
44,228,24640,2,0,P|132:264|236:256,1,200,8|0,0:0|0:0,0:0:0:0:
288,172,25629,1,0,0:0:0:0:
300,72,25959,2,0,L|404:76,1,100,8|2,0:0|0:0,0:0:0:0:
468,148,26618,5,0,0:0:0:0:
452,248,26948,1,0,0:0:0:0:
392,328,27277,1,8,0:0:0:0:
296,352,27607,1,0,0:0:0:0:
196,356,27937,2,0,L|92:348,1,100
48,260,28596,1,8,0:0:0:0:
44,160,28926,1,2,0:0:0:0:
40,60,29255,2,0,P|136:32|236:48,2,200,0|8|0,0:0|0:0|0:0,0:0:0:0:
44,160,30904,1,2,0:0:0:0:
48,260,31233,2,0,L|148:264,1,100,8|2,0:0|0:0,0:0:0:0:
244,300,31893,5,0,0:0:0:0:
344,296,32222,1,0,0:0:0:0:
444,288,32552,1,8,0:0:0:0:
444,288,33211,2,0,P|476:196|448:96,1,200,0|8,0:0|0:0,0:0:0:0:
328,184,34200,2,0,L|128:188,1,200,2|0,0:0|0:0,0:0:0:0:
28,192,35189,1,8,0:0:0:0:
128,20,35849,2,0,P|168:44|224:48,1,100,0|2,0:0|0:0,0:0:0:0:
320,48,36508,1,8,0:0:0:0:
468,40,36838,6,0,L|480:240,1,200,2|0,0:0|0:0,0:0:0:0:
456,336,37827,1,8,0:0:0:0:
256,356,38486,1,0,0:0:0:0:
256,356,38816,1,0,0:0:0:0:
220,264,39146,1,8,0:0:0:0:
180,172,39475,1,2,0:0:0:0:
248,36,39805,6,0,L|348:40,1,100
400,180,40464,2,0,L|300:176,1,100,8|2,0:0|0:0,0:0:0:0:
152,148,41124,2,0,P|148:197|164:244,1,100
300,176,41783,2,0,P|303:126|288:79,1,100,8|2,0:0|0:0,0:0:0:0:
152,148,42442,5,0,0:0:0:0:
152,148,43102,2,0,L|352:140,2,200,8|0|8,0:0|0:0|0:0,0:0:0:0:
64,272,44750,2,0,P|160:296|252:264,1,200,2|0,0:0|0:0,0:0:0:0:
260,164,45739,1,8,0:0:0:0:
268,64,46069,1,0,0:0:0:0:
360,32,46398,2,0,P|412:32|456:48,1,100,0|2,0:0|0:0,0:0:0:0:
480,148,47058,1,8,0:0:0:0:
452,296,47387,6,0,L|248:288,1,200,2|0,0:0|0:0,0:0:0:0:
160,252,48376,1,8,0:0:0:0:
100,60,49036,1,0,0:0:0:0:
100,60,49365,1,0,0:0:0:0:
200,56,49695,1,8,0:0:0:0:
300,52,50025,1,2,0:0:0:0:
444,100,50354,6,0,L|436:200,1,100
312,284,51014,2,0,L|304:184,1,100,8|2,0:0|0:0,0:0:0:0:
260,40,51673,2,0,P|212:28|160:36,1,100
96,160,52332,2,0,P|144:176|192:172,1,100,8|2,0:0|0:0,0:0:0:0:
340,144,52992,5,0,0:0:0:0:
340,144,53651,2,0,L|324:344,1,200,8|0,0:0|0:0,0:0:0:0:
124,352,54970,1,8,0:0:0:0:
60,224,55299,2,0,P|56:128|112:44,1,200,2|0,0:0|0:0,0:0:0:0:
208,68,56288,1,8,0:0:0:0:
196,168,56618,1,0,0:0:0:0:
188,268,56948,2,0,L|288:276,1,100,0|2,0:0|0:0,0:0:0:0:
380,316,57607,1,8,0:0:0:0:
476,200,57937,6,0,P|456:104|380:40,1,200,2|0,0:0|0:0,0:0:0:0:
280,44,58926,1,8,0:0:0:0:
308,240,59585,1,0,0:0:0:0:
308,240,59915,1,0,0:0:0:0:
208,244,60244,1,8,0:0:0:0:
108,248,60574,1,2,0:0:0:0:
28,120,60904,6,0,P|24:72|40:20,1,100
172,92,61563,2,0,P|168:144|184:188,1,100,8|2,0:0|0:0,0:0:0:0:
320,120,62222,2,0,L|312:20,1,100
452,80,62882,2,0,L|444:180,1,100,8|2,0:0|0:0,0:0:0:0:
340,288,63541,5,0,0:0:0:0:
340,288,64200,2,0,P|248:328|148:320,1,200,8|0,0:0|0:0,0:0:0:0:
76,256,65189,1,0,0:0:0:0:
64,156,65519,1,8,0:0:0:0:
164,44,65849,2,0,L|364:48,1,200,2|0,0:0|0:0,0:0:0:0:
444,108,66838,1,8,0:0:0:0:
456,208,67167,1,0,0:0:0:0:
468,308,67497,2,0,P|424:336|368:340,2,100,0|2|8,0:0|0:0|0:0,0:0:0:0:
456,160,68486,6,0,L|256:152,1,200,2|0,0:0|0:0,0:0:0:0:
164,192,69475,1,8,0:0:0:0:
40,32,70135,1,0,0:0:0:0:
40,32,70464,1,0,0:0:0:0:
140,36,70794,1,8,0:0:0:0:
240,40,71124,1,2,0:0:0:0:
388,44,71453,6,0,P|392:96|376:140,1,100
264,244,72113,2,0,L|272:144,1,100,8|2,0:0|0:0,0:0:0:0:
172,36,72772,2,0,P|176:88|160:136,1,100
44,228,73431,2,0,L|52:128,1,100,8|2,0:0|0:0,0:0:0:0:
172,36,74091,5,4,0:0:0:0:
424,36,74750,1,8,0:0:0:0:
432,140,75080,1,0,0:0:0:0:
440,244,75409,2,0,P|437:300|416:345,2,104.999996795654,0|2|8,0:0|0:0|0:0,0:0:0:0:
260,248,76398,2,0,P|164:212|112:120,1,209.999993591309,2|0,0:0|0:0,0:0:0:0:
212,32,77387,1,8,0:0:0:0:
316,36,77717,1,0,0:0:0:0:
420,40,78047,2,0,L|416:148,1,104.999996795654
412,248,78706,1,8,0:0:0:0:
248,332,79036,6,0,P|144:324|64:256,1,209.999993591309,2|0,0:0|0:0,0:0:0:0:
60,120,80025,1,8,0:0:0:0:
164,116,80354,1,0,0:0:0:0:
268,112,80684,2,0,L|272:220,1,104.999996795654,0|2,0:0|0:0,0:0:0:0:
276,320,81343,1,8,0:0:0:0:
452,352,81673,2,0,P|480:256|464:144,1,209.999993591309,2|0,0:0|0:0,0:0:0:0:
364,56,82662,1,8,0:0:0:0:
364,56,83321,2,0,L|472:48,1,104.999996795654
356,160,83981,2,0,L|252:168,1,104.999996795654,8|2,0:0|0:0,0:0:0:0:
124,76,84640,6,0,P|92:176|128:276,1,209.999993591309,4|8,0:0|0:0,0:0:0:0:
204,344,85629,1,0,0:0:0:0:
308,352,85959,2,0,L|412:348,2,104.999996795654,0|2|8,0:0|0:0|0:0,0:0:0:0:
188,220,86948,2,0,P|208:116|284:48,1,209.999993591309,2|0,0:0|0:0,0:0:0:0:
420,64,87937,2,0,L|428:168,1,104.999996795654,8|0,0:0|0:0,0:0:0:0:
412,272,88596,1,0,0:0:0:0:
336,344,88926,1,0,0:0:0:0:
232,356,89255,1,8,0:0:0:0:
64,296,89585,6,0,P|44:196|76:96,1,209.999993591309,2|0,0:0|0:0,0:0:0:0:
212,72,90574,1,8,0:0:0:0:
216,176,90904,1,0,0:0:0:0:
220,280,91233,2,0,L|324:276,1,104.999996795654,0|2,0:0|0:0,0:0:0:0:
432,268,91893,1,8,0:0:0:0:
472,96,92222,2,0,P|376:52|268:60,1,209.999993591309,2|0,0:0|0:0,0:0:0:0:
172,152,93211,1,8,0:0:0:0:
172,152,93871,2,0,L|164:44,1,104.999996795654
40,144,94530,2,0,L|48:248,1,104.999996795654,8|2,0:0|0:0,0:0:0:0:
200,344,95189,5,4,0:0:0:0:
468,284,95849,1,8,0:0:0:0:
464,180,96178,1,0,0:0:0:0:
456,76,96508,2,0,L|352:68,2,104.999996795654,0|2|8,0:0|0:0|0:0,0:0:0:0:
468,256,97497,2,0,P|372:296|268:296,1,209.999993591309,2|0,0:0|0:0,0:0:0:0:
132,268,98486,1,8,0:0:0:0:
120,164,98816,1,0,0:0:0:0:
108,60,99146,2,0,L|212:48,1,104.999996795654
316,32,99805,1,8,0:0:0:0:
476,112,100135,6,0,P|488:216|460:320,1,209.999993591309,2|0,0:0|0:0,0:0:0:0:
328,296,101124,1,8,0:0:0:0:
324,192,101453,1,0,0:0:0:0:
320,88,101783,2,0,L|216:92,1,104.999996795654,0|2,0:0|0:0,0:0:0:0:
112,96,102442,1,8,0:0:0:0:
40,260,102772,2,0,P|132:308|236:308,1,209.999993591309,2|0,0:0|0:0,0:0:0:0:
360,252,103761,1,8,0:0:0:0:
360,252,104420,2,0,L|368:356,1,104.999996795654
248,252,105080,2,0,L|240:148,1,104.999996795654,8|2,0:0|0:0,0:0:0:0:
104,28,105739,6,0,P|56:120|60:224,1,209.999993591309,4|8,0:0|0:0,0:0:0:0:
156,268,106728,1,0,0:0:0:0:
244,212,107058,2,0,L|252:108,2,104.999996795654,0|2|8,0:0|0:0|0:0,0:0:0:0:
416,268,108047,2,0,P|444:168|416:68,1,209.999993591309,2|0,0:0|0:0,0:0:0:0:
288,28,109036,1,8,0:0:0:0:
184,40,109365,1,0,0:0:0:0:
80,56,109695,2,0,L|88:160,1,104.999996795654
100,264,110354,1,8,0:0:0:0:
260,344,110684,6,0,P|208:252|216:148,1,209.999993591309,2|0,0:0|0:0,0:0:0:0:
276,28,111673,1,8,0:0:0:0:
380,32,112003,1,0,0:0:0:0:
484,40,112332,2,0,L|480:148,1,104.999996795654,0|2,0:0|0:0,0:0:0:0:
476,252,112992,1,8,0:0:0:0:
324,344,113321,2,0,P|360:248|344:144,1,209.999993591309,2|0,0:0|0:0,0:0:0:0:
208,68,114310,1,8,0:0:0:0:
208,68,114970,2,0,L|204:176,1,104.999996795654
60,240,115629,2,0,L|64:136,1,104.999996795654,8|2,0:0|0:0,0:0:0:0:
124,56,116288,5,0,0:0:0:0:
224,48,116618,1,0,0:0:0:0:
324,40,116948,1,8,0:0:0:0:
412,220,117607,2,0,P|340:288|244:308,1,200,0|8,0:0|0:0,0:0:0:0:
96,276,118596,2,0,L|108:72,1,200,2|0,0:0|0:0,0:0:0:0:
196,32,119585,1,8,0:0:0:0:
300,204,120244,2,0,P|256:232|208:240,1,100,0|2,0:0|0:0,0:0:0:0:
140,168,120904,1,8,0:0:0:0:
196,32,121233,6,0,L|396:40,1,200,2|0,0:0|0:0,0:0:0:0:
496,28,122222,1,8,0:0:0:0:
464,224,122882,1,0,0:0:0:0:
464,224,123211,1,0,0:0:0:0:
388,292,123541,1,8,0:0:0:0:
292,312,123871,1,2,0:0:0:0:
148,220,124200,6,0,L|248:224,1,100
359,95,124860,2,0,L|259:91,1,100,8|2,0:0|0:0,0:0:0:0:
96,140,125519,2,0,P|91:90|104:40,1,100
260,92,126178,2,0,P|267:144|255:192,1,100,8|2,0:0|0:0,0:0:0:0:
96,140,126838,5,0,0:0:0:0:
96,140,127497,2,0,L|296:148,2,200,8|0|8,0:0|0:0|0:0,0:0:0:0:
28,276,129146,2,0,P|96:344|196:360,1,200,2|0,0:0|0:0,0:0:0:0:
296,356,130135,1,8,0:0:0:0:
388,312,130464,1,0,0:0:0:0:
432,224,130794,2,0,L|436:124,1,100,0|2,0:0|0:0,0:0:0:0:
460,28,131453,1,8,0:0:0:0:
308,24,131783,6,0,P|312:124|276:220,1,200,2|0,0:0|0:0,0:0:0:0:
208,288,132772,1,8,0:0:0:0:
52,164,133431,1,0,0:0:0:0:
52,164,133761,1,0,0:0:0:0:
148,144,134091,1,8,0:0:0:0:
244,124,134420,1,2,0:0:0:0:
412,88,134750,6,0,L|420:188,1,100
300,308,135409,2,0,L|304:208,1,100,8|2,0:0|0:0,0:0:0:0:
180,92,136069,2,0,P|192:140|184:192,1,100
96,332,136728,2,0,P|76:288|76:236,1,100,8|2,0:0|0:0,0:0:0:0:
180,92,137387,5,0,0:0:0:0:
180,92,138047,2,0,L|384:88,1,200,8|0,0:0|0:0,0:0:0:0:
484,260,139365,1,8,0:0:0:0:
352,336,139695,2,0,P|256:360|160:336,1,200,2|0,0:0|0:0,0:0:0:0:
116,244,140684,1,8,0:0:0:0:
127,144,141014,1,0,0:0:0:0:
139,45,141343,2,0,L|239:52,1,100,0|2,0:0|0:0,0:0:0:0:
339,60,142003,1,8,0:0:0:0:
424,184,142332,6,0,P|412:280|340:352,1,200,2|0,0:0|0:0,0:0:0:0:
244,344,143321,1,8,0:0:0:0:
88,220,143981,1,0,0:0:0:0:
88,220,144310,1,0,0:0:0:0:
100,120,144640,1,8,0:0:0:0:
140,28,144970,1,2,0:0:0:0:
308,28,145299,6,0,P|357:31|406:51,1,100
240,104,145959,2,0,P|192:100|143:80,1,100,8|2,0:0|0:0,0:0:0:0:
268,196,146618,2,0,P|317:199|366:219,1,100
200,272,147277,2,0,P|152:292|104:288,1,100,8|2,0:0|0:0,0:0:0:0:
40,132,147937,5,0,0:0:0:0:
40,132,148596,2,0,P|124:80|224:76,1,200,8|0,0:0|0:0,0:0:0:0:
320,104,149585,1,0,0:0:0:0:
312,204,149915,1,8,0:0:0:0:
300,352,150244,2,0,L|100:348,1,200,2|0,0:0|0:0,0:0:0:0:
36,272,151233,1,8,0:0:0:0:
44,172,151563,1,0,0:0:0:0:
56,72,151893,2,0,P|92:40|144:28,2,100,0|2|8,0:0|0:0|0:0,0:0:0:0:
164,180,152882,6,0,L|364:184,1,200,2|0,0:0|0:0,0:0:0:0:
456,228,153871,1,8,0:0:0:0:
484,28,154530,1,0,0:0:0:0:
484,28,154860,1,0,0:0:0:0:
384,40,155189,1,8,0:0:0:0:
284,40,155519,1,2,0:0:0:0:
116,56,155849,6,0,P|100:104|104:152,1,100
180,304,156508,2,0,L|192:204,1,100,8|2,0:0|0:0,0:0:0:0:
316,88,157167,2,0,P|300:132|304:184,1,100
400,324,157827,2,0,L|408:224,1,100,8|2,0:0|0:0,0:0:0:0:
428,48,158486,5,4,0:0:0:0:
176,40,159146,1,8,0:0:0:0:
172,144,159475,1,0,0:0:0:0:
260,200,159805,2,0,P|312:196|360:172,2,104.999996795654,0|2|8,0:0|0:0|0:0,0:0:0:0:
52,240,160794,2,0,P|116:320|220:348,1,209.999993591309,2|0,0:0|0:0,0:0:0:0:
352,332,161783,1,8,0:0:0:0:
364,228,162113,1,0,0:0:0:0:
376,124,162442,2,0,L|272:112,1,104.999996795654
168,100,163102,1,8,0:0:0:0:
28,256,163431,6,0,P|120:304|224:304,1,209.999993591309,2|0,0:0|0:0,0:0:0:0:
344,240,164420,1,8,0:0:0:0:
332,136,164750,1,0,0:0:0:0:
320,32,165080,2,0,L|216:40,1,104.999996795654,0|2,0:0|0:0,0:0:0:0:
112,52,165739,1,8,0:0:0:0:
56,256,166069,2,0,P|160:260|256:212,1,209.999993591309,2|0,0:0|0:0,0:0:0:0:
276,80,167058,1,8,0:0:0:0:
276,80,167717,2,0,L|381:84,1,104.999996795654
484,200,168376,2,0,L|379:196,1,104.999996795654,8|2,0:0|0:0,0:0:0:0:
208,148,169036,6,0,P|168:244|184:352,1,209.999993591309,4|8,0:0|0:0,0:0:0:0:
288,356,170025,1,0,0:0:0:0:
392,360,170354,2,0,L|400:252,1,104.999996795654,0|2,0:0|0:0,0:0:0:0:
412,152,171014,1,8,0:0:0:0:
236,40,171343,2,0,P|136:40|40:96,1,209.999993591309,2|0,0:0|0:0,0:0:0:0:
76,192,172332,2,0,L|80:300,1,104.999996795654,8|0,0:0|0:0,0:0:0:0:
164,360,172992,1,0,0:0:0:0:
268,356,173321,1,0,0:0:0:0:
372,352,173651,1,8,0:0:0:0:
488,176,173981,6,0,P|460:80|368:28,1,209.999993591309,2|0,0:0|0:0,0:0:0:0:
260,108,174970,1,8,0:0:0:0:
156,97,175299,1,0,0:0:0:0:
52,84,175629,2,0,L|37:187,1,104.999996795654,0|2,0:0|0:0,0:0:0:0:
20,292,176288,1,8,0:0:0:0:
224,348,176618,2,0,P|328:336|408:272,1,209.999993591309,2|0,0:0|0:0,0:0:0:0:
360,144,177607,1,8,0:0:0:0:
360,144,178266,2,0,L|256:148,1,104.999996795654
152,268,178926,2,0,L|256:264,1,104.999996795654,8|2,0:0|0:0,0:0:0:0:
372,128,179585,5,4,0:0:0:0:
140,36,180244,2,0,P|64:108|44:216,1,209.999993591309,8|0,0:0|0:0,0:0:0:0:
120,280,181233,1,2,0:0:0:0:
196,352,181563,1,8,0:0:0:0:
408,352,181893,2,0,L|416:140,1,209.999993591309,2|0,0:0|0:0,0:0:0:0:
332,36,182882,1,8,0:0:0:0:
228,40,183211,1,0,0:0:0:0:
124,44,183541,2,0,P|116:96|128:148,2,104.999996795654,0|0|8,0:0|0:0|0:0,0:0:0:0:
332,32,184530,6,0,P|376:128|368:232,1,209.999993591309,2|0,0:0|0:0,0:0:0:0:
240,272,185519,1,8,0:0:0:0:
244,168,185849,1,0,0:0:0:0:
248,64,186178,2,0,L|140:60,1,104.999996795654,0|2,0:0|0:0,0:0:0:0:
36,56,186838,1,8,0:0:0:0:
32,264,187167,2,0,P|104:336|208:356,1,209.999993591309,2|0,0:0|0:0,0:0:0:0:
324,284,188156,1,8,0:0:0:0:
324,284,188816,2,0,L|432:280,1,104.999996795654
316,172,189475,2,0,L|212:176,1,104.999996795654,8|2,0:0|0:0,0:0:0:0:
40,228,190135,6,0,P|20:124|48:24,1,209.999993591309,4|8,0:0|0:0,0:0:0:0:
152,40,191124,1,0,0:0:0:0:
256,56,191453,2,0,L|360:52,2,104.999996795654,0|2|8,0:0|0:0|0:0,0:0:0:0:
68,152,192442,2,0,P|60:256|116:348,1,209.999993591309,2|0,0:0|0:0,0:0:0:0:
236,288,193431,2,0,L|340:296,1,104.999996795654,8|0,0:0|0:0,0:0:0:0:
292,168,194091,2,0,L|184:160,1,104.999996795654
232,32,194750,1,8,0:0:0:0:
412,24,195080,1,2,0:0:0:0:
484,156,195409,5,0,0:0:0:0:
260,356,196069,5,0,0:0:0:0:
40,216,196728,5,0,0:0:0:0:
172,40,197387,5,0,0:0:0:0:
256,192,198047,12,0,200684,0:0:0:0:
464,352,211233,5,0,0:0:0:0:
300,340,211893,1,8,0:0:0:0:
364,188,212552,5,0,0:0:0:0:
284,176,212882,1,0,0:0:0:0:
204,164,213211,1,8,0:0:0:0:
124,152,213541,2,0,P|124:76|180:16,2,160,2|0|0,0:0|0:0|0:0,0:0:0:0:
156,232,215189,5,0,0:0:0:0:
244,252,215519,1,0,0:0:0:0:
332,268,215849,1,8,0:0:0:0:
416,284,216178,2,0,P|476:224|488:140,2,170.000003242493,2|0|0,0:0|0:0|0:0,0:0:0:0:
324,276,217827,5,0,0:0:0:0:
328,184,218156,1,0,0:0:0:0:
332,92,218486,1,8,0:0:0:0:
264,32,218816,2,0,P|176:44|104:104,1,179.999994506836,2|0,0:0|0:0,0:0:0:0:
60,188,219805,1,8,0:0:0:0:
296,284,220464,5,0,0:0:0:0:
384,260,220794,1,0,0:0:0:0:
436,188,221124,1,8,0:0:0:0:
436,188,221783,5,4,0:0:0:0:
372,104,222113,1,0,0:0:0:0:
304,24,222442,2,0,P|200:24|104:68,1,209.999993591309,8|0,0:0|0:0,0:0:0:0:
76,168,223431,1,0,0:0:0:0:
48,268,223761,1,8,0:0:0:0:
244,340,224091,2,0,L|232:128,1,209.999993591309,2|0,0:0|0:0,0:0:0:0:
284,40,225080,1,8,0:0:0:0:
388,36,225409,1,0,0:0:0:0:
472,100,225739,1,0,0:0:0:0:
468,204,226069,1,0,0:0:0:0:
388,272,226398,1,8,0:0:0:0:
224,140,226728,6,0,P|132:180|84:276,1,209.999993591309,2|0,0:0|0:0,0:0:0:0:
164,340,227717,1,8,0:0:0:0:
268,356,228047,1,0,0:0:0:0:
372,336,228376,1,0,0:0:0:0:
436,252,228706,1,0,0:0:0:0:
444,148,229036,1,8,0:0:0:0:
264,40,229365,2,0,P|160:48|84:116,1,209.999993591309,2|0,0:0|0:0,0:0:0:0:
68,220,230354,1,8,0:0:0:0:
68,220,231014,2,0,L|72:324,2,104.999996795654,0|2|8,0:0|0:0|0:0,0:0:0:0:
84,116,232003,1,2,0:0:0:0:
280,36,232332,6,0,P|384:48|468:108,1,209.999993591309,4|8,0:0|0:0,0:0:0:0:
480,212,233321,1,0,0:0:0:0:
448,312,233651,1,0,0:0:0:0:
352,356,233981,1,0,0:0:0:0:
248,352,234310,1,8,0:0:0:0:
44,304,234640,2,0,L|52:92,1,209.999993591309,2|0,0:0|0:0,0:0:0:0:
144,40,235629,2,0,P|184:72|240:80,1,104.999996795654,8|0,0:0|0:0,0:0:0:0:
340,76,236288,1,0,0:0:0:0:
444,68,236618,1,0,0:0:0:0:
456,172,236948,1,8,0:0:0:0:
360,360,237277,6,0,P|284:288|252:188,1,209.999993591309,2|0,0:0|0:0,0:0:0:0:
264,84,238266,2,0,L|159:76,1,104.999996795654,8|0,0:0|0:0,0:0:0:0:
56,60,238926,2,0,L|44:164,1,104.999996795654
32,268,239585,1,8,0:0:0:0:
220,364,239915,2,0,P|248:264|216:164,1,209.999993591309,2|0,0:0|0:0,0:0:0:0:
140,96,240904,1,8,0:0:0:0:
140,96,241563,2,0,L|36:100,2,104.999996795654,0|2|8,0:0|0:0|0:0,0:0:0:0:
228,40,242552,1,2,0:0:0:0:
432,96,242882,5,4,0:0:0:0:
