osu file format v14

[General]
AudioFilename: audio.mp3
AudioLeadIn: 0
PreviewTime: 124150
Countdown: 0
SampleSet: Soft
StackLeniency: 0.7
Mode: 0
LetterboxInBreaks: 0
WidescreenStoryboard: 1

[Editor]
DistanceSpacing: 1.7
BeatDivisor: 4
GridSize: 16
TimelineZoom: 1.8

[Metadata]
Title:Vetrom (Nightcore ver.)
TitleUnicode:Vetrom (Nightcore ver.)
Artist:Katya Chehova
ArtistUnicode:Katya Chehova
Creator:MoonaLafnis
Version:In the Wind
Source:
Tags:russian female voice vocals vortex involute dnb remix
BeatmapID:1420864
BeatmapSetID:672110

[Difficulty]
HPDrainRate:6.6
CircleSize:4.8
OverallDifficulty:7.7
ApproachRate:9
SliderMultiplier:2
SliderTickRate:1

[Events]
//Background and Video events
0,0,"Hatsune.Miku.full.2001114.jpg",0,0
//Break Periods
2,62791,82132
//Storyboard Layer 0 (Background)
//Storyboard Layer 1 (Fail)
//Storyboard Layer 2 (Pass)
//Storyboard Layer 3 (Foreground)
//Storyboard Sound Samples

[TimingPoints]
220,649.702219815918,4,2,1,24,1,0
82732,-133.333333333333,4,2,1,30,0,0
93452,-153.846153846153,4,2,1,33,0,0
104822,-100,4,2,1,32,0,0
107745,-133.333333333333,4,2,1,41,0,0
110344,-100,4,2,1,30,0,0
122364,-66.6666666666667,4,2,1,41,0,0
122526,-100,4,2,1,41,0,0
124962,-76.9230769230769,4,2,1,41,0,1
166218,-100,4,2,1,41,0,0
166543,-83.3333333333333,4,2,1,41,0,0
208449,-100,4,2,1,41,0,0
209424,-100,4,2,1,15,0,0

[Colours]
Combo1 : 174,97,220
Combo2 : 0,236,255
Combo3 : 224,211,248
Combo4 : 55,55,255

[HitObjects]
152,56,220,5,2,0:0:0:0:
304,112,544,1,4,0:0:0:0:
304,112,707,1,4,0:0:0:0:
144,176,1032,2,0,L|208:208,1,50,0|2,0:0|0:0,0:0:0:0:
320,96,1519,2,0,L|400:64,1,50,2|0,0:0|0:0,0:0:0:0:
432,144,1844,2,0,L|368:168,2,50
416,64,2331,2,4,L|488:40,1,50
464,224,2818,5,2,0:0:0:0:
464,224,3143,2,0,L|472:304,1,50
320,192,3630,1,4,0:0:0:0:
320,192,3793,1,4,0:0:0:0:
160,240,4118,2,0,L|112:176,1,50,2|0,0:0|0:0,0:0:0:0:
192,144,4443,2,0,L|224:192,2,50
112,112,4930,1,4,0:0:0:0:
112,112,5092,1,4,0:0:0:0:
288,96,5417,5,2,0:0:0:0:
288,96,5742,2,4,L|352:80,1,50
432,232,6229,2,4,L|368:248,1,50
224,160,6717,1,2,0:0:0:0:
128,288,7041,2,4,L|96:240,1,50
0,288,7529,2,4,L|32:336,1,50
96,176,8016,5,2,0:0:0:0:
96,176,8341,2,4,L|104:96,1,50
256,48,8828,1,4,0:0:0:0:
256,48,8991,1,4,0:0:0:0:
288,208,9316,2,0,L|288:272,1,50,2|0,0:0|0:0,0:0:0:0:
208,304,9640,2,0,L|208:240,2,50
288,336,10127,2,4,L|288:272,1,50
272,112,10615,5,2,0:0:0:0:
272,112,10940,2,4,L|304:48,1,50
128,112,11427,2,4,L|96:176,1,50
256,240,11914,5,2,0:0:0:0:
256,240,12239,2,4,L|256:176,1,50
128,80,12726,2,4,L|168:128,1,50
256,256,13214,5,2,0:0:0:0:
256,256,13538,2,0,L|256:320,1,50
400,208,14026,1,4,0:0:0:0:
400,208,14187,1,4,0:0:0:0:
256,112,14513,5,2,0:0:0:0:
256,112,14838,2,0,L|328:56,2,50
192,48,15325,2,4,L|128:96,1,50
112,288,15812,5,2,0:0:0:0:
128,112,16137,2,4,L|192:144,1,50
320,128,16624,2,0,L|240:80,1,50
304,32,17111,5,2,0:0:0:0:
272,192,17437,2,4,L|336:240,1,50
400,192,17923,2,4,L|352:160,1,50
192,96,18411,5,2,0:0:0:0:
192,96,18736,2,0,P|160:144|160:200,1,100
240,224,19223,2,4,L|256:176,1,50
128,288,19710,2,0,L|208:256,1,50,2|0,0:0|0:0,0:0:0:0:
240,320,20035,2,0,L|176:344,2,50
272,240,20522,2,4,L|344:216,1,50
256,64,21010,6,0,P|321:71|360:104,1,100
208,192,21660,2,0,P|240:240|252:266,1,50
304,272,21985,2,0,P|336:224|336:192,1,50
320,144,22309,2,0,P|276:119|227:117,1,100
144,288,22959,2,4,L|192:320,2,50
208,128,23609,6,0,P|232:48|280:16,1,100,2|0,0:0|0:0,0:0:0:0:
80,112,24258,2,0,P|80:160|141:225,1,100
160,32,24908,1,2,0:0:0:0:
272,160,25233,1,4,0:0:0:0:
272,160,25558,2,0,L|216:232,2,50
352,176,26045,5,0,0:0:0:0:
352,176,26127,1,0,0:0:0:0:
352,176,26208,2,0,P|408:152|456:160,1,100
464,240,26695,1,2,0:0:0:0:
464,320,26857,2,0,L|528:352,2,50
352,192,27507,5,2,0:0:0:0:
320,80,27832,2,0,L|368:8,2,50
176,176,28482,2,0,P|160:224|160:256,1,50
224,272,28806,2,0,P|244:231|234:201,1,50
256,144,29131,1,4,0:0:0:0:
320,80,29294,2,0,P|352:80|384:96,1,50
336,160,29619,1,0,0:0:0:0:
256,144,29781,1,0,0:0:0:0:
416,96,30106,6,0,P|432:160|416:208,1,100,2|0,0:0|0:0,0:0:0:0:
384,272,30593,2,4,L|336:224,1,50,4|0,0:0|0:0,0:0:0:0:
240,96,31080,1,2,0:0:0:0:
416,96,31405,1,0,0:0:0:0:
112,192,31730,5,2,0:0:0:0:
192,240,31892,2,0,L|248:288,2,50
272,192,32380,2,0,P|248:88|224:80,1,100
112,208,33029,2,0,L|0:232,1,100
48,144,33517,1,4,0:0:0:0:
128,128,33679,1,4,0:0:0:0:
240,256,34004,5,2,0:0:0:0:
416,240,34329,2,0,L|416:144,2,50
336,272,34816,2,0,L|336:344,1,50
336,144,35303,1,2,0:0:0:0:
336,144,35628,2,0,L|336:80,2,50
256,128,36116,2,0,L|208:80,1,50
304,240,36603,6,0,P|208:224|200:216,1,100,2|0,0:0|0:0,0:0:0:0:
172,145,37090,2,0,L|116:209,2,50
260,153,37578,2,0,L|308:81,1,50
336,176,37902,1,4,0:0:0:0:
336,176,38065,1,4,0:0:0:0:
384,96,38227,2,0,L|464:40,2,50
336,176,38714,1,4,0:0:0:0:
336,176,38877,1,4,0:0:0:0:
176,240,39202,5,2,0:0:0:0:
176,240,39526,2,0,L|128:288,2,50
240,288,40014,2,0,L|288:240,1,50
384,128,40501,2,0,L|320:128,1,50
256,128,40826,1,2,0:0:0:0:
208,48,40988,2,0,L|272:48,2,50
192,128,41476,5,2,0:0:0:0:
80,256,41800,2,0,P|168:296|200:296,1,100
224,128,42450,1,0,0:0:0:0:
384,176,42775,1,0,0:0:0:0:
384,352,43100,1,0,0:0:0:0:
384,176,43425,6,4,L|328:216,1,50
208,96,43912,2,4,L|280:48,1,50
224,240,44399,1,2,0:0:0:0:
112,112,44724,6,4,L|72:56,1,50
256,112,45211,2,4,L|304:184,1,50
128,224,45699,2,0,L|80:256,1,50
48,176,46024,1,2,0:0:0:0:
112,128,46186,2,0,L|184:88,1,50
80,256,46673,1,0,0:0:0:0:
224,160,46998,1,2,0:0:0:0:
80,256,47323,6,0,L|80:160,2,50
160,272,47810,2,0,L|160:344,1,50
240,176,48297,1,2,0:0:0:0:
240,176,48460,2,0,L|328:160,2,50
240,96,48947,2,0,L|168:112,1,50
160,192,49272,1,0,0:0:0:0:
288,304,49597,1,2,0:0:0:0:
384,160,49922,6,0,L|384:256,2,50
320,96,50409,2,0,L|320:16,1,50
192,160,50896,1,2,0:0:0:0:
192,160,51059,2,0,L|280:152,2,50
176,240,51546,2,0,L|112:248,1,50
176,320,51871,5,0,0:0:0:0:
320,224,52196,1,2,0:0:0:0:
144,240,52521,2,0,L|72:248,2,50
320,224,53170,1,0,0:0:0:0:
176,304,53495,1,2,0:0:0:0:
272,160,53820,6,0,L|216:96,2,50
192,208,54307,2,0,L|240:256,1,50
368,336,54794,6,0,P|440:368|472:368,1,100,2|0,0:0|0:0,0:0:0:0:
464,288,55282,2,0,L|520:240,1,50
464,176,55607,2,0,L|400:232,1,50
352,64,56094,6,0,L|352:-8,1,50,2|0,0:0|0:0,0:0:0:0:
272,0,56419,1,0,0:0:0:0:
272,80,56581,1,0,0:0:0:0:
192,96,56744,2,0,L|192:168,1,50
272,160,57068,1,4,0:0:0:0:
128,256,57393,6,0,L|248:256,1,100,2|0,0:0|0:0,0:0:0:0:
288,320,57881,1,4,0:0:0:0:
288,320,58043,1,4,0:0:0:0:
368,368,58205,2,0,L|368:296,1,50
240,208,58693,6,0,L|176:152,1,50,2|0,0:0|0:0,0:0:0:0:
272,112,59018,2,0,L|320:80,2,50
304,192,59505,2,0,L|304:256,1,50
368,304,59830,5,2,0:0:0:0:
368,304,59911,1,0,0:0:0:0:
368,304,59992,2,0,P|304:320|248:312,1,100
288,240,60479,1,2,0:0:0:0:
352,192,60642,2,0,P|320:128|336:80,1,100
160,160,61292,1,2,0:0:0:0:
304,240,61616,6,0,B|352:272|336:304|336:304,1,50
272,320,61941,2,0,P|224:272|224:256,2,50
256,144,62591,1,2,0:0:0:0:
144,160,82732,6,0,P|208:112|288:144,1,150.000005722046,2|0,0:0|0:0,0:0:0:0:
112,320,84031,1,2,0:0:0:0:
208,240,84356,2,0,P|288:272|336:256,1,112.500004291535,2|0,0:0|0:0,0:0:0:0:
288,160,85980,2,0,P|323:86|320:64,1,75.0000028610231,2|0,0:0|0:0,0:0:0:0:
256,48,87929,6,0,P|192:80|160:80,1,75.0000028610231
304,144,88579,1,2,0:0:0:0:
224,240,88904,2,0,P|288:272|304:288,1,75.0000028610231
400,224,89554,2,0,P|432:160|432:128,2,75.0000028610231
288,160,90528,2,0,P|224:144|208:128,1,75.0000028610231
208,272,91178,5,2,0:0:0:0:
80,288,91503,2,0,P|128:320|144:352,1,75.0000028610231
144,128,93452,6,0,P|176:104|224:104,1,64.9999970245363,2|0,0:0|0:0,0:0:0:0:
48,256,94426,1,2,0:0:0:0:
144,304,94751,1,2,0:0:0:0:
176,192,95076,2,0,B|208:208|208:208|240:240,1,64.9999970245363
256,64,96375,6,0,B|232:96|232:96|280:80|304:144|264:160,1,129.999994049073,2|0,0:0|0:0,0:0:0:0:
160,120,98974,6,0,B|112:112|144:160|96:160,1,64.9999970245363,2|0,0:0|0:0,0:0:0:0:
224,160,99624,2,0,B|256:144|208:112|256:96,1,64.9999970245363,2|0,0:0|0:0,0:0:0:0:
288,208,100274,2,0,B|280:256|280:256|240:224|208:240|208:240|208:272,1,129.999994049073,2|0,0:0|0:0,0:0:0:0:
400,128,101573,6,0,P|368:96|320:96,2,64.9999970245363,2|0|0,0:0|0:0|0:0,0:0:0:0:
320,192,102548,2,0,P|352:240|384:256,1,64.9999970245363
464,224,103197,2,0,P|432:184|400:184,1,64.9999970245363
320,208,103847,1,2,0:0:0:0:
320,128,104172,2,0,L|320:64,1,64.9999970245363
56,184,104822,6,0,B|112:224|112:224|128:288,1,100
184,112,105471,1,4,0:0:0:0:
224,192,105634,1,4,0:0:0:0:
304,184,105796,2,0,L|368:144,2,50
216,192,106283,5,4,0:0:0:0:
184,112,106446,1,4,0:0:0:0:
224,168,106608,1,4,0:0:0:0:
272,96,106771,2,0,P|312:40|336:32,1,50
376,32,107096,1,0,0:0:0:0:
408,112,107258,2,0,L|472:160,1,50
320,168,107745,6,0,P|336:224|320:256,1,75.0000028610231
232,336,108395,1,0,0:0:0:0:
136,248,108720,2,0,B|216:248|176:312|176:312|240:336,1,150.000005722046
264,208,109694,2,0,B|248:96|192:200|144:120,1,150.000005722046,2|0,0:0|0:0,0:0:0:0:
192,280,110669,5,2,0:0:0:0:
256,224,110831,1,4,0:0:0:0:
320,272,110994,1,2,0:0:0:0:
336,192,111156,2,0,P|384:240|384:256,1,50
464,192,111481,2,0,L|496:136,1,50,4|0,0:0|0:0,0:0:0:0:
400,128,111806,1,0,0:0:0:0:
328,184,111968,6,0,P|256:152|248:128,1,100,2|0,0:0|0:0,0:0:0:0:
200,64,112456,1,4,0:0:0:0:
120,96,112618,1,2,0:0:0:0:
128,184,112780,1,4,0:0:0:0:
56,232,112943,2,0,P|112:312|144:320,1,100,2|0,0:0|0:0,0:0:0:0:
256,224,113593,5,0,0:0:0:0:
96,176,113917,2,0,P|168:112|192:112,1,100
304,208,114567,2,0,P|296:288|272:304,1,100
176,168,115217,6,0,P|200:112|240:96,1,100
320,240,115866,1,2,0:0:0:0:
384,184,116029,1,0,0:0:0:0:
416,104,116191,1,2,0:0:0:0:
336,72,116354,1,0,0:0:0:0:
288,144,116516,2,0,B|216:200|216:208|224:208,1,50
168,144,116841,2,0,L|232:80,1,50
128,72,117166,5,2,0:0:0:0:
128,72,117491,2,0,L|56:136,1,50
64,184,117816,1,2,0:0:0:0:
104,256,117978,1,0,0:0:0:0:
152,184,118140,2,0,L|208:136,1,50
240,216,118465,2,0,L|240:336,1,100,2|0,0:0|0:0,0:0:0:0:
328,48,119765,5,2,0:0:0:0:
328,48,119927,2,0,P|352:96|352:136,1,50
288,160,120252,1,2,0:0:0:0:
288,160,120414,2,0,P|328:232|352:248,1,100,2|0,0:0|0:0,0:0:0:0:
448,120,121064,5,2,0:0:0:0:
384,176,121227,1,0,0:0:0:0:
304,168,121389,1,2,0:0:0:0:
272,88,121552,1,0,0:0:0:0:
192,104,121714,2,0,B|136:32|128:32|128:40,1,50,2|0,0:0|0:0,0:0:0:0:
96,120,122039,2,0,L|160:184,1,50,2|0,0:0|0:0,0:0:0:0:
232,232,122364,6,0,L|232:352,1,75.0000028610231
104,184,124962,5,2,0:0:0:0:
216,168,125125,1,0,0:0:0:0:
144,80,125287,1,2,0:0:0:0:
216,168,125450,2,2,L|216:280,1,64.9999970245363
304,296,125774,2,0,L|304:200,1,64.9999970245363
312,120,126099,1,2,0:0:0:0:
312,120,126262,2,0,L|424:120,1,64.9999970245363,4|0,0:0|0:0,0:0:0:0:
304,200,126587,5,2,0:0:0:0:
344,296,126749,1,4,0:0:0:0:
240,272,126911,2,0,L|144:224,1,64.9999970245363,2|0,0:0|0:0,0:0:0:0:
80,288,127236,2,0,L|160:328,1,64.9999970245363
104,208,127561,5,2,0:0:0:0:
208,168,127724,1,0,0:0:0:0:
128,88,127886,1,2,0:0:0:0:
128,88,127967,1,2,0:0:0:0:
128,88,128048,2,0,L|232:32,1,64.9999970245363
208,176,128373,1,2,0:0:0:0:
104,216,128536,2,0,L|0:144,1,64.9999970245363
16,280,128861,5,2,0:0:0:0:
120,312,129023,1,2,0:0:0:0:
120,312,129104,1,0,0:0:0:0:
120,312,129185,2,0,L|184:368,1,64.9999970245363
272,288,129510,2,0,L|192:224,1,64.9999970245363,2|0,0:0|0:0,0:0:0:0:
160,160,129835,1,2,0:0:0:0:
176,136,130160,6,0,L|56:184,1,129.999994049073,2|0,0:0|0:0,0:0:0:0:
160,240,130647,1,0,0:0:0:0:
256,208,130810,1,2,0:0:0:0:
304,288,130972,2,0,P|360:320|448:312,1,129.999994049073
464,216,131459,5,2,0:0:0:0:
464,216,131622,2,0,L|376:216,1,64.9999970245363
344,120,131947,1,2,0:0:0:0:
344,120,132029,1,2,0:0:0:0:
344,120,132109,2,0,L|440:120,1,64.9999970245363
336,208,132434,1,2,0:0:0:0:
336,208,132759,6,0,L|248:272,1,64.9999970245363,2|0,0:0|0:0,0:0:0:0:
184,304,133084,2,0,L|232:384,1,64.9999970245363
328,344,133408,2,0,L|408:288,1,64.9999970245363
336,208,133733,1,2,0:0:0:0:
336,208,134058,6,0,L|272:248,1,64.9999970245363
392,264,134383,1,2,0:0:0:0:
312,336,134545,1,0,0:0:0:0:
200,312,134708,1,2,0:0:0:0:
200,312,134790,1,2,0:0:0:0:
200,312,134870,2,0,L|288:232,1,64.9999970245363
160,64,135358,6,0,L|80:128,1,64.9999970245363,2|0,0:0|0:0,0:0:0:0:
216,120,135682,1,2,0:0:0:0:
120,184,135845,1,0,0:0:0:0:
232,200,136007,1,2,0:0:0:0:
152,272,136170,2,0,L|216:344,1,64.9999970245363
296,272,136495,1,2,0:0:0:0:
296,272,136577,1,2,0:0:0:0:
296,272,136657,2,0,L|368:216,1,64.9999970245363
272,152,136982,5,2,0:0:0:0:
360,224,137144,1,0,0:0:0:0:
456,176,137307,1,2,0:0:0:0:
456,176,137469,2,0,L|368:104,1,64.9999970245363
304,336,137956,5,2,0:0:0:0:
328,344,138281,2,0,L|400:296,1,64.9999970245363
288,240,138606,1,2,0:0:0:0:
288,240,138768,2,2,P|256:272|192:272,1,64.9999970245363
192,160,139093,5,2,0:0:0:0:
192,160,139256,2,0,P|240:128|272:128,1,64.9999970245363
288,16,139581,1,2,0:0:0:0:
288,16,139743,2,0,P|240:48|208:48,1,64.9999970245363
128,48,140068,1,0,0:0:0:0:
128,48,140230,2,0,P|128:80|112:112,1,64.9999970245363
240,280,140555,5,2,0:0:0:0:
240,280,140718,1,0,0:0:0:0:
296,184,140880,2,0,L|360:256,1,64.9999970245363,2|0,0:0|0:0,0:0:0:0:
368,128,141205,2,0,L|296:56,2,64.9999970245363,2|0|0,0:0|0:0|0:0,0:0:0:0:
152,192,141855,6,0,L|200:256,1,64.9999970245363,2|0,0:0|0:0,0:0:0:0:
256,152,142179,2,0,L|208:80,2,64.9999970245363
152,184,142667,1,0,0:0:0:0:
104,280,142829,1,2,0:0:0:0:
296,168,143154,6,0,P|224:200|208:240,1,64.9999970245363
200,296,143479,2,0,P|248:280|288:232,1,64.9999970245363
368,240,143803,2,0,P|352:280|368:312,1,64.9999970245363
448,240,144129,2,0,P|432:192|376:160,1,64.9999970245363
320,136,144453,6,0,P|360:120|384:96,1,64.9999970245363,2|0,0:0|0:0,0:0:0:0:
288,40,144778,1,2,0:0:0:0:
200,112,144940,1,0,0:0:0:0:
104,56,145103,1,2,0:0:0:0:
104,56,145185,1,0,0:0:0:0:
104,56,145265,2,0,L|48:112,1,64.9999970245363
128,184,145590,5,2,0:0:0:0:
216,112,145753,2,0,L|296:56,1,64.9999970245363
368,112,146078,2,0,L|296:160,1,64.9999970245363
416,208,146402,1,2,0:0:0:0:
368,112,146565,1,0,0:0:0:0:
272,48,146727,1,2,0:0:0:0:
192,112,146890,2,0,P|176:144|192:208,1,64.9999970245363
64,128,147215,5,2,0:0:0:0:
64,128,147378,1,2,0:0:0:0:
48,240,147540,2,0,L|112:312,1,64.9999970245363
112,176,147865,2,0,L|40:104,2,64.9999970245363
128,64,148352,6,0,P|56:48|-24:80,1,129.999994049073,2|0,0:0|0:0,0:0:0:0:
16,176,148839,1,2,0:0:0:0:
128,176,149001,2,0,L|192:240,1,64.9999970245363
256,160,149326,1,2,0:0:0:0:
464,240,149651,5,2,0:0:0:0:
304,128,149976,2,0,L|200:176,1,64.9999970245363
352,192,150301,1,2,0:0:0:0:
352,192,150463,2,0,L|440:152,1,64.9999970245363
416,48,150950,5,2,0:0:0:0:
496,128,151113,1,2,0:0:0:0:
400,176,151275,2,0,L|336:208,1,64.9999970245363
224,72,151600,1,2,0:0:0:0:
128,112,151763,1,2,0:0:0:0:
232,72,151925,6,0,P|208:152|112:184,1,129.999994049073
56,176,152412,1,2,0:0:0:0:
120,272,152575,2,0,L|48:344,1,64.9999970245363
176,360,152900,1,2,0:0:0:0:
208,256,153062,2,0,L|296:176,1,64.9999970245363
440,96,153549,5,2,0:0:0:0:
440,96,153712,1,0,0:0:0:0:
344,40,153874,2,0,L|264:112,1,64.9999970245363,2|0,0:0|0:0,0:0:0:0:
184,64,154199,1,2,0:0:0:0:
192,176,154361,2,0,P|216:240|224:264,1,64.9999970245363
416,336,154849,5,2,0:0:0:0:
416,336,155173,2,2,P|448:288|480:272,1,64.9999970245363,0|0,0:0|0:0,0:0:0:0:
240,336,155661,1,2,0:0:0:0:
240,336,155824,2,0,P|208:368|176:384,1,64.9999970245363,0|2,0:0|0:0,0:0:0:0:
176,272,156148,5,2,0:0:0:0:
176,272,156310,2,0,P|176:208|192:192,1,64.9999970245363
288,176,156635,1,2,0:0:0:0:
288,176,156717,1,2,0:0:0:0:
288,176,156797,2,0,P|272:224|232:232,1,64.9999970245363
208,128,157123,5,2,0:0:0:0:
304,80,157285,2,0,L|384:24,1,64.9999970245363
448,96,157610,2,0,L|376:144,1,64.9999970245363
496,160,157934,1,0,0:0:0:0:
400,224,158097,1,2,0:0:0:0:
304,160,158259,1,0,0:0:0:0:
304,160,158422,2,0,P|314:231|330:252,1,64.9999970245363
368,320,158747,1,2,0:0:0:0:
208,176,159072,5,2,0:0:0:0:
320,208,159234,1,2,0:0:0:0:
320,208,159315,1,2,0:0:0:0:
320,208,159397,2,0,L|320:112,1,64.9999970245363
384,64,159721,2,0,L|384:152,1,64.9999970245363
304,48,160046,5,2,0:0:0:0:
208,96,160209,2,0,L|208:24,2,64.9999970245363
304,144,160696,1,2,0:0:0:0:
304,256,160858,2,0,L|304:328,2,64.9999970245363
208,208,161346,6,0,B|176:192|176:192|144:144,1,64.9999970245363,2|0,0:0|0:0,0:0:0:0:
224,80,161671,1,2,0:0:0:0:
320,144,161833,1,0,0:0:0:0:
416,80,161995,2,0,P|384:48|336:32,2,64.9999970245363
176,160,162646,6,0,L|224:96,1,64.9999970245363,2|0,0:0|0:0,0:0:0:0:
224,224,162970,2,0,L|176:296,2,64.9999970245363
128,176,163458,1,0,0:0:0:0:
96,64,163620,1,2,0:0:0:0:
288,176,163945,6,0,P|216:144|200:104,1,64.9999970245363
192,48,164270,2,0,P|240:64|280:112,1,64.9999970245363
352,112,164594,2,0,P|336:72|352:40,1,64.9999970245363
432,128,164920,2,0,P|416:176|360:208,1,64.9999970245363
320,232,165244,6,0,P|360:248|384:272,1,64.9999970245363
288,328,165569,1,2,0:0:0:0:
176,304,165731,1,0,0:0:0:0:
224,208,165894,2,0,L|272:112,1,64.9999970245363
256,64,166218,1,2,0:0:0:0:
256,64,166543,5,2,0:0:0:0:
160,112,166706,2,0,L|128:176,1,59.9999981689454
32,160,167031,1,2,0:0:0:0:
32,160,167112,1,2,0:0:0:0:
32,160,167193,2,0,L|64:96,1,59.9999981689454
160,80,167518,1,2,0:0:0:0:
256,112,167680,1,2,0:0:0:0:
160,80,167843,2,0,L|192:0,1,59.9999981689454
288,16,168168,5,2,0:0:0:0:
400,80,168330,1,2,0:0:0:0:
400,80,168411,1,2,0:0:0:0:
400,80,168492,2,0,L|384:144,1,59.9999981689454
432,224,168817,2,0,L|464:144,1,59.9999981689454
352,192,169142,6,0,L|320:256,1,59.9999981689454,2|0,0:0|0:0,0:0:0:0:
224,272,169467,1,2,0:0:0:0:
192,176,169629,1,2,0:0:0:0:
192,176,169711,1,2,0:0:0:0:
192,176,169792,2,0,L|224:112,2,59.9999981689454
96,144,170279,5,2,0:0:0:0:
96,48,170441,2,0,L|160:80,1,59.9999981689454
192,160,170766,1,2,0:0:0:0:
192,240,170929,2,0,L|112:208,1,59.9999981689454
160,320,171254,1,2,0:0:0:0:
8,249,171416,2,0,L|64:272,1,59.9999981689454
96,176,171741,5,2,0:0:0:0:
96,176,171903,1,2,0:0:0:0:
144,96,172066,2,0,L|88:73,1,59.9999981689454
160,0,172391,1,2,0:0:0:0:
256,32,172553,1,2,0:0:0:0:
256,32,172634,1,2,0:0:0:0:
256,32,172715,2,0,P|224:64|224:112,1,59.9999981689454
304,144,173040,5,2,0:0:0:0:
304,144,173203,1,0,0:0:0:0:
400,112,173365,2,0,L|480:144,1,59.9999981689454
480,240,173690,1,2,0:0:0:0:
480,240,173771,1,2,0:0:0:0:
480,240,173852,2,0,L|400:208,1,59.9999981689454
320,208,174177,5,2,0:0:0:0:
224,176,174340,1,2,0:0:0:0:
128,224,174502,1,2,0:0:0:0:
224,256,174665,2,0,P|192:272|176:304,1,59.9999981689454
272,320,174989,1,2,0:0:0:0:
192,384,175152,1,2,0:0:0:0:
96,208,175476,5,2,0:0:0:0:
16,144,175639,2,0,L|80:96,1,59.9999981689454
96,208,175963,1,2,0:0:0:0:
48,304,176126,2,0,L|-16:352,1,59.9999981689454
0,240,176451,1,2,0:0:0:0:
96,208,176614,2,0,L|160:160,1,59.9999981689454
192,80,176939,5,2,0:0:0:0:
96,112,177101,1,2,0:0:0:0:
96,208,177263,1,2,0:0:0:0:
192,256,177426,2,0,L|192:336,1,59.9999981689454
288,272,177751,2,0,L|304:192,2,59.9999981689454
368,336,178238,5,2,0:0:0:0:
368,336,178400,1,2,0:0:0:0:
448,272,178563,2,0,P|432:256|384:240,1,59.9999981689454
432,144,178888,1,2,0:0:0:0:
352,80,179050,1,2,0:0:0:0:
336,64,179131,1,2,0:0:0:0:
320,48,179212,2,0,L|240:16,1,59.9999981689454
208,112,179537,5,2,0:0:0:0:
112,144,179700,1,2,0:0:0:0:
112,144,179862,1,2,0:0:0:0:
192,208,180025,1,2,0:0:0:0:
176,224,180106,1,2,0:0:0:0:
160,240,180187,2,0,L|80:272,1,59.9999981689454
112,160,180512,2,0,L|112:96,1,59.9999981689454
208,128,180837,6,0,P|288:144|336:112,1,119.999996337891
384,48,181324,1,2,0:0:0:0:
480,80,181486,2,0,P|464:128|480:160,1,59.9999981689454
400,208,181811,1,2,0:0:0:0:
400,208,181892,1,2,0:0:0:0:
400,208,181974,1,2,0:0:0:0:
496,256,182136,6,0,P|480:288|432:304,1,59.9999981689454
352,320,182461,1,2,0:0:0:0:
304,224,182623,1,2,0:0:0:0:
208,192,182786,2,0,P|240:160|272:144,1,59.9999981689454
208,64,183111,5,2,0:0:0:0:
208,64,183192,1,2,0:0:0:0:
208,64,183273,2,0,P|160:96|144:128,1,59.9999981689454
64,64,183598,1,2,0:0:0:0:
80,160,183760,1,2,0:0:0:0:
176,192,183923,1,2,0:0:0:0:
176,192,184004,1,2,0:0:0:0:
176,192,184085,2,0,P|224:144|224:128,1,59.9999981689454
256,64,184410,2,0,P|226:63|200:78,1,59.9999981689454
288,128,184735,5,0,0:0:0:0:
336,32,184897,2,0,P|400:96|480:96,1,119.999996337891
432,208,185385,2,0,P|448:176|480:144,1,59.9999981689454
512,240,185709,2,0,P|496:272|464:304,1,59.9999981689454
384,272,186034,2,0,P|352:272|326:284,1,59.9999981689454
240,336,186359,5,2,0:0:0:0:
224,320,186440,1,2,0:0:0:0:
208,288,186522,2,0,L|208:224,2,59.9999981689454
272,208,187009,2,0,P|304:192|320:160,1,59.9999981689454
368,80,187334,5,2,0:0:0:0:
384,96,187415,1,2,0:0:0:0:
400,112,187496,2,0,L|400:192,1,59.9999981689454
352,272,187821,1,2,0:0:0:0:
272,208,187983,1,2,0:0:0:0:
208,288,188146,1,2,0:0:0:0:
272,208,188308,2,0,L|320:160,1,59.9999981689454
384,128,188633,5,2,0:0:0:0:
288,96,188796,1,2,0:0:0:0:
208,160,188958,2,0,L|160:208,1,59.9999981689454
64,176,189283,1,2,0:0:0:0:
80,144,189364,1,2,0:0:0:0:
96,112,189445,1,2,0:0:0:0:
112,80,189526,1,2,0:0:0:0:
128,48,189608,2,0,L|192:16,1,59.9999981689454
224,112,189933,6,0,L|224:176,1,59.9999981689454
304,240,190257,1,2,0:0:0:0:
304,144,190420,1,2,0:0:0:0:
400,144,190582,2,0,L|400:64,2,59.9999981689454
304,320,191232,6,0,P|304:224|352:176,1,119.999996337891
416,224,191720,2,0,P|400:256|368:272,1,59.9999981689454
464,336,192044,2,0,P|480:304|512:288,2,59.9999981689454
368,352,192531,5,2,0:0:0:0:
384,256,192694,1,0,0:0:0:0:
384,256,192856,2,0,P|407:238|419:211,1,59.9999981689454
320,192,193182,2,0,P|288:208|256:240,1,59.9999981689454
256,320,193506,2,0,P|288:304|304:272,1,59.9999981689454
320,176,193831,5,2,0:0:0:0:
400,112,193993,1,2,0:0:0:0:
352,16,194156,1,2,0:0:0:0:
272,80,194318,1,2,0:0:0:0:
272,80,194399,1,2,0:0:0:0:
272,80,194480,2,0,L|208:128,2,59.9999981689454
128,224,195130,5,2,0:0:0:0:
208,288,195293,1,2,0:0:0:0:
272,208,195455,1,2,0:0:0:0:
336,288,195617,2,0,L|384:240,1,59.9999981689454
336,160,195942,1,2,0:0:0:0:
272,208,196105,5,2,0:0:0:0:
176,160,196267,2,0,L|224:112,1,59.9999981689454
144,48,196592,1,2,0:0:0:0:
80,128,196754,2,0,L|16:160,1,59.9999981689454
144,160,197079,1,2,0:0:0:0:
160,256,197242,2,0,L|224:208,1,59.9999981689454
144,32,197729,5,2,0:0:0:0:
208,112,197891,1,2,0:0:0:0:
272,192,198054,1,2,0:0:0:0:
368,176,198216,2,0,L|320:128,1,59.9999981689454
400,64,198541,2,0,L|448:112,2,59.9999981689454
304,64,199028,5,2,0:0:0:0:
224,128,199191,1,2,0:0:0:0:
144,192,199353,1,2,0:0:0:0:
240,224,199516,2,0,L|192:272,1,59.9999981689454
288,304,199841,1,2,0:0:0:0:
288,304,199922,1,2,0:0:0:0:
288,304,200003,2,0,L|336:256,1,59.9999981689454
416,208,200328,6,0,L|416:272,1,59.9999981689454
320,224,200653,2,0,L|320:160,1,59.9999981689454
224,144,200977,1,2,0:0:0:0:
224,144,201058,1,2,0:0:0:0:
224,144,201140,1,2,0:0:0:0:
224,240,201302,6,0,P|224:304|208:320,1,59.9999981689454
144,240,201627,2,0,P|144:176|160:160,1,59.9999981689454
240,208,201952,2,0,P|240:272|224:288,1,59.9999981689454
160,192,202277,2,0,P|160:128|176:112,1,59.9999981689454
256,176,202602,2,0,P|256:240|240:256,1,59.9999981689454
304,320,202927,5,2,0:0:0:0:
208,288,203090,1,2,0:0:0:0:
128,336,203252,1,2,0:0:0:0:
112,256,203414,2,0,L|64:208,1,59.9999981689454
128,128,203739,1,2,0:0:0:0:
176,208,203902,5,2,0:0:0:0:
128,128,204064,2,0,L|80:80,1,59.9999981689454
192,64,204389,1,2,0:0:0:0:
240,144,204551,2,0,L|288:192,1,59.9999981689454
304,80,204876,1,2,0:0:0:0:
400,48,205039,2,0,L|357:5,1,59.9999981689454
288,192,205525,5,2,0:0:0:0:
288,192,205687,1,2,0:0:0:0:
384,240,205850,2,0,L|336:304,1,59.9999981689454
240,288,206175,2,0,L|288:224,1,59.9999981689454
240,144,206499,2,0,L|192:208,1,59.9999981689454
96,192,206824,2,0,L|144:128,1,59.9999981689454
176,48,207150,5,2,0:0:0:0:
176,48,207231,1,2,0:0:0:0:
176,48,207313,1,2,0:0:0:0:
80,48,207475,6,0,P|80:112|64:128,1,59.9999981689454
16,192,207800,2,0,P|16:128|32:112,1,59.9999981689454
228,170,208125,2,0,P|169:160|112:176,1,119.999996337891
192,112,209424,6,0,P|256:96|368:128,2,150
256,192,210723,12,0,213322,0:0:0:0:
176,224,213647,6,0,P|256:256|384:208,1,200
464,96,214621,2,0,P|391:80|318:97,2,150
256,192,215921,12,0,218519,0:0:0:0:
176,64,218844,6,0,P|144:144|192:272,1,200
336,240,219819,2,0,P|351:167|334:94,2,150
256,192,221118,12,0,223717,0:0:0:0:
128,224,224042,6,0,P|208:256|336:208,1,200
416,96,225179,2,0,P|343:80|270:97,2,150
