osu file format v14

[General]
AudioFilename: audio.mp3
AudioLeadIn: 0
PreviewTime: 32126
Countdown: 0
SampleSet: None
StackLeniency: 0.7
Mode: 0
LetterboxInBreaks: 0
WidescreenStoryboard: 1

[Editor]
DistanceSpacing: 1.5
BeatDivisor: 4
GridSize: 8
TimelineZoom: 1

[Metadata]
Title:The One That Got Away
TitleUnicode:The One That Got Away
Artist:Katy Perry
ArtistUnicode:Katy Perry
Creator:X4D
Version:Hard
Source:
Tags:Teenage Dream: The Complete Confection Pop cut short version
BeatmapID:1907512
BeatmapSetID:911722

[Difficulty]
HPDrainRate:5
CircleSize:3.5
OverallDifficulty:6
ApproachRate:7
SliderMultiplier:1.2
SliderTickRate:1

[Events]
//Background and Video events
0,0,"495099.jpg",0,0
//Break Periods
//Storyboard Layer 0 (Background)
//Storyboard Layer 1 (Fail)
//Storyboard Layer 2 (Pass)
//Storyboard Layer 3 (Foreground)
//Storyboard Sound Samples

[TimingPoints]
0,447.761194029851,4,2,1,70,1,0
5373,-83.3333333333333,4,2,1,70,0,0
34029,-76.9230769230769,4,2,1,70,0,1
34365,-76.9230769230769,4,2,1,5,0,1
34477,-76.9230769230769,4,2,1,70,0,0
48694,-76.9230769230769,4,2,1,5,0,0
48805,-76.9230769230769,4,2,1,70,0,0
62686,-76.9230769230769,4,2,1,70,0,1
63134,-76.9230769230769,4,2,1,70,0,0
77014,-76.9230769230769,4,2,1,70,0,1
77350,-76.9230769230769,4,2,1,5,0,1
77462,-76.9230769230769,4,2,1,70,0,0
94029,-76.9230769230769,4,2,1,60,0,0
94925,-76.9230769230769,4,2,1,50,0,0
95597,-76.9230769230769,4,2,1,40,0,0
96044,-76.9230769230769,4,2,1,30,0,0
96268,-76.9230769230769,4,2,1,15,0,0
96492,-76.9230769230769,4,2,1,10,0,0
96716,-76.9230769230769,4,2,1,5,0,0

[Colours]
Combo1 : 236,230,193
Combo2 : 251,218,85
Combo3 : 132,49,9
Combo4 : 254,188,156
SliderTrackOverride : 108,70,85
SliderBorder : 227,197,187

[HitObjects]
68,43,1791,6,0,P|130:22|190:42,1,120,0|8,1:0|1:2,0:0:0:0:
337,125,2686,2,0,P|279:138|224:117,1,120,0|8,1:0|1:2,0:0:0:0:
133,117,3358,1,0,1:0:0:0:
133,117,3582,2,0,L|144:256,1,120,0|8,1:0|1:2,0:0:0:0:
269,363,4477,2,0,L|278:243,1,120,0|8,1:0|1:2,0:0:0:0:
349,187,5149,1,0,1:0:0:0:
349,187,5373,6,0,P|353:142|345:113,1,71.9999978027345,0|0,1:2|0:0,0:0:0:0:
268,41,5820,2,0,P|223:37|194:45,1,71.9999978027345,8|0,1:2|0:0,0:0:0:0:
137,134,6268,2,0,L|146:249,1,107.999996704102,0|0,1:0|0:0,0:0:0:0:
150,295,6716,1,8,1:2:0:0:
241,237,6940,1,0,1:0:0:0:
286,334,7164,6,0,L|376:339,1,71.9999978027345,0|0,1:0|0:0,0:0:0:0:
434,261,7611,2,0,L|439:171,1,71.9999978027345,8|0,1:2|0:0,0:0:0:0:
351,123,8059,2,0,L|261:128,1,71.9999978027345,0|0,1:0|0:0,0:0:0:0:
195,195,8507,1,8,1:2:0:0:
195,195,8731,1,0,1:0:0:0:
97,147,8955,6,0,P|89:196|99:237,1,71.9999978027345,0|0,1:0|0:0,0:0:0:0:
167,295,9402,2,0,P|216:287|257:297,1,71.9999978027345,8|0,1:2|0:0,0:0:0:0:
334,339,9850,2,0,L|341:229,1,107.999996704102,0|0,1:0|0:0,0:0:0:0:
373,187,10298,1,8,1:2:0:0:
308,100,10522,1,0,1:0:0:0:
400,44,10746,6,0,L|500:51,1,71.9999978027345,0|0,1:0|0:0,0:0:0:0:
481,157,11194,2,0,L|409:162,1,71.9999978027345,8|0,1:2|0:0,0:0:0:0:
389,268,11641,2,0,L|489:275,1,71.9999978027345,0|0,1:0|0:0,0:0:0:0:
414,371,12089,1,8,1:2:0:0:
414,371,12313,1,0,1:0:0:0:
315,325,12537,6,0,P|271:321|243:330,1,71.9999978027345,0|0,1:0|0:0,0:0:0:0:
140,358,12985,2,0,P|96:362|68:353,1,71.9999978027345,8|0,1:2|0:0,0:0:0:0:
18,258,13432,2,0,L|25:134,1,107.999996704102,0|0,1:0|0:0,0:0:0:0:
28,95,13880,1,8,1:2:0:0:
106,20,14104,1,0,1:0:0:0:
193,82,14328,6,0,L|293:85,1,71.9999978027345,0|0,1:0|0:0,0:0:0:0:
338,163,14776,2,0,L|238:166,1,71.9999978027345,8|0,1:2|0:0,0:0:0:0:
183,234,15223,2,0,B|220:233|220:233|229:290|218:353,1,143.999995605469,0|8,1:0|1:2,0:0:0:0:
319,294,15895,1,0,1:0:0:0:
319,294,16119,6,0,P|364:286|405:292,1,71.9999978027345,0|0,1:0|0:0,0:0:0:0:
486,337,16567,2,0,L|477:251,1,71.9999978027345,8|0,1:2|0:0,0:0:0:0:
477,157,17014,2,0,P|432:149|391:155,1,71.9999978027345,0|0,1:0|0:0,0:0:0:0:
306,195,17462,1,8,1:2:0:0:
320,87,17686,1,0,1:0:0:0:
220,129,17910,6,0,P|175:137|134:131,1,71.9999978027345,0|0,1:0|0:0,0:0:0:0:
53,86,18358,2,0,L|62:172,1,71.9999978027345,8|0,1:2|0:0,0:0:0:0:
62,266,18805,2,0,P|107:274|148:268,1,71.9999978027345,0|0,1:0|0:0,0:0:0:0:
233,228,19253,1,8,1:2:0:0:
219,336,19477,1,0,1:0:0:0:
326,350,19701,5,0,1:0:0:0:
340,242,19925,1,0,0:0:0:0:
428,304,20149,2,0,L|508:296,1,71.9999978027345,8|0,1:2|0:0,0:0:0:0:
476,190,20597,1,0,1:0:0:0:
476,190,20820,2,0,L|404:182,1,71.9999978027345,0|8,0:0|1:2,0:0:0:0:
323,110,21268,1,0,1:0:0:0:
357,7,21492,6,0,P|310:1|280:8,2,71.9999978027345,0|0|8,1:0|0:0|1:2,0:0:0:0:
323,110,22164,1,0,0:0:0:0:
323,110,22388,2,0,B|249:100|266:154|178:147,1,143.999995605469,0|8,1:0|1:2,0:0:0:0:
97,206,23059,1,0,1:0:0:0:
195,250,23283,5,0,1:0:0:0:
133,339,23507,1,0,0:0:0:0:
240,346,23731,2,0,L|329:349,1,71.9999978027345,8|0,1:2|0:0,0:0:0:0:
373,258,24179,1,0,1:0:0:0:
373,258,24403,2,0,L|462:255,1,71.9999978027345,0|8,0:0|1:2,0:0:0:0:
494,159,24850,1,0,1:0:0:0:
386,168,25074,6,0,P|390:119|401:93,2,71.9999978027345,0|0|8,1:0|0:0|1:2,0:0:0:0:
290,116,25746,1,0,0:0:0:0:
290,116,25970,2,0,P|221:88|146:126,1,143.999995605469,0|8,1:0|1:2,0:0:0:0:
100,202,26641,1,0,1:0:0:0:
18,130,26865,5,0,1:0:0:0:
1,236,27089,1,0,0:0:0:0:
84,304,27313,2,0,L|173:300,1,71.9999978027345,8|0,1:2|0:0,0:0:0:0:
261,327,27761,1,0,1:0:0:0:
261,327,27985,2,0,L|257:238,1,71.9999978027345,0|8,0:0|1:2,0:0:0:0:
319,166,28432,1,0,1:0:0:0:
270,69,28656,6,0,P|317:56|352:63,1,71.9999978027345,0|0,1:0|0:0,0:0:0:0:
388,155,29104,2,0,P|341:168|306:161,1,71.9999978027345,8|0,1:2|0:0,0:0:0:0:
282,267,29552,2,0,B|197:263|237:317|116:309,1,143.999995605469,0|8,1:0|1:2,0:0:0:0:
49,352,30223,1,0,1:0:0:0:
68,245,30447,6,0,L|58:156,1,71.9999978027345,0|0,1:0|0:0,0:0:0:0:
155,121,30895,2,0,L|145:210,1,71.9999978027345,8|0,1:2|0:0,0:0:0:0:
241,245,31343,2,0,L|231:156,1,71.9999978027345,0|0,1:0|0:0,0:0:0:0:
295,84,31791,1,8,1:2:0:0:
295,84,32014,1,0,1:0:0:0:
295,84,33582,2,0,L|337:88,3,35.9999989013672,0|0|0|0,0:0|0:0|0:0|0:0,0:0:0:0:
384,64,34029,6,0,P|404:117|387:173,1,116.999994644165,4|0,1:2|0:0,0:0:0:0:
334,197,34477,2,0,L|326:294,1,77.9999964294435,8|2,0:0|3:0,0:0:0:0:
247,361,34925,1,0,1:2:0:0:
171,271,35149,1,0,0:0:0:0:
82,347,35373,2,0,L|2:353,1,77.9999964294435,10|2,0:0|3:0,0:0:0:0:
13,236,35820,6,0,L|93:242,1,77.9999964294435,0|0,1:2|0:0,0:0:0:0:
199,197,36268,1,8,0:0:0:0:
93,145,36492,2,0,P|82:103|85:61,1,77.9999964294435,2|0,3:0|1:2,0:0:0:0:
188,15,36940,2,0,P|188:53|178:91,1,77.9999964294435,0|10,0:0|0:0,0:0:0:0:
288,133,37388,5,2,3:0:0:0:
288,133,37500,1,0,0:0:0:0:
288,133,37611,2,0,L|392:126,1,77.9999964294435,0|0,1:2|0:0,0:0:0:0:
453,206,38059,2,0,L|460:310,1,77.9999964294435,8|2,0:0|3:0,0:0:0:0:
365,355,38507,2,0,L|261:348,1,77.9999964294435,0|0,1:2|0:0,0:0:0:0:
202,268,38955,1,10,0:0:0:0:
202,268,39179,1,2,3:0:0:0:
97,318,39402,6,0,P|88:280|91:239,1,77.9999964294435,0|0,1:2|0:0,0:0:0:0:
151,140,39850,1,8,0:0:0:0:
73,52,40074,2,0,L|181:41,1,77.9999964294435,2|0,3:0|1:2,0:0:0:0:
248,108,40522,2,0,L|356:119,1,77.9999964294435,0|10,0:0|0:0,0:0:0:0:
440,91,40970,5,2,3:0:0:0:
440,91,41082,1,0,0:0:0:0:
440,91,41194,2,0,B|401:130|401:130|420:258,1,155.999992858887,0|8,1:2|0:0,0:0:0:0:
489,320,41865,1,2,3:0:0:0:
391,255,42089,2,0,P|346:251|306:261,1,77.9999964294435,0|0,1:2|0:0,0:0:0:0:
241,350,42537,1,10,0:0:0:0:
241,350,42761,1,2,3:0:0:0:
173,254,42985,6,0,B|164:141|164:141|148:194,1,155.999992858887,0|8,1:2|0:0,0:0:0:0:
58,110,43656,1,2,3:0:0:0:
58,110,43880,2,0,P|34:59|41:8,1,77.9999964294435,0|0,1:2|0:0,0:0:0:0:
149,57,44328,1,10,0:0:0:0:
191,165,44552,1,2,3:0:0:0:
191,165,44776,6,0,L|279:157,1,77.9999964294435,0|0,1:2|0:0,0:0:0:0:
365,92,45223,2,0,L|453:100,1,77.9999964294435,8|2,0:0|3:0,0:0:0:0:
458,215,45671,2,0,L|370:207,1,77.9999964294435,0|0,1:2|0:0,0:0:0:0:
305,298,46119,1,10,0:0:0:0:
209,230,46343,1,2,3:0:0:0:
144,327,46567,6,0,L|62:333,1,77.9999964294435,0|0,1:2|0:0,0:0:0:0:
102,221,47014,1,8,0:0:0:0:
18,139,47238,2,0,P|13:69|23:39,1,77.9999964294435,2|0,3:0|1:2,0:0:0:0:
132,56,47686,2,0,P|137:126|127:156,1,77.9999964294435,0|10,0:0|0:0,0:0:0:0:
209,230,48134,5,2,3:0:0:0:
209,230,48246,1,0,3:0:0:0:
209,230,48358,2,0,B|252:223|252:223|283:230|283:230|325:225,1,116.999994644165,4|0,1:2|0:0,0:0:0:0:
382,216,48805,2,0,P|389:268|371:314,1,77.9999964294435,8|2,0:0|3:0,0:0:0:0:
296,372,49253,1,0,1:2:0:0:
306,255,49477,1,0,0:0:0:0:
197,303,49701,2,0,L|108:308,1,77.9999964294435,10|2,0:0|3:0,0:0:0:0:
1,313,50149,6,0,P|18:257|15:209,1,77.9999964294435,0|0,1:2|0:0,0:0:0:0:
4,121,50597,1,8,0:0:0:0:
111,166,50820,2,0,L|205:160,1,77.9999964294435,2|0,3:0|1:2,0:0:0:0:
273,79,51268,2,0,L|179:73,1,77.9999964294435,0|10,0:0|0:0,0:0:0:0:
217,189,51716,5,2,3:0:0:0:
217,189,51828,1,0,0:0:0:0:
217,189,51940,2,0,P|254:204|303:204,1,77.9999964294435,0|0,1:2|0:0,0:0:0:0:
405,175,52388,2,0,P|390:212|390:261,1,77.9999964294435,8|2,0:0|3:0,0:0:0:0:
456,344,52835,2,0,P|417:346|381:360,1,77.9999964294435,0|0,1:2|0:0,0:0:0:0:
280,301,53283,1,10,0:0:0:0:
388,249,53507,1,2,3:0:0:0:
291,182,53731,6,0,L|299:96,1,77.9999964294435,0|0,1:2|0:0,0:0:0:0:
375,15,54179,1,8,0:0:0:0:
476,72,54402,2,0,P|436:99|393:107,1,77.9999964294435,2|0,3:0|1:2,0:0:0:0:
297,66,54850,2,0,P|257:39|214:31,1,77.9999964294435,0|10,0:0|0:0,0:0:0:0:
116,67,55298,1,2,3:0:0:0:
70,174,55522,6,0,L|78:337,1,155.999992858887,0|8,1:2|0:0,0:0:0:0:
175,264,56194,1,2,3:0:0:0:
252,351,56417,2,0,P|303:353|335:342,1,77.9999964294435,0|0,1:2|0:0,0:0:0:0:
285,235,56865,1,10,0:0:0:0:
285,235,57089,1,2,3:0:0:0:
370,154,57313,6,0,B|269:128|269:128|197:170,1,155.999992858887,0|8,1:2|0:0,0:0:0:0:
117,104,57985,1,2,3:0:0:0:
117,104,58208,2,0,P|102:139|108:177,1,77.9999964294435,0|0,1:2|0:0,0:0:0:0:
182,268,58656,1,10,0:0:0:0:
93,349,58880,5,2,3:0:0:0:
93,349,58992,1,0,0:0:0:0:
93,349,59104,2,0,L|81:257,1,77.9999964294435,0|0,1:2|0:0,0:0:0:0:
11,178,59552,2,0,L|103:166,1,77.9999964294435,8|2,0:0|3:0,0:0:0:0:
189,108,60000,2,0,L|177:200,1,77.9999964294435,0|0,1:2|0:0,0:0:0:0:
219,295,60447,1,10,0:0:0:0:
301,212,60671,1,2,3:0:0:0:
381,296,60895,6,0,L|469:281,1,77.9999964294435,0|0,1:2|0:0,0:0:0:0:
444,166,61343,2,0,L|356:151,1,77.9999964294435,8|2,0:0|3:0,0:0:0:0:
277,229,61791,2,0,B|290:166|231:133|231:133|192:155,1,155.999992858887,0|10,1:2|0:0,0:0:0:0:
167,267,62462,1,2,3:0:0:0:
167,267,62574,1,0,0:0:0:0:
167,267,62686,6,0,B|54:288|54:288|6:256,1,155.999992858887,4|8,1:2|0:0,0:0:0:0:
83,166,63358,1,2,3:0:0:0:
6,77,63582,2,0,L|105:58,1,77.9999964294435,0|0,1:2|0:0,0:0:0:0:
182,123,64029,1,10,0:0:0:0:
275,52,64253,1,2,3:0:0:0:
275,52,64477,6,0,P|317:42|366:55,1,77.9999964294435,0|0,1:2|0:0,0:0:0:0:
436,128,64925,1,8,0:0:0:0:
436,128,65149,1,2,3:0:0:0:
376,229,65373,2,0,P|334:219|285:232,1,77.9999964294435,0|0,1:2|0:0,0:0:0:0:
215,305,65821,1,10,0:0:0:0:
215,305,66045,1,2,3:0:0:0:
171,196,66268,6,0,B|125:186|125:186|81:235|107:303,1,155.999992858887,0|8,1:2|0:0,0:0:0:0:
20,372,66940,1,2,3:0:0:0:
119,310,67164,2,0,P|163:304|213:306,1,77.9999964294435,0|0,1:2|0:0,0:0:0:0:
296,368,67611,1,10,0:0:0:0:
301,251,67835,1,2,3:0:0:0:
301,251,68059,6,0,L|308:173,1,77.9999964294435,0|0,1:2|0:0,0:0:0:0:
263,64,68507,1,8,0:0:0:0:
263,64,68731,1,2,3:0:0:0:
157,123,68955,2,0,L|164:201,1,77.9999964294435,0|0,1:2|0:0,0:0:0:0:
119,310,69403,1,10,0:0:0:0:
119,310,69627,1,2,3:0:0:0:
16,253,69850,6,0,L|30:68,1,155.999992858887,0|8,1:2|0:0,0:0:0:0:
98,3,70522,1,2,3:0:0:0:
165,98,70746,2,0,L|260:88,1,77.9999964294435,0|0,1:2|0:0,0:0:0:0:
339,157,71194,1,10,0:0:0:0:
234,209,71417,1,2,3:0:0:0:
316,291,71641,6,0,P|324:338|316:375,1,77.9999964294435,0|0,1:2|0:0,0:0:0:0:
206,330,72089,1,8,0:0:0:0:
206,330,72313,1,2,3:0:0:0:
124,248,72537,2,0,P|116:201|124:164,1,77.9999964294435,0|0,1:2|0:0,0:0:0:0:
234,209,72985,1,10,0:0:0:0:
234,209,73209,1,2,3:0:0:0:
302,114,73432,6,0,B|368:117|368:117|392:134|392:134|461:137,2,155.999992858887,0|8|0,1:2|0:0|1:2,0:0:0:0:
209,42,74552,1,0,0:0:0:0:
135,133,74776,1,10,0:0:0:0:
135,133,75000,1,2,3:0:0:0:
217,214,75223,6,0,L|303:221,1,77.9999964294435,0|0,1:2|0:0,0:0:0:0:
382,298,75671,1,8,0:0:0:0:
280,356,75895,2,0,P|242:364|198:358,1,77.9999964294435,2|0,3:0|1:2,0:0:0:0:
141,259,76343,2,0,P|103:251|59:257,1,77.9999964294435,0|10,0:0|0:0,0:0:0:0:
5,356,76791,5,2,3:0:0:0:
5,356,76902,1,0,3:0:0:0:
5,356,77014,2,0,L|15:215,1,116.999994644165,4|0,1:2|0:0,0:0:0:0:
13,180,77462,2,0,P|51:172|95:178,1,77.9999964294435,8|2,0:0|3:0,0:0:0:0:
189,113,77910,1,0,1:2:0:0:
94,44,78134,1,0,0:0:0:0:
200,92,78358,2,0,L|282:90,1,77.9999964294435,10|2,0:0|3:0,0:0:0:0:
383,141,78805,6,0,P|397:197|387:247,1,77.9999964294435,0|0,1:2|0:0,0:0:0:0:
323,309,79253,1,8,0:0:0:0:
244,222,79477,2,0,L|166:223,1,77.9999964294435,2|0,3:0|1:2,0:0:0:0:
133,336,79925,2,0,L|55:337,1,77.9999964294435,0|10,0:0|0:0,0:0:0:0:
11,228,80373,5,2,3:0:0:0:
11,228,80485,1,0,0:0:0:0:
11,228,80597,2,0,P|-3:172|7:122,1,77.9999964294435,0|0,1:2|0:0,0:0:0:0:
62,54,81044,2,0,P|118:40|168:50,1,77.9999964294435,8|2,0:0|3:0,0:0:0:0:
236,105,81492,2,0,P|250:161|240:211,1,77.9999964294435,0|0,1:2|0:0,0:0:0:0:
153,250,81940,1,10,0:0:0:0:
258,300,82164,1,2,3:0:0:0:
159,363,82388,6,0,L|71:368,1,77.9999964294435,0|0,1:2|0:0,0:0:0:0:
1,281,82835,1,8,0:0:0:0:
89,204,83059,2,0,P|100:158|93:124,1,77.9999964294435,2|0,3:0|1:2,0:0:0:0:
42,22,83507,2,0,P|88:11|122:18,1,77.9999964294435,0|10,0:0|0:0,0:0:0:0:
220,73,83955,5,2,3:0:0:0:
220,73,84067,1,0,0:0:0:0:
220,73,84179,2,0,B|303:66|284:128|374:120,1,155.999992858887,0|8,1:2|0:0,0:0:0:0:
474,84,84850,1,2,3:0:0:0:
452,199,85074,2,0,L|458:288,1,77.9999964294435,0|0,1:2|0:0,0:0:0:0:
378,363,85522,1,10,0:0:0:0:
292,283,85746,1,2,3:0:0:0:
199,354,85970,6,0,B|157:344|157:344|116:291|146:215,1,155.999992858887,0|8,1:2|0:0,0:0:0:0:
223,156,86641,1,2,3:0:0:0:
223,156,86865,2,0,L|217:78,1,77.9999964294435,0|0,1:2|0:0,0:0:0:0:
117,16,87313,1,10,0:0:0:0:
56,116,87537,5,2,3:0:0:0:
56,116,87649,1,0,0:0:0:0:
56,116,87761,2,0,L|50:193,1,77.9999964294435,0|0,1:2|0:0,0:0:0:0:
8,303,88208,2,0,L|85:308,1,77.9999964294435,8|2,0:0|3:0,0:0:0:0:
196,346,88656,2,0,L|190:268,1,77.9999964294435,0|0,1:2|0:0,0:0:0:0:
147,158,89104,1,10,0:0:0:0:
225,245,89328,1,2,3:0:0:0:
307,162,89552,6,0,P|350:156|394:162,1,77.9999964294435,0|0,1:2|0:0,0:0:0:0:
446,259,90000,2,0,P|403:265|359:259,1,77.9999964294435,8|2,0:0|3:0,0:0:0:0:
307,162,90447,2,0,L|226:158,2,77.9999964294435,0|0|10,1:2|0:0|0:0,0:0:0:0:
374,65,91119,5,2,3:0:0:0:
374,65,91231,1,0,3:0:0:0:
374,65,91343,1,4,3:2:0:0:
256,192,91455,12,0,96716,0:0:0:0:
