osu file format v14

[General]
AudioFilename: audio.mp3
AudioLeadIn: 0
PreviewTime: 45042
Countdown: 0
SampleSet: Normal
StackLeniency: 0.7
Mode: 0
LetterboxInBreaks: 0
WidescreenStoryboard: 1

[Editor]
Bookmarks: 170492
DistanceSpacing: 1.8
BeatDivisor: 4
GridSize: 4
TimelineZoom: 2.8

[Metadata]
Title:E.T.
TitleUnicode:E.T.
Artist:Katy Perry
ArtistUnicode:Katy Perry
Creator:MissileSpammer
Version:Extra-Terrestrial
Source:
Tags:
BeatmapID:1549203
BeatmapSetID:734199

[Difficulty]
HPDrainRate:6
CircleSize:3.2
OverallDifficulty:8.5
ApproachRate:9.5
SliderMultiplier:0.400000005960464
SliderTickRate:1

[Events]
//Background and Video events
0,0,"thumb-1920-464335.jpg",0,0
//Break Periods
2,125291,137367
//Storyboard Layer 0 (Background)
//Storyboard Layer 1 (Fail)
//Storyboard Layer 2 (Pass)
//Storyboard Layer 3 (Foreground)
//Storyboard Layer 4 (Overlay)
//Storyboard Sound Samples

[TimingPoints]
6692.95220893456,800,4,1,0,100,1,0
19492,-83.3333333333333,4,1,0,100,0,0
32292,-71.4285714285714,4,1,0,100,0,0
45092,-66.6666666666667,4,1,0,100,0,1
73892,400,4,1,0,100,1,0
73892,-50,4,1,0,100,0,0
99492,-50,4,1,0,100,0,1
125092,-50,4,1,0,100,0,0
153892,400,4,1,0,100,1,0
153892,-50,4,1,0,100,0,1
159892,-25,4,1,0,100,0,1
168292,200,4,1,0,100,1,0
168292,-50,4,1,0,100,0,1
179292,-25,4,1,0,100,0,1
204692,-100,4,1,0,100,0,0

[HitObjects]
372,140,6692,6,0,P|384:152|384:160,1,20.0000002980232
420,76,7492,2,0,P|408:64|400:60,1,20.0000002980232
296,136,8292,2,0,L|280:128,1,10.0000001490116
296,164,8692,2,0,L|288:172,1,10.0000001490116
356,108,9092,2,0,P|368:96|376:96,1,20.0000002980232
380,196,9892,6,0,L|372:188,1,10.0000001490116
440,208,10292,2,0,L|448:196,1,10.0000001490116
388,292,10692,2,0,P|376:296|368:296,1,20.0000002980232
288,328,11492,2,0,L|272:336,1,10.0000001490116
268,264,11892,2,0,L|252:264,1,10.0000001490116
340,216,12292,2,0,P|344:200|344:188,1,20.0000002980232
128,112,13092,6,0,P|120:128|120:136,1,20.0000002980232
128,196,13892,2,0,P|131:206|140:212,1,20.0000002980232
248,140,14692,2,0,L|252:124,1,10.0000001490116
288,184,15092,2,0,L|300:176,1,10.0000001490116
224,220,15492,2,0,P|220:232|224:244,1,20.0000002980232
380,152,16292,6,0,L|372:136,1,10.0000001490116
432,164,16692,2,0,L|432:148,1,10.0000001490116
400,92,17092,2,0,P|392:76|384:76,1,20.0000002980232
316,84,17892,2,0,L|328:80,1,10.0000001490116
312,160,18292,2,0,L|328:168,1,10.0000001490116
244,208,18692,2,0,P|248:224|240:232,1,20.0000002980232
120,192,19492,6,0,P|136:176|144:176,1,23.999999625206
224,232,20292,2,0,P|240:224|248:216,1,23.999999625206
344,136,21092,2,0,L|328:128,1,11.999999812603
360,176,21492,2,0,L|352:192,1,11.999999812603
264,144,21892,2,0,B|248:144|248:144|240:152,1,23.999999625206
152,144,22692,6,0,L|136:136,1,11.999999812603
160,224,23092,2,0,L|152:232,1,11.999999812603
208,184,23492,2,0,L|232:184,1,23.999999625206
304,88,24292,2,0,L|320:72,1,11.999999812603
392,96,24692,2,0,L|384:80,1,11.999999812603
424,176,25092,2,0,B|424:184|424:184|424:200,1,23.999999625206
312,240,25892,6,0,L|288:264,1,23.999999625206
160,280,26692,2,0,L|128:292,1,23.999999625206
224,144,27492,2,0,L|208:136,1,11.999999812603
264,144,27892,2,0,L|264:128,1,11.999999812603
280,200,28292,2,0,L|304:208,1,23.999999625206
376,240,29092,6,0,L|392:256,1,11.999999812603
376,240,29492,2,0,L|392:256,1,11.999999812603
376,240,29892,2,0,L|392:256,2,11.999999812603
280,264,30692,2,0,L|264:272,1,11.999999812603
180,309,31092,2,0,L|164:317,1,11.999999812603
64,317,31492,2,0,P|48:301|48:293,1,23.999999625206
188,120,32292,6,0,P|196:96|204:96,1,27.9999995627403
276,48,33092,2,0,P|292:32|292:16,1,27.9999995627403
328,136,33892,2,0,L|344:128,1,13.9999997813702
328,192,34292,2,0,L|344:200,1,13.9999997813702
256,168,34692,2,0,L|224:184,1,27.9999995627403
328,256,35492,6,0,L|352:272,1,27.9999995627403
216,256,36292,2,0,L|184:272,1,27.9999995627403
240,168,37092,2,0,L|224:160,1,13.9999997813702
280,160,37492,2,0,L|296:152,1,13.9999997813702
264,224,37892,2,0,P|280:240|296:240,1,27.9999995627403
128,96,38692,6,0,L|112:80,1,13.9999997813702
248,72,39092,2,0,L|248:56,1,13.9999997813702
344,184,39492,2,0,L|360:176,1,13.9999997813702
232,296,39892,2,0,L|240:312,1,13.9999997813702
72,152,40292,2,0,L|56:160,1,13.9999997813702
252,28,40692,2,0,L|260:12,1,13.9999997813702
464,156,41092,2,0,L|464:132,1,13.9999997813702
316,320,41492,6,0,L|316:344,1,13.9999997813702
72,192,41892,2,0,L|48:184,1,13.9999997813702
416,64,42292,2,0,L|432:48,1,13.9999997813702
360,304,42692,2,0,L|376:312,1,13.9999997813702
88,296,43092,2,0,L|72:312,1,13.9999997813702
152,160,43492,2,0,L|136:160,1,13.9999997813702
304,224,43892,2,0,L|288:208,1,13.9999997813702
248,88,44292,2,0,B|248:80|248:80|244:80|244:80|248:76|248:76|244:76|244:76|248:72|248:72|244:72|244:72|248:68|248:68|256:52,1,41.9999993441105
144,200,45092,6,0,L|160:168,1,30.000001591444
355,111,45892,2,0,P|363:127|347:135,1,30.000001591444
240,216,46692,2,0,L|232:224,1,7.50000039786101
232,192,46892,2,0,L|224:192,1,7.50000039786101
240,152,47092,2,0,L|224:144,2,15.000000795722
360,104,48092,6,0,L|368:96,1,7.50000039786101
264,72,48292,2,0,L|264:64,1,7.50000039786101
160,64,48492,2,0,L|152:48,4,15.000000795722
108,144,49492,2,0,L|120:164,1,15.000000795722
168,252,49892,6,0,L|172:260,1,7.50000039786101
240,156,50092,2,0,L|247:158,1,7.50000039786101
216,40,50292,2,0,L|240:32,3,15.000000795722
280,96,51092,2,0,L|296:92,1,15.000000795722
376,104,51492,6,0,P|384:120|384:136,1,30.000001591444
344,288,52292,2,0,P|328:304|320:304,1,30.000001591444
192,264,53092,2,0,L|200:256,1,7.50000039786101
112,144,53292,2,0,L|120:144,1,7.50000039786101
208,40,53492,2,0,L|224:48,2,15.000000795722
384,136,54692,6,0,L|384:152,1,15.000000795722
360,192,55092,2,0,L|336:208,1,15.000000795722
176,160,55492,2,0,P|152:160|136:168,1,30.000001591444
248,192,56292,6,0,L|272:192,1,15.000000795722
296,96,56692,2,0,L|320:96,1,15.000000795722
400,32,57092,2,0,L|416:32,3,15.000000795722
360,72,57892,1,0,0:0:0:0:
264,112,58092,1,0,0:0:0:0:
352,200,58292,1,0,0:0:0:0:
264,112,58492,1,0,0:0:0:0:
352,200,58692,6,0,P|368:192|368:168,1,30.000001591444
248,152,59492,2,0,L|228:144,1,22.500001193583
336,116,59892,2,0,L|356:104,1,22.500001193583
328,208,60292,2,0,L|336:228,1,22.500001193583
380,264,60692,2,0,L|396:276,1,15.000000795722
468,236,61092,1,0,0:0:0:0:
420,164,61292,1,0,0:0:0:0:
468,236,61492,1,0,0:0:0:0:
420,164,61692,1,0,0:0:0:0:
468,240,61892,6,0,P|468:264|460:272,1,30.000001591444
295,202,62692,2,0,L|301:223,1,22.500001193583
337,117,63092,2,0,L|350:98,1,22.500001193583
245,119,63492,2,0,L|225:109,1,22.500001193583
192,63,63892,2,0,L|181:46,1,15.000000795722
104,44,64292,1,0,0:0:0:0:
24,148,64492,1,0,0:0:0:0:
104,44,64692,1,0,0:0:0:0:
24,148,64892,1,0,0:0:0:0:
104,248,65092,6,0,P|124:264|136:260,1,30.000001591444
276,256,65892,2,0,L|256:246,1,22.500001193583
208,168,66292,2,0,L|188:158,1,22.500001193583
144,80,66692,2,0,L|124:70,1,22.500001193583
240,140,67092,2,0,L|229:123,1,15.000000795722
264,240,67492,1,0,0:0:0:0:
112,332,67692,1,0,0:0:0:0:
264,240,67892,1,0,0:0:0:0:
112,332,68092,1,0,0:0:0:0:
44,224,68292,6,0,P|56:208|68:204,1,30.000001591444
188,260,69092,2,0,L|168:250,1,22.500001193583
292,112,69492,2,0,L|312:122,1,22.500001193583
376,272,69892,2,0,L|358:286,1,22.500001193583
292,296,70292,2,0,P|268:288|268:280,1,30.000001591444
216,228,70892,5,0,0:0:0:0:
344,112,71092,1,0,0:0:0:0:
216,228,71292,5,0,0:0:0:0:
344,112,71492,1,0,0:0:0:0:
216,228,71692,5,0,0:0:0:0:
344,112,71892,1,0,0:0:0:0:
212,96,72092,5,0,0:0:0:0:
332,232,72292,1,0,0:0:0:0:
212,96,72492,5,0,0:0:0:0:
332,232,72692,1,0,0:0:0:0:
212,96,72892,5,0,0:0:0:0:
332,232,73092,1,0,0:0:0:0:
212,96,73292,6,0,L|224:108,1,15.000000795722
192,172,73892,6,0,L|192:256,1,80.0000011920929
300,172,74692,1,0,0:0:0:0:
280,232,75492,2,0,P|312:216|316:200,1,40.0000005960464
272,144,75892,2,0,P|316:136|360:160,1,80.0000011920928
384,204,77092,6,0,P|372:220|344:228,1,40.0000005960464
272,200,77492,2,0,P|248:200|232:224,1,40.0000005960464
176,284,77892,2,0,P|144:272|132:224,1,80.0000011920928
196,128,78692,5,0,0:0:0:0:
304,260,78892,1,0,0:0:0:0:
196,128,79092,1,0,0:0:0:0:
304,260,79292,1,0,0:0:0:0:
200,128,79492,2,0,P|240:112|272:124,1,80.0000011920928
272,316,80292,6,0,P|224:328|192:320,1,80.0000011920928
316,232,81092,1,0,0:0:0:0:
148,176,81492,1,0,0:0:0:0:
148,176,81692,2,0,P|176:156|192:160,1,40.0000005960464
336,196,82092,2,0,P|360:172|364:156,1,40.0000005960464
276,80,82492,1,0,0:0:0:0:
276,80,82692,2,0,P|236:72|192:88,1,80.0000011920928
96,228,83492,5,0,0:0:0:0:
184,296,83692,1,0,0:0:0:0:
284,304,83892,1,0,0:0:0:0:
368,240,84092,1,0,0:0:0:0:
308,152,84292,2,0,P|292:108|316:80,2,80.0000011920928
372,224,85492,6,0,P|380:276|352:296,2,80.0000011920928
312,168,86692,2,0,B|304:136|256:136|264:100,1,80.0000011920928
164,28,87492,2,0,P|132:60|152:96,1,80.0000011920928
244,144,88292,6,0,L|280:164,1,40.0000005960464
300,200,88692,2,0,L|316:240,1,40.0000005960464
304,276,89092,2,0,P|260:264|244:236,1,80.0000011920928
180,132,89892,6,0,B|156:100|100:100|96:100,2,80.0000011920928
260,208,91092,1,0,0:0:0:0:
392,84,91492,5,0,0:0:0:0:
392,84,91692,1,0,0:0:0:0:
452,176,91892,1,0,0:0:0:0:
452,176,92092,1,0,0:0:0:0:
312,256,92292,1,0,0:0:0:0:
164,188,92692,6,0,P|144:160|180:128,1,80.0000011920928
444,64,93492,2,0,L|480:28,1,40.0000005960464
448,320,93892,2,0,L|484:356,1,40.0000005960464
64,320,94292,2,0,L|35:348,1,40.0000005960464
64,64,94692,2,0,L|36:36,1,40.0000005960464
344,120,95092,6,0,L|380:84,1,40.0000005960464
348,272,95492,2,0,L|384:308,1,40.0000005960464
164,276,95892,2,0,L|135:304,1,40.0000005960464
164,120,96292,2,0,L|135:91,1,40.0000005960464
292,220,96692,6,0,L|340:240,1,40.0000005960464
204,168,97092,2,0,L|164:152,1,40.0000005960464
288,172,97492,2,0,L|328:148,1,40.0000005960464
208,224,97892,2,0,L|172:244,1,40.0000005960464
256,172,98292,2,0,L|256:128,1,40.0000005960464
256,212,98692,2,0,B|260:220|260:220|252:224|252:224|260:228|260:228|252:232|252:232|260:236|260:236|256:248,2,40.0000005960464
344,88,99492,6,0,L|400:168,1,80.0000011920928
364,280,100092,1,0,0:0:0:0:
200,296,100292,2,0,P|160:272|164:232,1,80.0000011920928
376,56,101092,6,0,L|372:84,1,20.0000002980232
280,136,101292,2,0,L|276:172,1,20.0000002980232
372,232,101492,2,0,P|372:276|348:304,1,80.0000011920928
340,56,102492,5,0,0:0:0:0:
396,304,102692,1,0,0:0:0:0:
328,228,102892,2,0,P|292:216|276:220,1,40.0000005960464
268,132,103292,2,0,P|232:136|224:152,3,40.0000005960464
340,244,104092,1,0,0:0:0:0:
144,56,104292,5,0,0:0:0:0:
128,180,104492,2,0,P|140:208|152:212,1,40.0000005960464
144,280,104892,2,0,P|168:296|188:288,2,40.0000005960464
44,280,105492,1,0,0:0:0:0:
292,120,105692,1,0,0:0:0:0:
408,216,105892,6,0,P|412:264|376:280,1,80.0000011920928
212,300,106492,1,0,0:0:0:0:
104,156,106692,2,0,P|136:120|172:124,1,80.0000011920928
320,148,107292,1,0,0:0:0:0:
256,280,107492,2,0,L|252:256,1,20.0000002980232
136,204,107692,2,0,L|132:176,1,20.0000002980232
232,100,107892,2,0,P|224:76|168:48,1,80.0000011920928
144,96,109092,6,0,L|152:128,1,20.0000002980232
256,188,109292,2,0,L|264:216,1,20.0000002980232
128,288,109492,2,0,P|152:312|172:312,1,40.0000005960464
249,336,109892,2,0,P|285:344|329:328,1,80.0000011920928
380,204,110492,1,0,0:0:0:0:
364,56,110692,6,0,L|376:28,1,20.0000002980232
188,136,110892,2,0,L|204:108,1,20.0000002980232
212,316,111092,2,0,P|240:296|248:280,1,40.0000005960464
24,192,111492,2,0,P|72:224|104:224,1,80.0000011920928
192,176,112092,1,0,0:0:0:0:
372,88,112292,5,0,0:0:0:0:
216,328,112492,1,0,0:0:0:0:
216,80,112692,1,0,0:0:0:0:
400,292,112892,1,0,0:0:0:0:
208,80,113092,6,0,P|232:112|208:152,1,80.0000011920928
156,208,113892,2,0,B|136:180|136:180|132:184|120:184|120:184|100:176,1,70.0000010430812
216,76,114292,2,0,B|224:56|224:56|232:60|232:60|237:62|234:55|234:55|248:56|248:56|268:48,1,70.0000010430812
328,172,114692,2,0,B|336:192|336:192|349:198|349:198|336:200|336:200|356:212,1,70.0000010430812
400,136,115092,2,0,P|438:124|447:84,1,80.0000011920928
348,240,115692,1,0,0:0:0:0:
140,312,115892,1,0,0:0:0:0:
320,100,116092,1,0,0:0:0:0:
388,224,116292,6,0,P|408:256|372:288,1,80.0000011920928
176,240,117092,2,0,P|140:232|116:200,1,60.0000008940696
184,56,117492,2,0,P|148:64|124:96,1,70.0000010430812
296,188,117892,2,0,P|260:180|236:148,1,70.0000010430812
211,279,118292,2,0,P|247:271|283:303,1,80.0000011920928
280,296,118892,1,0,0:0:0:0:
84,148,119092,1,0,0:0:0:0:
312,128,119292,1,0,0:0:0:0:
112,332,119492,6,0,B|100:307|100:307|92:312|92:312|96:296|96:296|81:288|81:288|96:268,1,90.0000013411044
300,88,120292,2,0,P|280:60|240:48,1,70.0000010430812
316,220,120692,2,0,P|340:184|372:180,1,60.0000008940696
216,236,121092,2,0,P|188:220|148:232,1,70.0000010430812
180,120,121492,2,0,B|212:112|248:140|248:140|256:136,1,80.0000011920928
378,105,122092,1,0,0:0:0:0:
104,336,122292,1,0,0:0:0:0:
378,105,122492,1,0,0:0:0:0:
104,336,122692,6,0,B|96:320|96:320|112:304|112:304|96:284|104:264,1,80.0000011920928
164,132,123492,2,0,B|192:120|192:120|216:132|232:124,1,70.0000010430812
380,246,123892,2,0,B|356:254|356:254|336:234|316:242,1,70.0000010430812
177,286,124292,2,0,B|197:234|197:234|217:234,1,70.0000010430812
251,101,124692,2,0,P|227:65|199:85,1,80.0000011920928
124,144,137892,5,0,0:0:0:0:
212,84,138292,1,0,0:0:0:0:
232,188,138692,1,0,0:0:0:0:
232,188,139492,5,0,0:0:0:0:
352,84,139892,1,0,0:0:0:0:
432,236,140292,1,0,0:0:0:0:
432,236,141092,5,0,0:0:0:0:
328,120,141492,1,0,0:0:0:0:
280,260,141892,1,0,0:0:0:0:
280,260,142692,5,0,0:0:0:0:
120,196,143092,1,0,0:0:0:0:
252,72,143492,1,0,0:0:0:0:
252,72,144292,5,0,0:0:0:0:
316,236,144692,1,0,0:0:0:0:
440,92,145092,1,0,0:0:0:0:
440,92,145892,5,0,0:0:0:0:
312,168,146292,1,0,0:0:0:0:
424,248,146692,1,0,0:0:0:0:
424,248,147492,5,0,0:0:0:0:
280,72,147892,1,0,0:0:0:0:
128,252,148292,1,0,0:0:0:0:
128,252,149092,5,0,0:0:0:0:
84,72,149492,1,0,0:0:0:0:
312,88,149892,1,0,0:0:0:0:
312,88,150692,5,0,0:0:0:0:
84,72,151092,1,0,0:0:0:0:
128,252,151492,1,0,0:0:0:0:
116,244,152292,6,0,B|204:232|204:232|212:228|164:184|160:172|160:172|168:164|168:164|164:160|164:160|172:156|172:156|164:148|164:148|172:148|172:148|172:136|172:136|184:140|184:140|184:128|184:128|192:132|192:132|191:119|191:119|196:120,1,260.000003874302
300,212,153892,6,0,P|316:252|364:260,1,80.0000011920928
372,84,154692,2,0,P|392:132|384:160,1,80.0000011920929
128,228,155492,6,0,L|116:192,1,20.0000002980232
252,148,155692,2,0,L|252:120,1,20.0000002980232
368,120,155892,2,0,P|416:96|452:112,1,80.0000011920929
388,148,156892,6,0,L|392:172,1,20.0000002980232
264,140,157092,2,0,L|248:168,1,20.0000002980232
208,40,157292,2,0,L|176:48,1,20.0000002980232
56,96,157492,2,0,L|92:96,1,20.0000002980232
128,188,157692,2,0,L|104:200,1,20.0000002980232
260,188,157892,2,0,P|288:184|300:200,2,40.0000005960464
416,300,158692,6,0,L|404:272,1,20.0000002980232
208,280,158892,2,0,L|232:256,1,20.0000002980232
132,144,159092,2,0,L|168:144,1,20.0000002980232
376,240,159292,2,0,L|352:220,1,20.0000002980232
288,32,159492,2,0,L|248:104,1,80.0000011920929
248,104,160292,6,0,P|152:136|152:200,1,160.000002384186
404,256,161092,2,0,P|416:176|368:120,1,160.000002384186
104,116,161892,6,0,L|84:64,1,40.0000005960464
256,272,162092,2,0,L|312:268,1,40.0000005960464
248,140,162292,2,0,B|296:132|296:132|296:112|296:112|320:120|320:120|316:92|316:92|356:88,1,160.000002384186
492,252,162892,1,0,0:0:0:0:
428,76,163092,1,0,0:0:0:0:
336,240,163292,1,0,0:0:0:0:
136,268,163492,6,0,L|100:220,1,40.0000005960464
232,64,163692,2,0,L|264:112,1,40.0000005960464
400,228,163892,2,0,L|424:164,1,40.0000005960464
288,244,164092,2,0,L|228:224,1,40.0000005960464
344,76,164292,2,0,P|304:104|272:64,2,80.0000011920928
80,72,164892,6,0,L|100:120,1,40.0000005960464
344,328,165092,2,0,L|396:304,1,40.0000005960464
452,88,165292,2,0,L|428:40,1,40.0000005960464
100,300,165492,2,0,L|36:320,1,40.0000005960464
452,280,165692,2,0,L|408:236,1,40.0000005960464
200,164,165892,2,0,B|128:136|148:104|148:104|156:108|156:108|156:100|156:100|164:104|164:104|164:96|164:96|172:96|172:96|172:88|172:88|180:88|180:88|180:80|180:80|188:80|188:80|188:72|188:72|196:72|196:72|195:64|195:64,1,160.000002384186
376,48,166492,6,0,L|404:104,1,40.0000005960464
372,144,166692,1,0,0:0:0:0:
248,264,166892,1,0,0:0:0:0:
128,48,167092,1,0,0:0:0:0:
40,320,167292,1,0,0:0:0:0:
344,308,167592,2,0,P|376:280|328:288,1,120.000001788139
276,56,168292,6,0,P|228:176|232:184,1,140.000002086162
416,328,168692,2,0,P|448:236|424:192,1,140.000002086162
72,280,169092,2,0,P|64:204|120:136,1,160.000002384186
192,112,169592,2,0,L|212:76,1,40.0000005960464
208,324,169792,2,0,L|248:348,1,40.0000005960464
424,320,170092,5,0,0:0:0:0:
116,144,170292,1,0,0:0:0:0:
424,320,170492,1,0,0:0:0:0:
116,144,170692,2,0,P|88:168|132:148,1,160.000002384186
384,96,171492,6,0,B|412:128|412:128|408:140|408:140|424:144|424:144|416:156|416:156|432:164|432:164|420:176|420:176|396:212|404:196,1,140.000002086162
224,332,171892,2,0,B|216:292|188:288|188:288|184:296|184:296|176:292|176:292|176:300|176:300|164:300|164:300|164:308|164:312|148:300|160:272,1,140.000002086162
350,246,172292,2,0,P|394:230|349:261,1,160.000002384186
160,176,172792,2,0,L|192:208,1,40.0000005960464
312,92,172992,2,0,L|360:88,1,40.0000005960464
404,268,173292,5,0,0:0:0:0:
128,108,173492,1,0,0:0:0:0:
404,268,173692,1,0,0:0:0:0:
128,108,173892,2,0,L|120:80,1,20.0000002980232
288,156,174292,5,0,0:0:0:0:
168,124,174492,1,0,0:0:0:0:
384,172,174692,2,0,L|408:172,1,20.0000002980232
264,156,174892,1,0,0:0:0:0:
108,224,175092,2,0,L|92:248,1,20.0000002980232
344,300,175292,1,0,0:0:0:0:
280,144,175492,2,0,L|288:112,1,20.0000002980232
72,132,175692,1,0,0:0:0:0:
92,280,175892,2,0,L|92:312,1,20.0000002980232
244,188,176092,1,0,0:0:0:0:
336,92,176292,6,0,P|376:120|368:144,1,80.0000011920928
256,256,176692,1,0,0:0:0:0:
136,164,176892,1,0,0:0:0:0:
256,256,177092,2,0,B|276:284|272:304|272:304|288:304|288:304|288:320,1,80.0000011920928
352,216,177492,1,0,0:0:0:0:
492,180,177692,1,0,0:0:0:0:
376,68,177892,6,0,L|352:84,1,20.0000002980232
256,192,178092,1,0,0:0:0:0:
96,288,178292,2,0,L|116:260,1,20.0000002980232
256,192,178492,1,0,0:0:0:0:
416,288,178692,2,0,L|388:264,1,20.0000002980232
256,192,178892,1,0,0:0:0:0:
104,48,179092,2,0,L|124:68,1,20.0000002980232
256,192,179292,1,0,0:0:0:0:
392,268,179492,5,0,0:0:0:0:
304,84,179692,1,0,0:0:0:0:
500,112,179892,1,0,0:0:0:0:
304,84,180092,1,0,0:0:0:0:
108,96,180292,2,0,B|72:192|132:248|188:240|188:240|200:252|200:252|216:244|216:244|228:256|228:256|256:248|256:248|268:264|268:264|292:252|304:232,1,320.000004768371
312,120,180892,5,0,0:0:0:0:
192,320,181092,1,0,0:0:0:0:
120,48,181292,1,0,0:0:0:0:
52,272,181492,1,0,0:0:0:0:
384,164,181692,1,0,0:0:0:0:
177,267,181892,2,0,B|194:66|113:178|113:178|111:172|109:180|109:180|104:173|104:173|99:182|99:182|91:173|91:173|88:181|88:181|88:62|267:73,1,480.000007152557
336,292,182692,1,0,0:0:0:0:
120,72,182892,1,0,0:0:0:0:
352,80,183092,1,0,0:0:0:0:
152,312,183292,1,0,0:0:0:0:
352,80,183492,6,0,P|404:120|320:88,1,320.000004768371
352,136,184092,1,0,0:0:0:0:
128,52,184292,2,0,B|68:72|68:72|96:168|96:168|204:112,1,280.000004172325
240,336,184692,2,0,B|328:252|328:252|236:236|236:236|288:160,1,280.000004172325
460,236,185092,2,0,B|412:84|412:84|304:148|236:68,1,320.000004768371
148,128,185692,6,0,L|60:124,1,80.0000011920928
228,240,185892,2,0,L|172:312,1,80.0000011920928
348,112,186092,1,0,0:0:0:0:
448,280,186292,1,0,0:0:0:0:
64,160,186492,1,0,0:0:0:0:
236,284,186692,2,0,B|272:172|272:172|404:132|404:132|248:64|248:64|184:104,1,480.000007152557
96,184,187492,5,0,0:0:0:0:
244,356,187692,1,0,0:0:0:0:
300,132,187892,1,0,0:0:0:0:
448,88,188092,1,0,0:0:0:0:
235,125,188292,2,0,B|411:204|388:85|388:85|446:121|352:288|183:207,1,530.000007897615
256,48,189092,5,0,0:0:0:0:
388,356,189292,1,0,0:0:0:0:
256,48,189492,1,0,0:0:0:0:
80,216,189692,1,0,0:0:0:0:
96,108,189892,2,0,B|132:204|84:244|84:244|60:220|60:220|48:240|40:296|136:328|136:328|144:312|144:312|164:320|180:284|204:296|260:352,1,480.000007152557
444,236,190692,6,0,B|424:84|424:84|360:140|360:140|320:120|320:80,1,280.000004172325
344,320,191092,2,0,B|140:320|140:320|184:248,1,280.000004172325
204,112,191492,2,0,P|120:64|172:168,1,280.000004172325
260,176,191892,2,0,B|360:160|360:160|244:356,1,320.000004768371
260,176,192492,5,0,0:0:0:0:
244,340,192692,1,0,0:0:0:0:
84,84,192892,1,0,0:0:0:0:
216,128,193092,6,0,P|392:296|464:280,1,320.000004768371
84,144,193692,1,0,0:0:0:0:
272,44,193892,6,0,B|392:224|392:224|372:312,1,280.000004172325
80,352,194292,2,0,P|84:200|192:236,1,280.000004172325
356,64,194692,2,0,B|464:148|424:184|364:172|340:128|368:88|428:72|488:168|488:168,1,280.000004172325
404,248,195092,2,0,P|264:320|276:228,1,320.000004768371
412,64,195692,1,0,0:0:0:0:
112,268,195892,1,0,0:0:0:0:
412,64,196092,1,0,0:0:0:0:
208,64,196292,6,0,B|4:72|4:72|72:180|264:72,1,480.000007152557
356,120,197092,2,0,B|304:264|360:292|412:244|428:180|328:188|272:204,1,280.000004172325
104,336,197492,2,0,B|52:320|32:252|60:232|96:236|132:256|160:224|160:224|128:144,1,280.000004172325
280,32,197892,2,0,B|436:28|436:28|336:192,2,320.000004768371
60,64,198892,1,0,0:0:0:0:
224,272,199092,1,0,0:0:0:0:
8,320,199292,1,0,0:0:0:0:
228,88,199492,6,0,P|368:84|308:204,1,320.000004768371
128,92,200092,1,0,0:0:0:0:
48,212,200292,2,0,B|96:320|96:320|164:256|184:212|184:212|216:244,1,280.000004172325
344,52,200692,2,0,B|304:132|304:132|392:180|392:180|324:268,1,280.000004172325
132,72,201092,2,0,P|64:148|152:92,1,280.000004172325
256,92,201492,2,0,P|348:212|260:352,1,320.000004768371
40,176,202092,5,0,0:0:0:0:
416,280,202292,1,0,0:0:0:0:
312,24,202492,1,0,0:0:0:0:
160,140,202692,2,0,P|216:276|164:136,1,480.000007152557
220,196,203492,1,0,0:0:0:0:
272,256,203892,1,0,0:0:0:0:
332,308,204292,1,0,0:0:0:0:
408,304,204692,2,0,P|436:280|440:232,1,80.0000011920928
