osu file format v14

[General]
AudioFilename: audio.mp3
AudioLeadIn: 0
PreviewTime: 45015
Countdown: 0
SampleSet: Soft
StackLeniency: 0.7
Mode: 0
LetterboxInBreaks: 0
EpilepsyWarning: 1
WidescreenStoryboard: 1

[Editor]
Bookmarks: 6550,32215
DistanceSpacing: 0.9
BeatDivisor: 4
GridSize: 4
TimelineZoom: 0.8999999

[Metadata]
Title:E.T. (Cut Ver.)
TitleUnicode:E.T. (Cut Ver.)
Artist:Katy Perry
ArtistUnicode:Katy Perry
Creator:Skubi
Version:Normal
Source:
Tags:Teenage Dream The Complete Confection pop MkGuh CptSqBany ET English -Ady Partyu
BeatmapID:2768636
BeatmapSetID:1060234

[Difficulty]
HPDrainRate:4
CircleSize:3
OverallDifficulty:4
ApproachRate:5.5
SliderMultiplier:1.3
SliderTickRate:1

[Events]
//Background and Video events
0,0,"nebula-7680x4320-interstellar-galaxy-milky-way-8k-3804.jpg",0,0
//Break Periods
//Storyboard Layer 0 (Background)
//Storyboard Layer 1 (Fail)
//Storyboard Layer 2 (Pass)
//Storyboard Layer 3 (Foreground)
Sprite,Foreground,Centre,"sb\lyrics\77.png",216,200 F,0,215,,0,1 S,0,215,,0.25 P,0,215,,A F,0,1015,,1,0
Sprite,Foreground,Centre,"sb\lyrics\97.png",232,200 F,0,215,,0,1 S,0,215,,0.25 P,0,215,,A F,0,1015,,1,0
Sprite,Foreground,Centre,"sb\lyrics\112.png",248,200 F,0,215,,0,1 S,0,215,,0.25 P,0,215,,A F,0,1015,,1,0
Sprite,Foreground,Centre,"sb\lyrics\115.png",264,200 F,0,215,,0,1 S,0,215,,0.25 P,0,215,,A F,0,1015,,1,0
Sprite,Foreground,Centre,"sb\lyrics\101.png",280,200 F,0,215,,0,1 S,0,215,,0.25 P,0,215,,A F,0,1015,,1,0
Sprite,Foreground,Centre,"sb\lyrics\116.png",296,200 F,0,215,,0,1 S,0,215,,0.25 P,0,215,,A F,0,1015,,1,0
Sprite,Foreground,Centre,"sb\lyrics\98.png",328,200 S,0,215,,0.25 P,0,215,,A F,0,615,,0,1 F,0,1015,,1,0
Sprite,Foreground,Centre,"sb\lyrics\121.png",344,200 S,0,215,,0.25 P,0,215,,A F,0,615,,0,1 F,0,1015,,1,0
Sprite,Foreground,Centre,"sb\lyrics\83.png",376,200 S,0,215,,0.25 P,0,215,,A F,0,615,,0,1 F,0,1015,,1,0
Sprite,Foreground,Centre,"sb\lyrics\107.png",392,200 S,0,215,,0.25 P,0,215,,A F,0,615,,0,1 F,0,1015,,1,0
Sprite,Foreground,Centre,"sb\lyrics\117.png",408,200 S,0,215,,0.25 P,0,215,,A F,0,615,,0,1 F,0,1015,,1,0
Sprite,Foreground,Centre,"sb\lyrics\98.png",424,200 S,0,215,,0.25 P,0,215,,A F,0,615,,0,1 F,0,1015,,1,0
Sprite,Foreground,Centre,"sb\lyrics\105.png",440,200 S,0,215,,0.25 P,0,215,,A F,0,615,,0,1 F,0,1015,,1,0
//Storyboard Layer 4 (Overlay)
//Storyboard Sound Samples

[TimingPoints]
215,400,4,2,1,35,1,0
3415,-100,4,2,1,5,0,0
4215,-100,4,2,1,10,0,0
5015,-100,4,2,1,15,0,0
5815,-100,4,2,1,20,0,0
6215,-100,4,2,1,5,0,0
6615,-100,4,2,1,35,0,0
32115,-100,4,2,1,5,0,0
32216,-100,4,2,1,55,0,0
42015,-100,4,2,1,55,0,0
44215,-100,4,2,1,60,0,0
44615,-100,4,2,1,5,0,0
45015,-100,4,2,1,75,0,1
57415,-100,4,2,1,75,0,0
57815,-100,4,2,1,75,0,1
69015,-100,4,2,1,45,0,0
69815,-100,4,2,1,45,0,0

[Colours]
Combo1 : 255,45,45
Combo2 : 255,194,128
Combo3 : 255,155,155
Combo4 : 255,255,128
Combo5 : 255,102,28
Combo6 : 255,255,34

[HitObjects]
256,192,3415,12,0,5415,0:0:0:0:
74,39,6615,5,4,0:3:0:0:
189,58,7015,1,4,0:3:0:0:
305,43,7415,2,0,L|292:172,1,130,8|0,0:3|0:0,0:0:0:0:
274,288,8215,2,0,L|206:294,1,65,4|0,0:3|0:0,0:0:0:0:
150,298,8615,2,0,L|162:168,1,130,4|8,0:3|0:3,0:0:0:0:
32,71,9815,6,0,B|57:89|57:89|118:80,1,65,4|0,0:3|0:0,0:0:0:0:
148,76,10215,1,4,0:3:0:0:
258,56,10615,2,0,B|319:24|319:24|377:40,1,130,8|0,0:3|0:0,0:0:0:0:
473,107,11415,2,0,L|481:190,2,65,4|0|4,0:3|0:0|0:3,0:0:0:0:
377,40,12215,1,8,0:3:0:0:
388,156,12615,1,0,0:0:0:0:
399,272,13015,6,0,L|243:264,1,130,4|4,0:3|0:3,0:0:0:0:
183,345,13815,1,8,0:3:0:0:
18,176,14615,2,0,L|30:106,1,65,4|0,0:3|0:0,0:0:0:0:
41,54,15015,1,4,0:3:0:0:
156,75,15415,1,8,0:3:0:0:
384,41,16215,54,0,B|427:35|427:35|446:45,2,65,4|0|4,0:3|0:0|0:3,0:0:0:0:
267,51,17015,1,8,0:3:0:0:
335,145,17415,1,0,0:0:0:0:
266,240,17815,2,0,B|222:245|222:245|203:235,2,65,4|0|4,0:3|0:0|0:3,0:0:0:0:
335,145,18615,1,8,0:3:0:0:
267,51,19015,1,0,0:0:0:0:
153,22,19415,6,0,B|136:60|136:60|145:169,1,130,4|4,0:3|0:3,0:0:0:0:
89,252,20215,2,0,B|106:214|106:214|97:105,1,130,8|0,0:3|0:0,0:0:0:0:
25,50,21015,1,4,0:3:0:0:
25,50,21215,1,0,0:0:0:0:
25,50,21415,1,4,0:3:0:0:
118,119,21815,2,0,L|268:129,1,130,8|0,0:3|0:0,0:0:0:0:
361,100,22615,6,0,B|363:57|363:57|378:41,2,65,4|0|4,0:3|0:0|0:3,0:0:0:0:
411,205,23415,2,0,B|352:233|352:233|296:195,1,130,8|0,0:3|0:0,0:0:0:0:
199,134,24215,2,0,B|196:91|196:91|181:75,2,65,4|0|4,0:3|0:0|0:3,0:0:0:0:
149,239,25015,2,0,B|207:267|207:267|263:229,1,130,8|0,0:3|0:0,0:0:0:0:
363,173,25815,6,0,P|343:236|381:312,1,130,4|4,0:3|0:3,0:0:0:0:
480,294,26615,2,0,P|500:231|462:155,1,130,8|0,0:3|0:0,0:0:0:0:
420,75,27415,1,4,0:3:0:0:
420,75,27615,1,0,0:0:0:0:
420,75,27815,1,4,0:3:0:0:
363,173,28215,2,0,L|214:161,1,130,8|0,0:3|0:0,0:0:0:0:
182,56,29015,5,4,0:3:0:0:
68,79,29415,1,4,0:3:0:0:
90,194,29815,1,8,0:3:0:0:
204,171,30215,1,0,0:0:0:0:
400,298,31015,6,0,L|416:155,2,130,4|8|0,0:3|0:3|0:0,0:0:0:0:
306,229,32215,54,0,B|293:104|293:104|276:28|199:10,1,260,4|8,0:3|0:3,0:0:0:0:
124,96,33415,2,0,L|133:175,1,65
138,218,33815,2,0,L|154:361,2,130,4|4|8,0:3|0:3|0:3,0:0:0:0:
283,34,35415,6,0,B|412:15|412:15|489:120,1,260,4|8,0:3|0:3,0:0:0:0:
507,234,36615,2,0,L|431:228,1,65
383,221,37015,1,4,0:3:0:0:
374,104,37415,1,4,0:3:0:0:
270,159,37815,1,8,0:3:0:0:
124,342,38615,22,0,B|224:332|224:332|260:339,1,130,4|4,0:3|0:3,0:0:0:0:
313,237,39415,2,0,B|213:247|213:247|177:240,1,130,12|4,0:3|0:3,0:0:0:0:
132,225,40015,1,0,0:0:0:0:
132,225,40215,2,0,B|129:130|129:130|109:98,1,130,4|4,0:3|0:3,0:0:0:0:
16,169,41015,2,0,B|19:264|19:264|39:296,1,130,12|4,0:3|0:3,0:0:0:0:
57,354,41615,1,0,0:0:0:0:
57,354,41815,6,0,P|97:352|157:268,1,130,4|4,0:3|0:3,0:0:0:0:
210,267,42415,1,0,0:0:0:0:
210,268,42615,2,0,P|271:281|325:248,1,130,12|4,0:3|0:3,0:0:0:0:
389,250,43215,1,0,0:0:0:0:
389,250,43415,2,0,P|439:287|502:279,1,130,4|4,0:3|0:3,0:0:0:0:
512,341,44015,1,0,0:0:0:0:
512,341,44215,5,12,0:3:0:0:
376,150,45015,6,0,B|380:71|380:71|423:27,1,130,6|4,0:3|0:3,0:0:0:0:
492,123,45815,2,0,B|487:201|487:201|445:246,1,130,10|0,0:3|0:0,0:0:0:0:
376,150,46615,1,6,0:3:0:0:
376,150,46815,1,2,0:3:0:0:
376,150,47015,1,6,0:3:0:0:
300,238,47415,2,0,B|264:201|264:201|260:123,1,130,10|0,0:3|0:0,0:0:0:0:
147,90,48215,6,0,L|151:25,2,65,6|2|6,0:3|0:3|0:3,0:0:0:0:
136,206,49015,1,10,0:3:0:0:
68,301,49415,1,2,0:3:0:0:
184,313,49815,2,0,L|248:317,2,65,6|2|6,0:3|0:3|0:3,0:0:0:0:
246,214,50615,2,0,L|375:204,1,130,10|2,0:3|0:3,0:0:0:0:
492,192,51415,6,0,P|473:135|389:86,1,130,6|4,0:3|0:3,0:0:0:0:
307,57,52215,2,0,P|247:60|177:129,1,130,10|0,0:3|0:0,0:0:0:0:
247,215,53015,1,6,0:3:0:0:
247,215,53215,1,2,0:3:0:0:
247,215,53415,1,6,0:3:0:0:
130,215,53815,2,0,B|45:233|45:233|11:279,1,130,10|0,0:3|0:0,0:0:0:0:
112,338,54615,6,0,L|188:344,1,65,6|2,0:3|0:3,0:0:0:0:
235,348,55015,1,6,0:3:0:0:
351,356,55415,2,0,L|340:216,1,130,10|2,0:3|0:3,0:0:0:0:
360,110,56215,2,0,L|424:104,2,65,6|2|6,0:3|0:3|0:3,0:0:0:0:
305,118,56815,1,2,0:3:0:0:
305,118,57015,2,0,B|240:123|240:123|184:80,1,130,10|2,0:3|0:3,0:0:0:0:
85,27,57815,5,4,0:3:0:0:
93,143,58215,1,4,0:3:0:0:
101,259,58615,2,0,P|164:247|224:292,1,130,10|0,0:3|0:0,0:0:0:0:
289,373,59415,1,6,0:3:0:0:
376,295,59815,1,6,0:3:0:0:
463,373,60215,2,0,B|476:292|476:292|478:255|461:233,1,130,10|2,0:3|0:3,0:0:0:0:
437,192,60815,2,0,P|352:161|274:227,1,195,2|4,0:3|0:3,0:0:0:0:
187,297,61815,21,10,0:3:0:0:
179,180,62215,1,0,0:0:0:0:
171,63,62615,2,0,L|40:52,1,130,6|6,0:3|0:3,0:0:0:0:
95,155,63415,2,0,B|186:163|186:163|221:143,1,130,10|2,0:3|0:3,0:0:0:0:
278,144,64015,2,0,B|307:168|307:168|428:181|428:181|463:216,1,195,2|4,0:3|0:3,0:0:0:0:
477,320,65015,69,10,0:3:0:0:
360,310,65415,1,0,0:0:0:0:
243,300,65815,2,0,B|179:293|179:293|129:364,1,130,6|6,0:3|0:3,0:0:0:0:
45,278,66615,2,0,B|81:224|81:224|42:147,1,130,10|2,0:3|0:3,0:0:0:0:
22,115,67215,2,0,P|117:134|195:68,1,195,2|4,0:3|0:3,0:0:0:0:
89,17,68215,37,10,0:3:0:0:
256,192,69015,12,0,70615,0:0:0:0:
