osu file format v14

[General]
AudioFilename: audio.mp3
AudioLeadIn: 0
PreviewTime: 45015
Countdown: 0
SampleSet: Soft
StackLeniency: 1
Mode: 0
LetterboxInBreaks: 0
EpilepsyWarning: 1
WidescreenStoryboard: 1

[Editor]
DistanceSpacing: 1.1
BeatDivisor: 4
GridSize: 4
TimelineZoom: 0.8999999

[Metadata]
Title:E.T. (Cut Ver.)
TitleUnicode:E.T. (Cut Ver.)
Artist:Katy Perry
ArtistUnicode:Katy Perry
Creator:Skubi
Version:Hard
Source:
Tags:Teenage Dream The Complete Confection pop MkGuh CptSqBany ET English -Ady Partyu
BeatmapID:2701765
BeatmapSetID:1060234

[Difficulty]
HPDrainRate:4.5
CircleSize:3.8
OverallDifficulty:6.3
ApproachRate:8
SliderMultiplier:1.6
SliderTickRate:1

[Events]
//Background and Video events
0,0,"nebula-7680x4320-interstellar-galaxy-milky-way-8k-3804.jpg",0,0
//Break Periods
//Storyboard Layer 0 (Background)
//Storyboard Layer 1 (Fail)
//Storyboard Layer 2 (Pass)
//Storyboard Layer 3 (Foreground)
Sprite,Foreground,Centre,"sb\lyrics\77.png",216,200 F,0,215,,0,1 S,0,215,,0.25 P,0,215,,A F,0,1015,,1,0
Sprite,Foreground,Centre,"sb\lyrics\97.png",232,200 F,0,215,,0,1 S,0,215,,0.25 P,0,215,,A F,0,1015,,1,0
Sprite,Foreground,Centre,"sb\lyrics\112.png",248,200 F,0,215,,0,1 S,0,215,,0.25 P,0,215,,A F,0,1015,,1,0
Sprite,Foreground,Centre,"sb\lyrics\115.png",264,200 F,0,215,,0,1 S,0,215,,0.25 P,0,215,,A F,0,1015,,1,0
Sprite,Foreground,Centre,"sb\lyrics\101.png",280,200 F,0,215,,0,1 S,0,215,,0.25 P,0,215,,A F,0,1015,,1,0
Sprite,Foreground,Centre,"sb\lyrics\116.png",296,200 F,0,215,,0,1 S,0,215,,0.25 P,0,215,,A F,0,1015,,1,0
Sprite,Foreground,Centre,"sb\lyrics\98.png",328,200 S,0,215,,0.25 P,0,215,,A F,0,615,,0,1 F,0,1015,,1,0
Sprite,Foreground,Centre,"sb\lyrics\121.png",344,200 S,0,215,,0.25 P,0,215,,A F,0,615,,0,1 F,0,1015,,1,0
Sprite,Foreground,Centre,"sb\lyrics\83.png",376,200 S,0,215,,0.25 P,0,215,,A F,0,615,,0,1 F,0,1015,,1,0
Sprite,Foreground,Centre,"sb\lyrics\107.png",392,200 S,0,215,,0.25 P,0,215,,A F,0,615,,0,1 F,0,1015,,1,0
Sprite,Foreground,Centre,"sb\lyrics\117.png",408,200 S,0,215,,0.25 P,0,215,,A F,0,615,,0,1 F,0,1015,,1,0
Sprite,Foreground,Centre,"sb\lyrics\98.png",424,200 S,0,215,,0.25 P,0,215,,A F,0,615,,0,1 F,0,1015,,1,0
Sprite,Foreground,Centre,"sb\lyrics\105.png",440,200 S,0,215,,0.25 P,0,215,,A F,0,615,,0,1 F,0,1015,,1,0
//Storyboard Layer 4 (Overlay)
//Storyboard Sound Samples

[TimingPoints]
215,400,4,2,1,35,1,0
3415,-100,4,2,1,5,0,0
4215,-100,4,2,1,10,0,0
5015,-100,4,2,1,15,0,0
5815,-100,4,2,1,20,0,0
6215,-100,4,2,1,5,0,0
6615,-100,4,2,1,35,0,0
19815,-133.333333333333,4,2,1,35,0,0
20215,-100,4,2,1,35,0,0
20615,-133.333333333333,4,2,1,35,0,0
21015,-100,4,2,1,35,0,0
26215,-133.333333333333,4,2,1,35,0,0
26615,-100,4,2,1,35,0,0
27015,-133.333333333333,4,2,1,35,0,0
27415,-100,4,2,1,35,0,0
31415,-133.333333333333,4,2,1,35,0,0
32115,-133.333333333333,4,2,1,5,0,0
32216,-100,4,2,1,55,0,0
42015,-100,4,2,1,55,0,0
44215,-333.333333333333,4,2,1,60,0,0
44615,-100,4,2,1,5,0,0
45015,-100,4,2,1,75,0,1
57415,-100,4,2,1,75,0,0
57815,-100,4,2,1,75,0,1
69015,-100,4,2,1,45,0,0
69815,-133.333333333333,4,2,1,45,0,0

[Colours]
Combo1 : 255,45,45
Combo2 : 255,194,128
Combo3 : 255,155,155
Combo4 : 255,255,128
Combo5 : 255,102,28
Combo6 : 255,255,34

[HitObjects]
256,192,3415,12,0,6215,0:0:0:0:
64,342,6615,6,0,L|71:238,1,80,4|0,0:3|0:0,0:0:0:0:
188,276,7015,2,0,L|181:172,1,80,4|0,0:3|0:0,0:0:0:0:
81,132,7415,1,8,0:3:0:0:
182,196,8215,5,4,0:3:0:0:
81,132,8415,1,0,0:0:0:0:
194,202,8615,2,0,L|298:195,1,80,4|0,0:3|0:0,0:0:0:0:
409,186,9015,1,8,0:3:0:0:
399,50,9815,5,4,0:3:0:0:
409,186,10015,1,0,0:0:0:0:
273,196,10215,1,4,0:3:0:0:
263,60,10415,1,0,0:0:0:0:
399,50,10615,2,0,B|456:67|456:67|479:96,1,80,8|0,0:3|0:0,0:0:0:0:
409,186,11015,2,0,B|422:243|422:243|409:278,1,80
298,332,11415,53,4,0:3:0:0:
188,252,11615,1,0,0:0:0:0:
324,252,11815,1,4,0:3:0:0:
212,332,12015,1,0,0:0:0:0:
100,252,12215,2,0,L|93:157,1,80,8|0,0:3|0:0,0:0:0:0:
204,92,12615,2,0,L|198:171,1,80
324,252,13015,6,0,P|368:250|406:215,1,80,4|0,0:3|0:0,0:0:0:0:
358,99,13415,2,0,P|314:101|276:136,1,80,4|0,0:3|0:0,0:0:0:0:
324,252,13815,1,8,0:3:0:0:
285,121,14615,5,4,0:3:0:0:
324,252,14815,1,0,0:0:0:0:
281,106,15015,2,0,L|194:97,1,80,4|0,0:3|0:0,0:0:0:0:
86,25,15415,1,8,0:3:0:0:
65,160,16215,53,4,0:3:0:0:
86,25,16415,1,0,0:0:0:0:
201,97,16615,1,4,0:3:0:0:
180,232,16815,1,0,0:0:0:0:
44,295,17015,2,0,L|60:186,1,80,8|0,0:3|0:0,0:0:0:0:
180,232,17415,2,0,L|167:311,1,80
296,364,17815,5,4,0:3:0:0:
408,284,18015,1,0,0:0:0:0:
272,284,18215,1,4,0:3:0:0:
384,364,18415,1,0,0:0:0:0:
340,236,18615,2,0,L|336:148,1,80,8|0,0:3|0:0,0:0:0:0:
464,108,19015,2,0,L|460:187,1,80
316,136,19415,70,0,L|312:48,1,80,4|0,0:3|0:0,0:0:0:0:
303,127,19815,2,0,L|299:39,1,60.0000022888184,4|0,0:3|0:0,0:0:0:0:
160,28,20215,6,0,L|156:116,1,80,8|0,0:3|0:0,0:0:0:0:
147,37,20615,2,0,L|143:125,1,60.0000022888184
136,180,21015,5,4,0:3:0:0:
28,284,21215,1,0,0:0:0:0:
135,194,21415,2,0,L|228:192,1,80,4|0,0:3|0:0,0:0:0:0:
320,208,21815,2,0,B|242:206|242:206|176:280,1,160,8|0,0:3|0:0,0:0:0:0:
404,368,22615,53,4,0:3:0:0:
496,288,22815,1,0,0:0:0:0:
404,208,23015,1,4,0:3:0:0:
496,128,23215,1,0,0:0:0:0:
404,48,23415,2,0,P|364:36|304:68,1,80,8|0,0:3|0:0,0:0:0:0:
224,108,23815,2,0,P|185:117|148:105,1,80
60,24,24215,5,4,0:3:0:0:
52,144,24415,1,0,0:0:0:0:
44,264,24615,1,4,0:3:0:0:
36,384,24815,1,0,0:0:0:0:
140,328,25015,2,0,P|178:318|215:330,1,80,8|0,0:3|0:0,0:0:0:0:
328,365,25415,2,0,P|365:376|403:367,1,80
480,272,25815,70,0,L|476:188,1,80,4|0,0:3|0:0,0:0:0:0:
468,264,26215,2,0,L|464:180,1,60.0000022888184,4|0,0:3|0:0,0:0:0:0:
344,196,26615,6,0,L|348:112,1,80,8|0,0:3|0:0,0:0:0:0:
356,188,27015,2,0,L|360:104,1,60.0000022888184
364,40,27415,5,4,0:3:0:0:
436,136,27615,1,0,0:0:0:0:
296,76,27815,2,0,L|208:72,1,80,4|0,0:3|0:0,0:0:0:0:
100,96,28215,2,0,B|181:92|181:92|232:92|260:120,1,160,8|0,0:3|0:0,0:0:0:0:
180,344,29015,53,4,0:3:0:0:
103,249,29215,1,0,0:0:0:0:
198,172,29415,1,4,0:3:0:0:
274,267,29615,1,0,0:0:0:0:
376,328,29815,2,0,P|428:340|456:328,1,80,8|0,0:3|0:0,0:0:0:0:
451,210,30215,2,0,P|399:198|371:210,1,80
274,267,30615,6,0,L|176:267,1,80,4|0,0:3|0:0,0:0:0:0:
80,304,31015,6,0,P|120:292|152:256,1,80,4|0,0:3|0:0,0:0:0:0:
77,221,31415,54,0,P|96:184|93:145,1,60.0000022888184,8|0,0:3|0:0,0:0:0:0:
16,168,31815,21,0,0:0:0:0:
8,16,32215,69,4,0:3:0:0:
8,16,32415,1,0,0:0:0:0:
108,72,32615,1,4,0:3:0:0:
108,72,32815,1,0,0:3:0:0:
200,8,33015,2,0,B|280:4|280:4|373:30,1,160,8|0,0:3|0:0,0:0:0:0:
462,63,33615,1,0,0:0:0:0:
381,140,33815,5,4,0:3:0:0:
381,140,34015,1,0,0:0:0:0:
464,221,34215,1,4,0:3:0:0:
464,221,34415,1,0,0:0:0:0:
379,294,34615,2,0,L|294:297,1,80,8|0,0:3|0:0,0:0:0:0:
214,370,35015,2,0,L|134:367,1,80
22,378,35415,53,4,0:3:0:0:
22,378,35615,1,0,0:0:0:0:
69,278,35815,1,4,0:3:0:0:
69,278,36015,1,0,0:0:0:0:
116,178,36215,2,0,B|106:47|106:47|75:10,1,160,8|0,0:3|0:0,0:0:0:0:
18,123,36815,1,0,0:0:0:0:
121,193,37015,5,4,0:3:0:0:
121,193,37215,1,0,0:0:0:0:
221,126,37415,1,4,0:3:0:0:
221,126,37615,1,0,0:0:0:0:
317,196,37815,2,0,L|402:192,1,80,8|0,0:3|0:0,0:0:0:0:
482,106,38215,2,0,L|402:102,1,80
291,54,38615,6,0,B|211:60|211:60|169:84|106:59,1,160,4|4,0:3|0:3,0:0:0:0:
27,9,39215,1,0,0:0:0:0:
29,128,39415,2,0,L|31:215,1,80,12|0,0:3|0:0,0:0:0:0:
126,279,39815,2,0,L|127:199,1,80,4|0,0:3|0:0,0:0:0:0:
231,138,40215,53,4,0:3:0:0:
259,254,40415,1,0,0:0:0:0:
375,226,40615,1,4,0:3:0:0:
347,110,40815,1,0,0:0:0:0:
302,181,41015,1,12,0:3:0:0:
460,364,41415,2,0,L|467:276,1,80,4|0,0:3|0:0,0:0:0:0:
480,142,41815,21,4,0:3:0:0:
440,212,42015,1,0,0:0:0:0:
367,246,42215,1,4,0:3:0:0:
286,242,42415,1,0,0:0:0:0:
250,313,42615,53,12,0:3:0:0:
209,244,42815,1,0,0:0:0:0:
216,163,43015,1,4,0:3:0:0:
260,95,43215,1,0,0:0:0:0:
219,26,43415,5,4,0:3:0:0:
299,25,43615,1,0,0:0:0:0:
366,72,43815,1,4,0:3:0:0:
403,144,44015,1,0,0:0:0:0:
316,171,44215,6,0,B|283:179|272:167|242:172,1,71.9999978027344,12|0,0:3|0:0,0:0:0:0:
148,348,45015,22,0,P|170:299|168:249,1,80,6|0,0:3|0:0,0:0:0:0:
167,169,45415,1,4,0:3:0:0:
167,169,45615,1,0,0:0:0:0:
101,250,45815,2,0,B|165:274|197:226|257:250,1,160,10|0,0:3|0:0,0:0:0:0:
340,312,46415,1,0,0:0:0:0:
432,360,46615,70,0,L|436:292,1,40,6|0,0:3|0:0,0:0:0:0:
512,308,46815,2,0,L|508:240,1,40,2|0,0:3|0:0,0:0:0:0:
440,240,47015,2,0,L|445:150,1,80,6|0,0:3|0:0,0:0:0:0:
512,108,47315,1,0,0:0:0:0:
512,108,47415,2,0,B|448:132|416:84|356:108,1,160,10|0,0:3|0:0,0:0:0:0:
272,168,48015,1,2,0:3:0:0:
217,69,48215,21,6,0:3:0:0:
177,209,48415,1,2,0:3:0:0:
37,169,48615,1,6,0:3:0:0:
77,29,48815,1,2,0:3:0:0:
177,209,49015,2,0,L|256:204,1,80,10|0,0:3|0:0,0:0:0:0:
336,84,49415,2,0,L|257:79,1,80,2|0,0:3|0:0,0:0:0:0:
177,209,49815,53,6,0:3:0:0:
327,195,50015,1,2,0:3:0:0:
184,224,50215,1,6,0:3:0:0:
334,210,50415,1,2,0:3:0:0:
256,340,50615,2,0,L|264:248,1,80,10|0,0:3|0:0,0:0:0:0:
326,122,51015,2,0,L|332:201,1,80,2|0,0:3|0:0,0:0:0:0:
411,336,51415,6,0,P|473:294|477:183,1,160,6|4,0:3|0:3,0:0:0:0:
467,104,52015,1,0,0:0:0:0:
332,201,52215,2,0,L|425:193,1,80,10|0,0:3|0:0,0:0:0:0:
362,92,52615,2,0,L|269:84,1,80
206,2,53015,70,0,L|212:75,1,40,6|0,0:3|0:0,0:0:0:0:
131,25,53215,2,0,L|137:98,1,40,2|0,0:3|0:0,0:0:0:0:
56,48,53415,2,0,B|59:89|59:89|52:145,1,80,6|0,0:3|0:0,0:0:0:0:
0,211,53715,1,0,0:0:0:0:
0,211,53815,2,0,B|64:187|96:235|156:211,1,160,10|0,0:3|0:0,0:0:0:0:
396,138,54615,21,6,0:3:0:0:
420,279,54815,1,2,0:3:0:0:
279,303,55015,1,6,0:3:0:0:
255,162,55215,1,2,0:3:0:0:
420,279,55415,2,0,L|498:266,1,80,10|0,0:3|0:0,0:0:0:0:
474,125,55815,2,0,L|395:137,1,80,2|0,0:3|0:0,0:0:0:0:
255,162,56215,53,6,0:3:0:0:
114,138,56415,1,2,0:3:0:0:
251,147,56615,1,6,0:3:0:0:
110,123,56815,1,2,0:3:0:0:
193,15,57015,2,0,L|182:120,1,80,10|0,0:3|0:0,0:0:0:0:
172,213,57415,2,0,L|162:311,1,80,2|0,0:3|0:0,0:0:0:0:
50,367,57815,5,4,0:3:0:0:
50,367,58015,1,0,0:0:0:0:
163,323,58215,1,4,0:3:0:0:
163,323,58415,1,0,0:0:0:0:
276,367,58615,1,10,0:3:0:0:
276,367,58815,1,0,0:0:0:0:
389,323,59015,1,0,0:0:0:0:
389,323,59215,1,0,0:0:0:0:
502,367,59415,70,0,L|494:277,1,80,6|0,0:3|0:0,0:0:0:0:
384,237,59815,2,0,L|393:127,1,80,6|0,0:3|0:0,0:0:0:0:
480,46,60215,2,0,B|400:53|400:53|317:21,1,160,10|2,0:3|0:3,0:0:0:0:
224,88,60815,1,2,0:3:0:0:
128,15,61015,5,4,0:3:0:0:
128,15,61215,1,0,0:0:0:0:
113,137,61415,1,4,0:3:0:0:
113,137,61615,1,0,0:0:0:0:
224,88,61815,1,10,0:3:0:0:
224,88,62015,1,0,0:0:0:0:
239,210,62215,1,0,0:0:0:0:
239,210,62415,1,0,0:0:0:0:
160,300,62615,70,0,L|75:305,1,80,6|0,0:3|0:0,0:0:0:0:
40,194,63015,2,0,L|125:199,1,80,6|0,0:3|0:0,0:0:0:0:
239,210,63415,21,10,0:3:0:0:
355,342,63615,1,0,0:0:0:0:
248,292,63815,21,2,0:3:0:0:
325,258,64015,1,2,0:3:0:0:
432,308,64215,37,4,0:3:0:0:
497,207,64415,2,0,L|501:250,2,40,0|0|4,0:0|0:0|0:3,0:0:0:0:
482,87,64815,1,0,0:0:0:0:
386,158,65015,1,10,0:3:0:0:
386,158,65215,1,0,0:0:0:0:
292,92,65415,1,0,0:0:0:0:
292,92,65615,1,0,0:0:0:0:
198,166,65815,70,0,P|145:154|119:121,1,80,6|0,0:3|0:0,0:0:0:0:
71,199,66215,2,0,P|42:153|46:111,1,80,6|0,0:3|0:0,0:0:0:0:
184,4,66615,2,0,L|190:84,1,80,10|0,0:3|0:0,0:0:0:0:
200,203,67015,1,2,0:3:0:0:
142,284,67215,2,0,P|205:239|275:271,1,160,2|0,0:3|0:0,0:0:0:0:
359,354,67815,2,0,P|400:361|439:336,1,80,4|0,0:3|0:0,0:0:0:0:
391,126,68215,6,0,B|370:152|373:188|373:188|384:293,1,160,10|0,0:3|0:0,0:0:0:0:
459,180,68815,1,0,0:0:0:0:
447,63,69015,53,2,0:3:0:0:
294,41,69415,1,2,0:3:0:0:
144,20,69815,2,0,B|67:10|67:10|39:6|3:20,1,120.000004577637,2|2,0:3|0:3,0:0:0:0:
13,18,70415,1,2,0:3:0:0:
