osu file format v14

[General]
AudioFilename: audio.mp3
AudioLeadIn: 0
PreviewTime: 45015
Countdown: 0
SampleSet: Soft
StackLeniency: 1
Mode: 0
LetterboxInBreaks: 0
EpilepsyWarning: 1
WidescreenStoryboard: 1

[Editor]
Bookmarks: 6615,19415,32215,45015,57815
DistanceSpacing: 1.1
BeatDivisor: 4
GridSize: 4
TimelineZoom: 0.8999999

[Metadata]
Title:E.T. (Cut Ver.)
TitleUnicode:E.T. (Cut Ver.)
Artist:Katy Perry
ArtistUnicode:Katy Perry
Creator:Skubi
Version:Collab Advanced
Source:
Tags:Teenage Dream The Complete Confection pop MkGuh CptSqBany ET English -Ady Partyu
BeatmapID:2701763
BeatmapSetID:1060234

[Difficulty]
HPDrainRate:4
CircleSize:3.5
OverallDifficulty:5.5
ApproachRate:7
SliderMultiplier:1.5
SliderTickRate:1

[Events]
//Background and Video events
0,0,"nebula-7680x4320-interstellar-galaxy-milky-way-8k-3804.jpg",0,0
//Break Periods
//Storyboard Layer 0 (Background)
//Storyboard Layer 1 (Fail)
//Storyboard Layer 2 (Pass)
//Storyboard Layer 3 (Foreground)
Sprite,Foreground,Centre,"sb\lyrics\77.png",136,200 F,0,215,,0,1 S,0,215,,0.25 P,0,215,,A F,0,1015,,1,0
Sprite,Foreground,Centre,"sb\lyrics\97.png",152,200 F,0,215,,0,1 S,0,215,,0.25 P,0,215,,A F,0,1015,,1,0
Sprite,Foreground,Centre,"sb\lyrics\112.png",168,200 F,0,215,,0,1 S,0,215,,0.25 P,0,215,,A F,0,1015,,1,0
Sprite,Foreground,Centre,"sb\lyrics\112.png",184,200 F,0,215,,0,1 S,0,215,,0.25 P,0,215,,A F,0,1015,,1,0
Sprite,Foreground,Centre,"sb\lyrics\101.png",200,200 F,0,215,,0,1 S,0,215,,0.25 P,0,215,,A F,0,1015,,1,0
Sprite,Foreground,Centre,"sb\lyrics\100.png",216,200 F,0,215,,0,1 S,0,215,,0.25 P,0,215,,A F,0,1015,,1,0
Sprite,Foreground,Centre,"sb\lyrics\98.png",248,200 S,0,215,,0.25 P,0,215,,A F,0,615,,0,1 F,0,1015,,1,0
Sprite,Foreground,Centre,"sb\lyrics\121.png",264,200 S,0,215,,0.25 P,0,215,,A F,0,615,,0,1 F,0,1015,,1,0
Sprite,Foreground,Centre,"sb\lyrics\83.png",296,200 S,0,215,,0.25 P,0,215,,A F,0,615,,0,1 F,0,1015,,1,0
Sprite,Foreground,Centre,"sb\lyrics\107.png",312,200 S,0,215,,0.25 P,0,215,,A F,0,615,,0,1 F,0,1015,,1,0
Sprite,Foreground,Centre,"sb\lyrics\117.png",328,200 S,0,215,,0.25 P,0,215,,A F,0,615,,0,1 F,0,1015,,1,0
Sprite,Foreground,Centre,"sb\lyrics\98.png",344,200 S,0,215,,0.25 P,0,215,,A F,0,615,,0,1 F,0,1015,,1,0
Sprite,Foreground,Centre,"sb\lyrics\105.png",360,200 S,0,215,,0.25 P,0,215,,A F,0,615,,0,1 F,0,1015,,1,0
Sprite,Foreground,Centre,"sb\lyrics\97.png",392,200 S,0,215,,0.25 P,0,215,,A F,0,615,,0,1 F,0,1015,,1,0
Sprite,Foreground,Centre,"sb\lyrics\110.png",408,200 S,0,215,,0.25 P,0,215,,A F,0,615,,0,1 F,0,1015,,1,0
Sprite,Foreground,Centre,"sb\lyrics\100.png",424,200 S,0,215,,0.25 P,0,215,,A F,0,615,,0,1 F,0,1015,,1,0
Sprite,Foreground,Centre,"sb\lyrics\77.png",456,200 S,0,215,,0.25 P,0,215,,A F,0,615,,0,1 F,0,1015,,1,0
Sprite,Foreground,Centre,"sb\lyrics\107.png",472,200 S,0,215,,0.25 P,0,215,,A F,0,615,,0,1 F,0,1015,,1,0
Sprite,Foreground,Centre,"sb\lyrics\71.png",488,200 S,0,215,,0.25 P,0,215,,A F,0,615,,0,1 F,0,1015,,1,0
Sprite,Foreground,Centre,"sb\lyrics\117.png",504,200 S,0,215,,0.25 P,0,215,,A F,0,615,,0,1 F,0,1015,,1,0
Sprite,Foreground,Centre,"sb\lyrics\104.png",520,200 S,0,215,,0.25 P,0,215,,A F,0,615,,0,1 F,0,1015,,1,0
//Storyboard Layer 4 (Overlay)
//Storyboard Sound Samples

[TimingPoints]
215,400,4,2,1,35,1,0
3415,-100,4,2,1,5,0,0
4215,-100,4,2,1,10,0,0
5015,-100,4,2,1,15,0,0
5815,-100,4,2,1,20,0,0
6215,-100,4,2,1,5,0,0
6615,-100,4,2,1,35,0,0
32115,-100,4,2,1,5,0,0
32216,-100,4,2,1,55,0,0
42015,-100,4,2,1,55,0,0
44215,-100,4,2,1,60,0,0
44615,-100,4,2,1,5,0,0
45015,-100,4,2,1,75,0,1
57415,-100,4,2,1,75,0,0
57815,-100,4,2,1,75,0,1
69015,-100,4,2,1,45,0,0
69815,-133.333333333333,4,2,1,45,0,0

[Colours]
Combo1 : 255,45,45
Combo2 : 255,194,128
Combo3 : 255,155,155
Combo4 : 255,255,128
Combo5 : 255,102,28
Combo6 : 255,255,34

[HitObjects]
256,192,3415,12,0,5815,0:0:0:0:
84,370,6615,6,0,L|91:281,1,75,4|0,0:3|0:0,0:0:0:0:
179,287,7015,2,0,L|172:198,1,75,4|0,0:3|0:0,0:0:0:0:
101,157,7415,1,8,0:3:0:0:
10,17,8215,5,4,0:3:0:0:
83,69,8415,1,0,0:0:0:0:
101,157,8615,2,0,P|142:168|180:202,1,75,4|0,0:3|0:0,0:0:0:0:
224,257,9015,1,8,0:3:0:0:
458,260,9815,6,0,L|471:350,1,75,4|0,0:3|0:0,0:0:0:0:
379,347,10215,2,0,L|368:272,1,75,4|0,0:3|0:0,0:0:0:0:
402,189,10615,1,8,0:3:0:0:
466,20,11015,1,0,0:0:0:0:
288,50,11415,54,0,L|194:45,1,75,4|0,0:3|0:0,0:0:0:0:
208,135,11815,2,0,L|282:138,1,75,4|0,0:3|0:0,0:0:0:0:
364,100,12215,1,8,0:3:0:0:
255,243,12615,1,0,0:0:0:0:
121,51,13015,6,0,L|124:125,1,75,4|0,0:3|0:0,0:0:0:0:
35,122,13415,2,0,L|31:196,1,75,4|0,0:3|0:0,0:0:0:0:
22,286,13815,1,8,0:3:0:0:
125,138,14615,5,4,0:3:0:0:
172,214,14815,1,0,0:0:0:0:
257,241,15015,2,0,P|302:243|343:278,1,75,4|0,0:3|0:0,0:0:0:0:
367,339,15415,1,8,0:3:0:0:
498,78,16215,54,0,L|507:3,2,75,4|0|4,0:3|0:0|0:3,0:0:0:0:
485,167,16815,1,0,0:0:0:0:
404,208,17015,2,0,B|339:214|329:158|264:165,1,150,8|0,0:3|0:0,0:0:0:0:
84,176,17815,5,4,0:3:0:0:
173,193,18015,1,0,0:0:0:0:
191,104,18215,1,4,0:3:0:0:
101,86,18415,1,0,0:0:0:0:
84,176,18615,2,0,B|70:251|70:251|80:328,1,150,8|0,0:3|0:0,0:0:0:0:
257,354,19415,6,0,L|284:263,1,75,4|0,0:3|0:0,0:0:0:0:
357,238,19815,2,0,P|416:251|452:245,1,75,4|0,0:3|0:0,0:0:0:0:
456,163,20215,2,0,P|379:135|293:157,1,150,8|0,0:3|0:0,0:0:0:0:
143,205,21015,53,4,0:3:0:0:
177,288,21215,1,0,0:0:0:0:
87,282,21415,2,0,B|19:263|19:263|-2:176,1,150,4|8,0:3|0:3,0:0:0:0:
86,27,22215,1,0,0:0:0:0:
199,166,22615,6,0,L|289:181,1,75,4|0,0:3|0:0,0:0:0:0:
320,101,23015,2,0,L|233:85,1,75,4|0,0:3|0:0,0:0:0:0:
199,166,23415,2,0,L|210:328,1,150,8|0,0:3|0:0,0:0:0:0:
368,231,24215,5,4,0:3:0:0:
435,171,24415,1,0,0:0:0:0:
417,82,24615,1,4,0:3:0:0:
350,142,24815,1,0,0:0:0:0:
324,55,25015,2,0,P|238:47|171:93,1,150,8|0,0:3|0:0,0:0:0:0:
86,227,25815,54,0,P|128:274|176:374,1,150,4|4,0:3|0:3,0:0:0:0:
348,348,26615,2,0,P|381:281|430:224,1,150,8|0,0:3|0:0,0:0:0:0:
322,80,27415,1,4,0:3:0:0:
254,139,27615,1,0,0:0:0:0:
185,80,27815,2,0,P|82:113|42:165,2,150,4|8|0,0:3|0:3|0:0,0:0:0:0:
249,248,29015,6,0,L|224:343,1,75,4|0,0:3|0:0,0:0:0:0:
139,326,29415,2,0,L|159:248,1,75,4|0,0:3|0:0,0:0:0:0:
209,179,29815,2,0,P|258:170|330:263,1,150,8|0,0:3|0:0,0:0:0:0:
477,332,30615,6,0,P|511:252|476:179,1,150,4|4,0:3|0:3,0:0:0:0:
455,112,31215,1,0,0:0:0:0:
375,68,31415,2,0,L|289:86,1,75,8|0,0:3|0:0,0:0:0:0:
291,172,31815,2,0,L|217:188,1,75
183,267,32215,54,0,P|132:204|149:134,1,150,4|4,0:3|0:3,0:0:0:0:
221,94,32815,1,0,0:3:0:0:
197,7,33015,1,8,0:3:0:0:
65,342,33815,6,0,L|156:335,1,75,4|0,0:3|0:0,0:0:0:0:
229,325,34215,2,0,L|303:319,1,75,4|0,0:3|0:0,0:0:0:0:
393,308,34615,1,8,0:3:0:0:
507,169,35015,1,0,0:0:0:0:
380,296,35415,6,0,B|368:190|368:190|329:138,1,150,4|4,0:3|0:3,0:0:0:0:
277,92,36015,1,0,0:0:0:0:
306,6,36215,1,8,0:3:0:0:
143,83,36615,53,0,0:0:0:0:
172,169,36815,1,0,0:0:0:0:
143,255,37015,2,0,L|51:266,1,75,4|0,0:3|0:0,0:0:0:0:
24,342,37415,2,0,L|116:353,1,75,4|0,0:3|0:0,0:0:0:0:
187,362,37815,1,8,0:3:0:0:
256,195,38215,1,0,0:0:0:0:
325,362,38615,6,0,B|432:380|432:380|486:363,1,150,4|4,0:3|0:3,0:0:0:0:
424,193,39415,2,0,B|317:175|317:175|263:192,1,150,12|4,0:3|0:3,0:0:0:0:
194,223,40015,1,0,0:0:0:0:
135,291,40215,2,0,B|104:247|104:247|115:134,1,150,4|4,0:3|0:3,0:0:0:0:
255,47,41015,2,0,B|286:91|286:91|275:204,1,150,12|4,0:3|0:3,0:0:0:0:
260,275,41615,1,0,0:0:0:0:
243,363,41815,6,0,L|168:356,1,75,4|0,0:3|0:0,0:0:0:0:
101,307,42215,2,0,L|26:300,1,75,4|0,0:3|0:0,0:0:0:0:
0,214,42615,2,0,L|74:207,1,75,12|0,0:3|0:0,0:0:0:0:
142,158,43015,2,0,L|216:151,1,75,4|0,0:3|0:0,0:0:0:0:
284,102,43415,5,4,0:3:0:0:
366,93,43615,1,0,0:0:0:0:
375,175,43815,1,4,0:3:0:0:
293,184,44015,1,0,0:0:0:0:
329,138,44215,5,12,0:3:0:0:
506,378,45015,6,0,L|331:368,1,150,6|4,0:3|0:3,0:0:0:0:
295,303,45615,1,0,0:0:0:0:
233,236,45815,2,0,L|134:230,2,75,10|0|0,0:3|0:0|0:0,0:0:0:0:
306,183,46415,1,0,0:0:0:0:
368,250,46615,21,6,0:3:0:0:
396,163,46815,1,2,0:3:0:0:
424,76,47015,2,0,L|400:-4,1,75,6|0,0:3|0:0,0:0:0:0:
312,2,47415,1,10,0:3:0:0:
45,44,48015,1,2,0:3:0:0:
79,127,48215,38,0,L|64:209,2,75,6|2|6,0:3|0:3|0:3,0:0:0:0:
147,68,48815,1,2,0:3:0:0:
187,148,49015,2,0,B|169:245|169:245|121:302,1,150,10|2,0:3|0:3,0:0:0:0:
0,382,49815,54,0,L|100:373,1,75,6|2,0:3|0:3,0:0:0:0:
164,364,50215,2,0,L|264:355,1,75,6|2,0:3|0:3,0:0:0:0:
328,346,50615,2,0,B|444:335|444:335|493:358,1,150,10|2,0:3|0:3,0:0:0:0:
511,173,51415,6,0,L|499:18,1,150,6|4,0:3|0:3,0:0:0:0:
411,4,52015,1,0,0:0:0:0:
327,36,52215,2,0,B|289:38|289:38|250:12,2,75,10|0|0,0:3|0:0|0:0,0:0:0:0:
395,93,52815,1,0,0:0:0:0:
379,182,53015,37,6,0:3:0:0:
295,216,53215,1,2,0:3:0:0:
263,300,53415,2,0,L|182:294,1,75,6|0,0:3|0:0,0:0:0:0:
150,376,53815,1,10,0:3:0:0:
91,20,54615,70,0,L|4:14,2,75,6|2|6,0:3|0:3|0:3,0:0:0:0:
180,30,55215,1,2,0:3:0:0:
269,43,55415,2,0,P|230:105|148:114,1,150,10|2,0:3|0:3,0:0:0:0:
9,15,56215,22,0,L|17:115,1,75,6|2,0:3|0:3,0:0:0:0:
24,179,56615,2,0,L|29:253,1,75,6|2,0:3|0:3,0:0:0:0:
39,343,57015,2,0,B|113:354|113:354|208:342,1,150,10|2,0:3|0:3,0:0:0:0:
367,332,57815,38,0,L|443:341,3,75,4|0|4|0,0:3|0:0|0:3|0:0,0:0:0:0:
415,246,58615,2,0,L|339:255,3,75,10|0|0|0,0:3|0:0|0:0|0:0,0:0:0:0:
313,159,59415,54,0,L|388:168,1,75,6|0,0:3|0:0,0:0:0:0:
361,73,59815,2,0,L|287:82,1,75,6|0,0:3|0:0,0:0:0:0:
212,132,60215,2,0,B|152:89|152:89|57:96,1,150,10|2,0:3|0:3,0:0:0:0:
0,144,60815,1,2,0:3:0:0:
27,229,61015,6,0,L|35:316,3,75,4|0|4|0,0:3|0:0|0:3|0:0,0:0:0:0:
115,263,61815,2,0,L|121:188,3,75,10|0|0|0,0:3|0:0|0:0|0:0,0:0:0:0:
202,147,62615,70,0,L|209:222,1,75,6|0,0:3|0:0,0:0:0:0:
289,180,63015,2,0,L|296:106,1,75,6|0,0:3|0:0,0:0:0:0:
304,16,63415,2,0,B|378:0|378:0|455:37,1,150,10|2,0:3|0:3,0:0:0:0:
435,121,64015,1,2,0:3:0:0:
450,209,64215,37,4,0:3:0:0:
434,297,64415,2,0,L|438:341,2,37.5,0|0|4,0:0|0:0|0:3,0:0:0:0:
368,235,64815,1,0,0:0:0:0:
309,302,65015,2,0,B|270:293|270:293|231:298,3,75,10|0|0|0,0:3|0:0|0:0|0:0,0:0:0:0:
157,342,65815,22,0,P|145:294|153:259,1,75,6|0,0:3|0:0,0:0:0:0:
59,258,66215,2,0,P|76:211|103:187,1,75,6|0,0:3|0:0,0:0:0:0:
26,132,66615,2,0,P|67:104|166:126,1,150,10|2,0:3|0:3,0:0:0:0:
229,179,67215,1,2,0:3:0:0:
255,265,67415,38,0,L|237:358,2,75,4|0|4,0:3|0:0|0:3,0:0:0:0:
318,200,68015,1,0,0:0:0:0:
376,268,68215,2,0,B|446:297|446:297|516:250,1,150,10|0,0:3|0:0,0:0:0:0:
494,166,68815,1,0,0:0:0:0:
512,81,69015,53,2,0:3:0:0:
377,88,69415,1,2,0:3:0:0:
247,32,69815,2,0,B|241:87|241:87|235:127|196:147,1,112.500004291535,2|2,0:3|0:3,0:0:0:0:
145,64,70415,1,2,0:3:0:0:
