osu file format v14

[General]
AudioFilename: audio.mp3
AudioLeadIn: 0
PreviewTime: -1
Countdown: 1
SampleSet: None
StackLeniency: 0.7
Mode: 0
LetterboxInBreaks: 0
WidescreenStoryboard: 0

[Editor]
DistanceSpacing: 0.9
BeatDivisor: 8
GridSize: 4
TimelineZoom: 1

[Metadata]
Title:Chained To The Rhythm
TitleUnicode:Chained To The Rhythm
Artist:Katy Perry
ArtistUnicode:Katy Perry
Creator:fsansy8776
Version:hard maybe?/dificil talvez?
Source:
Tags:
BeatmapID:1246076
BeatmapSetID:588605

[Difficulty]
HPDrainRate:3
CircleSize:4
OverallDifficulty:3
ApproachRate:5
SliderMultiplier:2.69999990463257
SliderTickRate:2

[Events]
//Background and Video events
0,0,"katy-perry-parejas-amor_gsub.jpg",0,0
//Break Periods
//Storyboard Layer 0 (Background)
//Storyboard Layer 1 (Fail)
//Storyboard Layer 2 (Pass)
//Storyboard Layer 3 (Foreground)
//Storyboard Sound Samples

[TimingPoints]
40342.2780276194,625,4,1,1,100,1,0

[Colours]
Combo1 : 64,0,64
Combo2 : 255,128,0
Combo3 : 128,0,64
Combo4 : 128,0,128
Combo5 : 255,192,0

[HitObjects]
256,192,3154,12,0,4404,0:0:0:0:
448,268,7061,5,0,0:0:0:0:
400,180,7607,1,0,0:0:0:0:
224,144,8311,1,0,0:0:0:0:
164,248,8936,1,0,0:0:0:0:
336,296,9561,1,0,0:0:0:0:
408,228,10186,2,0,L|128:68,1,303.749989271164
88,176,11436,2,0,L|416:304,1,337.499988079071
288,92,13311,2,0,L|176:172,2,134.999995231628
196,220,14717,2,0,P|484:272|492:104,1,539.999980926514
96,240,17139,2,0,L|492:184,2,371.249986886978
296,168,20264,1,0,0:0:0:0:
356,288,20889,1,0,0:0:0:0:
64,144,21514,1,0,0:0:0:0:
344,104,22217,1,0,0:0:0:0:
368,88,24326,1,0,0:0:0:0:
212,200,24795,1,0,0:0:0:0:
220,208,25264,2,0,L|488:244,1,269.999990463257
96,116,26592,2,0,L|396:112,1,269.999990463257
172,256,27920,2,0,L|364:208,2,168.749994039536
324,200,29976,5,0,0:0:0:0:
48,120,31676,1,0,0:0:0:0:
324,120,32295,5,0,0:0:0:0:
272,216,33545,1,0,0:0:0:0:
388,336,34151,1,0,0:0:0:0:
380,156,34742,1,0,0:0:0:0:
152,168,35342,1,0,0:0:0:0:
272,200,35967,1,0,0:0:0:0:
496,208,36670,1,0,0:0:0:0:
456,88,37373,1,0,0:0:0:0:
72,192,37661,1,0,0:0:0:0:
256,192,38701,12,0,39170,0:0:0:0:
136,200,40469,5,0,0:0:0:0:
224,176,42295,1,0,0:0:0:0:
400,128,42998,1,0,0:0:0:0:
272,272,43701,1,0,0:0:0:0:
84,152,44422,5,0,0:0:0:0:
296,208,45029,5,0,0:0:0:0:
104,148,47061,1,0,0:0:0:0:
296,252,47686,1,0,0:0:0:0:
308,212,48545,1,0,0:0:0:0:
200,112,49873,1,0,0:0:0:0:
225,193,50420,2,0,L|357:291,3,134.999995231628
290,115,51826,2,0,L|143:132,2,134.999995231628
241,296,53154,2,0,L|528:122,1,303.749989271164
221,116,55029,2,0,L|276:397,1,269.999990463257
160,216,55889,6,0,L|340:196,4,168.749994039535
272,180,57764,1,0,0:0:0:0:
132,180,58154,1,0,0:0:0:0:
344,336,58857,1,0,0:0:0:0:
232,140,59404,2,0,L|216:288,3,134.999995231628
160,256,61514,6,0,L|388:280,1,202.499992847443
68,160,62529,1,0,0:0:0:0:
396,174,63154,2,0,L|158:164,2,236.24999165535
240,144,65029,1,0,0:0:0:0:
184,232,65732,1,0,0:0:0:0:
91,82,66045,2,0,L|207:298,1,236.24999165535
326,173,66982,6,0,L|163:155,2,134.999995231628
381,254,68936,2,0,L|201:37,1,269.999990463257
104,212,69878,2,0,L|328:104,2,236.24999165535
432,248,71514,2,0,L|256:40,2,269.999990463257
32,104,73857,2,0,L|280:256,1,269.999990463257
428,64,74639,2,0,P|168:168|124:284,1,404.999985694885
248,228,75811,1,0,0:0:0:0:
512,160,76514,1,0,0:0:0:0:
368,36,77217,1,0,0:0:0:0:
168,160,77764,1,0,0:0:0:0:
276,264,78311,1,0,0:0:0:0:
440,144,79014,1,0,0:0:0:0:
356,264,79951,6,0,P|180:240|304:120,1,404.999985694885
256,192,81479,12,0,81774,0:0:0:0:
220,116,82218,5,0,0:0:0:0:
344,200,82809,1,0,0:0:0:0:
160,252,83400,1,0,0:0:0:0:
272,88,84065,1,0,0:0:0:0:
444,204,84693,1,0,0:0:0:0:
244,332,85358,1,0,0:0:0:0:
116,172,85986,1,0,0:0:0:0:
380,144,86577,1,0,0:0:0:0:
376,288,87205,1,0,0:0:0:0:
228,174,87217,2,0,L|222:215,1,33.7499988079071
92,268,87870,1,0,0:0:0:0:
112,152,88388,1,0,0:0:0:0:
328,124,88979,1,0,0:0:0:0:
336,244,89681,1,0,0:0:0:0:
148,264,90272,1,0,0:0:0:0:
152,152,90974,1,0,0:0:0:0:
336,148,91436,1,0,0:0:0:0:
224,272,91826,1,0,0:0:0:0:
180,128,92156,1,0,0:0:0:0:
336,176,92451,1,0,0:0:0:0:
228,348,92764,1,0,0:0:0:0:
256,192,93076,12,0,94092,0:0:0:0:
24,160,94890,6,0,L|104:124,6,67.4999976158142
256,192,96183,12,0,98659,0:0:0:0:
280,128,99878,5,0,0:0:0:0:
148,260,101097,1,0,0:0:0:0:
276,159,101514,1,0,0:0:0:0:
376,248,102390,1,0,0:0:0:0:
400,136,102944,1,0,0:0:0:0:
256,192,103467,12,0,104092,0:0:0:0:
300,216,104795,6,0,L|480:160,2,168.749994039536
232,40,106201,2,0,L|108:188,2,168.749994039536
320,260,107451,2,0,L|452:144,2,168.749994039536
144,148,108779,2,0,L|240:324,2,168.749994039536
432,176,109927,6,0,L|44:128,3,371.249986886978
146,149,112764,2,0,P|120:210|356:213,2,438.749984502793
104,104,115264,1,0,0:0:0:0:
352,320,115889,5,0,0:0:0:0:
452,268,116045,6,0,L|132:104,2,337.499988079071
112,240,117842,1,0,0:0:0:0:
180,276,118076,2,0,L|432:168,3,269.999990463257
256,192,120235,12,0,121048,0:0:0:0:
256,192,121748,5,0,0:0:0:0:
180,240,121982,1,0,0:0:0:0:
256,192,122821,12,0,124631,0:0:0:0:
291,202,124951,5,0,0:0:0:0:
103,193,125264,1,0,0:0:0:0:
256,192,126109,12,0,126885,0:0:0:0:
288,204,127139,6,0,L|128:196,3,134.999995231628
256,192,128232,12,0,128623,0:0:0:0:
189,128,129248,5,0,0:0:0:0:
219,294,129717,1,0,0:0:0:0:
296,160,130838,5,0,0:0:0:0:
320,208,131436,1,0,0:0:0:0:
136,136,131748,1,0,0:0:0:0:
132,204,132061,1,0,0:0:0:0:
216,236,132796,5,0,0:0:0:0:
120,63,133311,1,0,0:0:0:0:
216,128,133979,1,0,0:0:0:0:
292,296,134644,5,0,0:0:0:0:
112,148,135272,1,0,0:0:0:0:
372,108,135826,1,0,0:0:0:0:
360,228,136454,1,0,0:0:0:0:
116,232,137156,1,0,0:0:0:0:
200,136,137821,1,0,0:0:0:0:
364,108,138412,1,0,0:0:0:0:
392,244,139040,1,0,0:0:0:0:
156,160,139170,2,0,L|396:256,4,236.24999165535
404,248,141592,1,0,0:0:0:0:
252,272,141904,1,0,0:0:0:0:
116,216,142217,2,0,L|192:184,3,67.4999976158142
152,196,143076,1,0,0:0:0:0:
88,264,143400,2,0,L|232:192,4,134.999995231628
384,228,144065,1,0,0:0:0:0:
256,284,144804,1,0,0:0:0:0:
112,168,146097,1,0,0:0:0:0:
256,192,146614,12,0,148055,0:0:0:0:
176,138,148467,5,0,0:0:0:0:
143,223,148701,1,0,0:0:0:0:
256,192,149090,12,0,150309,0:0:0:0:
168,209,150889,5,0,0:0:0:0:
20,152,151676,5,0,0:0:0:0:
368,220,151971,1,0,0:0:0:0:
332,96,152295,1,0,0:0:0:0:
76,140,152969,1,0,0:0:0:0:
204,268,153560,1,0,0:0:0:0:
221,126,154873,1,0,0:0:0:0:
336,160,155444,5,0,0:0:0:0:
116,308,156072,1,0,0:0:0:0:
152,172,156774,1,0,0:0:0:0:
464,200,157328,1,0,0:0:0:0:
300,308,158030,1,0,0:0:0:0:
164,288,158622,1,0,0:0:0:0:
196,160,158779,2,0,L|96:152,9,101.249996423721
492,216,161436,2,0,L|220:144,3,269.999990463257
288,216,163609,1,8,0:0:0:0:
172,104,164274,1,8,0:0:0:0:
260,240,164976,1,0,0:0:0:0:
464,148,166232,1,0,0:0:0:0:
200,232,167489,1,0,0:0:0:0:
256,192,167858,12,0,168782,0:0:0:0:
208,194,169248,5,0,0:0:0:0:
144,204,169873,5,0,0:0:0:0:
48,204,170666,5,0,0:0:0:0:
416,304,171294,1,0,0:0:0:0:
472,176,171885,1,0,0:0:0:0:
256,176,172513,1,0,0:0:0:0:
160,248,173141,5,0,0:0:0:0:
64,144,174287,5,0,0:0:0:0:
200,88,174952,1,2,0:0:0:0:
200,220,175691,1,2,0:0:0:0:
344,280,176356,1,0,0:0:0:0:
448,112,176947,1,0,0:0:0:0:
192,108,177575,1,0,0:0:0:0:
472,232,177920,1,4,0:0:0:0:
348,192,178232,5,4,0:0:0:0:
336,260,178794,1,0,0:0:0:0:
336,172,179459,5,4,0:0:0:0:
216,64,180124,1,0,0:0:0:0:
240,164,181357,1,4,0:0:0:0:
404,292,182607,1,4,0:0:0:0:
408,164,183857,5,4,0:0:0:0:
256,288,185029,1,4,0:0:0:0:
384,108,185998,5,0,0:0:0:0:
36,232,186479,1,0,0:0:0:0:
360,304,187107,1,0,0:0:0:0:
312,152,187661,1,0,0:0:0:0:
16,192,188215,1,0,0:0:0:0:
268,360,188880,1,0,0:0:0:0:
332,228,189545,1,0,0:0:0:0:
140,152,189841,1,0,0:0:0:0:
12,272,190062,1,0,0:0:0:0:
188,260,190284,1,0,0:0:0:0:
128,172,190889,1,4,0:0:0:0:
300,256,191982,1,4,0:0:0:0:
280,231,192061,1,0,0:0:0:0:
252,204,192612,1,0,0:0:0:0:
156,112,193351,1,0,0:0:0:0:
412,112,193979,1,0,0:0:0:0:
215,166,194561,1,0,0:0:0:0:
215,166,194873,1,0,0:0:0:0:
264,292,195264,1,4,0:0:0:0:
274,238,195811,1,12,0:0:0:0:
178,118,196436,1,12,0:0:0:0:
200,213,196982,6,12,L|571:139,1,371.249986886978
171,242,198389,2,12,L|478:141,1,303.749989271164
185,160,199639,2,12,L|342:323,2,202.499992847443
93,166,200811,1,0,0:0:0:0:
336,220,201514,1,0,0:0:0:0:
116,171,202139,1,0,0:0:0:0:
254,273,203389,2,12,L|364:176,3,134.999995231628
256,172,204324,5,0,0:0:0:0:
0,200,204656,1,0,0:0:0:0:
456,12,205284,1,0,0:0:0:0:
312,256,205949,1,0,0:0:0:0:
88,176,206577,1,0,0:0:0:0:
344,88,207279,1,0,0:0:0:0:
288,300,207796,1,0,0:0:0:0:
64,120,208609,1,0,0:0:0:0:
190,238,208857,1,12,0:0:0:0:
457,92,209248,1,12,0:0:0:0:
251,198,210186,1,12,0:0:0:0:
256,192,210604,12,0,211971,0:0:0:0:
163,158,212295,5,0,0:0:0:0:
206,211,212529,2,0,L|186:120,5,67.4999976158142
248,124,214964,2,0,L|160:292,3,168.749994039535
428,160,216737,2,0,P|136:200|180:336,2,539.999980926514
492,305,219482,2,0,L|252:245,3,236.24999165535
291,222,222686,1,12,0:0:0:0:
340,144,223683,1,0,0:0:0:0:
308,272,224237,1,0,0:0:0:0:
108,156,224865,1,0,0:0:0:0:
376,92,225420,1,0,0:0:0:0:
356,240,226122,1,0,0:0:0:0:
132,272,226861,1,0,0:0:0:0:
272,242,227451,1,12,0:0:0:0:
434,203,228779,1,12,0:0:0:0:
299,367,229014,1,12,0:0:0:0:
260,133,229326,1,12,0:0:0:0:
256,192,229484,12,0,233215,0:0:0:0:
