osu file format v14

[General]
AudioFilename: audio.mp3
AudioLeadIn: 0
PreviewTime: 199666
Countdown: 0
SampleSet: Soft
StackLeniency: 1
Mode: 0
LetterboxInBreaks: 0
WidescreenStoryboard: 1

[Editor]
Bookmarks: 7786,23146,38506,53866,69226,84586,99946,115306,130666,146026,161386,176746,199786,215146
DistanceSpacing: 0.5
BeatDivisor: 4
GridSize: 32
TimelineZoom: 2.4

[Metadata]
Title:California Gurls feat. Snoop Dogg
TitleUnicode:California Gurls feat. Snoop Dogg
Artist:Katy Perry
ArtistUnicode:Katy Perry
Creator:The Honeysticks
Version:Collab Insane
Source:
Tags:pdet ajt girls english snoop dogg pop teenage dream tristan sleepylegosi legosi
BeatmapID:3070123
BeatmapSetID:1480553

[Difficulty]
HPDrainRate:5
CircleSize:4
OverallDifficulty:7
ApproachRate:9
SliderMultiplier:2
SliderTickRate:1

[Events]
//Background and Video events
0,0,"California Gurls.png",0,0
//Break Periods
//Storyboard Layer 0 (Background)
//Storyboard Layer 1 (Fail)
//Storyboard Layer 2 (Pass)
//Storyboard Layer 3 (Foreground)
//Storyboard Layer 4 (Overlay)
//Storyboard Sound Samples

[TimingPoints]
7786,480,4,2,1,50,1,0
21286,-100,4,2,1,5,0,0
21346,-100,4,2,1,50,0,0
21766,-100,4,2,1,5,0,0
21826,-100,4,2,1,50,0,0
36646,-100,4,2,1,5,0,0
36706,-100,4,2,1,50,0,0
37126,-100,4,2,1,5,0,0
37186,-100,4,2,1,50,0,0
38506,-125,4,2,1,40,0,0
51946,-125,4,2,1,40,0,0
52006,-125,4,2,1,5,0,0
52066,-125,4,2,1,40,0,0
52486,-125,4,2,1,5,0,0
52546,-125,4,2,1,40,0,0
53866,-80,4,2,1,60,0,0
67366,-66.6666666666667,4,2,1,5,0,0
67426,-66.6666666666667,4,2,1,60,0,0
67846,-66.6666666666667,4,2,1,5,0,0
67906,-66.6666666666667,4,2,1,60,0,0
69226,-66.6666666666667,4,2,1,70,0,0
81466,-66.6666666666667,4,2,1,70,0,0
82726,-66.6666666666667,4,2,1,5,0,0
82786,-66.6666666666667,4,2,1,70,0,0
83206,-66.6666666666667,4,2,1,5,0,0
83266,-66.6666666666667,4,2,1,70,0,0
84586,-100,4,2,1,55,0,0
98086,-100,4,2,1,5,0,0
98146,-100,4,2,1,55,0,0
98566,-100,4,2,1,5,0,0
98626,-100,4,2,1,55,0,0
99946,-125,4,2,1,45,0,0
113386,-125,4,2,1,45,0,0
113446,-125,4,2,1,5,0,0
113506,-125,4,2,1,45,0,0
113926,-125,4,2,1,5,0,0
113986,-125,4,2,1,45,0,0
115306,-80,4,2,1,65,0,0
128806,-66.6666666666667,4,2,1,5,0,0
128866,-66.6666666666667,4,2,1,65,0,0
129286,-66.6666666666667,4,2,1,5,0,0
129346,-66.6666666666667,4,2,1,65,0,0
130666,-66.6666666666667,4,2,1,75,0,0
144166,-66.6666666666667,4,2,1,5,0,0
144226,-66.6666666666667,4,2,1,50,0,0
144646,-66.6666666666667,4,2,1,5,0,0
144706,-66.6666666666667,4,2,1,65,0,0
146026,-100,4,2,1,50,0,0
149866,-100,4,2,1,50,0,0
151786,-66.6666666666667,4,2,1,50,0,0
153706,-66.6666666666667,4,2,1,60,0,0
167206,-66.6666666666667,4,2,1,5,0,0
167266,-66.6666666666667,4,2,1,60,0,0
167686,-66.6666666666667,4,2,1,5,0,0
167746,-66.6666666666667,4,2,1,60,0,0
169066,-66.6666666666667,4,2,1,70,0,0
182566,-66.6666666666667,4,2,1,5,0,0
182626,-66.6666666666667,4,2,1,70,0,0
183046,-66.6666666666667,4,2,1,5,0,0
183106,-66.6666666666667,4,2,1,70,0,0
184426,-66.6666666666667,4,2,1,75,0,0
197926,-66.6666666666667,4,2,1,5,0,0
197986,-66.6666666666667,4,2,1,75,0,0
198406,-66.6666666666667,4,2,1,5,0,0
198466,-66.6666666666667,4,2,1,75,0,0
199786,-66.6666666666667,4,2,1,80,0,0
213286,-66.6666666666667,4,2,1,5,0,0
213346,-66.6666666666667,4,2,1,80,0,0
213766,-66.6666666666667,4,2,1,5,0,0
213826,-66.6666666666667,4,2,1,80,0,0
215146,-66.6666666666667,4,2,1,70,0,0
228646,-66.6666666666667,4,2,1,5,0,0
228706,-66.6666666666667,4,2,1,80,0,0
229126,-66.6666666666667,4,2,1,5,0,0
229186,-66.6666666666667,4,2,1,80,0,0
230506,-125,4,2,1,40,0,0
231226,-166.666666666667,4,2,1,40,0,0

[Colours]
Combo1 : 238,142,169
Combo2 : 233,182,228
Combo3 : 174,236,235

[HitObjects]
199,128,7786,6,0,B|244:128|239:44|173:17|99:94,1,200,4|8,3:2|0:0,0:0:0:0:
19,219,8626,1,0,3:0:0:0:
32,244,8746,2,0,B|72:272|72:272|138:262,1,100,0|2,3:0|0:0,0:0:0:0:
94,175,9226,1,8,0:0:0:0:
215,261,9466,1,0,0:0:0:0:
111,347,9706,1,0,3:0:0:0:
103,358,10186,6,0,B|170:360|170:360|208:385,1,100,8|0,0:0|0:0,0:0:0:0:
272,384,10546,2,0,B|205:382|205:382|167:357,1,100,2|0,0:0|0:0,0:0:0:0:
238,292,10906,1,2,0:0:0:0:
426,318,11146,1,8,0:0:0:0:
347,384,11386,1,2,0:0:0:0:
509,360,11626,6,0,P|520:297|494:253,1,100,0|2,3:0|0:0,0:0:0:0:
335,176,12106,2,0,P|318:222|331:270,1,100,8|0,0:0|0:0,0:0:0:0:
429,308,12466,1,0,0:0:0:0:
438,319,12586,2,0,B|394:329|394:329|382:345|382:345|331:358,1,100,0|0,3:0|0:0,0:0:0:0:
165,250,13066,2,0,B|209:260|209:260|221:276|221:276|272:289,1,100,8|0,0:0|0:0,0:0:0:0:
68,343,13546,1,0,3:0:0:0:
74,349,14026,6,0,B|72:282|72:282|47:244,1,100,8|0,0:0|0:0,0:0:0:0:
48,180,14386,2,0,B|50:247|50:247|75:285,1,100,2|0,0:0|0:0,0:0:0:0:
139,212,14746,1,2,0:0:0:0:
108,105,14986,2,0,P|56:81|0:93,1,100,8|2,0:0|0:0,0:0:0:0:
172,38,15466,6,0,B|218:17|265:51|265:51|312:4|365:29,1,200,0|8,3:0|0:0,0:0:0:0:
485,128,16306,1,2,0:0:0:0:
472,153,16426,2,0,B|432:181|432:181|366:171,1,100,0|2,3:0|0:0,0:0:0:0:
414,93,16906,1,8,0:0:0:0:
297,166,17146,1,2,0:0:0:0:
386,285,17386,1,0,3:0:0:0:
384,298,17866,6,0,P|327:308|288:351,1,100,8|0,0:0|0:0,0:0:0:0:
209,372,18226,2,0,P|266:362|305:319,1,100,2|0,0:0|0:0,0:0:0:0:
226,283,18586,1,2,0:0:0:0:
368,380,18826,1,8,0:0:0:0:
472,299,19066,1,0,0:0:0:0:
376,199,19306,6,0,P|361:267|343:316,1,100,0|2,3:0|0:0,0:0:0:0:
511,222,19786,2,0,P|495:174|486:125,1,100,8|0,0:0|0:0,0:0:0:0:
433,41,20146,1,0,0:0:0:0:
410,28,20266,2,0,B|361:21|369:73|316:66,1,100,0|0,3:0|0:0,0:0:0:0:
189,21,20746,1,8,0:0:0:0:
255,110,20986,1,0,0:0:0:0:
60,144,21226,5,8,3:1:0:0:
80,372,21706,5,8,0:1:0:0:
60,144,22066,1,0,1:0:0:0:
60,144,22186,6,0,L|67:227,1,50,4|8,3:0|3:1,0:0:0:0:
80,372,22426,1,8,0:1:0:0:
80,372,22666,6,0,L|71:268,1,100,8|4,0:1|3:0,0:0:0:0:
60,144,23146,6,0,P|121:146|147:182,1,100,0|2,3:0|0:0,0:0:0:0:
223,106,23626,2,0,P|269:92|291:48,1,100,8|0,0:0|0:0,0:0:0:0:
379,82,23986,1,0,3:0:0:0:
386,74,24106,2,0,P|445:61|497:49,1,100,0|2,3:0|0:0,0:0:0:0:
360,208,24586,1,8,0:0:0:0:
284,184,24826,1,2,0:0:0:0:
181,323,25066,5,0,3:0:0:0:
181,323,25546,2,0,P|148:271|86:289,1,100,8|0,0:0|0:0,0:0:0:0:
31,207,25906,1,2,0:0:0:0:
40,215,26026,2,0,P|59:154|75:101,1,100,0|2,3:0|0:0,0:0:0:0:
193,58,26506,1,8,0:0:0:0:
226,130,26746,1,2,0:0:0:0:
367,257,26986,6,0,P|325:211|275:222,1,100,0|2,3:0|0:0,0:0:0:0:
436,190,27466,2,0,P|497:177|513:129,1,100,8|0,0:0|0:0,0:0:0:0:
416,25,27826,1,0,0:0:0:0:
406,15,27946,2,0,P|394:76|384:127,1,100,0|2,3:0|0:0,0:0:0:0:
484,311,28426,1,8,0:0:0:0:
484,311,28906,6,0,P|424:313|415:374,1,100,0|0,3:0|0:0,0:0:0:0:
246,232,29386,2,0,P|302:245|368:262,1,100,8|0,0:0|0:0,0:0:0:0:
279,352,29746,1,2,0:0:0:0:
271,342,29866,1,0,3:0:0:0:
195,315,30106,1,2,0:0:0:0:
40,296,30346,1,8,0:0:0:0:
116,269,30586,1,2,0:0:0:0:
198,110,30826,6,0,B|156:88|106:129|145:163|84:186,1,150,2|0,3:2|0:0,0:0:0:0:
51,119,31306,1,8,0:0:0:0:
246,30,31666,1,0,3:0:0:0:
253,39,31786,2,0,P|315:56|358:68,1,100,0|2,3:0|0:0,0:0:0:0:
386,179,32266,2,0,P|434:131|473:141,1,100,8|2,0:0|0:0,0:0:0:0:
318,255,32746,5,0,3:0:0:0:
318,255,33226,2,0,P|270:207|231:217,1,100,8|0,0:0|0:0,0:0:0:0:
178,273,33586,1,2,0:0:0:0:
187,278,33706,2,0,P|214:330|218:377,1,100,0|2,3:0|0:0,0:0:0:0:
252,205,34186,2,0,P|259:155|283:112,1,100,8|2,0:0|0:0,0:0:0:0:
148,18,34666,5,0,3:0:0:0:
72,42,34906,1,2,0:0:0:0:
13,140,35146,2,0,P|32:208|43:252,1,100,8|0,0:0|0:0,0:0:0:0:
108,277,35506,1,0,0:0:0:0:
121,279,35626,2,0,P|157:237|209:252,1,100,0|0,3:0|0:0,0:0:0:0:
289,184,36106,2,0,P|310:226|358:232,1,100,8|0,0:0|0:0,0:0:0:0:
429,353,36586,5,8,3:1:0:0:
501,128,37066,1,8,0:1:0:0:
398,224,37426,5,8,0:1:0:0:
410,257,37546,2,0,P|387:248|364:240,1,50,4|8,3:0|3:1,0:0:0:0:
482,32,37786,6,0,P|435:49|386:55,1,100,4|8,3:0|0:1,0:0:0:0:
288,183,38266,1,2,0:0:0:0:
353,307,38506,6,0,B|403:352|461:328|461:328|461:293|430:282,1,160,0|8,3:0|0:0,0:0:0:0:
351,211,39226,1,2,0:0:0:0:
271,294,39466,2,0,P|216:310|173:312,2,80,0|2|8,3:2|0:0|0:0,0:0:0:0:
353,202,40186,1,2,0:0:0:0:
268,87,40426,6,0,B|229:53|185:100|207:156|275:112|280:179,1,160,0|8,3:0|0:0,0:0:0:0:
406,72,41386,2,0,B|435:30|488:64|482:125|405:98|416:164,1,160,0|8,3:0|0:0,0:0:0:0:
353,202,42106,1,2,0:0:0:0:
307,315,42346,5,0,3:2:0:0:
224,337,42586,1,2,0:0:0:0:
160,247,42826,2,0,L|249:253,1,80,8|0,0:0|0:0,0:0:0:0:
115,326,43306,2,0,L|26:332,1,80,0|0,3:2|0:0,0:0:0:0:
48,169,43786,5,8,0:0:0:0:
70,252,44026,1,2,0:0:0:0:
146,194,44266,2,0,L|152:115,1,80,0|0,3:2|0:0,0:0:0:0:
49,1,44746,2,0,L|55:81,1,80,8|0,0:0|0:0,0:0:0:0:
70,252,45226,2,0,B|141:291|141:291|239:253,1,160,0|8,3:2|0:0,0:0:0:0:
423,295,46186,6,0,B|373:250|315:274|315:274|315:309|346:320,1,160,0|8,3:0|0:0,0:0:0:0:
410,380,46906,1,2,0:0:0:0:
493,335,47146,2,0,B|508:305|508:305|504:235,1,80,0|2,3:2|0:0,0:0:0:0:
383,159,47626,2,0,B|380:205|380:205|395:235,1,80,8|2,0:0|0:0,0:0:0:0:
409,78,48106,6,0,B|367:55|321:76|336:90|283:131|241:86,1,160,0|8,3:0|0:0,0:0:0:0:
245,229,49066,2,0,B|287:206|333:227|318:241|371:282|413:237,1,160,0|8,3:0|0:0,0:0:0:0:
383,159,49786,1,2,0:0:0:0:
482,220,50026,5,0,3:2:0:0:
468,295,50266,1,2,0:0:0:0:
368,353,50506,2,0,P|418:361|464:384,1,80,8|0,0:0|0:0,0:0:0:0:
380,267,50986,2,0,B|318:273|318:273|306:282|296:299|296:299|231:310,1,160,0|8,3:2|0:0,0:0:0:0:
56,339,51706,1,2,0:0:0:0:
126,199,51946,6,0,L|138:298,1,80,8|2,3:1|0:0,0:0:0:0:
9,77,52426,2,0,L|-3:176,1,80,8|2,0:1|0:0,0:0:0:0:
44,266,52786,1,4,3:0:0:0:
70,246,52906,2,0,L|141:262,1,40,8|8,3:1|0:1,0:0:0:0:
117,155,53146,1,4,3:0:0:0:
257,334,53386,2,0,P|203:342|188:384,1,80,8|8,0:1|0:1,0:0:0:0:
345,266,53866,6,0,B|377:287|374:324|374:324|456:338|456:338|467:300|511:288,1,187.5,4|0,1:2|0:0,0:0:0:0:
456,207,54346,2,0,P|437:117|422:42,1,125,8|0,1:0|0:0,0:0:0:0:
276,0,54706,1,2,0:0:0:0:
324,62,54826,2,0,P|263:125|193:83,2,125,0|2|8,1:0|0:0|1:0,0:0:0:0:
165,16,55546,1,2,0:0:0:0:
19,158,55786,6,0,B|17:108|86:88|131:126|131:126|136:161|164:174,1,187.5,0|0,1:0|0:0,0:0:0:0:
237,230,56266,2,0,P|251:313|263:382,1,125,8|2,1:0|0:0,0:0:0:0:
427,166,56746,2,0,P|413:249|401:318,1,125,0|2,1:0|0:0,0:0:0:0:
314,70,57226,5,8,1:0:0:0:
434,12,57466,1,2,0:0:0:0:
417,177,57706,6,0,B|366:149|323:174|307:222|307:222|291:229|291:229|306:272|276:299,1,187.5,0|0,1:0|0:0,0:0:0:0:
212,256,58186,2,0,P|136:225|135:162,1,125,8|0,1:0|0:0,0:0:0:0:
203,0,58546,1,2,0:0:0:0:
212,8,58666,2,0,P|222:85|235:164,1,125,0|2,1:0|0:0,0:0:0:0:
39,129,59146,5,8,1:0:0:0:
80,0,59386,1,2,0:0:0:0:
242,171,59626,6,0,P|232:245|222:321,1,125,0|2,1:0|0:0,0:0:0:0:
292,358,59986,1,0,0:0:0:0:
298,366,60106,2,0,P|339:329|371:339,1,62.5,8|0,1:0|0:0,0:0:0:0:
419,280,60346,2,0,P|439:310|475:320,1,62.5,0|2,3:0|0:0,0:0:0:0:
497,240,60586,2,0,B|521:175|456:135|425:165|400:81,1,187.5,0|2,1:0|0:0,0:0:0:0:
333,27,61066,2,0,P|247:99|221:88,1,125,8|2,1:0|0:0,0:0:0:0:
46,196,61546,6,0,B|58:192|63:156|63:156|181:198|181:198|181:231|206:254,1,187.5,0|0,1:0|0:0,0:0:0:0:
263,203,62026,2,0,P|345:170|415:142,1,125,8|0,1:0|0:0,0:0:0:0:
416,5,62386,1,2,0:0:0:0:
474,53,62506,2,0,B|468:61|468:61|519:212,2,125,0|0|8,1:0|0:0|1:0,0:0:0:0:
397,155,63226,1,2,0:0:0:0:
493,329,63466,6,0,B|501:313|518:308|518:308|482:261|443:255|404:290|404:290|395:330|352:337,1,187.5,0|0,1:0|0:0,0:0:0:0:
320,276,63946,2,0,P|303:261|326:272,1,62.5,8|0,1:0|0:0,0:0:0:0:
250,339,64186,2,0,P|186:359|170:364,1,62.5,2|0,0:0|0:0,0:0:0:0:
111,291,64426,6,0,B|88:267|88:267|135:289,1,62.5,0|0,1:0|0:0,0:0:0:0:
162,192,64666,2,0,B|168:189|168:189|197:201|225:204|225:204|232:209,1,62.5,2|0,0:0|0:0,0:0:0:0:
307,150,64906,2,0,P|396:127|471:107,1,125,8|2,1:0|0:0,0:0:0:0:
241,14,65386,5,0,1:0:0:0:
156,183,65626,6,0,P|84:180|47:241,1,125,2|8,0:0|1:0,0:0:0:0:
239,218,66106,2,0,P|273:280|345:281,1,125,2|0,0:0|1:0,0:0:0:0:
457,120,66586,1,2,0:0:0:0:
329,19,66826,2,0,P|349:96|371:178,1,125,8|2,1:0|0:0,0:0:0:0:
496,296,67306,6,0,P|465:304|409:321,2,62.5,8|0|0,1:0|0:0|0:0,0:0:0:0:
364,249,67666,1,0,0:0:0:0:
352,261,67786,6,0,P|315:250|279:240,2,75.0000028610231,8|0|0,1:0|0:0|0:0,0:0:0:0:
308,347,68146,5,4,3:0:0:0:
222,357,68266,2,0,P|258:346|294:336,1,75.0000028610231,8|8,1:0|1:0,0:0:0:0:
184,252,68506,2,0,B|138:257|141:309|141:309|167:273|185:300|192:251,1,150.000005722046,4|8,3:0|1:0,0:0:0:0:
83,151,68986,1,2,0:0:0:0:
25,298,69226,6,0,B|23:331|47:340|47:340|162:302,1,150.000005722046,4|0,1:2|0:0,0:0:0:0:
345,218,69706,2,0,L|249:204,1,75.0000028610231,8|0,1:0|0:0,0:0:0:0:
188,238,69946,1,2,0:0:0:0:
201,263,70066,1,0,3:0:0:0:
263,320,70186,6,0,B|334:296|323:378|407:359,2,150.000005722046,0|2|8,1:0|0:0|1:0,0:0:0:0:
115,367,70906,1,2,0:0:0:0:
12,196,71146,2,0,B|-2:245|0:295|0:295|16:274|38:265,1,150.000005722046,0|2,1:0|0:0,0:0:0:0:
103,201,71506,1,0,0:0:0:0:
119,194,71626,6,0,P|100:113|70:8,1,150.000005722046,8|2,1:0|0:0,0:0:0:0:
181,28,72106,6,0,L|278:37,1,75.0000028610231,0|0,1:0|0:0,0:0:0:0:
297,125,72346,2,0,L|222:118,1,75.0000028610231,2|0,0:0|0:0,0:0:0:0:
350,18,72586,6,0,P|416:38|508:55,1,150.000005722046,8|0,1:0|0:0,0:0:0:0:
290,216,73066,6,0,P|304:294|402:243,1,225.000008583069,0|0,1:0|0:0,0:0:0:0:
409,258,73546,2,0,P|325:311|275:224,1,225.000008583069,8|2,1:0|0:0,0:0:0:0:
328,160,74026,2,0,P|373:117|386:178,2,150.000005722046,0|2|8,1:0|0:0|1:0,0:0:0:0:
469,206,74746,1,2,0:0:0:0:
460,71,74986,6,0,B|419:65|398:28|398:28|363:49|317:31,1,150.000005722046,0|2,1:0|0:0,0:0:0:0:
183,84,75466,2,0,P|176:105|165:168,1,75.0000028610231,8|0,1:0|0:0,0:0:0:0:
113,238,75706,1,0,0:0:0:0:
78,258,75826,1,2,0:0:0:0:
11,313,75946,2,0,P|90:331|172:375,2,150.000005722046,0|2|8,1:0|0:0|1:0,0:0:0:0:
127,210,76666,1,0,0:0:0:0:
208,305,76906,6,0,B|223:355|223:355|242:339|242:339|259:358|259:358|280:311,1,150.000005722046,0|0,1:0|0:0,0:0:0:0:
408,255,77386,2,0,P|355:273|409:327,1,150.000005722046,8|0,1:0|0:0,0:0:0:0:
481,295,77746,1,2,0:0:0:0:
493,280,77866,2,0,B|506:187|506:187|483:162|451:171,2,150.000005722046,0|2|8,1:0|0:0|1:0,0:0:0:0:
369,363,78586,1,2,0:0:0:0:
284,294,78826,6,0,P|196:295|116:324,1,150.000005722046,0|2,1:0|0:0,0:0:0:0:
54,338,79186,1,0,0:0:0:0:
44,337,79306,2,0,P|23:260|10:237,1,75.0000028610231,8|0,1:0|0:0,0:0:0:0:
117,232,79546,2,0,P|138:155|151:132,1,75.0000028610231,2|0,0:0|0:0,0:0:0:0:
99,70,79786,6,0,P|34:29|33:116,1,150.000005722046,0|2,1:0|0:0,0:0:0:0:
218,153,80266,2,0,P|283:112|284:199,1,150.000005722046,8|2,1:0|0:0,0:0:0:0:
94,250,80746,1,0,1:0:0:0:
252,345,80986,5,2,0:0:0:0:
250,354,81226,6,0,P|224:304|186:273,1,75.0000028610231,8|0,1:0|0:0,0:0:0:0:
165,360,81466,1,2,0:0:0:0:
319,267,81706,6,0,P|345:217|383:186,1,75.0000028610231,0|0,1:0|0:0,0:0:0:0:
404,273,81946,1,2,0:0:0:0:
250,354,82186,1,8,1:0:0:0:
456,372,82426,1,2,0:0:0:0:
461,376,82666,6,0,B|475:268|475:268|443:220,1,150.000005722046,8|2,1:0|0:0,0:0:0:0:
291,155,83146,2,0,B|277:263|277:263|299:297,1,150.000005722046,8|2,1:0|3:2,0:0:0:0:
400,328,83506,1,4,3:0:0:0:
424,346,83626,2,0,L|508:355,1,75.0000028610231,8|8,1:0|1:0,0:0:0:0:
323,384,83866,1,4,3:0:0:0:
512,193,84106,2,0,L|343:215,1,150.000005722046,8|8,1:0|1:0,0:0:0:0:
293,5,84586,6,0,P|313:57|411:47,1,150,4|0,3:1|0:0,0:0:0:0:
469,96,85066,1,8,0:0:0:0:
330,193,85426,1,2,0:0:0:0:
322,185,85546,2,0,P|260:202|211:217,1,100,0|2,3:0|0:0,0:0:0:0:
129,76,86026,1,8,0:0:0:0:
129,76,86506,6,0,P|164:112|218:107,1,100,0|0,3:0|0:0,0:0:0:0:
74,158,86986,2,0,P|24:166|-1:214,1,100,8|0,0:0|0:0,0:0:0:0:
73,266,87346,1,2,0:0:0:0:
70,278,87466,2,0,P|104:320|111:379,1,100,0|2,3:0|0:0,0:0:0:0:
224,305,87946,5,8,0:0:0:0:
251,230,88186,1,2,0:0:0:0:
365,177,88426,6,0,P|382:248|390:286,1,100,0|2,3:0|0:0,0:0:0:0:
242,128,88906,2,0,P|277:65|314:75,1,100,8|0,0:0|0:0,0:0:0:0:
360,10,89266,1,0,0:0:0:0:
368,22,89386,2,0,P|417:52|470:58,2,100,0|0|8,3:0|0:0|0:0,0:0:0:0:
246,236,90346,6,0,P|218:201|151:211,1,100,0|0,3:0|0:0,0:0:0:0:
111,122,90826,2,0,P|49:146|0:166,1,100,8|0,0:0|0:0,0:0:0:0:
75,232,91186,1,2,0:0:0:0:
69,239,91306,2,0,B|83:245|83:245|111:346,1,100,0|2,3:0|0:0,0:0:0:0:
196,374,91786,2,0,P|236:333|292:341,1,100,8|0,0:0|0:0,0:0:0:0:
398,291,92266,6,0,P|400:306|405:288,1,50,0|0,3:0|0:0,0:0:0:0:
322,229,92506,6,0,P|339:173|349:141,1,50,2|0,0:0|0:0,0:0:0:0:
509,133,92746,6,0,P|479:181|437:179,1,100,8|0,0:0|0:0,0:0:0:0:
380,105,93106,1,0,3:0:0:0:
390,96,93226,2,0,P|408:41|397:-15,1,100,0|2,3:0|0:0,0:0:0:0:
219,78,93706,1,8,0:0:0:0:
250,151,93946,1,2,0:0:0:0:
88,273,94186,5,0,3:0:0:0:
134,207,94426,6,0,P|180:235|184:255,1,50,0|0,0:0|0:0,0:0:0:0:
256,255,94666,6,0,P|202:277|194:327,1,100,8|0,0:0|0:0,0:0:0:0:
254,361,95026,1,2,0:0:0:0:
264,373,95146,2,0,P|323:343|379:344,1,100,0|2,3:0|0:0,0:0:0:0:
433,228,95626,2,0,P|385:212|336:195,1,100,8|2,0:0|0:0,0:0:0:0:
217,53,96106,6,0,B|232:44|244:21|244:21|301:37|310:81|278:117,1,150,0|0,3:0|0:0,0:0:0:0:
228,148,96586,1,8,0:0:0:0:
153,122,96826,1,2,0:0:0:0:
39,236,97066,1,0,3:0:0:0:
114,210,97306,1,0,0:0:0:0:
205,319,97546,1,8,0:0:0:0:
205,319,98026,6,0,P|291:337|410:363,1,200,8|8,1:0|1:0,0:0:0:0:
480,316,98866,5,8,3:0:0:0:
480,316,98986,1,8,1:0:0:0:
480,316,99106,2,0,P|501:275|514:248,1,50,8|4,1:0|3:0,0:0:0:0:
365,241,99466,6,0,P|389:266|424:266,1,50,8|0,1:0|0:0,0:0:0:0:
429,184,99706,1,2,0:0:0:0:
512,129,99946,6,0,B|473:123|451:83|451:83|411:114|351:95,1,160,4|8,3:1|0:0,0:0:0:0:
279,56,100666,1,2,0:0:0:0:
268,49,100906,2,0,P|224:33|168:42,1,80,0|2,3:0|0:0,0:0:0:0:
80,95,101386,1,8,0:0:0:0:
126,178,101626,1,2,0:0:0:0:
39,220,101866,6,0,B|13:255|-17:268|-17:268|29:304|60:265,1,160,0|8,3:0|0:0,0:0:0:0:
208,221,102826,2,0,B|234:256|264:269|264:269|218:305|187:266,1,160,0|8,3:0|0:0,0:0:0:0:
126,178,103546,1,2,0:0:0:0:
70,106,103786,5,0,3:0:0:0:
57,20,104026,1,2,0:0:0:0:
189,62,104266,2,0,L|171:155,1,80,8|0,0:0|0:0,0:0:0:0:
60,264,104746,2,0,L|44:185,1,80,0|0,3:0|0:0,0:0:0:0:
174,220,105226,1,8,0:0:0:0:
161,306,105466,1,2,0:0:0:0:
251,364,105706,6,0,B|345:378|345:378|374:358|367:318,1,160,0|8,3:0|0:0,0:0:0:0:
307,235,106426,1,0,0:0:0:0:
373,316,106666,2,0,P|410:333|459:332,1,80,0|0,3:0|0:0,0:0:0:0:
512,195,107146,2,0,P|472:196|436:213,1,80,8|0,0:0|0:0,0:0:0:0:
288,316,107626,6,0,L|119:333,1,160,0|8,3:0|0:0,0:0:0:0:
51,271,108346,1,2,0:0:0:0:
40,257,108586,2,0,P|25:207|26:170,1,80,0|2,3:0|0:0,0:0:0:0:
73,81,109066,1,8,0:0:0:0:
134,160,109306,1,2,0:0:0:0:
226,112,109546,6,0,B|262:79|308:78|308:78|334:108|374:104,1,160,0|8,3:0|0:0,0:0:0:0:
369,216,110506,2,0,B|333:212|307:242|307:242|261:241|225:208,1,160,0|8,3:0|0:0,0:0:0:0:
134,160,111226,1,2,0:0:0:0:
41,233,111466,6,0,L|27:325,1,80,0|2,3:0|0:0,0:0:0:0:
108,363,111946,2,0,P|159:370|199:384,1,80,8|0,0:0|0:0,0:0:0:0:
255,252,112426,2,0,P|233:302|319:300,1,160,0|8,3:0|0:0,0:0:0:0:
430,259,113146,1,2,0:0:0:0:
439,263,113386,6,0,L|445:174,1,80,8|0,1:0|0:0,0:0:0:0:
299,28,113866,2,0,L|305:117,1,80,8|0,1:0|0:0,0:0:0:0:
355,173,114226,1,4,3:0:0:0:
380,190,114346,2,0,L|449:198,1,40,8|8,1:0|1:0,0:0:0:0:
451,104,114586,1,4,3:0:0:0:
491,289,114826,2,0,P|431:306|402:340,1,80,8|8,1:0|1:0,0:0:0:0:
264,233,115306,6,0,B|209:201|251:144|251:144|249:203|303:189|271:253,1,187.5,4|0,1:2|0:0,0:0:0:0:
226,310,115786,2,0,P|148:319|114:401,1,125,8|0,1:0|0:0,0:0:0:0:
129,188,116146,1,0,3:0:0:0:
59,146,116266,2,0,P|96:68|104:-4,2,125,0|2|8,1:0|0:0|1:0,0:0:0:0:
212,32,116986,1,2,0:0:0:0:
287,256,117226,6,0,B|297:236|289:212|289:212|330:156|393:178|393:178|413:219|444:223,1,187.5,0|0,1:0|0:0,0:0:0:0:
477,145,117706,2,0,P|498:59|513:-4,1,125,8|2,1:0|0:0,0:0:0:0:
401,39,118066,1,0,0:0:0:0:
407,47,118186,2,0,P|334:91|238:90,2,125,0|2|8,1:0|0:0|1:0,0:0:0:0:
186,155,118906,2,0,B|181:137|144:136|144:136|159:147|164:161,1,62.5,2|0,0:0|0:0,0:0:0:0:
12,149,119146,6,0,B|66:162|115:132|122:78|122:78|104:33|140:-3,1,187.5,0|0,1:0|0:0,0:0:0:0:
195,49,119626,1,8,1:0:0:0:
26,282,119866,1,0,0:0:0:0:
103,244,119986,1,2,0:0:0:0:
98,252,120106,2,0,B|138:238|171:251|188:292|188:292|180:327|211:348,1,125,0|2,1:0|0:0,0:0:0:0:
344,200,120586,6,0,P|309:301|270:296,1,125,8|2,1:0|0:0,0:0:0:0:
446,150,121066,1,0,1:0:0:0:
295,32,121306,1,2,0:0:0:0:
288,44,121426,1,0,3:0:0:0:
212,66,121546,2,0,P|137:48|61:29,1,125,8|0,1:0|3:0,0:0:0:0:
8,92,121906,1,2,0:0:0:0:
21,100,122026,6,0,P|71:178|72:202,1,62.5,0|0,1:0|3:0,0:0:0:0:
53,264,122266,2,0,P|47:284|42:257,1,62.5,2|0,0:0|0:0,0:0:0:0:
143,225,122506,6,0,B|184:218|157:190|225:174,1,62.5,8|0,1:0|0:0,0:0:0:0:
263,264,122746,2,0,B|269:282|260:302|260:302|283:292|290:262,1,62.5,2|0,0:0|0:0,0:0:0:0:
418,105,122986,6,0,P|344:115|336:185,1,125,0|0,1:0|0:0,0:0:0:0:
335,173,123466,2,0,P|407:209|449:277,1,125,8|2,1:0|0:0,0:0:0:0:
397,336,123826,1,0,0:0:0:0:
389,347,123946,2,0,P|294:366|228:378,2,125,0|2|8,1:0|0:0|1:0,0:0:0:0:
422,110,124666,1,2,0:0:0:0:
223,11,124906,6,0,B|257:-16|314:-2|342:55|342:55|322:81|331:113,1,187.5,0|0,1:0|3:0,0:0:0:0:
288,217,125386,2,0,P|245:231|228:271,1,62.5,8|0,1:0|0:0,0:0:0:0:
156,184,125626,2,0,P|120:175|97:146,1,62.5,2|0,0:0|0:0,0:0:0:0:
28,358,125866,2,0,P|79:299|154:311,2,125,0|2|8,1:0|0:0|1:0,0:0:0:0:
162,192,126586,1,2,0:0:0:0:
27,56,126826,1,0,1:0:0:0:
27,56,127066,6,0,P|87:92|117:73,1,62.5,2|0,0:0|0:0,0:0:0:0:
169,199,127306,2,0,P|193:171|230:167,1,62.5,8|0,1:0|0:0,0:0:0:0:
309,107,127546,6,0,P|327:138|362:150,1,62.5,2|0,0:0|0:0,0:0:0:0:
434,191,127786,2,0,P|450:158|484:145,1,62.5,0|0,1:0|0:0,0:0:0:0:
427,81,128026,5,2,0:0:0:0:
277,288,128266,1,8,1:0:0:0:
277,288,128746,6,0,L|352:267,2,62.5,8|0|0,1:0|0:0|0:0,0:0:0:0:
215,237,129106,1,0,0:0:0:0:
144,310,129226,6,0,L|56:286,2,75.0000028610231,8|0|0,1:0|0:0|0:0,0:0:0:0:
211,229,129586,1,4,3:0:0:0:
119,195,129706,5,8,1:0:0:0:
119,195,129826,1,8,1:0:0:0:
119,195,129946,1,4,3:0:0:0:
262,134,130186,1,8,1:0:0:0:
55,42,130426,1,2,0:0:0:0:
200,251,130666,6,0,B|297:263|297:263|319:239|296:207,1,150.000005722046,4|0,1:2|0:0,0:0:0:0:
61,125,131146,2,0,L|45:215,1,75.0000028610231,8|0,1:0|0:0,0:0:0:0:
79,273,131386,1,0,0:0:0:0:
92,298,131506,1,0,3:0:0:0:
165,346,131626,2,0,B|201:339|232:375|232:375|271:342|307:358,2,150.000005722046,0|2|8,1:0|0:0|1:0,0:0:0:0:
12,366,132346,1,2,0:0:0:0:
111,271,132586,6,0,B|131:166|131:166|92:110,1,150.000005722046,0|2,1:0|0:0,0:0:0:0:
27,76,132946,1,0,3:0:0:0:
14,89,133066,2,0,L|0:179,1,75.0000028610231,8|0,1:0|0:0,0:0:0:0:
86,218,133306,2,0,L|100:128,1,75.0000028610231,2|2,0:0|0:0,0:0:0:0:
166,80,133546,6,0,P|213:64|276:88,1,75.0000028610231,0|0,1:0|0:0,0:0:0:0:
221,165,133786,2,0,P|206:143|225:161,1,75.0000028610231,2|0,0:0|0:0,0:0:0:0:
378,130,134026,6,0,P|331:114|268:138,1,75.0000028610231,8|0,1:0|0:0,0:0:0:0:
325,216,134266,2,0,P|339:194|320:212,1,75.0000028610231,2|0,0:0|0:0,0:0:0:0:
230,256,134506,6,0,B|320:324|320:324|434:253,1,225.000008583069,0|0,1:0|3:0,0:0:0:0:
415,279,134986,2,0,B|319:338|319:338|229:270,1,225.000008583069,8|2,1:0|0:0,0:0:0:0:
264,189,135466,2,0,B|302:184|326:154|326:154|352:192|401:198,2,150.000005722046,0|2|8,1:0|0:0|1:0,0:0:0:0:
404,116,136186,1,2,0:0:0:0:
478,261,136426,6,0,B|493:292|487:314|487:314|325:345,1,150.000005722046,0|2,1:0|0:0,0:0:0:0:
281,264,136906,2,0,P|240:274|205:306,1,75.0000028610231,8|0,1:0|0:0,0:0:0:0:
144,338,137146,1,0,3:0:0:0:
117,349,137266,1,0,3:0:0:0:
44,312,137386,2,0,B|9:265|9:265|46:229|46:168,2,150.000005722046,0|2|8,1:0|0:0|1:0,0:0:0:0:
188,353,138106,1,2,0:0:0:0:
162,225,138346,6,0,B|177:275|177:275|196:259|196:259|213:278|213:278|234:231,1,150.000005722046,0|0,1:0|0:0,0:0:0:0:
370,191,138826,2,0,P|317:209|371:263,1,150.000005722046,8|0,1:0|0:0,0:0:0:0:
444,230,139186,1,2,0:0:0:0:
460,207,139306,2,0,B|473:101|473:101|413:70,2,150.000005722046,0|2|8,1:0|0:0|1:0,0:0:0:0:
331,292,140026,1,2,0:0:0:0:
460,358,140266,1,0,1:0:0:0:
469,364,140506,6,0,P|474:321|496:272,1,75.0000028610231,2|0,0:0|0:0,0:0:0:0:
319,295,140746,2,0,P|314:252|292:203,1,75.0000028610231,8|0,1:0|0:0,0:0:0:0:
458,187,140986,2,0,P|463:144|485:95,1,75.0000028610231,2|0,0:0|0:0,0:0:0:0:
342,71,141226,6,0,P|277:34|257:90,1,150.000005722046,0|2,1:0|0:0,0:0:0:0:
426,160,141706,2,0,P|491:123|511:179,1,150.000005722046,8|2,1:0|0:0,0:0:0:0:
440,310,142186,1,0,1:0:0:0:
433,322,142426,5,2,0:0:0:0:
317,370,142666,2,0,P|304:314|318:280,1,75.0000028610231,8|0,1:0|0:0,0:0:0:0:
347,213,142906,1,2,0:0:0:0:
168,287,143146,2,0,P|181:231|167:197,1,75.0000028610231,0|0,1:0|0:0,0:0:0:0:
138,130,143386,1,2,0:0:0:0:
72,240,143626,5,8,1:0:0:0:
275,285,143866,1,2,0:0:0:0:
269,293,144106,6,0,L|431:318,1,150.000005722046,8|0,1:0|0:0,0:0:0:0:
512,131,144586,2,0,L|350:156,1,150.000005722046,8|2,1:0|3:2,0:0:0:0:
286,117,144946,1,4,3:0:0:0:
263,100,145066,2,0,L|254:25,1,75.0000028610231,8|8,1:0|1:0,0:0:0:0:
353,21,145306,1,4,3:0:0:0:
497,22,145546,2,0,P|423:34|349:49,1,150.000005722046,8|8,1:0|1:0,0:0:0:0:
276,229,146026,6,0,P|225:172|160:196,1,150,4|0,3:1|0:0,0:0:0:0:
90,130,146506,2,0,P|52:181|10:177,1,100,0|0,3:0|0:0,0:0:0:0:
79,263,146866,1,0,3:0:0:0:
89,268,146986,2,0,P|108:339|117:375,1,100,0|2,3:0|0:0,0:0:0:0:
239,319,147466,1,8,0:0:0:0:
239,319,147946,5,0,3:0:0:0:
393,363,148186,6,0,P|351:336|328:345,1,50,2|0,0:0|0:0,0:0:0:0:
441,274,148426,2,0,P|460:189|467:156,1,100,8|0,0:0|0:0,0:0:0:0:
388,120,148786,1,0,3:0:0:0:
379,114,148906,2,0,P|345:149|291:139,1,100,0|2,3:0|0:0,0:0:0:0:
222,17,149386,1,8,0:0:0:0:
295,38,149626,1,2,0:0:0:0:
223,214,149866,6,0,P|183:156|93:181,1,150,0|0,3:0|0:0,0:0:0:0:
56,243,150346,2,0,P|81:309|87:358,1,100,8|0,0:0|0:0,0:0:0:0:
175,366,150706,1,0,3:0:0:0:
185,355,150826,5,0,3:0:0:0:
281,336,151066,1,2,0:0:0:0:
158,271,151306,1,8,0:0:0:0:
377,180,151786,5,8,1:0:0:0:
323,125,151906,2,0,P|283:136|210:156,1,75.0000028610231,8|0,1:0|0:0,0:0:0:0:
228,35,152146,5,4,3:0:0:0:
175,87,152266,2,0,P|135:75|62:56,1,75.0000028610231,8|0,1:0|0:0,0:0:0:0:
128,243,152506,5,4,3:0:0:0:
76,173,152626,2,0,P|36:184|-37:204,1,75.0000028610231,8|0,1:0|3:0,0:0:0:0:
189,188,152866,5,4,3:0:0:0:
139,254,152986,2,0,P|179:265|252:285,1,75.0000028610231,8|0,1:0|0:0,0:0:0:0:
323,218,153226,5,8,1:0:0:0:
352,142,153346,1,8,1:0:0:0:
413,82,153466,5,8,1:0:0:0:
387,9,153586,1,8,1:0:0:0:
387,9,153706,6,0,B|336:-19|274:17|273:81|273:81|290:127|239:161,1,225.000008583069,4|0,3:2|3:0,0:0:0:0:
126,45,154186,2,0,P|174:99|203:88,1,75.0000028610231,8|0,0:0|0:0,0:0:0:0:
77,199,154426,2,0,P|71:229|60:281,1,75.0000028610231,2|0,0:0|0:0,0:0:0:0:
289,322,154666,2,0,P|236:262|169:286,1,150.000005722046,0|2,3:0|0:0,0:0:0:0:
251,173,155026,1,0,0:0:0:0:
321,209,155146,2,0,P|401:185|473:167,1,150.000005722046,8|0,0:0|0:0,0:0:0:0:
438,17,155626,6,0,B|404:0|367:17|355:58|355:58|365:97|335:110,1,150.000005722046,0|0,3:0|0:0,0:0:0:0:
174,139,155986,1,2,0:0:0:0:
174,139,156106,2,0,P|214:69|288:89,1,150.000005722046,8|0,0:0|0:0,0:0:0:0:
171,361,156466,1,2,0:0:0:0:
109,315,156586,2,0,P|97:233|60:169,2,150.000005722046,0|2|8,3:0|0:0|0:0,0:0:0:0:
317,273,157306,2,0,B|333:248|362:244|362:244|351:252|347:262,1,75.0000028610231,2|0,0:0|0:0,0:0:0:0:
471,310,157546,6,0,B|418:307|380:260|401:198|401:198|441:173|430:123,1,225.000008583069,2|0,3:1|0:0,0:0:0:0:
326,67,158026,2,0,P|364:132|413:122,1,75.0000028610231,8|2,0:0|0:0,0:0:0:0:
243,25,158266,1,0,3:0:0:0:
235,37,158386,1,0,0:0:0:0:
156,52,158506,6,0,P|69:36|0:23,1,150.000005722046,0|2,3:0|0:0,0:0:0:0:
108,199,158866,2,0,P|161:138|238:170,1,150.000005722046,0|0,3:0|0:0,0:0:0:0:
92,332,159226,2,0,P|68:267|-9:299,1,150.000005722046,2|0,0:0|3:0,0:0:0:0:
252,174,159586,2,0,P|232:242|218:328,1,150.000005722046,2|0,0:0|0:0,0:0:0:0:
440,249,159946,2,0,P|476:237|511:226,1,75.0000028610231,8|0,0:0|0:0,0:0:0:0:
367,94,160186,5,0,0:0:0:0:
375,103,160306,1,2,0:0:0:0:
452,140,160426,2,0,P|477:19|508:-20,2,150.000005722046,0|2|8,3:0|0:0|0:0,0:0:0:0:
266,207,161146,1,2,0:0:0:0:
433,287,161386,6,0,B|436:268|432:248|432:248|370:228|328:289,1,150.000005722046,0|0,3:0|0:0,0:0:0:0:
268,345,161746,1,0,3:0:0:0:
250,355,161866,2,0,B|200:380|134:366|134:366|146:326,1,150.000005722046,8|0,0:0|0:0,0:0:0:0:
95,262,162226,1,2,0:0:0:0:
85,254,162346,2,0,B|72:279|72:279|74:300|74:300|65:340,1,75.0000028610231,0|0,3:0|0:0,0:0:0:0:
178,269,162586,2,0,B|170:200|170:200|161:185|161:185|152:104,2,150.000005722046,2|8|2,0:0|0:0|0:0,0:0:0:0:
251,312,163186,1,0,0:0:0:0:
265,325,163306,6,0,P|348:339|417:371,1,150.000005722046,0|0,3:0|0:0,0:0:0:0:
472,303,163666,1,0,3:0:0:0:
461,290,163786,2,0,B|426:257|423:221|423:221|405:255|360:265,1,150.000005722046,8|2,0:0|0:0,0:0:0:0:
349,183,164146,1,0,0:0:0:0:
336,159,164266,2,0,B|304:151|304:151|287:157|287:157|253:149,1,75.0000028610231,0|0,3:0|0:0,0:0:0:0:
356,73,164506,2,0,B|412:88|412:88|441:125|441:125|491:136,2,150.000005722046,2|8|2,0:0|0:0|0:0,0:0:0:0:
291,29,165106,1,0,0:0:0:0:
238,94,165226,6,0,P|156:109|127:55,1,150.000005722046,0|2,3:0|0:0,0:0:0:0:
41,22,165586,1,0,0:0:0:0:
53,40,165706,2,0,B|64:128|-5:87|7:181,1,150.000005722046,8|2,0:0|0:0,0:0:0:0:
58,239,166066,1,2,0:0:0:0:
118,303,166186,6,0,B|145:314|173:298|173:298|185:273|209:258|209:258|227:280|270:276,1,150.000005722046,0|2,3:0|0:0,0:0:0:0:
274,266,166546,1,0,0:0:0:0:
307,275,166666,2,0,B|323:279|341:257|341:257|365:272|377:297|377:297|403:313|432:302,1,150.000005722046,8|0,0:0|3:0,0:0:0:0:
486,148,167146,6,0,B|499:261|499:261|462:219,1,150.000005722046,8|0,1:0|3:0,0:0:0:0:
279,42,167626,2,0,B|266:155|266:155|303:113,1,150.000005722046,8|2,1:0|3:2,0:0:0:0:
362,80,167986,1,4,3:0:0:0:
454,118,168106,1,8,1:0:0:0:
454,118,168226,1,8,1:0:0:0:
454,118,168346,1,4,3:0:0:0:
358,207,168586,1,8,1:0:0:0:
436,361,168826,1,8,1:0:0:0:
468,271,169066,6,0,P|387:279|342:336,1,150.000005722046,4|0,1:2|0:0,0:0:0:0:
259,361,169426,1,0,3:0:0:0:
246,349,169546,2,0,B|139:338|139:338|85:372,1,150.000005722046,8|0,1:0|0:0,0:0:0:0:
78,280,169906,1,2,0:0:0:0:
60,258,170026,2,0,L|50:184,2,75.0000028610231,0|0|2,1:0|0:0|0:0,0:0:0:0:
31,100,170506,2,0,B|108:83|96:158|169:144,1,150.000005722046,8|0,1:0|0:0,0:0:0:0:
245,45,170986,6,0,L|341:23,1,75.0000028610231,0|0,1:0|0:0,0:0:0:0:
391,130,171226,2,0,L|295:108,1,75.0000028610231,2|0,0:0|0:0,0:0:0:0:
198,37,171466,2,0,L|404:-10,1,150.000005722046,8|0,1:0|0:0,0:0:0:0:
416,50,171826,1,2,0:0:0:0:
471,115,171946,6,0,L|493:211,1,75.0000028610231,0|0,1:0|0:0,0:0:0:0:
386,261,172186,2,0,L|408:165,1,75.0000028610231,2|2,0:0|0:0,0:0:0:0:
479,68,172426,2,0,L|526:274,1,150.000005722046,8|2,1:0|0:0,0:0:0:0:
481,286,172786,1,0,0:0:0:0:
419,343,172906,6,0,P|379:347|346:375,1,75.0000028610231,0|0,1:0|0:0,0:0:0:0:
250,306,173146,2,0,P|290:302|323:274,1,75.0000028610231,0|0,0:0|3:0,0:0:0:0:
258,217,173386,1,8,1:0:0:0:
136,308,173626,6,0,L|116:397,1,75.0000028610231,2|0,0:0|0:0,0:0:0:0:
41,308,173866,2,0,L|21:219,1,75.0000028610231,0|0,1:0|3:0,0:0:0:0:
111,221,174106,1,2,0:0:0:0:
15,115,174346,6,0,B|52:95|52:95|106:115,1,75.0000028610231,8|0,1:0|0:0,0:0:0:0:
165,23,174586,2,0,B|128:43|128:43|74:23,1,75.0000028610231,0|0,0:0|3:0,0:0:0:0:
181,106,174826,1,0,1:0:0:0:
297,200,175066,6,0,L|376:210,1,75.0000028610231,2|0,0:0|0:0,0:0:0:0:
405,280,175306,2,0,B|385:210|385:210|427:129,1,150.000005722046,8|0,1:0|3:0,0:0:0:0:
478,77,175666,1,0,0:0:0:0:
411,30,175786,1,0,1:0:0:0:
392,25,175906,1,0,0:0:0:0:
368,34,176026,1,0,0:0:0:0:
309,88,176266,1,8,1:0:0:0:
135,49,176506,1,2,0:0:0:0:
0,201,176746,6,0,B|20:142|82:123|134:158|134:158|137:193|172:207,1,225.000008583069,0|0,1:0|0:0,0:0:0:0:
268,90,177226,2,0,P|250:122|216:136,1,75.0000028610231,8|0,1:0|0:0,0:0:0:0:
129,307,177466,1,2,0:0:0:0:
136,319,177586,1,0,0:0:0:0:
208,358,177706,2,0,P|230:272|274:202,1,150.000005722046,0|2,1:0|0:0,0:0:0:0:
487,225,178186,6,0,B|452:213|439:168|439:168|381:153|351:202|351:202|361:234|330:261,1,225.000008583069,10|0,1:0|0:0,0:0:0:0:
249,141,178666,6,0,B|204:159|155:134|152:74|152:74|140:64|140:64|164:17|122:-22,1,225.000008583069,0|0,1:0|3:0,0:0:0:0:
6,52,179146,2,0,P|55:45|78:-1,1,75.0000028610231,8|0,1:0|0:0,0:0:0:0:
100,169,179386,2,0,P|60:139|11:155,1,75.0000028610231,2|0,0:0|0:0,0:0:0:0:
226,46,179626,2,0,P|317:29|387:14,1,150.000005722046,0|2,1:0|0:0,0:0:0:0:
473,204,180106,5,8,1:0:0:0:
379,156,180346,6,0,B|377:131|401:124|401:124|389:144|400:150|384:163,1,75.0000028610231,2|0,0:1|0:0,0:0:0:0:
442,324,180586,2,0,P|387:260|317:283,1,150.000005722046,2|0,1:0|0:0,0:0:0:0:
282,336,180946,1,2,0:0:0:0:
238,233,181066,6,0,P|217:263|182:274,1,75.0000028610231,8|0,1:0|0:0,0:0:0:0:
126,346,181306,2,0,P|101:318|65:311,1,75.0000028610231,2|0,0:0|0:0,0:0:0:0:
66,218,181546,2,0,B|60:199|71:179|71:179|32:166|-21:196|7:263,1,150.000005722046,0|2,1:0|0:0,0:0:0:0:
133,96,182026,1,8,1:0:0:0:
104,22,182266,1,2,0:0:0:0:
254,75,182506,5,8,1:0:0:0:
225,149,182746,1,0,3:0:0:0:
319,164,182986,5,8,1:0:0:0:
374,285,183226,2,0,L|401:191,1,75.0000028610231,2|4,3:2|3:0,0:0:0:0:
502,138,183466,5,8,1:0:0:0:
502,138,183586,1,8,1:0:0:0:
502,138,183706,1,4,3:0:0:0:
308,175,183946,1,8,1:0:0:0:
489,247,184186,1,8,1:0:0:0:
280,71,184426,6,0,B|285:53|304:44|304:44|262:14|211:23|185:68|185:68|216:92|204:136,1,225.000008583069,4|0,1:2|0:0,0:0:0:0:
27,65,184906,2,0,P|94:138|145:110,1,150.000005722046,8|0,1:0|0:0,0:0:0:0:
198,195,185266,1,0,3:0:0:0:
189,204,185386,2,0,P|173:259|141:360,2,150.000005722046,0|0|8,1:0|0:0|1:0,0:0:0:0:
57,293,186106,1,2,0:0:0:0:
252,374,186346,6,0,P|316:303|363:329,1,150.000005722046,0|2,1:0|0:0,0:0:0:0:
431,259,186706,1,0,0:0:0:0:
421,251,186826,2,0,P|399:172|377:92,2,150.000005722046,8|2|0,1:0|0:0|1:0,0:0:0:0:
268,139,187546,1,2,0:0:0:0:
352,31,187786,1,8,1:0:0:0:
508,123,188026,2,0,B|472:139|472:139|514:131,1,75.0000028610231,2|0,0:0|0:0,0:0:0:0:
307,219,188266,6,0,B|285:167|227:157|181:190|181:190|178:239|138:250,1,225.000008583069,0|0,1:0|0:0,0:0:0:0:
83,180,188746,2,0,B|36:171|40:129|40:129|62:160|92:148|94:186,1,150.000005722046,8|0,1:0|0:0,0:0:0:0:
10,318,189106,5,0,3:0:0:0:
18,326,189226,2,0,P|112:326|125:381,2,150.000005722046,0|2|8,1:0|0:0|1:0,0:0:0:0:
142,239,189946,1,2,0:0:0:0:
247,338,190186,6,0,P|327:303|408:269,1,150.000005722046,0|2,1:0|0:0,0:0:0:0:
351,148,190666,2,0,B|359:132|378:126|378:126|336:99|290:129|285:177,1,150.000005722046,8|0,1:0|3:0,0:0:0:0:
409,202,191026,1,2,0:0:0:0:
420,207,191146,2,0,P|490:157|480:102,1,150.000005722046,0|2,1:0|0:0,0:0:0:0:
383,12,191506,1,0,0:0:0:0:
375,6,191626,2,0,P|286:47|212:52,1,150.000005722046,8|2,1:0|0:0,0:0:0:0:
0,193,192106,6,0,B|42:195|57:145|57:145|103:122|142:161|142:161|129:201|162:225,1,225.000008583069,0|0,1:0|3:0,0:0:0:0:
217,183,192586,2,0,P|292:137|310:149,1,75.0000028610231,8|0,1:0|0:0,0:0:0:0:
340,108,192826,2,0,P|363:136|399:142,1,75.0000028610231,2|0,0:0|0:0,0:0:0:0:
512,274,193066,2,0,B|478:276|448:252|448:207|448:207|477:181|472:146,2,150.000005722046,0|2|8,1:0|0:0|1:0,0:0:0:0:
374,351,193786,1,2,0:0:0:0:
230,232,194026,6,0,P|280:293|343:267,1,150.000005722046,0|2,1:0|0:0,0:0:0:0:
219,221,194386,1,0,3:0:0:0:
139,272,194506,2,0,P|131:269|144:281,1,75.0000028610231,8|0,1:0|0:0,0:0:0:0:
31,211,194746,2,0,P|39:208|26:220,1,75.0000028610231,2|0,0:0|0:0,0:0:0:0:
133,103,194986,6,0,P|176:143|230:118,1,75.0000028610231,0|0,1:0|0:0,0:0:0:0:
57,49,195226,2,0,P|4:74|8:134,1,75.0000028610231,2|0,0:0|0:0,0:0:0:0:
164,6,195466,2,0,P|258:38|334:64,1,150.000005722046,8|2,1:0|0:0,0:0:0:0:
408,214,195946,5,0,1:0:0:0:
331,176,196186,6,0,B|311:142|311:142|345:169,1,75.0000028610231,2|0,0:0|0:0,0:0:0:0:
424,119,196426,6,0,B|463:118|463:118|423:134,1,75.0000028610231,8|0,1:0|0:0,0:0:0:0:
431,227,196666,6,0,B|411:261|411:261|417:218,1,75.0000028610231,2|2,0:0|0:0,0:0:0:0:
218,346,196906,2,0,P|293:277|338:305,1,150.000005722046,0|2,1:0|0:0,0:0:0:0:
174,213,197386,5,8,1:0:0:0:
101,243,197626,1,2,0:0:0:0:
32,107,197866,6,0,L|56:13,1,75.0000028610231,8|0,1:0|0:0,0:0:0:0:
128,96,198106,1,2,0:0:0:0:
300,73,198346,6,0,L|276:-21,1,75.0000028610231,8|0,1:0|0:0,0:0:0:0:
225,134,198586,5,2,3:2:0:0:
225,134,198706,1,4,3:0:0:0:
352,173,198826,5,8,1:0:0:0:
352,173,198946,1,8,1:0:0:0:
352,173,199066,1,4,3:0:0:0:
121,214,199306,1,8,1:0:0:0:
313,289,199546,1,8,1:0:0:0:
464,150,199786,6,0,B|478:72|478:72|458:38|409:39,1,150.000005722046,4|0,1:2|0:0,0:0:0:0:
276,109,200266,2,8,P|242:124|206:118,1,75.0000028610231,8|0,1:0|0:0,0:0:0:0:
141,73,200506,1,0,0:0:0:0:
117,61,200626,1,0,3:0:0:0:
41,92,200746,2,0,P|21:210|10:299,2,150.000005722046,0|2|8,1:0|0:0|1:0,0:0:0:0:
211,18,201466,1,2,0:0:0:0:
321,87,201706,6,0,B|288:117|288:117|301:222,1,150.000005722046,0|2,1:0|0:0,0:0:0:0:
358,308,202066,1,0,0:0:0:0:
431,365,202186,2,0,P|446:300|430:263,1,75.0000028610231,8|0,1:0|0:0,0:0:0:0:
271,298,202426,2,0,P|269:335|284:369,1,75.0000028610231,2|0,0:0|0:0,0:0:0:0:
402,232,202666,6,0,P|411:167|427:132,1,75.0000028610231,0|0,1:0|0:0,0:0:0:0:
466,106,202906,2,0,B|426:112|426:112|392:89,1,75.0000028610231,2|0,0:0|0:0,0:0:0:0:
267,149,203146,6,0,P|258:84|242:49,1,75.0000028610231,8|0,1:0|0:0,0:0:0:0:
203,23,203386,2,0,B|243:29|243:29|277:6,1,75.0000028610231,2|0,0:0|0:0,0:0:0:0:
350,69,203626,6,0,B|381:99|381:99|362:227|362:227|314:246,1,225.000008583069,0|0,1:0|3:0,0:0:0:0:
329,251,204106,2,0,B|376:231|376:231|396:103|396:103|364:73,1,225.000008583069,8|2,1:0|0:0,0:0:0:0:
254,69,204586,2,0,B|243:111|243:111|222:131|222:131|232:163|232:163|224:231,2,150.000005722046,0|2|8,1:0|0:0|1:0,0:0:0:0:
310,151,205306,1,2,0:0:0:0:
284,276,205546,6,0,B|248:267|214:298|214:298|191:254|137:258,1,150.000005722046,0|2,1:0|0:0,0:0:0:0:
1,348,206026,2,0,B|23:366|23:366|83:350,1,75.0000028610231,8|0,1:0|0:0,0:0:0:0:
154,308,206266,1,0,3:0:0:0:
180,317,206386,1,0,0:0:0:0:
259,365,206506,2,0,B|314:359|322:354|322:354|340:328|340:328|348:322|404:317,2,150.000005722046,0|2|8,1:0|0:0|1:0,0:0:0:0:
147,291,207226,1,2,0:0:0:0:
0,332,207466,6,0,B|15:382|15:382|34:366|34:366|51:385|51:385|72:338,1,150.000005722046,0|0,1:0|0:0,0:0:0:0:
157,215,207946,2,0,P|104:233|158:287,1,150.000005722046,8|2,1:0|0:0,0:0:0:0:
234,258,208306,1,2,0:0:0:0:
252,241,208426,2,0,B|330:252|330:252|351:279|351:279|402:290,2,150.000005722046,0|2|8,1:0|0:0|1:0,0:0:0:0:
399,210,209146,1,2,0:0:0:0:
282,325,209386,1,0,1:0:0:0:
272,319,209626,6,0,P|259:279|236:238,1,75.0000028610231,2|0,0:0|0:0,0:0:0:0:
405,201,209866,2,0,P|418:161|441:120,1,75.0000028610231,8|0,1:0|0:0,0:0:0:0:
295,97,210106,2,0,P|282:57|259:16,1,75.0000028610231,2|2,0:0|0:0,0:0:0:0:
396,47,210346,6,0,B|444:36|483:21|483:21|488:73|443:62,1,150.000005722046,0|2,1:0|0:0,0:0:0:0:
314,183,210826,2,0,B|264:174|227:157|227:157|222:209|267:198,1,150.000005722046,8|2,1:0|0:0,0:0:0:0:
301,363,211306,5,0,1:0:0:0:
400,333,211546,1,2,0:0:0:0:
476,230,211786,6,0,L|484:142,2,75.0000028610231,8|0|2,1:0|0:0|0:0,0:0:0:0:
287,34,212266,2,0,L|293:108,2,75.0000028610231,0|0|2,1:0|0:0|0:0,0:0:0:0:
395,68,212746,1,8,1:0:0:0:
189,78,212986,1,2,0:0:0:0:
33,213,213226,6,0,B|15:325|15:325|48:299,1,150.000005722046,8|2,1:0|0:0,0:0:0:0:
236,146,213706,2,0,B|254:258|254:258|221:232,1,150.000005722046,8|2,1:0|3:2,0:0:0:0:
155,184,214066,1,4,3:0:0:0:
82,218,214186,1,8,1:0:0:0:
71,190,214306,1,8,1:0:0:0:
79,163,214426,1,4,3:0:0:0:
205,74,214666,1,8,1:0:0:0:
44,27,214906,1,8,1:0:0:0:
262,132,215146,6,0,B|288:114|288:77|288:77|382:63|382:63|401:107|427:112,1,225.000008583069,4|0,1:2|3:0,0:0:0:0:
394,201,215626,2,0,P|379:268|361:349,1,150.000005722046,8|0,1:0|0:0,0:0:0:0:
277,370,215986,1,2,0:0:0:0:
277,370,216106,2,0,P|216:330|195:342,1,75.0000028610231,0|0,1:0|0:0,0:0:0:0:
175,251,216346,2,0,P|156:282|121:293,1,75.0000028610231,2|0,0:0|0:0,0:0:0:0:
59,220,216586,2,0,P|84:170|99:69,1,150.000005722046,8|0,1:0|0:0,0:0:0:0:
181,19,216946,1,0,0:0:0:0:
316,121,217066,6,0,B|317:77|288:60|253:62|253:62|238:94|195:90,1,150.000005722046,0|2,1:0|0:0,0:0:0:0:
346,2,217426,1,2,0:0:0:0:
346,2,217546,2,0,P|391:16|436:30,1,75.0000028610231,8|0,1:0|0:0,0:0:0:0:
476,101,217786,2,0,B|484:129|458:136|458:136|473:113|460:90,1,75.0000028610231,2|2,0:0|0:0,0:0:0:0:
320,261,218026,2,0,P|363:204|433:219,1,150.000005722046,0|2,1:0|0:0,0:0:0:0:
270,335,218386,1,2,0:0:0:0:
206,288,218506,2,0,B|174:292|149:271|148:239|148:239|139:235|139:235|157:204|138:177,1,150.000005722046,8|2,1:0|0:0,0:0:0:0:
43,124,218866,1,0,3:0:0:0:
88,57,218986,6,0,P|165:64|200:0,1,150.000005722046,0|0,1:0|0:0,0:0:0:0:
96,48,219346,1,0,3:0:0:0:
156,176,219466,2,0,P|253:195|327:213,1,150.000005722046,8|2,1:0|0:0,0:0:0:0:
417,129,219826,1,0,0:0:0:0:
337,57,219946,2,0,P|285:98|267:84,1,75.0000028610231,0|0,1:0|0:0,0:0:0:0:
418,17,220186,2,0,P|472:54|464:76,1,75.0000028610231,2|0,0:0|0:0,0:0:0:0:
360,283,220426,2,0,P|408:222|483:255,1,150.000005722046,8|2,1:0|0:0,0:0:0:0:
261,328,220906,6,0,B|238:327|225:356|225:356|162:341|162:341|163:308|140:296,1,150.000005722046,0|2,1:0|0:0,0:0:0:0:
27,284,221266,1,2,0:0:0:0:
27,284,221386,2,0,P|53:331|97:332,1,75.0000028610231,8|0,1:0|0:0,0:0:0:0:
126,229,221626,2,0,P|117:182|125:149,1,75.0000028610231,2|2,0:0|0:0,0:0:0:0:
248,30,221866,2,0,B|239:67|207:91|171:86|171:86|143:64|105:88,1,150.000005722046,0|2,1:0|0:0,0:0:0:0:
269,173,222226,1,0,0:0:0:0:
332,126,222346,2,0,P|394:109|493:80,1,150.000005722046,8|2,1:0|0:0,0:0:0:0:
230,260,222706,1,0,0:0:0:0:
168,212,222826,6,0,B|156:201|155:187|155:187|115:183|69:207|66:255|66:255|96:295|69:339,1,225.000008583069,0|2,1:0|0:0,0:0:0:0:
162,378,223306,2,0,P|215:349|309:330,1,150.000005722046,8|2,1:0|0:0,0:0:0:0:
357,246,223666,1,2,0:0:0:0:
357,246,223786,2,0,P|396:295|426:290,1,75.0000028610231,0|0,1:0|0:0,0:0:0:0:
305,149,224026,2,0,P|258:163|215:176,1,75.0000028610231,2|0,0:0|0:0,0:0:0:0:
378,64,224266,2,0,B|410:37|455:64|463:98|463:98|440:102|427:117,1,150.000005722046,8|2,1:0|0:0,0:0:0:0:
296,12,224746,6,0,P|197:34|129:49,1,150.000005722046,0|2,1:0|0:0,0:0:0:0:
97,120,225106,1,2,0:0:0:0:
97,120,225226,2,0,P|51:82|17:89,1,75.0000028610231,8|0,1:0|0:0,0:0:0:0:
156,194,225466,2,0,P|135:224|99:234,1,75.0000028610231,2|2,0:0|0:0,0:0:0:0:
239,332,225706,6,0,B|228:295|278:260|278:278|326:276|332:221,1,150.000005722046,0|0,1:0|0:0,0:0:0:0:
379,376,226066,1,0,3:0:0:0:
313,339,226186,6,0,B|332:307|293:260|289:277|243:262|251:216,1,150.000005722046,8|2,1:0|0:0,0:0:0:0:
266,112,226546,1,0,0:0:0:0:
346,69,226666,6,0,P|370:131|446:126,1,150.000005722046,0|2,1:0|0:0,0:0:0:0:
248,104,227146,2,0,P|182:116|91:131,1,150.000005722046,8|2,1:0|0:0,0:0:0:0:
32,263,227506,1,2,0:0:0:0:
105,230,227626,2,0,P|114:290|159:367,2,150.000005722046,0|2|8,1:0|0:0|1:0,0:0:0:0:
9,349,228346,1,2,0:0:0:0:
222,268,228586,6,0,P|270:280|326:293,1,75.0000028610231,8|0,1:0|0:0,0:0:0:0:
360,244,228826,1,2,0:0:0:0:
482,153,229066,6,0,P|434:165|378:178,1,75.0000028610231,8|0,1:0|0:0,0:0:0:0:
307,105,229306,5,4,3:0:0:0:
307,105,229426,1,4,3:0:0:0:
198,129,229546,5,8,1:0:0:0:
198,129,229666,1,8,1:0:0:0:
198,129,229786,1,4,3:0:0:0:
90,137,230026,5,8,1:0:0:0:
287,198,230266,1,8,1:0:0:0:
94,336,230506,6,0,P|124:283|216:289,1,160,6|0,0:0|0:0,0:0:0:0:
283,209,231226,2,0,P|313:260|426:249,1,179.999994506836,2|0,0:0|0:0,0:0:0:0:
