osu file format v14

[General]
AudioFilename: audio.mp3
AudioLeadIn: 0
PreviewTime: 60278
Countdown: 0
SampleSet: Normal
StackLeniency: 0.7
Mode: 1
LetterboxInBreaks: 0
WidescreenStoryboard: 0

[Editor]
Bookmarks: 14586,19586,29586,39586,49586,60336,68336,76961,86961,91158,98658,101658,105371,110268,118105
DistanceSpacing: 1.4
BeatDivisor: 16
GridSize: 32
TimelineZoom: 2.038402

[Metadata]
Title:Charlie Dash!
TitleUnicode:チャーリー ダッシュ!
Artist:Katsuro Tajima
ArtistUnicode:田島勝朗
Creator:Midnaait
Version:komasy's Inner Oni!
Source:太鼓の達人
Tags:BNSI Taiko no Tatsujin Vバージョン オリジナルサウンドトラック ベビーカステラ Csárdás Czardas Vittorio Monti Classical Arrangement Videogame Instrumental komasy
BeatmapID:2304840
BeatmapSetID:1100294

[Difficulty]
HPDrainRate:6
CircleSize:7
OverallDifficulty:6.6
ApproachRate:10
SliderMultiplier:1.4
SliderTickRate:1

[Events]
//Background and Video events
0,0,"bg.jpg",0,0
//Break Periods
//Storyboard Layer 0 (Background)
//Storyboard Layer 1 (Fail)
//Storyboard Layer 2 (Pass)
//Storyboard Layer 3 (Foreground)
//Storyboard Layer 4 (Overlay)
//Storyboard Sound Samples

[TimingPoints]
384,375,4,1,0,75,1,0
384,-166.666666666667,4,1,0,75,0,0
1134,400,4,1,0,75,1,8
1134,-156.25,4,1,0,75,0,0
1934,413.793103448276,4,1,0,75,1,0
1934,-151.041667925347,4,1,0,75,0,0
2347,468.75,4,1,0,75,1,8
2347,-133.333333333333,4,1,0,75,0,8
2815,555.555555555556,4,1,0,75,1,8
2815,-112.500112500112,4,1,0,75,0,0
3370,722.89156626506,4,1,0,75,1,8
3370,-86.4583337836371,4,1,0,75,0,0
4092,1224.48979591837,4,1,0,75,1,0
4092,-51.0416666684744,4,1,0,75,0,0
5316,1200,4,1,0,75,1,8
5316,-52.0833333333333,4,1,0,75,0,0
7716,625,4,1,0,75,1,0
14591,625,4,1,0,75,1,0
57062,-100,4,1,0,75,0,0
57374,-97.9020568243118,4,1,0,75,0,0
57687,-95.8904240945786,4,1,0,75,0,0
57843,-94.9152928468988,4,1,0,75,0,0
58155,-93.0232558139535,4,1,0,75,0,0
58312,-92.1052873961283,4,1,0,75,0,0
58468,-91.2051760761527,4,1,0,75,0,0
58624,-90.3225689906363,4,1,0,75,0,0
58780,-89.4568804417738,4,1,0,75,0,0
58937,-88.6076285851754,4,1,0,75,0,0
59591,250,3,1,0,75,1,0
59591,-114.285714285714,3,1,0,75,0,0
60341,250,4,1,0,75,1,1
75841,-100,4,1,0,75,0,0
76341,625,4,1,0,75,1,8
76341,-50,4,1,0,75,0,0
76549,-52.6315789473684,4,1,0,75,0,0
76757,-55.5555555555556,4,1,0,75,0,0
76966,625,4,1,0,75,1,0
76966,-58.8235294117647,4,1,0,75,0,0
77341,-64.5161290322581,4,1,0,75,0,0
77550,-66.6666666666667,4,1,0,75,0,0
77966,-74.0740740740741,4,1,0,75,0,0
78175,-76.9230769230769,4,1,0,75,0,0
78591,-86.9565217391304,4,1,0,75,0,0
78800,-90.9090909090909,4,1,0,75,0,0
79216,-100,4,1,0,75,0,0
86966,193.548387096774,4,1,0,75,1,0
86966,-111.111111111111,4,1,0,75,0,1
89191,-111.111111111111,4,1,0,75,0,0
89288,468.75,4,1,0,75,1,8
89728,-71.4285714285714,4,1,0,75,0,0
90197,-76.9230769230769,4,1,0,75,0,0
90510,-80,4,1,0,75,0,0
90666,-83.3333333333333,4,1,0,75,0,0
91135,-90.9090909090909,4,1,0,75,0,0
91447,-102.564102564103,4,1,0,75,0,0
91603,-105.263157894737,4,1,0,75,0,0
91916,-114.285714285714,4,1,0,75,0,0
92072,-117.647058823529,4,1,0,75,0,0
92385,-121.212121212121,4,1,0,75,0,0
92541,-125,4,1,0,75,0,0
92853,-133.333333333333,4,1,0,75,0,0
98663,187.5,4,1,0,75,1,0
98663,-117.647058823529,4,1,0,75,0,1
100819,-117.647058823529,4,1,0,75,0,0
100913,187.5,4,1,0,75,1,8
101663,714.285714285714,4,1,0,75,1,0
101841,-94.3488795127069,4,1,0,75,0,0
102020,-89.3022989983854,4,1,0,75,0,0
102198,-84.7682478487938,4,1,0,75,0,0
102377,612.244897959184,4,1,0,75,1,8
102377,-94.1176723677774,4,1,0,75,0,0
102530,-89.7795706330511,4,1,0,75,0,0
102683,-85.823754789272,4,1,0,75,0,0
102836,-82.2018252093269,4,1,0,75,0,0
102989,526.315789473684,4,1,0,75,1,8
102989,-91.7504823419436,4,1,0,75,0,0
103120,-88.1798691113715,4,1,0,75,0,0
103252,-84.8767045252506,4,1,0,75,0,0
103383,-81.8120737052722,4,1,0,75,0,0
103515,495.867768595041,4,1,0,75,1,8
103515,-83.8095238095238,4,1,0,75,0,0
103638,-80.9872335740889,4,1,0,75,0,0
103762,-78.3488324159138,4,1,0,75,0,0
103886,-75.8769551202484,4,1,0,75,0,0
104010,408.163265306122,4,1,0,75,1,0
104010,-89.3617173381646,4,1,0,75,0,0
104112,-86.7096845798965,4,1,0,75,0,0
104214,-84.2105263157894,4,1,0,75,0,0
104316,-81.8513943501958,4,1,0,75,0,0
104418,361.44578313253,4,1,0,75,1,8
104418,-89.9119701149077,4,1,0,75,0,0
104508,-87.5267947991452,4,1,0,75,0,0
104598,-85.2648597748498,4,1,0,75,0,0
104689,-83.1168889432587,4,1,0,75,0,0
104779,315.789473684211,4,1,0,75,1,8
104779,-92.7960927960928,4,1,0,75,0,0
104936,-88.4492174497383,4,1,0,75,0,0
105015,-86.4250342793527,4,1,0,75,0,0
105094,277.777777777778,4,1,0,75,1,8
105094,-96.0533749393863,4,1,0,75,0,0
105371,244.897959183673,4,1,0,75,1,1
124962,214.285714285714,4,1,0,75,1,0
124962,-113.636363636364,4,1,0,75,0,1
125211,-108.108108108108,4,1,0,75,0,1
125599,-105.263157894737,4,1,0,75,0,1
125800,-102.564102564103,4,1,0,75,0,1
127533,-102.564102564103,4,1,0,75,0,0

[HitObjects]
230,158,384,5,4,0:0:0:0:
219,153,1134,1,12,0:0:0:0:
219,153,1934,1,4,0:0:0:0:
256,192,2140,8,0,3851,0:0:0:0:
219,153,4092,5,4,0:0:0:0:
220,139,4857,1,8,0:0:0:0:
220,139,5010,1,0,0:0:0:0:
206,137,5163,1,0,0:0:0:0:
207,159,5316,1,8,0:0:0:0:
198,136,6516,1,8,0:0:0:0:
198,136,6816,1,8,0:0:0:0:
198,136,7716,1,0,0:0:0:0:
229,159,7872,1,0,0:0:0:0:
192,138,8028,1,8,0:0:0:0:
196,146,8184,1,0,0:0:0:0:
198,136,8341,1,8,0:0:0:0:
204,141,8497,1,8,0:0:0:0:
198,136,8653,1,0,0:0:0:0:
229,159,8809,1,0,0:0:0:0:
198,136,8966,1,8,0:0:0:0:
182,138,9434,1,0,0:0:0:0:
225,140,9486,1,0,0:0:0:0:
226,141,9538,1,0,0:0:0:0:
241,139,9591,1,0,0:0:0:0:
198,136,9643,1,8,0:0:0:0:
198,136,10216,1,4,0:0:0:0:
370,210,10841,1,8,0:0:0:0:
341,197,10945,1,8,0:0:0:0:
322,175,11049,1,8,0:0:0:0:
178,137,11153,1,0,0:0:0:0:
229,142,11257,1,0,0:0:0:0:
178,137,11361,1,0,0:0:0:0:
203,135,11466,1,8,0:0:0:0:
242,134,11570,1,0,0:0:0:0:
279,134,11674,1,0,0:0:0:0:
184,130,11778,1,8,0:0:0:0:
208,141,11882,1,0,0:0:0:0:
208,141,11986,1,0,0:0:0:0:
198,136,12091,1,8,0:0:0:0:
188,132,12559,1,8,0:0:0:0:
188,132,12716,1,8,0:0:0:0:
174,120,13028,1,0,0:0:0:0:
175,119,13341,1,0,0:0:0:0:
186,126,13809,1,0,0:0:0:0:
174,120,13966,1,8,0:0:0:0:
182,125,14070,1,8,0:0:0:0:
213,127,14174,1,8,0:0:0:0:
175,119,14278,1,0,0:0:0:0:
174,120,14434,1,8,0:0:0:0:
174,120,14591,1,0,0:0:0:0:
177,129,14903,1,8,0:0:0:0:
188,132,15059,1,0,0:0:0:0:
175,119,15372,1,0,0:0:0:0:
181,128,15528,1,8,0:0:0:0:
175,119,15841,1,0,0:0:0:0:
175,119,16153,1,8,0:0:0:0:
156,112,16309,1,0,0:0:0:0:
175,119,16466,1,0,0:0:0:0:
183,113,16622,1,0,0:0:0:0:
175,119,16778,1,8,0:0:0:0:
175,119,17091,1,0,0:0:0:0:
181,120,17403,1,8,0:0:0:0:
191,115,17559,1,0,0:0:0:0:
223,115,17872,1,0,0:0:0:0:
191,116,18028,1,8,0:0:0:0:
175,119,18341,1,0,0:0:0:0:
175,119,18653,1,8,0:0:0:0:
183,113,18809,1,0,0:0:0:0:
175,119,18966,1,8,0:0:0:0:
186,121,19122,1,0,0:0:0:0:
175,119,19278,1,8,0:0:0:0:
182,118,19434,1,8,0:0:0:0:
175,119,19591,1,4,0:0:0:0:
264,144,19903,1,8,0:0:0:0:
192,128,20059,1,8,0:0:0:0:
175,119,20372,1,0,0:0:0:0:
188,132,20528,1,8,0:0:0:0:
175,119,20841,1,0,0:0:0:0:
180,121,21153,1,8,0:0:0:0:
228,110,21309,1,8,0:0:0:0:
175,119,21466,1,8,0:0:0:0:
151,108,21622,1,0,0:0:0:0:
175,119,21778,1,8,0:0:0:0:
175,119,22091,1,0,0:0:0:0:
175,119,22169,1,0,0:0:0:0:
181,114,22247,1,8,0:0:0:0:
175,119,22403,1,0,0:0:0:0:
182,109,22559,1,0,0:0:0:0:
175,119,22716,1,8,0:0:0:0:
175,119,22872,1,0,0:0:0:0:
182,109,23028,1,8,0:0:0:0:
175,119,23341,1,0,0:0:0:0:
175,119,23653,1,8,0:0:0:0:
175,119,23809,1,8,0:0:0:0:
169,110,24122,1,0,0:0:0:0:
175,119,24278,1,8,0:0:0:0:
175,119,24591,1,0,0:0:0:0:
179,116,24747,1,0,0:0:0:0:
175,119,24903,1,8,0:0:0:0:
169,117,25059,1,0,0:0:0:0:
175,119,25216,1,8,0:0:0:0:
175,119,25528,1,8,0:0:0:0:
197,118,25841,1,0,0:0:0:0:
216,124,25919,1,8,0:0:0:0:
243,110,25997,1,8,0:0:0:0:
262,107,26075,1,8,0:0:0:0:
197,118,26153,1,8,0:0:0:0:
262,107,26309,1,0,0:0:0:0:
262,107,26466,1,8,0:0:0:0:
279,130,26544,1,8,0:0:0:0:
188,111,26622,1,0,0:0:0:0:
198,118,26778,1,8,0:0:0:0:
220,126,26856,1,8,0:0:0:0:
242,135,26934,1,8,0:0:0:0:
263,143,27012,1,8,0:0:0:0:
197,118,27091,1,0,0:0:0:0:
197,118,27403,1,8,0:0:0:0:
212,124,27559,1,0,0:0:0:0:
197,118,27716,1,8,0:0:0:0:
242,135,27768,1,0,0:0:0:0:
242,135,27820,1,0,0:0:0:0:
197,118,27872,1,8,0:0:0:0:
199,117,28028,1,0,0:0:0:0:
199,116,28184,1,8,0:0:0:0:
220,106,28262,1,8,0:0:0:0:
236,98,28341,1,0,0:0:0:0:
374,151,28809,1,0,0:0:0:0:
188,122,28966,1,8,0:0:0:0:
188,122,29278,1,8,0:0:0:0:
231,124,29434,1,8,0:0:0:0:
197,118,29591,1,4,0:0:0:0:
286,85,29903,1,0,0:0:0:0:
185,105,30059,1,0,0:0:0:0:
197,118,30216,1,8,0:0:0:0:
192,111,30528,1,0,0:0:0:0:
197,118,30684,1,8,0:0:0:0:
197,118,30841,1,0,0:0:0:0:
238,96,30997,1,8,0:0:0:0:
197,118,31153,1,0,0:0:0:0:
197,118,31466,1,8,0:0:0:0:
197,118,31778,1,8,0:0:0:0:
231,132,31934,1,8,0:0:0:0:
197,118,32091,1,0,0:0:0:0:
197,118,32403,1,0,0:0:0:0:
178,127,32559,1,0,0:0:0:0:
197,118,32716,1,8,0:0:0:0:
188,99,33028,1,8,0:0:0:0:
197,118,33184,1,8,0:0:0:0:
185,105,33341,1,0,0:0:0:0:
231,106,33497,1,0,0:0:0:0:
270,81,33653,1,12,0:0:0:0:
197,118,33966,1,12,0:0:0:0:
197,118,34278,1,8,0:0:0:0:
234,120,34434,1,8,0:0:0:0:
197,118,34591,1,0,0:0:0:0:
289,120,34903,1,0,0:0:0:0:
337,121,35059,1,0,0:0:0:0:
197,118,35216,1,8,0:0:0:0:
197,118,35528,1,8,0:0:0:0:
241,138,35684,1,0,0:0:0:0:
197,118,35841,1,8,0:0:0:0:
233,102,35997,1,8,0:0:0:0:
266,117,36153,1,0,0:0:0:0:
196,117,36309,1,0,0:0:0:0:
192,111,36466,1,8,0:0:0:0:
273,157,36778,1,8,0:0:0:0:
273,157,36934,1,8,0:0:0:0:
273,157,37091,1,0,0:0:0:0:
197,118,37403,1,0,0:0:0:0:
197,118,37559,1,0,0:0:0:0:
206,129,37637,1,0,0:0:0:0:
197,118,37716,1,8,0:0:0:0:
192,128,37872,1,8,0:0:0:0:
197,118,38028,1,0,0:0:0:0:
197,118,38341,1,12,0:0:0:0:
293,106,38653,1,0,0:0:0:0:
342,100,38809,1,0,0:0:0:0:
184,110,38966,1,8,0:0:0:0:
184,110,39122,1,8,0:0:0:0:
184,110,39278,1,0,0:0:0:0:
229,129,39434,1,8,0:0:0:0:
197,118,39591,1,4,0:0:0:0:
197,118,39903,1,8,0:0:0:0:
204,122,40216,1,0,0:0:0:0:
197,118,40372,1,8,0:0:0:0:
184,126,40528,1,0,0:0:0:0:
184,126,40606,1,0,0:0:0:0:
205,126,40684,1,0,0:0:0:0:
235,129,40762,1,0,0:0:0:0:
197,118,40841,1,8,0:0:0:0:
185,123,41075,1,8,0:0:0:0:
197,118,41153,1,0,0:0:0:0:
185,123,41387,1,0,0:0:0:0:
197,118,41466,1,8,0:0:0:0:
197,118,41778,1,0,0:0:0:0:
247,124,41934,1,8,0:0:0:0:
197,118,42091,1,0,0:0:0:0:
197,118,42403,1,8,0:0:0:0:
232,133,42559,1,0,0:0:0:0:
197,118,42716,1,8,0:0:0:0:
238,132,42794,1,0,0:0:0:0:
197,118,42872,1,8,0:0:0:0:
175,111,43028,1,8,0:0:0:0:
197,118,43184,1,0,0:0:0:0:
197,118,43341,1,8,0:0:0:0:
198,125,43653,1,0,0:0:0:0:
191,116,43809,1,0,0:0:0:0:
197,118,43966,1,8,0:0:0:0:
171,124,44122,1,0,0:0:0:0:
171,124,44278,1,8,0:0:0:0:
197,118,44591,1,4,0:0:0:0:
197,118,44903,1,8,0:0:0:0:
189,108,45059,1,0,0:0:0:0:
197,118,45216,1,0,0:0:0:0:
197,118,45372,1,8,0:0:0:0:
245,111,45528,1,8,0:0:0:0:
290,105,45684,1,0,0:0:0:0:
197,118,45841,1,0,0:0:0:0:
210,115,45997,1,8,0:0:0:0:
244,111,46153,1,0,0:0:0:0:
163,121,46387,1,8,0:0:0:0:
197,118,46466,1,8,0:0:0:0:
194,128,46778,1,0,0:0:0:0:
240,139,46934,1,8,0:0:0:0:
197,118,47091,1,0,0:0:0:0:
197,118,47403,1,8,0:0:0:0:
197,118,47559,1,0,0:0:0:0:
196,121,47637,1,0,0:0:0:0:
197,118,47716,1,8,0:0:0:0:
201,115,47872,1,8,0:0:0:0:
197,118,48028,1,0,0:0:0:0:
186,119,48184,1,0,0:0:0:0:
197,118,48341,1,8,0:0:0:0:
188,131,48653,1,0,0:0:0:0:
189,119,48809,1,0,0:0:0:0:
197,118,48966,1,8,0:0:0:0:
175,134,49122,1,0,0:0:0:0:
191,130,49200,1,0,0:0:0:0:
175,134,49278,1,8,0:0:0:0:
191,129,49356,1,8,0:0:0:0:
204,125,49434,1,0,0:0:0:0:
197,118,49591,1,12,0:0:0:0:
285,152,49903,1,0,0:0:0:0:
197,118,50059,1,8,0:0:0:0:
215,122,50111,1,8,0:0:0:0:
182,116,50163,1,8,0:0:0:0:
197,118,50216,1,0,0:0:0:0:
251,78,50528,1,8,0:0:0:0:
197,118,50684,1,8,0:0:0:0:
197,118,50841,1,0,0:0:0:0:
203,110,50919,1,8,0:0:0:0:
197,118,50997,1,8,0:0:0:0:
197,118,51075,1,8,0:0:0:0:
198,110,51153,1,0,0:0:0:0:
193,120,51309,1,0,0:0:0:0:
212,127,51387,1,0,0:0:0:0:
197,118,51466,1,8,0:0:0:0:
197,118,51622,1,8,0:0:0:0:
241,134,51778,1,0,0:0:0:0:
197,118,51934,1,0,0:0:0:0:
197,118,52091,1,8,0:0:0:0:
201,121,52403,1,0,0:0:0:0:
201,121,52559,1,8,0:0:0:0:
206,126,52611,1,0,0:0:0:0:
212,134,52663,1,0,0:0:0:0:
197,118,52716,1,8,0:0:0:0:
203,125,52872,1,0,0:0:0:0:
204,130,53184,1,8,0:0:0:0:
197,118,53341,1,0,0:0:0:0:
246,131,53497,1,0,0:0:0:0:
294,128,53653,1,8,0:0:0:0:
336,124,53809,1,0,0:0:0:0:
356,119,53887,1,0,0:0:0:0:
197,118,53966,1,8,0:0:0:0:
187,117,54122,1,0,0:0:0:0:
190,124,54278,1,8,0:0:0:0:
235,124,54434,1,8,0:0:0:0:
190,124,54591,1,4,0:0:0:0:
190,123,55997,1,8,0:0:0:0:
190,123,56153,1,8,0:0:0:0:
170,119,56309,1,0,0:0:0:0:
190,123,56466,1,8,0:0:0:0:
187,117,56622,1,0,0:0:0:0:
190,123,56778,1,0,0:0:0:0:
190,123,57091,1,0,0:0:0:0:
190,123,57403,1,12,0:0:0:0:
190,123,57716,1,0,0:0:0:0:
190,123,57872,1,12,0:0:0:0:
190,123,58184,1,8,0:0:0:0:
190,123,58341,1,0,0:0:0:0:
183,131,58497,1,8,0:0:0:0:
190,123,58653,1,8,0:0:0:0:
173,136,58809,1,0,0:0:0:0:
190,123,58966,1,0,0:0:0:0:
265,127,59278,1,12,0:0:0:0:
188,161,59591,1,0,0:0:0:0:
230,161,59653,1,0,0:0:0:0:
273,163,59716,1,8,0:0:0:0:
357,205,59841,1,0,0:0:0:0:
404,228,59903,1,0,0:0:0:0:
453,253,59966,1,0,0:0:0:0:
265,127,60028,1,0,0:0:0:0:
384,220,60091,1,8,0:0:0:0:
224,132,60341,1,0,0:0:0:0:
224,132,60466,1,8,0:0:0:0:
224,132,60716,1,8,0:0:0:0:
299,151,60841,1,0,0:0:0:0:
393,176,60966,1,8,0:0:0:0:
326,177,61028,1,8,0:0:0:0:
387,177,61091,1,0,0:0:0:0:
224,132,61216,1,8,0:0:0:0:
224,132,61341,1,0,0:0:0:0:
265,122,61403,1,0,0:0:0:0:
308,100,61466,1,8,0:0:0:0:
317,112,61591,1,0,0:0:0:0:
224,132,61716,1,8,0:0:0:0:
224,132,61841,1,0,0:0:0:0:
292,146,61966,1,0,0:0:0:0:
374,164,62091,1,8,0:0:0:0:
224,132,62341,1,0,0:0:0:0:
231,126,62403,1,0,0:0:0:0:
222,133,62466,1,8,0:0:0:0:
201,129,62528,1,8,0:0:0:0:
224,132,62591,1,0,0:0:0:0:
224,132,62716,1,8,0:0:0:0:
224,132,62841,1,0,0:0:0:0:
259,135,62903,1,0,0:0:0:0:
259,135,62966,1,8,0:0:0:0:
259,135,63028,1,8,0:0:0:0:
224,132,63091,1,0,0:0:0:0:
303,151,63216,1,8,0:0:0:0:
224,132,63341,1,8,0:0:0:0:
224,132,63466,1,0,0:0:0:0:
224,132,63716,1,0,0:0:0:0:
224,132,63841,1,8,0:0:0:0:
251,138,63903,1,8,0:0:0:0:
322,119,63966,1,0,0:0:0:0:
322,119,64091,1,8,0:0:0:0:
224,132,64341,1,8,0:0:0:0:
215,128,64403,1,8,0:0:0:0:
224,132,64466,1,0,0:0:0:0:
215,128,64528,1,0,0:0:0:0:
255,123,64591,1,8,0:0:0:0:
294,118,64716,1,0,0:0:0:0:
224,132,64841,1,8,0:0:0:0:
267,138,64903,1,8,0:0:0:0:
221,139,64966,1,0,0:0:0:0:
245,141,65028,1,0,0:0:0:0:
224,132,65091,1,8,0:0:0:0:
284,140,65216,1,0,0:0:0:0:
224,132,65341,1,8,0:0:0:0:
229,135,65403,1,0,0:0:0:0:
222,140,65466,1,0,0:0:0:0:
229,128,65528,1,0,0:0:0:0:
225,132,65591,1,8,0:0:0:0:
224,132,65716,1,0,0:0:0:0:
224,132,65841,1,8,0:0:0:0:
270,146,65903,1,0,0:0:0:0:
221,139,65966,1,0,0:0:0:0:
284,154,66028,1,0,0:0:0:0:
224,132,66091,1,8,0:0:0:0:
301,121,66216,1,0,0:0:0:0:
224,132,66341,1,8,0:0:0:0:
218,128,66466,1,0,0:0:0:0:
222,120,66528,1,0,0:0:0:0:
224,132,66591,1,8,0:0:0:0:
224,132,66716,1,0,0:0:0:0:
224,132,66841,1,8,0:0:0:0:
277,125,66903,1,8,0:0:0:0:
221,139,66966,1,0,0:0:0:0:
221,139,67028,1,0,0:0:0:0:
224,132,67091,1,8,0:0:0:0:
214,125,67216,1,0,0:0:0:0:
224,132,67341,1,8,0:0:0:0:
224,132,67466,1,0,0:0:0:0:
266,146,67528,1,0,0:0:0:0:
310,160,67591,1,0,0:0:0:0:
224,132,67716,1,8,0:0:0:0:
224,132,67841,1,0,0:0:0:0:
289,177,67966,1,0,0:0:0:0:
218,126,68091,1,8,0:0:0:0:
224,132,68341,1,0,0:0:0:0:
264,138,68403,1,0,0:0:0:0:
228,150,68466,1,0,0:0:0:0:
214,125,68528,1,0,0:0:0:0:
224,132,68591,1,8,0:0:0:0:
306,129,68716,1,8,0:0:0:0:
224,132,68841,1,0,0:0:0:0:
268,109,68903,1,0,0:0:0:0:
228,150,68966,1,0,0:0:0:0:
215,125,69028,1,0,0:0:0:0:
224,132,69091,1,8,0:0:0:0:
289,99,69216,1,8,0:0:0:0:
224,132,69341,1,0,0:0:0:0:
231,138,69403,1,0,0:0:0:0:
218,138,69466,1,0,0:0:0:0:
218,145,69528,1,0,0:0:0:0:
224,132,69591,1,8,0:0:0:0:
229,147,69716,1,0,0:0:0:0:
261,126,69778,1,0,0:0:0:0:
224,132,69841,1,8,0:0:0:0:
314,179,69966,1,0,0:0:0:0:
393,220,70091,1,8,0:0:0:0:
224,132,70341,1,8,0:0:0:0:
284,129,70403,1,8,0:0:0:0:
229,147,70466,1,8,0:0:0:0:
214,126,70528,1,8,0:0:0:0:
224,132,70591,1,0,0:0:0:0:
227,140,70716,1,0,0:0:0:0:
224,132,70841,1,8,0:0:0:0:
281,136,70903,1,8,0:0:0:0:
229,147,70966,1,8,0:0:0:0:
214,126,71028,1,8,0:0:0:0:
224,132,71091,1,0,0:0:0:0:
284,129,71216,1,0,0:0:0:0:
224,132,71341,1,8,0:0:0:0:
231,140,71403,1,8,0:0:0:0:
218,138,71466,1,8,0:0:0:0:
231,140,71528,1,8,0:0:0:0:
224,132,71591,1,0,0:0:0:0:
203,146,71716,1,0,0:0:0:0:
289,126,71778,1,0,0:0:0:0:
230,77,71841,1,8,0:0:0:0:
205,65,71966,1,0,0:0:0:0:
354,181,72091,1,8,0:0:0:0:
224,132,72341,1,8,0:0:0:0:
248,134,72403,1,8,0:0:0:0:
222,131,72466,1,0,0:0:0:0:
247,134,72528,1,0,0:0:0:0:
224,132,72591,1,8,0:0:0:0:
210,138,72716,1,0,0:0:0:0:
224,132,72841,1,8,0:0:0:0:
265,162,72903,1,8,0:0:0:0:
217,134,72966,1,0,0:0:0:0:
261,139,73028,1,0,0:0:0:0:
224,132,73091,1,8,0:0:0:0:
299,147,73216,1,0,0:0:0:0:
224,132,73341,1,8,0:0:0:0:
264,139,73403,1,0,0:0:0:0:
308,153,73466,1,0,0:0:0:0:
333,119,73528,1,0,0:0:0:0:
224,132,73591,1,8,0:0:0:0:
210,138,73716,1,0,0:0:0:0:
272,173,73841,1,8,0:0:0:0:
225,146,73903,1,0,0:0:0:0:
224,132,73966,1,0,0:0:0:0:
271,157,74028,1,0,0:0:0:0:
217,134,74091,1,8,0:0:0:0:
320,178,74216,1,0,0:0:0:0:
224,132,74341,1,8,0:0:0:0:
222,139,74466,1,0,0:0:0:0:
214,136,74528,1,0,0:0:0:0:
224,132,74591,1,8,0:0:0:0:
263,143,74716,1,0,0:0:0:0:
224,132,74841,1,8,0:0:0:0:
261,137,74903,1,8,0:0:0:0:
246,111,74966,1,0,0:0:0:0:
231,78,75028,1,0,0:0:0:0:
224,132,75091,1,8,0:0:0:0:
208,136,75216,1,0,0:0:0:0:
246,135,75341,1,8,0:0:0:0:
217,134,75466,1,0,0:0:0:0:
299,154,75528,1,0,0:0:0:0:
308,158,75591,1,0,0:0:0:0:
217,134,75716,1,8,0:0:0:0:
224,132,75841,1,4,0:0:0:0:
214,148,76341,1,0,0:0:0:0:
234,150,76549,1,8,0:0:0:0:
203,145,76757,1,8,0:0:0:0:
224,130,76966,1,4,0:0:0:0:
219,151,77382,1,8,0:0:0:0:
224,130,77591,1,8,0:0:0:0:
211,132,78007,1,8,0:0:0:0:
213,134,78216,1,0,0:0:0:0:
212,155,78632,1,0,0:0:0:0:
213,134,78841,1,0,0:0:0:0:
214,140,79257,1,0,0:0:0:0:
213,134,79466,1,8,0:0:0:0:
205,144,79882,1,8,0:0:0:0:
214,140,80091,1,8,0:0:0:0:
214,140,80507,1,8,0:0:0:0:
214,140,80716,1,0,0:0:0:0:
205,144,81132,1,0,0:0:0:0:
221,141,81341,1,0,0:0:0:0:
216,151,81601,1,8,0:0:0:0:
215,140,81966,1,8,0:0:0:0:
366,174,82382,1,8,0:0:0:0:
215,140,82591,1,0,0:0:0:0:
215,140,83059,1,8,0:0:0:0:
217,135,83137,1,8,0:0:0:0:
215,140,83216,1,0,0:0:0:0:
219,136,83528,1,0,0:0:0:0:
220,136,83841,1,8,0:0:0:0:
217,135,84153,1,8,0:0:0:0:
219,136,84466,1,0,0:0:0:0:
294,139,84674,1,8,0:0:0:0:
205,145,84882,1,8,0:0:0:0:
217,135,85091,1,0,0:0:0:0:
217,135,85507,1,0,0:0:0:0:
217,135,85716,1,12,0:0:0:0:
224,145,86966,1,4,0:0:0:0:
394,188,87159,1,8,0:0:0:0:
224,145,87256,1,0,0:0:0:0:
224,145,87353,1,8,0:0:0:0:
302,159,87450,1,0,0:0:0:0:
224,145,87546,1,8,0:0:0:0:
292,201,87643,1,0,0:0:0:0:
224,145,87740,1,8,0:0:0:0:
226,143,87933,1,8,0:0:0:0:
314,86,88030,1,0,0:0:0:0:
314,86,88127,1,8,0:0:0:0:
246,137,88224,1,0,0:0:0:0:
224,145,88321,1,8,0:0:0:0:
222,140,88417,1,0,0:0:0:0:
224,145,88514,1,8,0:0:0:0:
224,145,88708,1,8,0:0:0:0:
224,145,88901,1,8,0:0:0:0:
224,145,88998,1,0,0:0:0:0:
224,145,89095,1,8,0:0:0:0:
224,145,89192,1,8,0:0:0:0:
216,151,89756,1,0,0:0:0:0:
216,151,90225,1,8,0:0:0:0:
219,155,90538,1,8,0:0:0:0:
216,151,90694,1,8,0:0:0:0:
216,151,91163,1,4,0:0:0:0:
200,154,91475,1,8,0:0:0:0:
224,146,91631,1,8,0:0:0:0:
188,157,91944,1,8,0:0:0:0:
223,147,92100,1,0,0:0:0:0:
324,184,92413,1,0,0:0:0:0:
223,147,92569,1,0,0:0:0:0:
194,159,92881,1,0,0:0:0:0:
194,159,93038,1,8,0:0:0:0:
198,149,93350,1,8,0:0:0:0:
190,162,93506,1,8,0:0:0:0:
190,162,93819,1,8,0:0:0:0:
190,162,93975,1,0,0:0:0:0:
189,167,94288,1,0,0:0:0:0:
176,162,94444,1,0,0:0:0:0:
166,173,94649,1,8,0:0:0:0:
195,164,94913,1,8,0:0:0:0:
285,154,95225,1,8,0:0:0:0:
207,154,95381,1,0,0:0:0:0:
223,158,95733,1,8,0:0:0:0:
245,158,95791,1,8,0:0:0:0:
237,147,95850,1,0,0:0:0:0:
208,172,96084,1,0,0:0:0:0:
208,172,96319,1,8,0:0:0:0:
212,172,96553,1,8,0:0:0:0:
213,172,96788,1,0,0:0:0:0:
250,149,96944,1,8,0:0:0:0:
189,167,97100,1,8,0:0:0:0:
213,172,97256,1,0,0:0:0:0:
229,165,97569,1,0,0:0:0:0:
213,172,97725,1,12,0:0:0:0:
213,172,98663,1,4,0:0:0:0:
213,172,98850,1,8,0:0:0:0:
212,149,98944,1,0,0:0:0:0:
215,159,99038,1,8,0:0:0:0:
217,147,99132,1,0,0:0:0:0:
215,160,99225,1,8,0:0:0:0:
215,160,99319,1,0,0:0:0:0:
190,163,99413,1,8,0:0:0:0:
218,159,99600,1,8,0:0:0:0:
323,155,99694,1,0,0:0:0:0:
215,160,99788,1,8,0:0:0:0:
259,158,99882,1,0,0:0:0:0:
215,159,99975,1,8,0:0:0:0:
199,160,100069,1,8,0:0:0:0:
215,160,100163,1,8,0:0:0:0:
215,160,100350,1,8,0:0:0:0:
215,160,100538,1,8,0:0:0:0:
215,160,100632,1,0,0:0:0:0:
215,160,100725,1,8,0:0:0:0:
227,153,100819,1,8,0:0:0:0:
230,160,101663,1,0,0:0:0:0:
215,160,101841,1,0,0:0:0:0:
226,150,102020,1,0,0:0:0:0:
279,161,102198,1,8,0:0:0:0:
230,160,102377,1,8,0:0:0:0:
235,151,102530,1,8,0:0:0:0:
219,166,102683,1,8,0:0:0:0:
280,171,102836,1,0,0:0:0:0:
230,160,102989,1,0,0:0:0:0:
235,157,103120,1,0,0:0:0:0:
209,157,103252,1,0,0:0:0:0:
264,152,103383,1,8,0:0:0:0:
230,160,103515,1,8,0:0:0:0:
235,151,103638,1,8,0:0:0:0:
218,166,103762,1,8,0:0:0:0:
260,166,103886,1,0,0:0:0:0:
230,160,104010,1,0,0:0:0:0:
240,156,104112,1,0,0:0:0:0:
230,160,104214,1,8,0:0:0:0:
235,157,104316,1,8,0:0:0:0:
230,160,104418,1,0,0:0:0:0:
261,148,104508,1,0,0:0:0:0:
230,160,104598,1,8,0:0:0:0:
224,160,104689,1,8,0:0:0:0:
230,160,104779,1,8,0:0:0:0:
234,166,104936,1,0,0:0:0:0:
223,162,105094,1,8,0:0:0:0:
230,160,105371,1,0,0:0:0:0:
221,163,105432,1,0,0:0:0:0:
235,157,105494,1,0,0:0:0:0:
213,162,105555,1,0,0:0:0:0:
230,160,105616,1,8,0:0:0:0:
235,157,105738,1,8,0:0:0:0:
230,160,105861,1,0,0:0:0:0:
257,162,105922,1,0,0:0:0:0:
235,150,105983,1,0,0:0:0:0:
279,156,106045,1,0,0:0:0:0:
248,161,106106,1,8,0:0:0:0:
367,166,106228,1,8,0:0:0:0:
230,160,106351,1,0,0:0:0:0:
230,160,106412,1,0,0:0:0:0:
235,157,106473,1,0,0:0:0:0:
213,162,106534,1,0,0:0:0:0:
230,160,106596,1,8,0:0:0:0:
235,150,106718,1,0,0:0:0:0:
257,162,106779,1,0,0:0:0:0:
230,160,106841,1,8,0:0:0:0:
354,160,106963,1,0,0:0:0:0:
354,160,107085,1,8,0:0:0:0:
230,160,107330,1,8,0:0:0:0:
231,170,107392,1,8,0:0:0:0:
235,157,107453,1,0,0:0:0:0:
224,160,107514,1,0,0:0:0:0:
230,160,107575,1,8,0:0:0:0:
229,146,107698,1,0,0:0:0:0:
235,150,107820,1,8,0:0:0:0:
276,178,107881,1,8,0:0:0:0:
235,150,107943,1,0,0:0:0:0:
276,135,108004,1,0,0:0:0:0:
230,160,108065,1,8,0:0:0:0:
319,118,108187,1,0,0:0:0:0:
230,160,108310,1,8,0:0:0:0:
219,149,108371,1,0,0:0:0:0:
262,135,108432,1,0,0:0:0:0:
230,160,108494,1,0,0:0:0:0:
230,160,108555,1,8,0:0:0:0:
238,164,108677,1,0,0:0:0:0:
224,160,108800,1,8,0:0:0:0:
271,142,108861,1,0,0:0:0:0:
235,150,108922,1,0,0:0:0:0:
224,113,108983,1,0,0:0:0:0:
230,160,109045,1,8,0:0:0:0:
332,136,109167,1,0,0:0:0:0:
230,160,109289,1,8,0:0:0:0:
235,157,109412,1,0,0:0:0:0:
245,162,109473,1,0,0:0:0:0:
332,136,109534,1,8,0:0:0:0:
236,155,109657,1,0,0:0:0:0:
236,163,109779,1,8,0:0:0:0:
281,191,109840,1,8,0:0:0:0:
235,150,109902,1,8,0:0:0:0:
254,139,109963,1,8,0:0:0:0:
276,127,110024,1,0,0:0:0:0:
314,102,110147,1,8,0:0:0:0:
230,160,110269,1,4,0:0:0:0:
235,148,110392,1,8,0:0:0:0:
235,148,110636,1,8,0:0:0:0:
311,159,110759,1,0,0:0:0:0:
235,150,110881,1,8,0:0:0:0:
270,153,110943,1,8,0:0:0:0:
304,157,111004,1,0,0:0:0:0:
235,148,111126,1,8,0:0:0:0:
241,149,111249,1,0,0:0:0:0:
291,163,111310,1,0,0:0:0:0:
291,163,111371,1,8,0:0:0:0:
291,163,111494,1,0,0:0:0:0:
235,148,111616,1,8,0:0:0:0:
235,150,111738,1,0,0:0:0:0:
250,150,111861,1,0,0:0:0:0:
250,151,111983,1,8,0:0:0:0:
235,148,112228,1,0,0:0:0:0:
224,128,112289,1,8,0:0:0:0:
245,150,112351,1,8,0:0:0:0:
242,136,112412,1,8,0:0:0:0:
235,148,112473,1,0,0:0:0:0:
282,138,112596,1,8,0:0:0:0:
235,150,112718,1,0,0:0:0:0:
279,133,112779,1,8,0:0:0:0:
244,144,112840,1,8,0:0:0:0:
306,123,112902,1,8,0:0:0:0:
235,148,112963,1,0,0:0:0:0:
350,168,113085,1,8,0:0:0:0:
235,148,113208,1,8,0:0:0:0:
235,148,113330,1,0,0:0:0:0:
235,150,113575,1,0,0:0:0:0:
235,150,113698,1,8,0:0:0:0:
283,149,113759,1,8,0:0:0:0:
377,148,113820,1,0,0:0:0:0:
327,148,113943,1,8,0:0:0:0:
235,148,114187,1,8,0:0:0:0:
253,126,114249,1,8,0:0:0:0:
235,148,114310,1,0,0:0:0:0:
241,145,114371,1,8,0:0:0:0:
235,150,114432,1,8,0:0:0:0:
235,150,114555,1,0,0:0:0:0:
316,115,114677,1,8,0:0:0:0:
361,98,114738,1,8,0:0:0:0:
235,148,114800,1,0,0:0:0:0:
266,150,114861,1,8,0:0:0:0:
235,148,114922,1,8,0:0:0:0:
337,155,115045,1,0,0:0:0:0:
235,148,115167,1,8,0:0:0:0:
244,131,115228,1,8,0:0:0:0:
244,131,115289,1,0,0:0:0:0:
236,136,115351,1,0,0:0:0:0:
235,150,115412,1,8,0:0:0:0:
236,136,115534,1,0,0:0:0:0:
235,150,115657,1,8,0:0:0:0:
271,158,115718,1,8,0:0:0:0:
235,150,115779,1,0,0:0:0:0:
294,163,115840,1,0,0:0:0:0:
235,148,115902,1,8,0:0:0:0:
312,183,116024,1,0,0:0:0:0:
235,148,116147,1,8,0:0:0:0:
224,150,116208,1,0,0:0:0:0:
229,135,116269,1,0,0:0:0:0:
224,128,116330,1,0,0:0:0:0:
235,150,116392,1,8,0:0:0:0:
236,136,116514,1,0,0:0:0:0:
250,145,116636,1,8,0:0:0:0:
235,150,116698,1,0,0:0:0:0:
321,123,116759,1,0,0:0:0:0:
290,132,116820,1,0,0:0:0:0:
235,148,116881,1,8,0:0:0:0:
141,123,117004,1,0,0:0:0:0:
235,148,117126,1,8,0:0:0:0:
235,148,117249,1,0,0:0:0:0:
235,150,117494,1,0,0:0:0:0:
235,150,117616,1,8,0:0:0:0:
276,162,117677,1,8,0:0:0:0:
317,175,117738,1,0,0:0:0:0:
224,166,117861,1,8,0:0:0:0:
224,167,117983,1,8,0:0:0:0:
220,148,118106,1,4,0:0:0:0:
220,148,118228,1,8,0:0:0:0:
220,148,118473,1,8,0:0:0:0:
316,136,118596,1,0,0:0:0:0:
220,148,118718,1,8,0:0:0:0:
253,144,118779,1,8,0:0:0:0:
291,139,118840,1,0,0:0:0:0:
220,148,118963,1,8,0:0:0:0:
220,148,119085,1,0,0:0:0:0:
311,119,119147,1,0,0:0:0:0:
220,148,119208,1,8,0:0:0:0:
311,119,119330,1,0,0:0:0:0:
220,148,119453,1,8,0:0:0:0:
220,148,119575,1,0,0:0:0:0:
200,158,119698,1,0,0:0:0:0:
200,158,119820,1,8,0:0:0:0:
240,164,120065,1,0,0:0:0:0:
276,178,120126,1,8,0:0:0:0:
226,162,120187,1,8,0:0:0:0:
257,170,120249,1,8,0:0:0:0:
224,160,120310,1,0,0:0:0:0:
224,160,120432,1,8,0:0:0:0:
231,156,120555,1,0,0:0:0:0:
221,154,120616,1,8,0:0:0:0:
232,155,120677,1,8,0:0:0:0:
263,208,120738,1,8,0:0:0:0:
225,161,120800,1,0,0:0:0:0:
314,171,120922,1,8,0:0:0:0:
225,161,121045,1,8,0:0:0:0:
226,162,121167,1,0,0:0:0:0:
231,156,121412,1,0,0:0:0:0:
231,156,121534,1,8,0:0:0:0:
281,130,121596,1,8,0:0:0:0:
273,133,121657,1,0,0:0:0:0:
333,109,121779,1,8,0:0:0:0:
233,155,122024,1,8,0:0:0:0:
276,158,122085,1,8,0:0:0:0:
224,160,122147,1,0,0:0:0:0:
231,156,122208,1,8,0:0:0:0:
231,156,122269,1,8,0:0:0:0:
231,156,122392,1,0,0:0:0:0:
231,156,122514,1,8,0:0:0:0:
231,156,122575,1,8,0:0:0:0:
233,155,122636,1,0,0:0:0:0:
199,146,122698,1,8,0:0:0:0:
233,155,122759,1,8,0:0:0:0:
291,197,122881,1,0,0:0:0:0:
245,163,123004,1,8,0:0:0:0:
291,199,123065,1,8,0:0:0:0:
256,160,123126,1,0,0:0:0:0:
235,164,123187,1,0,0:0:0:0:
231,156,123249,1,8,0:0:0:0:
224,160,123371,1,0,0:0:0:0:
231,156,123494,1,8,0:0:0:0:
280,131,123555,1,8,0:0:0:0:
233,155,123616,1,0,0:0:0:0:
231,156,123677,1,0,0:0:0:0:
233,155,123738,1,8,0:0:0:0:
219,149,123861,1,0,0:0:0:0:
233,155,123983,1,8,0:0:0:0:
275,119,124045,1,0,0:0:0:0:
256,160,124106,1,0,0:0:0:0:
219,149,124167,1,8,0:0:0:0:
231,156,124228,1,8,0:0:0:0:
231,156,124351,1,0,0:0:0:0:
231,156,124473,1,8,0:0:0:0:
256,160,124534,1,8,0:0:0:0:
233,155,124596,1,0,0:0:0:0:
229,150,124657,1,8,0:0:0:0:
233,155,124718,1,8,0:0:0:0:
256,160,124840,1,0,0:0:0:0:
233,155,124962,1,12,0:0:0:0:
217,152,125283,1,8,0:0:0:0:
242,129,125336,1,8,0:0:0:0:
272,103,125390,1,0,0:0:0:0:
221,155,125604,1,0,0:0:0:0:
233,155,125818,1,12,0:0:0:0:
231,156,126033,1,0,0:0:0:0:
233,155,126140,1,0,0:0:0:0:
231,156,126247,1,8,0:0:0:0:
222,155,126354,1,8,0:0:0:0:
255,170,126408,1,8,0:0:0:0:
231,156,126461,1,0,0:0:0:0:
224,160,126568,1,0,0:0:0:0:
233,155,126676,1,12,0:0:0:0:
213,164,126890,1,0,0:0:0:0:
224,160,126997,1,0,0:0:0:0:
214,163,127104,1,12,0:0:0:0:
214,162,127318,1,8,0:0:0:0:
224,160,127426,1,8,0:0:0:0:
219,156,127533,1,4,0:0:0:0:
155,146,127961,1,8,0:0:0:0:
155,146,128390,1,8,0:0:0:0:
